osu file format v14

[General]
AudioFilename: audio.mp3
AudioLeadIn: 0
PreviewTime: 29625
Countdown: 0
SampleSet: Soft
StackLeniency: 0.3
Mode: 0
LetterboxInBreaks: 0
WidescreenStoryboard: 0

[Editor]
Bookmarks: 1125,72375
DistanceSpacing: 1.3
BeatDivisor: 4
GridSize: 4
TimelineZoom: 1.3

[Metadata]
Title:Kill The Lights
TitleUnicode:Kill The Lights
Artist:Set It Off
ArtistUnicode:Set It Off
Creator:Cosmolade
Version:Easy
Source:
Tags:Cinematics (Expanded Edition) Equal Vision Records Reissue EVR 245 Atsuro
BeatmapID:1187217
BeatmapSetID:559814

[Difficulty]
HPDrainRate:3
CircleSize:2
OverallDifficulty:3
ApproachRate:4
SliderMultiplier:1
SliderTickRate:1

[Events]
//Background and Video events
0,0,"BG.jpg",0,0
//Break Periods
2,108575,113055
2,120574,121867
2,123574,124492
//Storyboard Layer 0 (Background)
//Storyboard Layer 1 (Fail)
//Storyboard Layer 2 (Pass)
//Storyboard Layer 3 (Foreground)
//Storyboard Sound Samples

[TimingPoints]
375,375,4,2,1,40,1,0
375,-133.333333333333,4,2,1,40,0,0
4687,-133.333333333333,4,2,1,50,0,0
6375,-133.333333333333,4,2,1,55,0,1
12375,-133.333333333333,4,2,1,45,0,0
30375,-133.333333333333,4,2,1,70,0,1
42375,-133.333333333333,4,2,1,70,0,0
48375,-133.333333333333,4,2,1,50,0,0
60375,-133.333333333333,4,2,1,60,0,0
72375,-133.333333333333,4,2,1,40,0,0
78375,-133.333333333333,4,2,1,50,0,0
82875,-133.333333333333,4,2,1,60,0,0
83625,-133.333333333333,4,2,1,40,0,0
84375,-133.333333333333,4,2,1,70,0,1
96375,-133.333333333333,4,2,1,70,0,0
102375,-133.333333333333,4,2,1,70,0,1
108375,-133.333333333333,4,2,1,70,0,0
108656,-133.333333333333,4,2,1,60,0,0
113625,-133.333333333333,4,2,1,70,0,0
114375,-133.333333333333,4,2,1,60,0,0
120375,-133.333333333333,4,2,1,70,0,0
120750,-133.333333333333,4,2,1,40,0,0
123000,-133.333333333333,4,2,1,60,0,0
123375,-133.333333333333,4,2,1,70,0,0
123750,-133.333333333333,4,2,1,40,0,0
125812,-133.333333333333,4,2,1,50,0,0
126375,-133.333333333333,4,2,1,60,0,0
132750,-133.333333333333,4,2,1,40,0,0
133125,-133.333333333333,4,2,1,30,0,0
133500,-133.333333333333,4,2,1,50,0,0
133875,-133.333333333333,4,2,1,70,0,1
145875,-133.333333333333,4,2,1,70,0,0
151875,-133.333333333333,4,2,1,70,0,1
157875,-133.333333333333,4,2,1,70,0,0
164250,-133.333333333333,4,2,1,20,0,0

[Colours]
Combo1 : 142,146,213
Combo2 : 214,105,105
Combo3 : 186,174,133
Combo4 : 103,152,120
SliderBorder : 220,160,160
SliderTrackOverride : 175,69,69

[HitObjects]
73,153,375,6,0,P|120:164|225:125,1,150.000005722046,2|2,0:0|0:0,0:0:0:0:
295,78,1500,1,2,0:0:0:0:
384,115,1875,2,0,P|419:92|464:91,1,75.0000028610231,2|2,0:0|0:0,0:0:0:0:
453,186,2625,2,0,P|470:252|455:341,1,150.000005722046,2|2,0:0|0:0,0:0:0:0:
361,345,3750,5,2,0:0:0:0:
279,291,4125,2,0,L|197:322,1,75.0000028610231,2|2,0:0|0:0,0:0:0:0:
113,295,4875,1,2,0:0:0:0:
101,197,5250,2,0,L|26:225,2,75.0000028610231,2|2|4,0:0|0:0|1:3,0:0:0:0:
192,159,6375,6,0,P|159:86|190:7,1,150.000005722046,4|2,0:0|0:0,0:0:0:0:
253,83,7500,1,8,3:0:0:0:
330,23,7875,2,0,P|348:56|344:108,1,75.0000028610231,4|8,3:0|3:0,0:0:0:0:
447,85,8625,2,0,P|423:160|328:187,1,150.000005722046,2|4,0:0|0:0,0:0:0:0:
265,201,9750,5,8,3:0:0:0:
168,190,10125,2,0,B|100:167|100:167|17:199,1,150.000005722046,2|8,0:0|3:0,0:0:0:0:
36,292,11250,2,0,L|136:327,1,75.0000028610231,4|8,3:0|3:0,0:0:0:0:
300,347,12375,6,0,P|364:314|410:222,1,150.000005722046,4|2,0:0|0:0,0:0:0:0:
379,155,13500,1,8,3:0:0:0:
294,106,13875,2,0,P|326:71|372:56,2,75.0000028610231,2|8|2,0:0|3:0|0:0,0:0:0:0:
247,191,15000,1,8,3:0:0:0:
154,220,15375,6,0,L|75:90,1,150.000005722046,2|0,0:0|0:0,0:0:0:0:
159,40,16500,1,8,3:0:0:0:
251,70,16875,2,0,P|287:78|351:59,1,75.0000028610231,0|8,0:0|3:0,0:0:0:0:
416,41,17625,2,0,B|438:75|438:75|404:139|404:139|436:204,1,150.000005722046,0|4,0:0|0:0,0:0:0:0:
352,242,18750,5,8,3:0:0:0:
255,252,19125,2,0,P|217:223|155:222,1,75.0000028610231,2|8,0:0|3:0,0:0:0:0:
93,227,19875,2,0,P|121:144|206:121,1,150.000005722046,2|2,0:0|0:0,0:0:0:0:
270,129,21000,1,8,3:0:0:0:
354,79,21375,6,0,L|472:203,2,150.000005722046,2|0|0,0:0|0:0|0:0,0:0:0:0:
256,81,23250,1,8,3:0:0:0:
158,80,23625,2,0,L|91:144,1,75.0000028610231,8|8,3:0|3:0,0:0:0:0:
66,221,24375,6,0,P|148:247|179:271,1,112.500004291535,4|8,0:0|3:0,0:0:0:0:
301,200,25500,1,4,0:3:0:0:
384,250,25875,2,0,P|397:194|369:131,1,112.500004291535,4|8,0:3|3:0,0:0:0:0:
254,66,27000,1,8,0:3:0:0:
254,163,27375,6,0,P|202:148|161:89,2,112.500004291535,4|8|8,0:0|3:0|3:0,0:0:0:0:
343,202,28875,2,0,L|396:131,2,75.0000028610231,4|8|8,0:0|3:0|3:0,0:0:0:0:
199,336,30375,6,0,B|171:268|171:268|195:191,1,150.000005722046,4|0,0:0|0:0,0:0:0:0:
257,120,31500,1,8,3:0:0:0:
318,195,31875,2,0,B|340:267|340:267|312:335,1,150.000005722046,0|0,0:0|0:0,0:0:0:0:
409,344,33000,1,8,3:0:0:0:
437,250,33375,6,0,B|415:182|415:182|461:179|484:140,2,150.000005722046,4|2|4,0:0|0:0|0:3,0:0:0:0:
356,305,35250,1,8,3:0:0:0:
262,333,35625,2,0,L|237:263,1,75.0000028610231,4|8,0:3|0:3,0:0:0:0:
145,229,36375,6,0,B|153:195|192:172|192:172|179:84,1,150.000005722046,4|0,0:0|0:0,0:0:0:0:
256,36,37500,1,8,3:0:0:0:
329,100,37875,2,0,B|319:174|319:174|358:197|366:231,1,150.000005722046,0|0,0:0|0:0,0:0:0:0:
308,308,39000,1,8,3:0:0:0:
221,263,39375,6,0,P|211:296|224:352,2,75.0000028610231,4|8|2,0:0|3:0|0:0,0:0:0:0:
132,221,40500,2,0,P|142:188|129:132,1,75.0000028610231,8|0,3:0|0:0,0:0:0:0:
188,64,41250,2,0,B|211:62|229:46|229:46|268:71|268:71|285:49|352:46,1,150.000005722046,8|8,3:0|3:0,0:0:0:0:
404,97,42375,6,0,B|411:171|411:171|445:267,1,150.000005722046,4|2,0:0|0:0,0:0:0:0:
389,328,43500,1,8,3:0:0:0:
291,325,43875,2,0,P|256:318|209:272,1,75.0000028610231,4|8,3:0|3:0,0:0:0:0:
244,199,44625,2,0,P|179:206|127:277,1,150.000005722046,2|4,0:0|0:0,0:0:0:0:
31,272,45750,5,8,3:0:0:0:
29,175,46125,2,0,B|92:133|92:133|148:54,1,150.000005722046,2|8,0:0|0:3,0:0:0:0:
217,20,47250,2,0,P|232:69|228:95,1,75.0000028610231,4|8,0:3|3:3,0:0:0:0:
183,281,48375,6,0,B|214:275|243:287|243:287|267:253|326:248,1,150.000005722046,4|2,0:0|0:0,0:0:0:0:
416,261,49500,1,8,3:0:0:0:
445,167,49875,2,0,L|458:89,2,75.0000028610231,2|8|2,0:0|3:0|0:0,0:0:0:0:
361,116,51000,2,0,L|333:42,1,75.0000028610231,8|4,3:0|0:3,0:0:0:0:
238,29,51750,6,0,L|138:26,1,75.0000028610231,8|0,3:0|0:0,0:0:0:0:
122,115,52500,2,0,L|222:118,1,75.0000028610231,8|0,0:3|0:3,0:0:0:0:
246,201,53250,1,8,3:0:0:0:
166,256,53625,2,0,L|155:354,2,75.0000028610231,0|8|4,0:3|3:0|0:0,0:0:0:0:
224,177,54750,5,8,3:0:0:0:
298,239,55125,2,0,P|332:258|392:260,1,75.0000028610231,2|8,0:0|3:0,0:0:0:0:
458,230,55875,2,0,L|474:57,1,150.000005722046,2|2,0:0|0:0,0:0:0:0:
380,45,57000,1,8,3:0:0:0:
304,107,57375,6,0,P|283:65|285:25,2,75.0000028610231,4|8|0,0:3|3:0|0:0,0:0:0:0:
365,182,58500,2,0,B|339:206|295:204|295:204|239:287,1,150.000005722046,8|8,3:0|3:0,0:0:0:0:
162,302,59625,1,0,0:0:0:0:
69,271,60000,2,0,P|85:239|115:215,1,75.0000028610231,8|4,3:0|0:0,0:0:0:0:
302,158,61125,6,0,B|375:171|375:171|459:152,1,150.000005722046,2|2,0:0|0:0,0:0:0:0:
475,248,62250,1,8,3:0:0:0:
420,329,62625,2,0,P|396:308|379:265,1,75.0000028610231,2|8,0:0|3:0,0:0:0:0:
288,232,63375,6,0,P|227:248|138:224,1,150.000005722046,4|2,3:0|0:0,0:0:0:0:
50,198,64500,2,0,P|67:162|104:137,1,75.0000028610231,8|2,3:0|0:0,0:0:0:0:
176,89,65250,1,8,3:0:0:0:
270,115,65625,2,0,P|269:56|247:19,2,75.0000028610231,4|8|4,0:3|3:0|0:0,0:0:0:0:
216,302,67125,6,0,B|254:277|254:277|310:304|377:246,1,150.000005722046,2|2,0:0|0:0,0:0:0:0:
420,193,68250,1,8,3:0:0:0:
407,96,68625,2,0,L|326:50,1,75.0000028610231,2|8,0:0|3:0,0:0:0:0:
244,63,69375,6,0,P|163:81|88:56,2,150.000005722046,4|0|0,3:0|0:0|0:0,0:0:0:0:
304,139,71250,1,8,3:0:0:0:
290,235,71625,2,0,P|273:271|223:296,1,75.0000028610231,8|8,0:3|3:0,0:0:0:0:
305,367,72375,6,0,P|346:333|379:254,1,112.500004291535,0|8,0:0|3:0,0:0:0:0:
352,136,73500,1,4,0:3:0:0:
425,72,73875,2,0,P|358:40|294:61,1,112.500004291535,4|8,0:3|3:0,0:0:0:0:
204,131,75000,1,10,0:3:0:0:
141,205,75375,6,0,B|96:173|96:173|16:164,1,112.500004291535,4|8,0:0|3:0,0:0:0:0:
61,311,76500,1,4,0:3:0:0:
148,353,76875,2,0,P|196:364|275:349,1,112.500004291535,4|8,0:3|3:0,0:0:0:0:
380,276,78000,1,8,0:3:0:0:
472,307,78375,6,0,P|471:242|436:196,1,112.500004291535,4|4,0:0|3:0,0:0:0:0:
321,126,79500,1,8,3:0:0:0:
248,191,79875,2,0,L|119:228,1,112.500004291535,4|4,0:3|0:3,0:0:0:0:
56,101,81000,1,8,3:0:0:0:
153,101,81375,2,0,L|255:74,1,75.0000028610231,4|4,0:3|0:3,0:0:0:0:
294,151,82125,2,0,P|318:110|316:60,2,75.0000028610231,8|8|10,3:0|3:0|3:0,0:0:0:0:
58,334,84375,6,0,B|101:337|126:351|126:351|227:321,1,150.000005722046,4|0,0:0|0:0,0:0:0:0:
293,294,85500,1,8,3:0:0:0:
341,209,85875,2,0,P|335:163|346:120,1,75.0000028610231,0|8,0:0|3:0,0:0:0:0:
289,51,86625,2,0,L|133:91,1,150.000005722046,0|4,0:0|0:0,0:0:0:0:
52,122,87750,5,8,3:0:0:0:
88,213,88125,2,0,P|81:281|30:355,2,150.000005722046,2|4|4,0:0|0:3|0:3,0:0:0:0:
181,185,90000,1,8,3:0:0:0:
235,265,90375,6,0,P|267:281|330:280,1,75.0000028610231,4|8,0:0|3:0,0:0:0:0:
391,332,91125,2,0,P|401:271|345:197,1,150.000005722046,0|0,0:0|0:0,0:0:0:0:
278,140,92250,1,8,3:0:0:0:
222,220,92625,2,0,P|142:242|77:196,1,150.000005722046,0|4,0:0|0:0,0:0:0:0:
158,143,93750,6,0,L|103:51,2,75.0000028610231,8|2|8,3:0|0:0|3:0,0:0:0:0:
253,122,94875,1,0,0:0:0:0:
349,132,95250,2,0,B|386:144|398:183|398:183|438:178|480:211,1,150.000005722046,8|8,3:0|3:0,0:0:0:0:
476,300,96375,6,0,B|442:304|407:280|407:280|330:341,1,150.000005722046,4|4,0:0|0:3,0:0:0:0:
249,328,97500,1,8,3:0:0:0:
155,301,97875,2,0,P|116:311|69:292,1,75.0000028610231,0|8,0:3|0:3,0:0:0:0:
117,211,98625,2,0,P|159:201|206:220,2,75.0000028610231,4|8|4,0:3|3:0|3:0,0:0:0:0:
37,155,99750,1,8,3:0:0:0:
105,85,100125,6,0,B|136:78|175:105|175:105|171:63|215:33|215:33|243:62|287:70,1,225.000008583069,4|8,3:0|3:0,0:0:0:0:
360,34,101625,2,0,P|365:70|356:107,1,75.0000028610231,8|8,0:3|0:3,0:0:0:0:
274,159,102375,5,4,0:0:0:0:
343,226,102750,2,0,B|340:306|340:306|381:380,1,150.000005722046,8|8,3:0|0:3,0:0:0:0:
439,294,103875,1,0,3:0:0:0:
446,196,104250,2,0,P|485:209|512:231,2,75.0000028610231,8|0|8,3:0|0:0|3:0,0:0:0:0:
358,152,105375,6,0,B|370:118|409:101|409:101|394:20,2,150.000005722046,4|2|8,0:0|0:0|3:0,0:0:0:0:
286,217,107250,1,0,0:0:0:0:
190,198,107625,2,0,L|119:128,1,75.0000028610231,8|4,3:0|0:3,0:0:0:0:
185,60,108375,5,4,0:0:0:0:
96,268,114375,6,0,L|154:344,2,75.0000028610231,4|0|0,0:0|0:3|0:3,0:0:0:0:
148,185,115500,1,2,0:3:0:0:
109,95,115875,2,0,P|161:57|253:47,1,150.000005722046,4|0,0:3|0:0,0:0:0:0:
338,70,117000,1,2,0:3:0:0:
377,159,117375,6,0,B|412:213|412:213|476:237,2,112.500004291535,4|4|2,0:3|0:3|0:3,0:0:0:0:
284,190,118875,2,0,L|231:261,1,75.0000028610231,0|4,0:0|0:3,0:0:0:0:
161,190,119625,2,0,L|95:269,2,75.0000028610231,2|8|4,0:3|0:3|3:0,0:0:0:0:
255,99,123187,6,0,L|255:172,1,37.5000014305115,4|4,0:3|3:0,0:0:0:0:
397,196,125812,6,0,L|366:259,1,37.5000014305115,0|8,0:0|3:0,0:0:0:0:
298,283,126375,2,0,P|246:274|186:215,1,112.500004291535,4|4,0:0|0:0,0:0:0:0:
205,91,127500,1,4,0:0:0:0:
300,109,127875,2,0,L|391:82,2,75.0000028610231,8|4|4,3:0|3:0|3:0,0:0:0:0:
130,206,129375,6,0,L|200:304,1,112.500004291535,4|2,0:0|0:0,0:0:0:0:
289,321,130312,1,2,0:0:0:0:
356,250,130687,2,0,P|321:207|303:146,1,112.500004291535,4|8,0:3|3:0,0:0:0:0:
245,74,131625,1,12,3:0:0:0:
183,149,132000,1,12,3:0:0:0:
370,347,133875,6,0,P|421:312|443:213,1,150.000005722046,4|4,0:0|0:3,0:0:0:0:
422,135,135000,1,8,3:0:0:0:
332,97,135375,2,0,P|295:99|257:122,1,75.0000028610231,0|8,0:0|3:0,0:0:0:0:
170,83,136125,2,0,B|163:158|163:158|231:216,1,150.000005722046,0|4,0:0|0:0,0:0:0:0:
262,294,137250,5,8,3:0:0:0:
172,332,137625,2,0,L|46:226,2,150.000005722046,4|0|0,0:3|0:0|0:0,0:0:0:0:
269,333,139500,1,8,3:0:0:0:
345,272,139875,6,0,P|355:235|342:191,1,75.0000028610231,4|8,0:0|3:0,0:0:0:0:
250,213,140625,2,0,P|236:143|276:48,1,150.000005722046,4|0,0:3|0:0,0:0:0:0:
353,43,141750,1,8,3:0:0:0:
445,74,142125,2,0,P|468:144|454:217,1,150.000005722046,0|6,0:0|0:0,0:0:0:0:
377,277,143250,6,0,P|407:304|474:309,2,75.0000028610231,8|2|8,3:0|0:0|3:0,0:0:0:0:
300,216,144375,1,0,0:0:0:0:
207,246,144750,2,0,B|183:239|154:259|154:259|152:213|85:177,1,150.000005722046,8|8,3:0|3:0,0:0:0:0:
84,90,145875,6,0,P|43:108|13:148,2,75.0000028610231,4|8|4,0:0|3:0|0:3,0:0:0:0:
181,91,147000,1,8,3:0:0:0:
275,68,147375,2,0,B|348:93|348:93|356:59|399:40,2,150.000005722046,4|4|4,0:3|0:3|0:0,0:0:0:0:
223,150,149250,1,8,3:0:0:0:
281,227,149625,6,0,P|211:245|147:208,1,150.000005722046,4|4,0:3|0:0,0:0:0:0:
65,262,150750,1,8,3:0:0:0:
43,166,151125,2,0,L|49:87,1,75.0000028610231,8|8,3:0|0:3,0:0:0:0:
133,43,151875,5,4,0:0:0:0:
218,89,152250,2,0,P|259:97|299:79,1,75.0000028610231,8|4,3:0|0:3,0:0:0:0:
374,37,153000,2,0,B|390:65|384:94|384:94|477:72,1,150.000005722046,8|8,3:0|3:0,0:0:0:0:
476,170,154125,2,0,L|388:192,1,75.0000028610231,0|8,0:0|3:0,0:0:0:0:
324,246,154875,6,0,P|389:286|467:265,2,150.000005722046,4|2|8,0:0|0:0|0:3,0:0:0:0:
262,169,156750,1,0,0:0:0:0:
169,199,157125,2,0,L|99:150,2,75.0000028610231,8|4|4,3:0|0:3|0:0,0:0:0:0:
227,277,158250,6,0,P|141:292|83:247,2,150.000005722046,8|8|8,3:0|3:0|3:0,0:0:0:0:
324,278,160125,2,0,L|301:354,2,75.0000028610231,2|8|4,0:0|3:0|0:0,0:0:0:0:
341,181,161250,1,8,3:0:0:0:
247,209,161625,2,0,P|174:227|95:201,1,150.000005722046,2|4,0:0|0:0,0:0:0:0:
62,118,162750,1,4,0:3:0:0:
142,62,163125,2,0,B|177:48|177:48|227:68,1,75.0000028610231,4|4,0:0|0:3,0:0:0:0:
256,148,163875,1,4,0:0:0:0:
