osu file format v14

[General]
AudioFilename: audio.mp3
AudioLeadIn: 0
PreviewTime: 29625
Countdown: 0
SampleSet: Soft
StackLeniency: 0.3
Mode: 0
LetterboxInBreaks: 0
WidescreenStoryboard: 0

[Editor]
Bookmarks: 34125,72375
DistanceSpacing: 1.4
BeatDivisor: 4
GridSize: 4
TimelineZoom: 1.5

[Metadata]
Title:Kill The Lights
TitleUnicode:Kill The Lights
Artist:Set It Off
ArtistUnicode:Set It Off
Creator:Cosmolade
Version:Advanced
Source:
Tags:Cinematics (Expanded Edition) Equal Vision Records Reissue EVR 245 Atsuro
BeatmapID:1184584
BeatmapSetID:559814

[Difficulty]
HPDrainRate:5
CircleSize:3
OverallDifficulty:5
ApproachRate:6
SliderMultiplier:1.2
SliderTickRate:2

[Events]
//Background and Video events
0,0,"BG.jpg",0,0
//Break Periods
//Storyboard Layer 0 (Background)
//Storyboard Layer 1 (Fail)
//Storyboard Layer 2 (Pass)
//Storyboard Layer 3 (Foreground)
//Storyboard Sound Samples

[TimingPoints]
375,375,4,2,1,40,1,0
4687,-100,4,2,1,50,0,0
5625,-100,4,2,1,50,0,0
6375,-100,4,2,1,55,0,1
12375,-100,4,2,1,45,0,0
30375,-83.3333333333333,4,2,1,70,0,1
42375,-100,4,2,1,70,0,0
48000,-100,4,2,1,70,0,0
48375,-100,4,2,1,50,0,0
60375,-100,4,2,1,60,0,0
72375,-100,4,2,1,40,0,0
78375,-100,4,2,1,50,0,0
82875,-100,4,2,1,60,0,0
83625,-100,4,2,1,40,0,0
84375,-83.3333333333333,4,2,1,70,0,1
96375,-100,4,2,1,70,0,0
102375,-83.3333333333333,4,2,1,70,0,1
108375,-100,4,2,1,70,0,0
108656,-100,4,2,1,60,0,0
113625,-100,4,2,1,70,0,0
114375,-100,4,2,1,60,0,0
120375,-100,4,2,1,70,0,0
120750,-100,4,2,1,40,0,0
123000,-100,4,2,1,60,0,0
123375,-100,4,2,1,70,0,0
123750,-100,4,2,1,40,0,0
125812,-100,4,2,1,50,0,0
126375,-100,4,2,1,60,0,0
132750,-100,4,2,1,40,0,0
133125,-100,4,2,1,30,0,0
133500,-100,4,2,1,50,0,0
133875,-83.3333333333333,4,2,1,70,0,1
145875,-100,4,2,1,70,0,0
151875,-83.3333333333333,4,2,1,70,0,1
157875,-100,4,2,1,70,0,0
164250,-100,4,2,1,20,0,0

[Colours]
Combo1 : 142,146,213
Combo2 : 214,105,105
Combo3 : 186,174,133
Combo4 : 103,152,120
SliderBorder : 220,160,160
SliderTrackOverride : 175,69,69

[HitObjects]
76,128,375,6,0,P|119:123|193:73,1,120,2|2,0:0|0:0,0:0:0:0:
256,42,937,1,0,0:0:0:0:
336,67,1125,2,0,L|404:99,1,60,2|0,0:0|0:0,0:0:0:0:
393,176,1500,2,0,L|461:208,1,60,2|0,0:0|0:0,0:0:0:0:
437,285,1875,6,0,P|404:327|327:353,1,120,2|2,0:0|0:0,0:0:0:0:
265,321,2437,1,0,0:0:0:0:
186,352,2625,2,0,P|179:306|226:244,1,120,2|0,0:0|0:0,0:0:0:0:
258,84,3375,6,0,L|383:42,1,120,2|2,0:0|0:0,0:0:0:0:
452,69,3937,1,0,0:0:0:0:
425,148,4125,2,0,P|429:176|408:231,1,60,2|0,0:0|0:0,0:0:0:0:
343,176,4500,2,0,P|306:201|284:203,1,60,2|0,0:0|0:0,0:0:0:0:
210,178,4875,2,0,B|175:151|175:151|172:116|172:116|117:83,2,120,2|2|2,0:0|0:0|0:0,0:0:0:0:
345,276,6000,1,4,1:3:0:0:
178,299,6375,6,0,L|71:214,1,120,4|8,0:0|3:0,0:0:0:0:
44,150,6937,1,0,0:0:0:0:
46,65,7125,2,0,P|79:73|113:102,1,60,2|4,0:0|0:3,0:0:0:0:
176,50,7500,2,0,P|183:78|179:112,1,60,8|0,3:0|0:0,0:0:0:0:
149,187,7875,2,0,B|178:230|178:230|177:298,1,120,4|8,3:0|3:0,0:0:0:0:
256,327,8437,1,0,0:0:0:0:
335,298,8625,2,0,B|333:229|333:229|363:186,1,120,2|8,0:0|3:0,0:0:0:0:
445,40,9375,6,0,B|411:33|411:33|314:75,1,120,4|8,0:0|3:0,0:0:0:0:
264,116,9937,1,0,0:0:0:0:
180,123,10125,2,0,P|144:117|104:126,1,60,2|4,0:0|0:3,0:0:0:0:
87,197,10500,2,0,P|122:203|163:194,1,60,8|0,3:0|0:0,0:0:0:0:
223,233,10875,2,0,P|190:271|164:279,2,60,8|8|4,3:0|3:0|3:0,0:0:0:0:
253,154,11437,1,4,3:0:0:0:
210,81,11625,2,0,P|259:68|329:116,1,120,8|0,3:0|0:0,0:0:0:0:
444,212,12375,6,0,P|486:170|497:94,1,120,4|8,0:0|3:0,0:0:0:0:
456,39,12937,1,0,0:0:0:0:
372,51,13125,2,0,P|330:93|319:169,1,120,2|8,0:0|3:0,0:0:0:0:
204,276,13875,2,0,P|172:239|157:233,1,60,2|0,0:0|0:0,0:0:0:0:
178,152,14250,2,0,P|207:135|261:130,1,60,8|0,3:0|0:0,0:0:0:0:
315,150,14625,2,0,B|370:172|370:172|441:143,1,120,2|8,0:0|3:0,0:0:0:0:
504,296,15375,1,2,0:0:0:0:
420,312,15562,6,0,L|450:387,2,60,4|8|2,0:3|3:0|0:0,0:0:0:0:
312,182,16312,2,0,L|282:107,2,60,4|8|2,0:3|3:0|0:0,0:0:0:0:
196,304,17062,2,0,L|226:379,1,60,4|8,0:3|3:0,0:0:0:0:
294,323,17437,2,0,L|271:267,1,60,2|0,0:0|0:0,0:0:0:0:
217,202,17812,2,0,P|185:207|153:197,2,60,4|8|8,0:3|3:0|3:0,0:0:0:0:
294,168,18375,6,0,P|354:119|364:54,1,120,4|8,0:0|3:0,0:0:0:0:
443,51,18937,1,0,0:0:0:0:
473,129,19125,2,0,P|449:183|461:241,1,120,2|8,0:0|3:0,0:0:0:0:
308,313,19875,2,0,P|268:344|189:332,2,120,2|8|2,0:0|3:0|0:0,0:0:0:0:
238,264,20812,1,4,0:3:0:0:
193,192,21000,1,8,3:0:0:0:
27,222,21375,1,2,0:0:0:0:
20,305,21562,6,0,P|53:323|94:323,2,60,4|8|2,0:3|3:0|0:0,0:0:0:0:
67,146,22312,2,0,P|90:120|98:82,2,60,4|8|2,0:3|3:0|0:0,0:0:0:0:
199,249,23062,2,0,P|176:275|168:313,2,60,4|8|4,0:3|3:0|0:3,0:0:0:0:
282,238,23625,2,0,P|308:246|355:236,1,60,8|4,3:0|0:3,0:0:0:0:
408,193,24000,2,0,P|414:153|392:114,1,60,8|0,3:0|0:0,0:0:0:0:
348,75,24375,6,0,B|312:80|312:80|300:100|296:108|292:116|276:144|230:138,1,120,4|4,0:0|0:3,0:0:0:0:
172,156,24937,2,0,P|126:151|58:190,1,120,8|4,3:0|0:3,0:0:0:0:
53,268,25500,2,0,L|93:320,1,60,4|0,0:3|0:0,0:0:0:0:
168,340,25875,2,0,P|196:296|268:264,1,120,4|4,0:3|0:3,0:0:0:0:
340,264,26437,2,0,P|393:289|427:338,1,120,8|4,3:0|0:3,0:0:0:0:
500,296,27000,2,0,L|508:208,1,60,8|8,0:3|0:3,0:0:0:0:
500,152,27375,6,0,B|472:152|448:172|448:172|392:104,1,120,4|4,0:0|0:3,0:0:0:0:
334,82,27937,2,0,L|240:172,1,120,8|4,3:0|0:3,0:0:0:0:
193,230,28500,2,0,P|173:209|164:177,1,60,8|8,3:0|3:0,0:0:0:0:
104,123,28875,2,0,B|64:172|64:172|40:152|12:152,1,120,4|8,0:0|3:0,0:0:0:0:
92,300,29625,1,8,3:0:0:0:
256,344,30000,1,2,0:0:0:0:
420,300,30375,6,0,P|444:224|408:152,1,143.999995605469,4|8,0:0|3:0,0:0:0:0:
342,132,30937,2,0,B|305:152|305:152|245:148|245:148|190:177,1,143.999995605469,0|0,0:3|0:3,0:0:0:0:
123,190,31500,1,8,3:0:0:0:
79,118,31687,2,0,P|40:175|56:244,1,143.999995605469,4|4,0:3|0:3,0:0:0:0:
98,316,32250,2,0,P|138:259|124:191,1,143.999995605469,8|0,3:0|0:0,0:0:0:0:
201,151,32812,1,4,0:3:0:0:
234,231,33000,2,0,P|264:251|306:255,1,71.9999978027344,8|0,3:0|0:0,0:0:0:0:
364,201,33375,6,0,P|381:275|337:333,1,143.999995605469,4|8,0:0|3:0,0:0:0:0:
256,331,33937,1,0,0:0:0:0:
169,328,34125,2,0,P|131:268|150:200,1,143.999995605469,2|8,0:0|3:0,0:0:0:0:
216,256,34687,1,0,0:0:0:0:
256,331,34875,2,0,B|325:331|325:331|402:293,2,143.999995605469,4|8|4,0:3|3:0|0:3,0:0:0:0:
216,256,35812,1,8,0:3:0:0:
133,230,36000,2,0,P|148:197|178:178,1,71.9999978027344,8|0,0:3|0:0,0:0:0:0:
263,171,36375,6,0,P|353:177|399:144,1,143.999995605469,4|8,0:0|3:0,0:0:0:0:
434,71,36937,2,0,L|293:1,1,143.999995605469,0|0,0:0|0:0,0:0:0:0:
223,35,37500,1,8,3:0:0:0:
158,91,37687,2,0,P|108:107|7:73,2,143.999995605469,4|4|4,0:3|0:3|0:3,0:0:0:0:
194,170,38625,2,0,B|228:160|243:125|243:125|271:152|344:148,1,143.999995605469,0|8,0:0|3:0,0:0:0:0:
384,196,39187,1,0,0:0:0:0:
421,274,39375,6,0,B|363:311|363:311|352:261|290:250,2,143.999995605469,4|8|2,0:0|3:0|0:0,0:0:0:0:
384,196,40312,1,4,0:3:0:0:
299,174,40500,2,0,P|256:193|232:235,1,71.9999978027344,8|4,3:0|0:3,0:0:0:0:
213,294,40875,2,0,L|51:274,1,143.999995605469,0|8,0:0|3:0,0:0:0:0:
52,192,41437,1,4,0:3:0:0:
134,167,41625,2,0,P|104:122|76:109,1,71.9999978027344,8|4,0:3|0:3,0:0:0:0:
146,48,42000,2,0,L|232:34,1,71.9999978027344,8|4,3:0|0:3,0:0:0:0:
284,89,42375,6,0,P|333:106|412:75,1,120,4|8,0:0|3:0,0:0:0:0:
478,102,42937,1,0,0:0:0:0:
464,185,43125,2,0,P|410:198|383:190,1,60,2|4,0:0|0:3,0:0:0:0:
408,281,43500,2,0,P|352:262|335:241,1,60,8|0,3:0|0:0,0:0:0:0:
269,250,43875,2,0,L|148:318,1,120,4|8,3:0|3:0,0:0:0:0:
83,285,44437,1,0,0:0:0:0:
30,219,44625,2,0,P|72:200|147:228,1,120,2|8,0:0|3:0,0:0:0:0:
194,61,45375,6,0,B|253:65|253:65|318:30,1,120,4|8,0:0|3:0,0:0:0:0:
390,33,45937,1,0,0:0:0:0:
426,108,46125,2,0,L|506:127,1,60,2|4,0:0|0:3,0:0:0:0:
453,200,46500,2,0,L|533:219,1,60,8|0,3:0|0:0,0:0:0:0:
467,285,46875,2,0,P|472:322|462:356,2,60,8|4|4,0:3|0:3|0:3,0:0:0:0:
388,314,47437,1,4,0:3:0:0:
306,335,47625,2,0,B|266:345|225:342|225:342|231:291,1,120,8|0,3:3|0:0,0:0:0:0:
220,142,48375,6,0,P|186:184|110:189,1,120,4|8,0:0|3:0,0:0:0:0:
141,111,48937,1,0,0:0:0:0:
206,58,49125,2,0,P|265:69|303:124,1,120,2|8,0:0|3:0,0:0:0:0:
450,190,49875,2,0,L|504:79,2,120,2|8|2,0:0|3:0|0:0,0:0:0:0:
409,263,50812,1,4,0:3:0:0:
326,281,51000,2,0,L|250:249,1,60,8|0,3:0|0:0,0:0:0:0:
108,300,51562,6,0,P|89:329|45:348,2,60,0|8|2,0:3|3:0|0:0,0:0:0:0:
236,191,52312,2,0,L|311:192,2,60,4|8|2,3:0|0:3|0:0,0:0:0:0:
108,84,53062,2,0,P|89:55|45:36,2,60,4|8|2,0:3|3:0|0:0,0:0:0:0:
187,110,53625,2,0,L|241:60,1,60,0|4,0:3|0:3,0:0:0:0:
304,111,54000,2,0,L|358:61,1,60,8|8,3:3|3:3,0:0:0:0:
421,29,54375,6,0,P|434:71|391:144,1,120,4|8,0:0|3:0,0:0:0:0:
337,189,54937,1,0,0:0:0:0:
397,247,55125,2,0,P|427:297|415:354,1,120,2|8,0:0|3:0,0:0:0:0:
247,332,55875,2,0,L|125:362,2,120,2|8|2,0:0|3:0|0:0,0:0:0:0:
248,247,56812,1,4,0:3:0:0:
165,262,57000,2,0,L|107:278,1,60,8|0,3:0|0:0,0:0:0:0:
91,110,57562,6,0,P|55:81|48:53,2,60,0|8|2,0:0|3:0|0:0,0:0:0:0:
256,143,58312,2,0,L|256:216,2,60,4|8|2,0:3|3:0|0:0,0:0:0:0:
421,110,59062,2,0,P|457:81|464:53,2,60,4|8|2,0:3|3:0|0:0,0:0:0:0:
365,173,59625,2,0,P|399:194|436:194,1,60,0|4,0:0|3:3,0:0:0:0:
483,250,60000,2,0,P|464:270|421:282,1,60,8|8,3:0|3:0,0:0:0:0:
349,269,60375,6,0,B|292:253|292:253|228:271,1,120,4|8,0:0|3:0,0:0:0:0:
85,349,61125,2,0,B|142:365|142:365|206:347,1,120,2|8,0:0|3:0,0:0:0:0:
234,270,61687,1,0,0:0:0:0:
198,193,61875,2,0,L|116:163,1,60,2|0,0:0|0:0,0:0:0:0:
162,90,62250,2,0,P|98:98|60:157,2,120,8|2|8,3:0|0:0|3:0,0:0:0:0:
307,174,63375,6,0,P|371:166|409:107,1,120,4|8,3:0|3:0,0:0:0:0:
236,122,64125,2,0,P|220:178|262:249,1,120,2|8,0:0|3:0,0:0:0:0:
310,283,64687,1,0,0:0:0:0:
392,266,64875,2,0,L|474:293,1,60,2|0,0:0|0:0,0:0:0:0:
456,200,65250,2,0,B|480:148|480:148|461:66,1,120,8|4,3:0|0:3,0:0:0:0:
392,47,65812,1,8,3:0:0:0:
309,64,66000,2,0,P|273:69|241:94,1,60,8|8,3:0|3:0,0:0:0:0:
168,82,66375,6,0,P|183:134|261:167,1,120,4|8,0:0|3:0,0:0:0:0:
206,335,67125,2,0,P|188:279|137:250,1,120,2|8,0:0|3:0,0:0:0:0:
54,238,67687,1,0,0:0:0:0:
101,168,67875,2,0,L|156:100,1,60,2|0,0:0|0:0,0:0:0:0:
187,52,68250,2,0,P|132:35|63:77,2,120,8|2|8,3:0|0:0|3:0,0:0:0:0:
277,192,69375,6,0,P|332:209|401:167,2,120,4|8|0,3:0|3:0|0:0,0:0:0:0:
412,92,70500,2,0,P|450:108|471:141,1,60,8|4,3:0|0:3,0:0:0:0:
481,203,70875,2,0,P|472:256|435:338,1,120,0|8,0:0|3:0,0:0:0:0:
364,329,71437,1,0,0:0:0:0:
285,299,71625,2,0,L|210:272,1,60,8|0,0:3|0:0,0:0:0:0:
191,354,72000,2,0,L|247:374,1,60,8|0,3:0|0:0,0:0:0:0:
285,299,72375,6,0,P|320:248|319:177,1,120,0|4,0:0|0:3,0:0:0:0:
243,164,72937,2,0,P|208:212|204:271,1,120,8|4,3:0|0:3,0:0:0:0:
121,289,73500,2,0,P|105:258|84:237,1,60,4|4,0:3|0:3,0:0:0:0:
31,177,73875,2,0,B|56:149|97:152|97:152|99:92,1,120,4|4,0:3|0:3,0:0:0:0:
182,76,74437,2,0,B|186:133|186:133|258:172,1,120,8|4,3:0|0:3,0:0:0:0:
317,199,75000,2,0,P|326:170|310:123,1,60,10|8,0:3|0:3,0:0:0:0:
384,85,75375,6,0,L|475:180,1,120,4|4,0:0|3:0,0:0:0:0:
461,255,75937,2,0,L|377:341,1,120,8|4,3:0|0:3,0:0:0:0:
302,303,76500,2,0,L|356:242,1,60,4|4,0:3|0:3,0:0:0:0:
270,213,76875,2,0,P|212:226|136:209,1,120,4|4,0:3|0:3,0:0:0:0:
149,132,77437,2,0,P|207:119|283:136,1,120,8|4,3:0|0:3,0:0:0:0:
350,138,78000,2,0,P|376:92|375:71,1,60,8|8,0:3|0:3,0:0:0:0:
460,93,78375,6,0,P|461:167|492:222,1,120,4|8,0:0|3:0,0:0:0:0:
433,276,78937,2,0,L|296:222,1,120,4|4,3:0|3:0,0:0:0:0:
242,201,79500,2,0,P|235:243|244:265,1,60,8|0,3:0|0:0,0:0:0:0:
161,289,79875,2,0,P|149:254|173:153,1,120,4|8,0:3|3:0,0:0:0:0:
215,110,80437,2,0,P|168:89|97:122,1,120,4|4,0:3|0:3,0:0:0:0:
52,176,81000,2,0,L|56:245,1,60,8|0,3:0|0:0,0:0:0:0:
54,319,81375,6,0,B|98:321|124:282|124:282|161:289,1,120,4|4,0:3|0:3,0:0:0:0:
242,311,81937,1,4,3:3:0:0:
320,281,82125,2,0,L|380:343,2,60,8|8|8,3:0|3:0|3:0,0:0:0:0:
285,204,82687,1,8,0:3:0:0:
301,121,82875,6,0,P|251:63|199:131,1,180,10|4,3:0|0:3,0:0:0:0:
113,116,83625,2,0,P|125:174|172:210,1,120,2|2,0:0|0:0,0:0:0:0:
251,234,84187,1,0,0:0:0:0:
335,215,84375,6,0,L|430:102,1,143.999995605469,4|8,0:0|3:0,0:0:0:0:
486,168,84937,2,0,B|439:222|439:222|466:247|463:302,1,143.999995605469,0|0,3:0|0:0,0:0:0:0:
405,353,85500,1,8,3:0:0:0:
320,336,85687,2,0,P|255:308|191:336,1,143.999995605469,4|4,0:3|0:3,0:0:0:0:
156,257,86250,2,0,P|92:285|15:242,1,143.999995605469,8|0,3:0|0:0,0:0:0:0:
90,198,86812,1,4,0:3:0:0:
154,139,87000,2,0,P|185:110|211:75,1,71.9999978027344,8|0,3:0|0:0,0:0:0:0:
267,29,87375,6,0,P|289:68|257:158,1,143.999995605469,4|8,0:0|3:0,0:0:0:0:
322,214,87937,1,0,0:0:0:0:
401,180,88125,2,0,P|388:137|439:56,1,143.999995605469,2|8,0:0|3:0,0:0:0:0:
474,135,88687,1,0,0:0:0:0:
478,221,88875,2,0,P|465:284|386:333,2,143.999995605469,4|8|4,0:3|3:0|0:3,0:0:0:0:
401,180,89812,1,8,3:0:0:0:
320,148,90000,2,0,P|288:150|245:184,1,71.9999978027344,8|0,3:0|0:0,0:0:0:0:
199,237,90375,6,0,P|172:190|219:92,1,143.999995605469,4|8,0:0|3:0,0:0:0:0:
258,42,90937,2,0,P|284:106|255:170,1,143.999995605469,0|0,0:0|0:0,0:0:0:0:
199,237,91500,1,8,3:0:0:0:
114,256,91687,2,0,P|155:312|240:313,2,143.999995605469,4|4|4,0:3|0:3|0:3,0:0:0:0:
55,191,92625,2,0,L|108:131,1,71.9999978027344,0|4,0:0|0:3,0:0:0:0:
65,58,93000,2,0,L|161:31,1,71.9999978027344,8|0,3:0|0:0,0:0:0:0:
220,42,93375,6,0,B|215:85|190:105|190:105|227:195,2,143.999995605469,4|8|2,0:0|3:0|0:0,0:0:0:0:
305,29,94312,1,4,0:3:0:0:
390,40,94500,2,0,B|384:80|356:99|356:99|395:89|441:131,1,143.999995605469,8|0,3:0|0:0,0:0:0:0:
484,180,95062,1,4,0:3:0:0:
447,258,95250,2,0,P|380:275|290:242,2,143.999995605469,8|0|8,3:0|0:0|3:0,0:0:0:0:
424,117,96375,6,0,L|346:92,1,60,4|0,0:0|0:0,0:0:0:0:
286,125,96750,2,0,L|208:100,1,60,8|0,3:0|0:0,0:0:0:0:
152,142,97125,2,0,B|96:118|96:118|28:149,2,120,4|8|0,0:3|3:0|0:3,0:0:0:0:
228,180,98062,1,4,0:3:0:0:
282,244,98250,2,0,P|245:261|167:236,2,120,8|4|8,0:3|0:3|3:0,0:0:0:0:
356,208,99187,1,0,0:0:0:0:
420,152,99375,6,0,B|437:95|437:95|404:45,1,120,4|8,3:0|3:0,0:0:0:0:
236,48,100125,2,0,B|203:98|203:98|220:155,1,120,4|8,3:0|3:0,0:0:0:0:
140,176,100687,2,0,L|103:47,1,120,0|0,0:0|0:0,0:0:0:0:
28,88,101250,2,0,L|45:163,1,60,8|0,3:0|0:0,0:0:0:0:
16,228,101625,2,0,L|33:303,1,60,8|8,0:3|0:3,0:0:0:0:
96,336,102000,2,0,P|133:316|178:315,1,60,8|8,0:3|0:3,0:0:0:0:
252,304,102375,6,0,P|190:275|174:190,1,143.999995605469,4|8,0:0|3:0,0:0:0:0:
256,216,102937,2,0,B|305:221|327:259|327:259|330:188,1,143.999995605469,0|0,0:0|0:0,0:0:0:0:
328,116,103500,1,8,0:3:0:0:
272,48,103687,2,0,B|205:67|205:67|120:46,1,143.999995605469,4|4,0:3|0:3,0:0:0:0:
57,91,104250,2,0,P|86:153|59:234,1,143.999995605469,8|0,3:0|0:0,0:0:0:0:
146,258,104812,2,0,P|138:292|147:327,1,71.9999978027344,4|8,0:3|3:0,0:0:0:0:
229,353,105187,1,0,0:0:0:0:
311,327,105375,6,0,L|473:376,2,143.999995605469,4|8|2,0:0|3:0|0:0,0:0:0:0:
276,247,106312,1,4,0:3:0:0:
235,170,106500,2,0,P|304:165|359:226,1,143.999995605469,8|8,3:0|3:0,0:0:0:0:
424,272,107062,1,0,0:0:0:0:
463,195,107250,2,0,L|484:114,1,71.9999978027344,0|8,0:0|3:0,0:0:0:0:
396,104,107625,2,0,L|364:29,1,71.9999978027344,8|0,3:0|0:0,0:0:0:0:
285,66,108000,2,0,L|202:39,1,71.9999978027344,4|0,0:3|0:0,0:0:0:0:
181,123,108375,6,0,P|102:163|81:202,1,120,4|2,0:0|0:3,0:0:0:0:
82,271,108937,1,0,0:0:0:0:
151,318,109125,2,0,B|177:308|190:283|190:283|211:213,1,120,4|2,0:3|0:3,0:0:0:0:
369,169,109875,2,0,B|343:179|330:204|330:204|310:267,1,120,4|2,0:3|0:3,0:0:0:0:
280,346,110437,2,0,P|349:344|385:305,2,120,4|4|0,0:3|0:3|0:0,0:0:0:0:
202,311,111375,1,4,0:3:0:0:
188,143,111750,6,0,P|216:124|231:78,1,60,2|0,0:3|0:0,0:0:0:0:
250,20,112125,2,0,L|368:85,1,120,4|2,0:3|0:3,0:0:0:0:
385,155,112687,1,0,0:0:0:0:
454,109,112875,2,0,P|467:166|440:218,1,120,4|2,0:3|0:3,0:0:0:0:
393,287,113437,2,0,B|351:283|351:283|317:308|255:308,1,120,4|2,0:3|0:3,0:0:0:0:
211,255,114000,2,0,P|184:248|145:206,1,60,8|0,0:3|0:0,0:0:0:0:
126,150,114375,6,0,P|101:229|58:258,2,120,4|0|0,0:0|0:3|0:3,0:0:0:0:
181,86,115312,1,0,0:0:0:0:
257,120,115500,2,0,L|343:104,1,60,2|0,0:3|0:0,0:0:0:0:
360,180,115875,2,0,L|446:164,2,60,4|0|2,0:3|0:0|0:3,0:0:0:0:
302,241,116437,2,0,P|321:292|300:359,1,120,4|0,0:3|0:0,0:0:0:0:
143,304,117187,5,0,0:0:0:0:
75,253,117375,2,0,L|29:117,1,120,4|2,0:3|0:3,0:0:0:0:
95,80,117937,2,0,P|138:102|167:95,1,60,4|0,0:3|0:0,0:0:0:0:
227,74,118312,1,4,0:3:0:0:
392,43,118687,2,0,P|414:62|429:108,1,60,0|0,0:0|0:0,0:0:0:0:
505,120,119062,2,0,P|488:153|449:174,1,60,0|4,0:0|0:3,0:0:0:0:
457,249,119437,2,0,P|409:229|387:156,1,120,4|2,0:3|0:3,0:0:0:0:
308,133,120000,2,0,B|280:143|280:143|249:131,1,60,8|4,0:3|0:3,0:0:0:0:
177,91,120375,6,0,P|212:54|286:52,2,120,4|8|8,3:0|0:0|0:0,0:0:0:0:
117,247,121500,1,8,0:0:0:0:
265,326,121875,2,0,B|286:299|286:299|345:315|383:264,1,120,8|8,0:0|0:0,0:0:0:0:
422,219,122437,2,0,P|377:197|300:228,1,120
228,207,123000,2,0,P|201:182|190:137,1,60,10|4,0:0|0:3,0:0:0:0:
211,79,123375,5,4,3:0:0:0:
211,79,123750,1,8,0:0:0:0:
371,129,124125,1,8,0:0:0:0:
371,129,124500,1,8,0:0:0:0:
395,297,124875,2,0,B|448:289|448:289|490:212,1,120,8|8,0:0|0:0,0:0:0:0:
497,148,125437,2,0,P|448:149|394:213,2,120,0|0|4,0:0|0:0|3:0,0:0:0:0:
509,64,126375,6,0,L|384:32,1,120,4|0,0:0|0:0,0:0:0:0:
313,61,126937,2,0,B|277:62|256:79|256:79|234:61|190:62,1,120,4|0,0:0|0:0,0:0:0:0:
119,36,127500,2,0,P|85:40|43:65,1,60,4|0,0:0|0:0,0:0:0:0:
59,136,127875,2,0,P|35:152|14:183,2,60,8|4|4,3:0|3:0|3:0,0:0:0:0:
138,161,128437,2,0,B|161:178|161:178|180:216|180:216|222:187|222:187|246:216|293:222,1,180,8|8,3:0|3:0,0:0:0:0:
354,216,129187,1,4,3:0:0:0:
405,149,129375,6,0,L|427:67,2,60,4|2|0,0:0|0:0|0:0,0:0:0:0:
470,201,129937,2,0,L|434:329,1,120,2|2,0:0|0:0,0:0:0:0:
353,312,130500,2,0,P|312:272|246:267,1,120,4|8,0:3|3:0,0:0:0:0:
182,311,131062,2,0,P|208:338|257:345,2,60,8|8|8,3:0|3:0|3:0,0:0:0:0:
146,234,131625,5,12,3:0:0:0:
256,107,132000,1,12,3:0:0:0:
256,107,133125,2,0,L|337:203,1,120,2|2,0:0|0:0,0:0:0:0:
262,243,133687,1,0,0:0:0:0:
200,181,133875,6,0,P|142:130|49:140,1,143.999995605469,4|8,0:0|3:0,0:0:0:0:
53,209,134437,2,0,L|106:349,1,143.999995605469,0|0,0:0|0:0,0:0:0:0:
190,358,135000,1,8,3:0:0:0:
269,324,135187,2,0,B|336:298|336:298|417:333,1,143.999995605469,4|4,0:3|0:3,0:0:0:0:
488,326,135750,1,8,3:0:0:0:
454,246,135937,2,0,P|463:182|402:118,2,143.999995605469,4|4|0,0:3|0:3|0:0,0:0:0:0:
379,202,136875,6,0,P|325:254|249:255,1,143.999995605469,4|8,0:0|3:0,0:0:0:0:
190,205,137437,1,0,0:0:0:0:
196,118,137625,2,0,P|250:66|326:65,1,143.999995605469,4|8,0:3|3:0,0:0:0:0:
397,88,138187,1,4,0:3:0:0:
461,145,138375,2,0,L|450:242,1,71.9999978027344,0|4,0:0|0:3,0:0:0:0:
366,220,138750,2,0,B|351:277|351:277|363:314|363:314|347:376,1,143.999995605469,8|0,3:0|0:0,0:0:0:0:
265,366,139312,1,8,3:3:0:0:
182,338,139500,2,0,P|158:299|162:260,1,71.9999978027344,8|0,3:0|0:0,0:0:0:0:
215,208,139875,6,0,P|151:209|97:148,1,143.999995605469,4|8,0:0|3:0,0:0:0:0:
22,114,140437,2,0,P|89:69|160:99,1,143.999995605469,0|0,0:0|0:0,0:0:0:0:
229,105,141000,1,8,3:0:0:0:
315,101,141187,2,0,B|352:126|388:102|422:82|469:121,2,143.999995605469,4|4|4,0:3|0:3|0:3,0:0:0:0:
228,104,142125,2,0,B|191:129|155:105|121:85|74:124,1,143.999995605469,0|8,0:0|3:0,0:0:0:0:
39,183,142687,1,0,0:0:0:0:
70,263,142875,6,0,B|109:255|126:211|126:211|152:235|212:239,1,143.999995605469,6|8,0:0|3:0,0:0:0:0:
256,288,143437,1,0,0:0:0:0:
327,238,143625,2,0,P|371:227|402:201,1,71.9999978027344,2|4,0:0|0:3,0:0:0:0:
475,237,144000,2,0,B|484:200|471:165|471:165|407:89,1,143.999995605469,8|0,3:0|0:0,0:0:0:0:
379,37,144562,2,0,P|351:65|341:125,1,71.9999978027344,4|8,0:3|3:0,0:0:0:0:
260,128,144937,2,0,P|228:128|172:97,1,71.9999978027344,4|0,0:3|0:0,0:0:0:0:
133,178,145312,2,0,P|105:118|145:38,1,143.999995605469,4|0,0:3|0:0,0:0:0:0:
213,27,145875,6,0,L|289:27,1,60,4|0,0:0|0:0,0:0:0:0:
316,100,146250,2,0,L|392:100,1,60,8|0,3:0|0:0,0:0:0:0:
420,172,146625,2,0,B|488:172|488:172|480:200|492:244,2,120,4|8|4,0:3|3:0|0:3,0:0:0:0:
356,228,147562,1,0,0:0:0:0:
276,248,147750,2,0,B|256:256|224:248|224:248|200:273|160:284,1,120,8|4,3:0|0:3,0:0:0:0:
92,244,148312,1,0,0:0:0:0:
28,192,148500,2,0,P|50:172|78:164,1,60,8|0,3:0|0:0,0:0:0:0:
104,84,148875,6,0,P|152:120|164:180,1,120,4|8,0:0|3:0,0:0:0:0:
332,180,149625,2,0,P|345:122|392:87,1,120,4|8,0:3|3:0,0:0:0:0:
472,112,150187,2,0,L|464:252,1,120,0|0,0:0|0:0,0:0:0:0:
440,312,150750,2,0,P|416:332|380:340,1,60,8|0,3:0|0:0,0:0:0:0:
312,308,151125,2,0,L|296:232,1,60,8|8,3:0|0:3,0:0:0:0:
216,248,151500,2,0,L|203:306,1,60,8|8,0:3|3:0,0:0:0:0:
116,304,151875,6,0,B|129:239|129:239|72:164,1,143.999995605469,4|8,0:0|3:0,0:0:0:0:
88,92,152437,2,0,P|144:80|200:16,1,143.999995605469,0|0,0:0|0:0,0:0:0:0:
256,84,153000,1,8,3:0:0:0:
312,16,153187,2,0,P|355:72|424:92,1,143.999995605469,4|4,0:3|0:3,0:0:0:0:
484,152,153750,1,8,3:0:0:0:
436,224,153937,2,0,B|424:256|424:256|440:292,1,71.9999978027344,4|0,0:3|0:0,0:0:0:0:
372,344,154312,2,0,B|336:280|336:280|316:320|272:328,1,143.999995605469,4|0,0:3|0:0,0:0:0:0:
252,244,154875,6,0,P|176:256|116:200,1,143.999995605469,4|8,0:0|3:0,0:0:0:0:
200,172,155437,1,0,0:0:0:0:
274,125,155625,2,0,P|216:86|148:100,2,143.999995605469,2|8|8,0:0|3:0|0:3,0:0:0:0:
328,192,156562,1,0,0:0:0:0:
400,244,156750,2,0,P|412:216|408:156,1,71.9999978027344,0|8,0:0|3:0,0:0:0:0:
496,156,157125,2,0,P|468:108|432:96,1,71.9999978027344,8|0,3:0|0:0,0:0:0:0:
464,16,157500,2,0,P|404:32|384:64,1,71.9999978027344,4|0,0:3|0:0,0:0:0:0:
315,47,157875,6,0,P|303:88|238:129,1,120,4|8,0:0|3:0,0:0:0:0:
232,211,158437,2,0,B|200:215|172:183|172:183|96:191,1,120,0|4,0:0|0:3,0:0:0:0:
60,246,159000,2,0,P|36:194|64:126,2,120,8|2|8,3:0|0:0|3:0,0:0:0:0:
134,284,159937,2,0,P|116:310|72:326,2,60,0|2|4,0:0|0:0|0:3,0:0:0:0:
206,240,160500,2,0,L|283:257,1,60,8|0,3:0|0:0,0:0:0:0:
337,210,160875,6,0,P|346:151|313:94,2,120,4|8|2,0:0|3:0|0:0,0:0:0:0:
265,165,161812,2,0,P|241:136|206:125,1,60,4|8,0:3|0:3,0:0:0:0:
140,101,162187,1,4,0:3:0:0:
66,142,162375,2,0,P|53:109|65:61,2,60,4|4|4,0:0|0:3|0:3,0:0:0:0:
135,189,162937,1,4,0:3:0:0:
103,266,163125,6,0,P|131:273|161:268,1,60,4|0,0:0|0:0,0:0:0:0:
235,308,163500,1,4,0:3:0:0:
256,141,163875,1,4,0:0:0:0:
