osu file format v14

[General]
AudioFilename: audio.mp3
AudioLeadIn: 0
PreviewTime: 22283
Countdown: 0
SampleSet: Soft
StackLeniency: 0.7
Mode: 0
LetterboxInBreaks: 0
WidescreenStoryboard: 1

[Editor]
DistanceSpacing: 1
BeatDivisor: 4
GridSize: 32
TimelineZoom: 2

[Metadata]
Title:Horrible Kids
TitleUnicode:Horrible Kids
Artist:Set It Off
ArtistUnicode:Set It Off
Creator:My Angel Ram
Version:Normal
Source:
Tags:short cut ver version english rock alternative pop punk male vocals Kuki1537
BeatmapID:2596019
BeatmapSetID:1249048

[Difficulty]
HPDrainRate:3
CircleSize:3
OverallDifficulty:4
ApproachRate:5
SliderMultiplier:1.02
SliderTickRate:1

[Events]
//Background and Video events
0,0,"bg.jpg",0,0
//Break Periods
//Storyboard Layer 0 (Background)
//Storyboard Layer 1 (Fail)
//Storyboard Layer 2 (Pass)
//Storyboard Layer 3 (Foreground)
//Storyboard Layer 4 (Overlay)
//Storyboard Sound Samples

[TimingPoints]
891,352.941176470588,4,2,22,52,1,0
891,-121.951219512195,4,2,22,52,0,0
6538,-121.951219512195,4,2,22,62,0,0
9361,-108.695652173913,4,2,22,62,0,0
12185,-98.0392156862745,4,2,22,72,0,0
22420,-108.695652173913,4,2,22,62,0,0
23489,352.941176470588,4,2,22,72,1,0
23489,-98.0392156862745,4,2,22,72,0,0
46077,-89.2857142857143,4,2,22,82,0,0
57371,-89.2857142857143,4,2,22,72,0,0
57547,-100,4,2,22,5,0,0

[Colours]
Combo1 : 232,196,179
Combo2 : 240,200,115
Combo3 : 203,114,114
Combo4 : 60,90,142

[HitObjects]
76,61,891,6,0,P|122:46|160:63,1,83.6400012762451,2|2,0:2|0:2,0:2:0:0:
213,115,1596,1,2,0:2:0:0:
338,88,2126,1,2,0:2:0:0:
338,88,2302,2,0,P|325:138|333:184,1,83.6400012762451,2|2,0:2|0:2,0:2:0:0:
395,219,3008,2,0,P|405:270|397:312,1,83.6400012762451,2|2,0:2|0:2,0:2:0:0:
279,332,3890,2,0,L|263:280,2,41.8200006381226,2|2|2,0:2|0:2|0:2,0:0:0:0:
249,361,4420,6,0,P|208:370|170:355,1,83.6400012762451,2|2,0:2|0:2,0:2:0:0:
116,242,5302,2,0,L|128:190,2,41.8200006381226,2|2|2,0:2|0:2|0:2,0:0:0:0:
82,267,5832,2,0,P|35:274|0:240,1,83.6400012762451,2|2,3:2|3:2,0:2:0:0:
4,216,6361,1,2,0:2:0:0:
4,216,6538,6,0,L|-1:116,1,83.6400012762451,2|2,3:2|1:2,0:2:0:0:
60,74,7243,2,0,P|112:85|152:72,1,83.6400012762451,2|0,3:2|1:2,0:2:0:0:
216,41,7949,2,0,L|209:-1,2,41.8200006381226,2|2|2,3:2|0:2|1:2,0:0:0:0:
247,68,8479,2,0,P|300:56|338:72,1,83.6400012762451,2|2,0:2|0:2,0:2:0:0:
360,90,9008,2,0,P|388:98|413:93,1,41.8200006381226,2|2,3:2|0:2,0:0:0:0:
441,87,9361,5,2,1:2:0:0:
482,170,9714,1,2,1:2:0:0:
409,229,10067,2,0,P|395:279|404:335,1,93.8399968498536,2|0,1:2|3:2,0:2:0:0:
311,354,10773,1,2,1:2:0:0:
230,305,11126,1,2,1:2:0:0:
146,348,11479,2,0,L|137:296,1,46.9199984249268,8|8,0:2|0:2,0:0:0:0:
107,266,11832,2,0,L|116:214,1,46.9199984249268,8|8,0:2|0:2,0:0:0:0:
137,178,12185,6,0,P|186:161|244:181,1,104.04000063501,4|10,1:2|0:2,0:0:0:0:
335,149,12890,2,0,P|384:166|440:150,1,104.04000063501,2|10,1:2|0:2,0:2:0:0:
509,82,13596,1,2,1:2:0:0:
432,11,13949,2,0,P|391:7|374:9,1,52.0200003175049,10|2,0:2|1:2,0:0:0:0:
334,32,14302,2,0,P|290:48|231:27,1,104.04000063501,2|10,1:2|0:2,0:2:0:0:
135,5,15008,5,0,1:2:0:0:
67,83,15361,2,0,P|60:111|67:150,1,52.0200003175049,10|2,0:2|1:2,0:0:0:0:
108,156,15714,2,0,P|123:207|101:259,1,104.04000063501,2|10,1:2|0:2,0:2:0:0:
98,307,16243,1,2,1:2:0:0:
98,307,16420,2,0,P|53:292|-12:312,2,104.04000063501,2|10|2,1:2|0:2|1:2,0:2:0:0:
179,371,17479,1,8,0:2:0:0:
242,288,17832,6,0,P|293:274|342:286,1,104.04000063501,4|10,1:2|0:2,0:0:0:0:
430,340,18538,2,0,P|451:296|434:225,1,104.04000063501,2|10,1:2|0:2,0:2:0:0:
379,161,19243,1,2,1:2:0:0:
472,114,19596,2,0,P|468:87|470:54,1,52.0200003175049,10|0,0:2|1:2,0:2:0:0:
434,23,19949,2,0,P|383:9|336:25,1,104.04000063501,2|10,1:2|0:2,0:0:0:0:
251,85,20655,5,0,1:2:0:0:
157,38,21008,2,0,P|111:27|49:48,1,104.04000063501,10|2,0:2|1:2,0:2:0:0:
15,137,21714,1,10,0:2:0:0:
63,231,22067,5,10,0:2:0:0:
81,251,23489,6,0,P|135:235|191:251,1,104.04000063501,6|8,1:2|0:2,0:0:0:0:
222,276,24018,1,8,1:3:0:0:
222,276,24194,2,0,P|276:292|332:276,1,104.04000063501,2|10,1:2|0:2,0:2:0:0:
389,202,24900,1,2,1:2:0:0:
336,112,25253,1,10,0:2:0:0:
398,29,25606,2,0,P|346:11|296:21,1,104.04000063501,2|10,1:2|0:2,0:0:0:0:
220,89,26312,6,0,L|163:80,1,52.0200003175049,8|0,0:2|1:2,0:0:0:0:
127,48,26665,2,0,L|75:56,1,52.0200003175049,8|0,0:2|1:2,0:0:0:0:
44,97,27018,2,0,P|30:146|46:203,1,104.04000063501,2|10,1:2|0:2,0:2:0:0:
121,264,27724,1,2,3:2:0:0:
211,212,28077,1,10,0:2:0:0:
312,234,28430,2,0,P|328:286|313:343,1,104.04000063501,2|10,1:2|0:2,0:0:0:0:
285,374,28959,1,8,0:2:0:0:
285,374,29135,5,0,1:2:0:0:
185,342,29488,2,0,P|123:324|65:341,1,104.04000063501,10|2,0:2|1:2,0:0:0:0:
45,234,30194,1,10,0:2:0:0:
84,137,30547,2,0,L|55:16,2,104.04000063501,2|10|2,3:2|0:2|1:2,0:0:0:0:
177,183,31606,1,10,0:2:0:0:
244,103,31959,2,0,P|296:85|355:102,1,104.04000063501,0|10,1:2|0:2,0:0:0:0:
441,128,32665,1,2,3:2:0:0:
467,228,33018,1,10,0:2:0:0:
485,330,33371,2,0,P|435:316|385:329,1,104.04000063501,0|10,3:2|0:2,0:0:0:0:
296,282,34077,1,2,3:2:0:0:
205,333,34430,1,10,0:2:0:0:
110,290,34783,6,0,P|94:236|110:180,1,104.04000063501,6|8,1:2|0:2,0:0:0:0:
135,149,35312,1,8,1:3:0:0:
135,149,35488,2,0,P|191:169|255:149,1,104.04000063501,2|10,1:2|0:2,0:2:0:0:
328,117,36194,1,2,3:2:0:0:
407,184,36547,1,10,0:2:0:0:
481,111,36900,2,0,P|496:64|483:3,1,104.04000063501,2|10,3:2|0:2,0:0:0:0:
384,33,37606,6,0,L|327:24,1,52.0200003175049,10|0,0:2|1:2,0:0:0:0:
286,0,37959,2,0,L|234:8,1,52.0200003175049,10|0,0:2|1:2,0:0:0:0:
197,44,38312,2,0,P|183:93|199:150,1,104.04000063501,0|10,1:2|0:2,0:2:0:0:
287,190,39018,1,2,3:2:0:0:
383,151,39371,1,10,0:2:0:0:
476,196,39724,2,0,P|490:245|474:302,1,104.04000063501,2|10,1:2|0:2,0:0:0:0:
430,317,40253,1,8,0:2:0:0:
430,317,40430,5,0,1:2:0:0:
327,298,40783,2,0,L|276:309,1,52.0200003175049,10|8,0:2|1:3,0:0:0:0:
227,328,41136,2,0,P|175:345|123:325,1,104.04000063501,2|8,1:2|0:2,0:2:0:0:
89,306,41665,1,2,0:2:0:0:
89,306,41841,2,0,P|77:252|89:190,1,104.04000063501,2|10,3:2|0:2,0:2:0:0:
125,108,42547,1,2,1:2:0:0:
214,160,42900,1,10,0:2:0:0:
284,83,43253,6,0,P|335:68|390:83,1,104.04000063501,0|10,1:2|0:2,0:0:0:0:
486,93,43959,2,0,L|495:36,2,52.0200003175049,2|10|10,1:2|1:3|0:2,0:0:0:0:
483,201,44665,1,0,3:2:0:0:
483,201,44841,2,0,L|503:271,2,52.0200003175049,2|10|2,1:2|0:2|1:2,0:0:0:0:
431,209,45371,2,0,P|377:226|324:208,1,104.04000063501,10|10,0:2|0:2,0:0:0:0:
230,209,46077,6,0,P|176:192|121:214,1,114.240001394531,14|10,0:2|0:2,0:2:0:0:
72,201,46606,1,2,1:2:0:0:
72,201,46783,2,0,L|65:125,1,57.1200006972656,10|8,0:2|1:3,0:0:0:0:
103,100,47136,1,10,0:2:0:0:
198,37,47488,2,0,P|241:18|311:36,1,114.240001394531,8|10,0:2|0:2,0:0:0:0:
345,71,48018,1,2,1:2:0:0:
345,71,48194,2,0,L|354:153,1,57.1200006972656,10|8,0:2|1:3,0:0:0:0:
385,173,48547,1,10,0:2:0:0:
327,271,48900,6,0,P|284:290|214:272,1,114.240001394531,8|10,0:2|0:2,0:2:0:0:
180,237,49430,1,2,1:2:0:0:
180,237,49606,2,0,L|173:154,1,57.1200006972656,10|8,0:2|1:3,0:0:0:0:
227,156,49959,2,0,L|231:99,1,57.1200006972656,10|0,0:2|1:2,0:0:0:0:
271,58,50312,2,0,P|315:41|391:60,1,114.240001394531,10|10,0:2|0:2,0:0:0:0:
446,145,51018,1,10,0:2:0:0:
403,251,51371,1,10,0:2:0:0:
441,358,51724,6,0,P|397:341|321:360,1,114.240001394531,12|10,0:2|0:2,0:2:0:0:
283,323,52253,1,2,1:2:0:0:
283,323,52430,2,0,P|245:328|207:312,1,57.1200006972656,10|8,0:2|1:3,0:0:0:0:
192,277,52783,1,10,0:2:0:0:
253,180,53136,2,0,P|265:123|252:59,1,114.240001394531,8|10,0:2|0:2,0:0:0:0:
215,35,53665,1,2,1:2:0:0:
215,35,53841,2,0,L|157:37,1,57.1200006972656,10|8,0:2|1:3,0:0:0:0:
104,57,54194,1,10,0:2:0:0:
11,124,54547,6,0,P|1:182|12:245,1,114.240001394531,12|10,0:2|0:2,0:2:0:0:
51,271,55077,1,2,1:2:0:0:
51,271,55253,2,0,P|80:277|109:269,1,57.1200006972656,10|8,0:2|1:3,0:0:0:0:
154,243,55606,1,10,0:2:0:0:
244,173,55959,2,0,P|305:154|374:177,1,114.240001394531,10|10,0:2|0:2,0:0:0:0:
457,118,56665,1,10,0:2:0:0:
385,29,57018,1,6,0:3:0:0:
273,53,57371,5,4,1:2:0:0:
256,192,57547,12,0,63194,0:2:0:0:
