osu file format v14

[General]
AudioFilename: audio.mp3
AudioLeadIn: 0
PreviewTime: 22283
Countdown: 0
SampleSet: Soft
StackLeniency: 0.7
Mode: 0
LetterboxInBreaks: 0
WidescreenStoryboard: 1

[Editor]
DistanceSpacing: 1.6
BeatDivisor: 4
GridSize: 32
TimelineZoom: 2

[Metadata]
Title:Horrible Kids
TitleUnicode:Horrible Kids
Artist:Set It Off
ArtistUnicode:Set It Off
Creator:My Angel Ram
Version:Hard
Source:
Tags:short cut ver version english rock alternative pop punk male vocals Kuki1537
BeatmapID:2596016
BeatmapSetID:1249048

[Difficulty]
HPDrainRate:4
CircleSize:3.8
OverallDifficulty:6.5
ApproachRate:7.8
SliderMultiplier:1.42
SliderTickRate:1

[Events]
//Background and Video events
0,0,"bg.jpg",0,0
//Break Periods
//Storyboard Layer 0 (Background)
//Storyboard Layer 1 (Fail)
//Storyboard Layer 2 (Pass)
//Storyboard Layer 3 (Foreground)
//Storyboard Layer 4 (Overlay)
//Storyboard Sound Samples

[TimingPoints]
891,352.941176470588,4,2,22,52,1,0
891,-138.888888888889,4,2,22,52,0,0
6538,-121.951219512195,4,2,22,62,0,0
12185,-108.695652173913,4,2,22,72,0,0
23489,352.941176470588,4,2,22,72,1,0
23489,-98.0392156862745,4,2,22,72,0,0
46077,-89.2857142857143,4,2,22,82,0,0
57371,-454.545454545455,4,2,22,72,0,0
57459,-454.545454545455,4,2,22,5,0,0

[Colours]
Combo1 : 232,196,179
Combo2 : 240,200,115
Combo3 : 203,114,114
Combo4 : 60,90,142

[HitObjects]
73,45,891,6,0,P|81:84|86:113,1,51.1200012480469,2|0,0:2|0:2,0:2:0:0:
162,115,1243,2,0,P|154:154|150:184,1,51.1200012480469,2|0,0:2|0:2,0:2:0:0:
227,198,1596,2,0,P|235:237|239:267,1,51.1200012480469,2|0,0:2|0:2,0:2:0:0:
362,361,2126,1,2,0:2:0:0:
362,361,2302,2,0,P|415:347|433:346,1,51.1200012480469,2|0,0:2|0:2,0:2:0:0:
439,270,2655,2,0,P|386:256|368:253,1,51.1200012480469,2|0,0:2|0:2,0:2:0:0:
342,189,3008,2,0,P|395:175|413:174,1,51.1200012480469,2|0,0:2|0:2,0:2:0:0:
424,100,3361,2,0,P|399:91|374:86,1,51.1200012480469,2|0,0:2|0:2,0:2:0:0:
216,70,3890,5,2,0:2:0:0:
216,70,4067,2,0,P|205:124|203:143,1,51.1200012480469,2|2,0:2|0:2,0:0:0:0:
139,169,4420,2,0,P|150:223|153:242,1,51.1200012480469,2|0,0:2|0:2,0:2:0:0:
72,247,4773,2,0,P|61:301|58:320,1,51.1200012480469,2|0,0:2|0:2,0:2:0:0:
12,145,5302,1,2,0:2:0:0:
12,145,5479,2,0,P|49:131|75:125,1,51.1200012480469,2|2,0:2|0:2,0:0:0:0:
102,57,5832,2,0,P|134:63|162:73,1,51.1200012480469,2|2,0:2|0:2,0:0:0:0:
235,91,6185,1,2,3:2:0:0:
235,91,6361,1,2,0:2:0:0:
340,98,6538,6,0,B|366:143|366:143|335:221,1,116.440001776733,2|2,3:2|1:2,0:2:0:0:
318,296,7067,1,2,0:2:0:0:
318,296,7243,2,0,B|281:299|253:268|277:260|252:227|202:231,1,116.440001776733,2|0,3:2|1:2,0:2:0:0:
161,298,7773,1,2,0:2:0:0:
161,298,7949,2,0,L|150:367,2,58.2200008883667,2|2|2,3:2|0:2|1:2,0:0:0:0:
88,238,8479,2,0,L|77:173,1,58.2200008883667,2|0,0:2|3:2,0:2:0:0:
137,109,8832,1,2,0:2:0:0:
137,109,9008,2,0,L|148:40,1,58.2200008883667,2|2,3:2|0:2,0:0:0:0:
231,12,9361,6,0,P|277:7|330:69,1,116.440001776733,2|2,1:2|1:2,0:0:0:0:
375,231,10067,2,0,B|288:209|288:209|252:237,1,116.440001776733,2|0,1:2|3:2,0:2:0:0:
216,305,10596,1,2,0:2:0:0:
216,305,10773,2,0,P|157:287|138:286,1,58.2200008883667,2|2,1:2|0:2,0:0:0:0:
88,228,11126,2,0,P|147:210|166:209,1,58.2200008883667,2|2,1:2|0:2,0:0:0:0:
232,153,11479,6,0,L|241:108,3,29.1100004441834,8|8|8|8,0:2|0:2|0:2|0:2,0:0:0:0:
256,82,11832,2,0,L|247:37,3,29.1100004441834,8|8|8|8,0:2|0:2|0:2|0:2,0:0:0:0:
211,22,12185,6,0,P|168:15|108:89,1,130.639995614502,4|10,1:2|0:2,0:0:0:0:
154,158,12714,1,0,0:2:0:0:
74,215,12890,2,0,P|83:255|90:306,1,65.319997807251,2|8,1:2|1:3,0:2:0:0:
176,318,13243,2,0,P|166:358|160:409,1,65.319997807251,10|0,0:2|1:2,0:0:0:0:
259,368,13596,2,0,B|354:340|354:340|392:361,1,130.639995614502,2|10,1:2|0:2,0:2:0:0:
473,318,14126,1,2,1:2:0:0:
423,233,14302,2,0,L|436:144,1,65.319997807251,2|8,1:2|1:3,0:2:0:0:
340,132,14655,2,0,L|327:43,1,65.319997807251,10|0,0:2|1:2,0:2:0:0:
420,1,15008,6,0,P|484:2|506:81,1,130.639995614502,0|10,1:2|0:2,0:2:0:0:
492,152,15538,1,2,1:2:0:0:
412,208,15714,2,0,P|341:192|275:186,1,130.639995614502,2|10,1:2|0:2,0:2:0:0:
199,237,16243,1,2,1:2:0:0:
122,175,16420,2,0,P|114:130|105:99,1,65.319997807251,2|0,1:2|1:2,0:2:0:0:
156,25,16773,2,0,P|194:12|232:22,1,65.319997807251,10|0,0:2|1:2,0:2:0:0:
292,80,17126,2,0,B|255:124|255:124|281:197,1,130.639995614502,2|8,1:2|0:2,0:0:0:0:
315,284,17655,1,0,1:2:0:0:
222,346,17832,6,0,B|190:355|154:336|171:323|134:302|87:317,1,130.639995614502,4|10,1:2|0:2,0:0:0:0:
16,262,18361,1,0,1:2:0:0:
56,172,18538,2,0,P|95:160|140:171,1,65.319997807251,2|8,1:2|1:3,0:2:0:0:
175,82,18890,2,0,P|214:94|259:83,1,65.319997807251,10|0,0:2|1:2,0:0:0:0:
330,59,19243,2,0,P|318:112|312:202,1,130.639995614502,2|10,1:2|0:2,0:2:0:0:
363,271,19773,1,0,1:2:0:0:
282,326,19949,2,0,P|228:311|206:310,1,65.319997807251,2|8,1:2|1:3,0:0:0:0:
135,258,20302,2,0,P|102:262|71:273,1,65.319997807251,10|0,0:2|1:2,0:2:0:0:
11,180,20655,6,0,P|12:116|94:95,1,130.639995614502,0|10,1:2|0:2,0:0:0:0:
148,33,21185,1,0,1:2:0:0:
215,103,21361,2,0,P|220:136|227:180,1,65.319997807251,2|0,1:2|1:2,0:2:0:0:
281,248,21714,2,0,P|274:293|269:325,1,65.319997807251,10|8,0:2|1:3,0:0:0:0:
163,341,22067,5,10,0:2:0:0:
151,333,23489,6,0,B|127:237|127:237|167:186,1,144.840000884033,6|8,1:2|0:2,0:0:0:0:
217,120,24018,1,8,1:3:0:0:
284,196,24194,2,0,P|322:206|369:196,1,72.4200004420166,2|0,1:2|0:2,0:2:0:0:
443,152,24547,2,0,P|446:113|454:72,1,72.4200004420166,10|0,0:2|3:2,0:2:0:0:
376,12,24900,2,0,P|338:2|291:12,1,72.4200004420166,2|8,1:2|1:3,0:0:0:0:
225,68,25253,2,0,P|189:71|154:62,1,72.4200004420166,10|0,0:2|0:2,0:2:0:0:
53,44,25606,2,0,P|66:98|70:128,1,72.4200004420166,2|8,1:2|1:3,0:0:0:0:
129,195,25959,2,0,P|116:249|112:279,1,72.4200004420166,10|0,0:2|1:2,0:2:0:0:
40,354,26312,5,8,0:2:0:0:
137,383,26489,1,0,1:2:0:0:
215,319,26665,2,0,B|318:300|318:300|360:340,1,144.840000884033,8|2,0:2|1:2,0:0:0:0:
445,355,27194,1,0,0:2:0:0:
480,260,27371,2,0,L|495:176,1,72.4200004420166,10|0,0:2|0:2,0:2:0:0:
407,132,27724,2,0,L|392:48,1,72.4200004420166,2|8,3:2|1:3,0:0:0:0:
305,11,28077,2,0,P|267:-2|231:6,1,72.4200004420166,10|2,0:2|0:2,0:2:0:0:
180,89,28430,2,0,P|144:94|110:82,1,72.4200004420166,2|0,1:2|1:2,0:0:0:0:
19,41,28783,2,0,L|12:79,3,36.2100002210083,10|8|8|8,0:2|0:2|0:2|0:2,0:0:0:0:
4,122,29136,6,0,P|21:191|30:274,1,144.840000884033,0|10,1:2|0:2,0:0:0:0:
95,343,29665,1,8,1:3:0:0:
167,271,29841,2,0,L|182:189,1,72.4200004420166,2|0,1:2|0:2,0:2:0:0:
248,124,30194,2,0,P|294:113|331:128,1,72.4200004420166,10|0,0:2|0:2,0:2:0:0:
398,181,30547,2,0,P|388:215|382:251,1,72.4200004420166,2|8,3:2|1:3,0:0:0:0:
344,345,30900,2,0,P|309:354|273:350,1,72.4200004420166,10|0,0:2|0:2,0:2:0:0:
181,305,31253,2,0,P|146:295|110:299,1,72.4200004420166,2|0,1:2|1:2,0:0:0:0:
44,202,31606,6,0,P|35:133|98:94,1,144.840000884033,10|0,0:2|1:2,0:2:0:0:
184,134,32136,1,2,1:2:0:0:
262,69,32312,2,0,P|312:56|343:54,1,72.4200004420166,10|2,0:2|1:2,0:0:0:0:
429,83,32665,2,0,P|421:118|416:154,1,72.4200004420166,2|8,3:2|1:3,0:0:0:0:
366,242,33018,2,0,P|373:277|378:313,1,72.4200004420166,10|0,0:2|0:0,0:2:0:0:
299,377,33371,1,0,3:2:0:0:
227,305,33547,1,8,1:3:0:0:
122,355,33724,6,0,P|74:361|41:343,1,72.4200004420166,10|0,0:2|1:2,0:0:0:0:
11,259,34077,2,0,P|6:215|0:179,1,72.4200004420166,2|8,3:2|1:3,0:2:0:0:
59,103,34430,2,0,P|93:92|128:100,1,72.4200004420166,10|0,0:2|0:2,0:2:0:0:
188,199,34783,6,0,B|253:203|297:216|297:216|314:197|330:177,1,144.840000884033,6|8,1:2|0:2,0:0:0:0:
402,131,35312,1,8,1:3:0:0:
351,42,35488,2,0,P|315:32|273:42,1,72.4200004420166,2|0,1:2|0:2,0:2:0:0:
199,98,35841,2,0,P|163:104|129:94,1,72.4200004420166,10|0,0:2|0:2,0:2:0:0:
35,54,36194,2,0,L|24:145,1,72.4200004420166,2|8,3:2|1:3,0:0:0:0:
66,219,36547,2,0,L|77:310,1,72.4200004420166,10|0,0:2|0:2,0:2:0:0:
153,354,36900,1,2,3:2:0:0:
222,279,37077,1,0,1:2:0:0:
298,345,37253,2,0,L|383:334,1,72.4200004420166,10|0,0:2|0:2,0:2:0:0:
451,254,37606,6,0,L|366:243,1,72.4200004420166,10|0,0:2|1:2,0:0:0:0:
309,170,37959,1,10,0:2:0:0:
377,94,38136,1,0,1:2:0:0:
295,33,38312,2,0,B|259:15|215:31|232:44|191:61|154:46,1,144.840000884033,0|10,1:2|0:2,0:2:0:0:
56,25,38841,1,0,0:2:0:0:
15,117,39018,2,0,P|22:156|27:190,1,72.4200004420166,2|8,3:2|1:3,0:0:0:0:
81,274,39371,2,0,P|131:281|163:269,1,72.4200004420166,10|0,0:2|0:2,0:2:0:0:
225,205,39724,1,2,1:2:0:0:
308,262,39900,1,0,1:2:0:0:
389,201,40077,2,0,L|398:166,3,36.2100002210083,10|8|8|8,0:2|0:2|0:2|0:2,0:0:0:0:
414,125,40430,5,0,1:2:0:0:
371,32,40606,1,0,1:2:0:0:
294,98,40783,2,0,P|251:107|210:95,1,72.4200004420166,10|8,0:2|1:3,0:0:0:0:
136,49,41136,2,0,P|93:40|44:118,1,144.840000884033,2|8,1:2|0:2,0:2:0:0:
97,200,41665,1,2,0:2:0:0:
33,279,41841,2,0,P|47:331|52:380,1,72.4200004420166,2|8,3:2|1:3,0:2:0:0:
146,380,42194,2,0,P|152:344|163:309,1,72.4200004420166,10|0,0:2|0:2,0:2:0:0:
253,263,42547,2,0,P|295:254|335:254,1,72.4200004420166,2|0,1:2|1:2,0:0:0:0:
416,182,42900,6,0,P|416:113|356:79,1,144.840000884033,10|0,0:2|1:2,0:2:0:0:
262,121,43430,1,2,1:2:0:0:
177,65,43606,2,0,P|139:50|98:64,1,72.4200004420166,10|2,0:2|1:2,0:0:0:0:
24,112,43959,2,0,P|37:147|41:182,1,72.4200004420166,2|10,1:2|1:3,0:0:0:0:
51,282,44312,2,0,P|112:297|167:240,1,144.840000884033,10|0,0:2|3:2,0:2:0:0:
201,148,44841,1,2,1:2:0:0:
287,95,45018,2,0,P|328:85|369:97,1,72.4200004420166,10|2,0:2|1:2,0:0:0:0:
437,153,45371,2,0,P|425:200|421:232,1,72.4200004420166,10|0,0:2|1:2,0:0:0:0:
360,322,45724,1,10,0:2:0:0:
360,322,46077,6,0,P|308:330|281:322,1,79.5200009707031,14|0,0:2|1:2,0:2:0:0:
197,247,46430,1,10,0:2:0:0:
197,247,46606,1,2,1:2:0:0:
284,165,46783,2,0,L|291:80,1,79.5200009707031,10|8,0:2|1:3,0:0:0:0:
199,8,47136,2,0,P|158:-1|100:50,1,119.280001456055,10|0,0:2|0:0,0:0:0:0:
79,91,47488,6,0,P|88:131|95:178,1,79.5200009707031,8|0,0:2|1:2,0:0:0:0:
52,283,47841,1,10,0:2:0:0:
52,283,48018,1,2,1:2:0:0:
163,243,48194,2,0,P|208:228|256:243,1,79.5200009707031,10|8,0:2|1:3,0:0:0:0:
328,312,48547,2,0,P|385:326|437:287,1,119.280001456055,10|0,0:2|0:0,0:0:0:0:
457,248,48900,6,0,P|464:197|473:157,1,79.5200009707031,8|0,0:2|1:2,0:2:0:0:
411,70,49253,1,10,0:2:0:0:
411,70,49430,1,2,1:2:0:0:
323,150,49606,2,0,P|335:183|336:244,1,79.5200009707031,10|8,0:2|1:3,0:0:0:0:
276,329,49959,2,0,P|237:334|200:320,1,79.5200009707031,10|0,0:2|1:2,0:0:0:0:
71,278,50312,6,0,L|59:188,1,79.5200009707031,10|0,0:2|1:2,0:0:0:0:
130,102,50665,2,0,L|141:23,1,79.5200009707031,10|0,0:2|1:2,0:0:0:0:
260,17,51018,2,0,P|312:3|354:19,1,79.5200009707031,10|8,0:2|1:3,0:0:0:0:
432,79,51371,2,0,P|424:127|416:210,1,119.280001456055,10|0,0:2|0:0,0:0:0:0:
404,244,51724,6,0,P|356:234|316:228,1,79.5200009707031,12|0,0:2|1:2,0:2:0:0:
221,186,52077,1,10,0:2:0:0:
221,186,52253,1,2,1:2:0:0:
109,228,52430,2,0,P|116:267|121:307,1,79.5200009707031,10|8,0:2|1:3,0:0:0:0:
232,348,52783,2,0,P|290:354|326:292,1,119.280001456055,10|0,0:2|0:0,0:0:0:0:
351,268,53136,6,0,P|400:246|449:255,1,79.5200009707031,8|0,0:2|1:2,0:0:0:0:
507,161,53488,1,10,0:2:0:0:
507,161,53665,1,2,1:2:0:0:
428,71,53841,2,0,P|386:52|347:57,1,79.5200009707031,10|8,0:2|1:3,0:0:0:0:
271,141,54194,2,0,B|205:133|244:105|153:96,1,119.280001456055,10|0,0:2|0:0,0:0:0:0:
116,121,54547,6,0,P|123:161|127:206,1,79.5200009707031,12|0,0:2|1:2,0:2:0:0:
198,301,54900,1,10,0:2:0:0:
198,301,55077,1,2,1:2:0:0:
292,230,55253,2,0,P|355:218|382:232,1,79.5200009707031,10|8,0:2|1:3,0:0:0:0:
460,148,55606,2,0,P|466:108|481:71,1,79.5200009707031,10|0,0:2|1:2,0:0:0:0:
367,36,55959,6,0,P|304:24|277:38,1,79.5200009707031,10|0,0:2|1:2,0:0:0:0:
226,128,56312,2,0,P|187:135|151:121,1,79.5200009707031,10|0,0:2|1:2,0:0:0:0:
37,98,56665,1,10,0:2:0:0:
37,98,56841,1,8,0:3:0:0:
80,209,57018,2,0,P|84:248|75:286,1,79.5200009707031,6|4,0:3|1:3,0:0:0:0:
147,382,57371,5,4,1:2:0:0:
256,192,57459,12,0,63194,0:2:0:0:
