osu file format v14

[General]
AudioFilename: audio.mp3
AudioLeadIn: 0
PreviewTime: 22283
Countdown: 0
SampleSet: Soft
StackLeniency: 0.7
Mode: 0
LetterboxInBreaks: 0
WidescreenStoryboard: 0

[Editor]
DistanceSpacing: 1
BeatDivisor: 4
GridSize: 32
TimelineZoom: 2

[Metadata]
Title:Horrible Kids
TitleUnicode:Horrible Kids
Artist:Set It Off
ArtistUnicode:Set It Off
Creator:My Angel Ram
Version:Cataclysm
Source:
Tags:short cut ver version english rock alternative pop punk male vocals Kuki1537
BeatmapID:2596015
BeatmapSetID:1249048

[Difficulty]
HPDrainRate:5.5
CircleSize:4
OverallDifficulty:9.2
ApproachRate:9.3
SliderMultiplier:1.72
SliderTickRate:1

[Events]
//Background and Video events
0,0,"bg.jpg",0,0
//Break Periods
//Storyboard Layer 0 (Background)
//Storyboard Layer 1 (Fail)
//Storyboard Layer 2 (Pass)
//Storyboard Layer 3 (Foreground)
//Storyboard Layer 4 (Overlay)
//Storyboard Sound Samples

[TimingPoints]
891,352.941176470588,4,2,22,52,1,0
891,-138.888888888889,4,2,22,52,0,0
6538,-121.951219512195,4,2,22,62,0,0
12185,-108.695652173913,4,2,22,72,0,0
22420,-238.095238095238,4,2,22,62,0,0
23489,352.941176470588,4,2,22,72,1,0
23489,-98.0392156862745,4,2,22,72,0,0
46077,-89.2857142857143,4,2,22,82,0,0
57371,-454.545454545455,4,2,22,72,0,0
57459,-454.545454545455,4,2,22,5,0,0

[Colours]
Combo1 : 232,196,179
Combo2 : 240,200,115
Combo3 : 203,114,114
Combo4 : 60,90,142

[HitObjects]
83,57,891,6,0,L|12:42,1,61.9200015117188,2|0,0:2|0:2,0:2:0:0:
91,165,1243,2,0,L|151:152,1,61.9200015117188,2|0,0:2|0:2,0:2:0:0:
275,50,1596,2,0,B|241:92|241:92|266:160,1,123.840003023438,2|0,0:2|0:2,0:2:0:0:
365,239,2126,1,2,0:2:0:0:
365,239,2302,2,0,L|375:166,1,61.9200015117188,2|0,0:2|0:2,0:2:0:0:
220,239,2655,2,0,L|228:300,1,61.9200015117188,2|0,0:2|0:2,0:2:0:0:
381,267,3008,2,0,L|391:194,1,61.9200015117188,2|0,0:2|0:2,0:2:0:0:
205,149,3361,2,0,P|151:162|140:237,1,123.840003023438,2|0,0:2|0:2,0:2:0:0:
275,340,3890,5,2,0:2:0:0:
217,229,4067,1,2,0:2:0:0:
146,349,4243,1,2,0:2:0:0:
289,259,4420,2,0,P|332:249|358:255,1,61.9200015117188,2|0,0:2|0:2,0:2:0:0:
129,369,4773,2,0,P|98:371|57:295,1,123.840003023438,2|0,0:2|0:2,0:2:0:0:
211,166,5302,5,2,0:2:0:0:
133,290,5479,1,2,0:2:0:0:
79,145,5655,1,2,0:2:0:0:
206,244,5832,1,2,0:2:0:0:
152,101,6008,1,2,0:2:0:0:
64,239,6185,1,2,3:2:0:0:
224,152,6361,1,2,0:2:0:0:
75,44,6538,6,0,B|33:84|33:84|67:175,1,141.0400021521,2|2,3:2|1:2,0:2:0:0:
181,73,7067,1,2,0:2:0:0:
36,259,7243,2,0,B|74:270|110:246|92:235|133:209|185:219,1,141.0400021521,2|0,3:2|1:2,0:2:0:0:
337,338,7773,1,2,0:2:0:0:
237,176,7949,1,2,3:2:0:0:
202,372,8126,1,2,0:2:0:0:
332,213,8302,1,2,1:2:0:0:
420,371,8479,2,0,P|361:355|327:348,1,70.5200010760498,2|0,0:2|3:2,0:2:0:0:
431,122,8832,1,2,0:2:0:0:
474,280,9008,1,2,3:2:0:0:
422,99,9185,1,2,0:2:0:0:
302,277,9361,5,2,1:2:0:0:
451,204,9538,1,2,0:2:0:0:
310,94,9714,2,0,P|268:81|230:90,1,70.5200010760498,2|0,1:2|0:2,0:2:0:0:
406,307,10067,2,0,P|455:306|489:215,1,141.0400021521,2|0,1:2|3:2,0:2:0:0:
306,112,10596,1,2,0:2:0:0:
377,274,10773,1,2,1:2:0:0:
436,74,10949,1,2,0:2:0:0:
279,213,11126,1,2,1:2:0:0:
359,11,11302,1,2,0:2:0:0:
460,242,11479,5,8,0:2:0:0:
460,242,11567,1,8,0:2:0:0:
460,242,11655,2,0,L|393:229,1,35.2600005380249,8|8,0:2|0:2,0:2:0:0:
237,79,11832,1,8,0:2:0:0:
237,79,11920,1,8,0:2:0:0:
237,79,12008,2,0,L|304:66,1,35.2600005380249,8|8,0:2|0:2,0:2:0:0:
320,263,12185,5,4,1:2:0:0:
140,149,12361,1,0,1:2:0:0:
348,57,12538,2,0,L|367:161,1,79.1199973439942,10|0,0:2|0:2,0:2:0:0:
104,272,12890,2,0,L|118:194,1,79.1199973439942,2|8,1:2|1:3,0:2:0:0:
306,331,13243,1,10,0:2:0:0:
220,151,13420,1,0,1:2:0:0:
126,358,13596,2,0,P|78:360|46:337,1,79.1199973439942,2|0,1:2|1:2,0:2:0:0:
308,119,13949,1,10,0:2:0:0:
212,316,14126,1,2,1:2:0:0:
137,91,14302,2,0,P|102:73|63:77,1,79.1199973439942,2|8,1:2|1:3,0:2:0:0:
250,327,14655,2,0,P|288:331|323:313,1,79.1199973439942,10|0,0:2|1:2,0:2:0:0:
275,128,15008,6,0,L|259:224,1,79.1199973439942,0|0,1:2|1:2,0:2:0:0:
462,86,15361,1,10,0:2:0:0:
275,0,15538,1,2,1:2:0:0:
411,198,15714,2,0,P|449:202|484:184,1,79.1199973439942,2|8,1:2|1:3,0:2:0:0:
365,0,16067,1,10,0:2:0:0:
267,203,16243,1,2,1:2:0:0:
439,67,16420,2,0,P|473:48|512:52,1,79.1199973439942,2|0,1:2|1:2,0:2:0:0:
287,284,16773,2,0,P|248:287|213:269,1,79.1199973439942,10|0,0:2|1:2,0:2:0:0:
128,56,17126,1,2,1:2:0:0:
41,267,17302,1,8,1:3:0:0:
234,129,17479,2,0,L|221:50,1,79.1199973439942,8|0,0:2|1:2,0:2:0:0:
27,284,17832,5,4,1:2:0:0:
240,167,18008,1,0,1:2:0:0:
36,53,18185,2,0,L|23:131,1,79.1199973439942,10|0,0:2|1:2,0:2:0:0:
287,269,18538,2,0,L|274:190,1,79.1199973439942,2|8,1:2|1:3,0:2:0:0:
320,9,18890,1,10,0:2:0:0:
151,148,19067,1,0,1:2:0:0:
367,96,19243,2,0,P|416:81|458:92,1,79.1199973439942,2|0,1:2|1:2,0:2:0:0:
270,295,19596,2,0,P|230:298|194:284,1,79.1199973439942,10|0,0:2|1:2,0:2:0:0:
66,73,19949,1,2,1:2:0:0:
245,188,20126,1,8,1:3:0:0:
32,280,20302,2,0,L|19:201,1,79.1199973439942,10|0,0:2|1:2,0:2:0:0:
257,48,20655,5,0,1:2:0:0:
153,240,20832,1,0,1:2:0:0:
39,49,21008,2,0,P|75:34|114:38,1,79.1199973439942,10|0,0:2|1:2,0:2:0:0:
253,279,21361,2,0,P|213:282|177:268,1,79.1199973439942,2|0,1:2|1:2,0:2:0:0:
347,0,21714,1,10,0:2:0:0:
411,278,21890,1,8,1:3:0:0:
200,80,22067,5,10,0:2:0:0:
200,80,22420,2,0,L|186:168,2,72.2399977954102,2|2|2,0:2|0:2|0:2,0:2:0:0:
415,334,23489,5,6,1:2:0:0:
306,86,23665,1,0,1:2:0:0:
236,361,23841,1,8,0:2:0:0:
413,113,24018,1,8,1:3:0:0:
217,377,24194,2,0,L|205:290,1,87.7200005354004,2|0,1:2|0:2,0:2:0:0:
446,93,24547,2,0,L|434:181,1,87.7200005354004,10|0,0:2|3:2,0:2:0:0:
191,81,24900,1,2,1:2:0:0:
332,270,25077,1,8,1:3:0:0:
376,31,25253,2,0,P|409:11|463:13,1,87.7200005354004,10|0,0:2|0:2,0:2:0:0:
204,237,25606,1,2,1:2:0:0:
428,138,25783,1,8,1:3:0:0:
187,23,25959,2,0,L|167:108,1,87.7200005354004,10|0,0:2|1:2,0:2:0:0:
368,344,26312,5,8,0:2:0:0:
273,63,26489,1,0,1:2:0:0:
246,379,26665,1,8,0:2:0:0:
357,102,26841,1,0,1:2:0:0:
125,333,27018,2,0,P|74:311|37:303,1,87.7200005354004,2|0,1:2|0:2,0:2:0:0:
296,155,27371,2,0,P|335:136|378:125,1,87.7200005354004,10|0,0:2|0:2,0:2:0:0:
97,68,27724,1,2,3:2:0:0:
185,279,27900,1,8,1:3:0:0:
255,85,28077,2,0,L|274:-5,1,87.7200005354004,10|2,0:2|0:2,0:2:0:0:
74,254,28430,1,2,1:2:0:0:
299,175,28606,1,0,1:2:0:0:
84,52,28783,1,10,0:2:0:0:
84,52,28871,1,8,0:2:0:0:
84,52,28959,2,0,L|96:113,1,43.8600002677002,8|8,0:2|0:2,0:2:0:0:
261,276,29136,5,0,1:2:0:0:
177,65,29312,1,0,1:2:0:0:
61,292,29488,1,10,0:2:0:0:
261,106,29665,1,8,1:3:0:0:
349,384,29841,2,0,P|289:363|249:353,1,87.7200005354004,2|0,1:2|0:2,0:2:0:0:
63,184,30194,2,0,P|104:168|146:156,1,87.7200005354004,10|0,0:2|0:2,0:2:0:0:
412,250,30547,1,2,3:2:0:0:
267,25,30724,1,8,1:3:0:0:
194,317,30900,2,0,P|185:271|171:217,1,87.7200005354004,10|0,0:2|0:2,0:2:0:0:
418,55,31253,1,2,1:2:0:0:
308,267,31430,1,0,1:2:0:0:
248,34,31606,2,0,P|206:18|161:26,1,87.7200005354004,10|0,0:2|0:2,0:2:0:0:
58,310,31959,5,0,1:2:0:0:
286,190,32136,1,2,1:2:0:0:
58,92,32312,1,10,0:2:0:0:
223,314,32488,1,2,1:2:0:0:
148,40,32665,1,2,3:2:0:0:
52,271,32841,1,0,1:2:0:0:
280,72,33018,2,0,B|325:119|325:119|281:234,1,175.440001070801,10|0,0:2|3:2,0:2:0:0:
96,127,33547,1,8,1:3:0:0:
245,330,33724,1,10,0:2:0:0:
173,84,33900,1,0,1:2:0:0:
90,327,34077,2,0,P|49:341|7:329,1,87.7200005354004,2|8,3:2|1:3,0:2:0:0:
197,69,34430,2,0,P|238:57|279:71,1,87.7200005354004,10|0,0:2|0:2,0:2:0:0:
472,287,34783,5,6,1:2:0:0:
236,159,34959,1,0,1:2:0:0:
493,296,35136,1,8,0:2:0:0:
213,365,35312,1,8,1:3:0:0:
470,135,35488,2,0,P|457:174|448:221,1,87.7200005354004,2|0,1:2|0:2,0:2:0:0:
200,383,35841,2,0,P|192:339|179:298,1,87.7200005354004,10|0,0:2|0:2,0:2:0:0:
297,110,36194,1,2,3:2:0:0:
61,220,36371,1,8,1:3:0:0:
318,299,36547,2,0,P|390:304|419:292,1,87.7200005354004,10|0,0:2|0:2,0:2:0:0:
126,62,36900,1,2,3:2:0:0:
350,191,37077,1,0,1:2:0:0:
82,305,37253,2,0,P|74:261|61:220,1,87.7200005354004,10|0,0:2|0:2,0:2:0:0:
315,75,37606,5,10,0:2:0:0:
193,337,37783,1,0,1:2:0:0:
205,40,37959,1,10,0:2:0:0:
305,307,38136,1,0,1:2:0:0:
409,39,38312,2,0,P|468:22|505:36,1,87.7200005354004,0|2,1:2|0:2,0:2:0:0:
281,277,38665,2,0,P|238:283|198:266,1,87.7200005354004,10|0,0:2|0:2,0:2:0:0:
121,63,39018,1,2,3:2:0:0:
45,282,39194,1,8,1:3:0:0:
278,36,39371,2,0,P|213:18|179:15,1,87.7200005354004,10|0,0:2|0:2,0:2:0:0:
57,266,39724,1,2,1:2:0:0:
248,136,39900,1,0,1:2:0:0:
40,52,40077,1,10,0:2:0:0:
40,52,40165,1,8,0:2:0:0:
40,52,40253,2,0,L|54:126,1,43.8600002677002,8|8,0:2|0:2,0:2:0:0:
265,248,40430,5,0,1:2:0:0:
121,52,40606,1,0,1:2:0:0:
51,298,40783,1,10,0:2:0:0:
270,159,40959,1,8,1:3:0:0:
40,52,41136,2,0,B|-2:110|-2:110|39:211,1,175.440001070801,2|8,1:2|0:2,0:2:0:0:
234,75,41665,1,2,0:2:0:0:
82,304,41841,2,0,P|39:310|0:293,1,87.7200005354004,2|8,3:2|1:3,0:2:0:0:
253,56,42194,2,0,P|292:39|335:45,1,87.7200005354004,10|0,0:2|0:2,0:2:0:0:
463,308,42547,1,2,1:2:0:0:
239,197,42724,1,0,1:2:0:0:
470,56,42900,2,0,L|491:150,1,87.7200005354004,10|0,0:2|1:2,0:2:0:0:
260,313,43253,5,0,1:2:0:0:
372,96,43430,1,2,1:2:0:0:
383,349,43606,1,10,0:2:0:0:
271,132,43783,1,2,1:2:0:0:
153,365,43959,1,2,1:2:0:0:
390,222,44136,1,2,1:3:0:0:
148,92,44312,2,0,B|108:142|108:142|161:250,1,175.440001070801,10|0,0:2|3:2,0:2:0:0:
399,189,44841,5,2,1:2:0:0:
219,39,45018,1,10,0:2:0:0:
325,279,45194,1,2,1:2:0:0:
465,26,45371,5,10,0:2:0:0:
208,185,45547,1,0,1:2:0:0:
467,267,45724,1,10,0:2:0:0:
342,17,45900,1,0,1:2:0:0:
214,281,46077,6,0,P|155:274|126:251,1,96.3200011757813,14|0,0:2|1:2,0:2:0:0:
294,56,46430,5,10,0:2:0:0:
399,322,46606,1,2,1:2:0:0:
393,41,46783,5,10,0:2:0:0:
290,283,46959,1,8,1:3:0:0:
185,17,47136,5,10,0:2:0:0:
410,163,47312,1,0,1:2:0:0:
144,279,47488,5,8,0:2:0:0:
269,42,47665,1,0,1:2:0:0:
269,335,47841,5,10,0:2:0:0:
163,79,48018,1,2,1:2:0:0:
46,345,48194,5,10,0:2:0:0:
293,212,48371,1,8,1:3:0:0:
19,101,48547,5,10,0:2:0:0:
160,379,48724,1,0,1:2:0:0:
272,68,48900,6,0,P|305:51|373:53,1,96.3200011757813,8|0,0:2|1:2,0:2:0:0:
464,342,49253,5,10,0:2:0:0:
212,198,49430,1,2,1:2:0:0:
498,103,49606,5,10,0:2:0:0:
366,376,49783,1,8,1:3:0:0:
292,67,49959,5,10,0:2:0:0:
480,319,50136,1,0,1:2:0:0:
376,17,50312,5,10,0:2:0:0:
263,332,50488,1,0,1:2:0:0:
451,77,50665,5,10,0:2:0:0:
369,384,50841,1,0,1:2:0:0:
219,52,51018,5,10,0:2:0:0:
480,319,51194,1,8,1:3:0:0:
145,212,51371,5,10,0:2:0:0:
477,51,51547,1,0,1:2:0:0:
133,384,51724,6,0,L|114:262,1,96.3200011757813,12|0,0:2|1:2,0:2:0:0:
327,73,52077,5,10,0:2:0:0:
213,342,52253,1,2,1:2:0:0:
221,30,52430,5,10,0:2:0:0:
335,299,52606,1,8,1:3:0:0:
451,11,52783,5,10,0:2:0:0:
170,172,52959,1,0,1:2:0:0:
453,306,53136,5,8,0:2:0:0:
323,41,53312,1,0,1:2:0:0:
236,346,53488,5,10,0:2:0:0:
323,59,53665,1,2,1:2:0:0:
472,370,53841,5,10,0:2:0:0:
204,200,54018,1,8,1:3:0:0:
487,113,54194,5,10,0:2:0:0:
346,384,54371,1,0,1:2:0:0:
214,92,54547,6,0,P|166:68|114:71,1,96.3200011757813,12|0,0:2|1:2,0:2:0:0:
272,345,54900,5,10,0:2:0:0:
411,34,55077,1,2,1:2:0:0:
425,375,55253,5,10,0:2:0:0:
272,60,55430,1,8,1:3:0:0:
146,384,55606,5,10,0:2:0:0:
474,226,55783,1,0,1:2:0:0:
131,47,55959,5,10,0:2:0:0:
286,384,56136,1,0,1:2:0:0:
315,0,56312,5,10,0:2:0:0:
158,298,56488,1,0,1:2:0:0:
55,6,56665,5,10,0:2:0:0:
318,168,56841,1,8,0:3:0:0:
62,218,57018,1,6,0:3:0:0:
215,17,57194,1,4,1:3:0:0:
269,273,57371,6,0,B|313:345|396:329|396:329|349:359|264:399|138:274|259:242|173:108|74:123|27:143,1,624.360019053956,4|0,1:2|0:2,0:2:0:0:
