osu file format v14

[General]
AudioFilename: audio.mp3
AudioLeadIn: 0
PreviewTime: -1
Countdown: 0
SampleSet: Soft
StackLeniency: 0.4
Mode: 0
LetterboxInBreaks: 0
WidescreenStoryboard: 1

[Editor]
DistanceSpacing: 1
BeatDivisor: 4
GridSize: 4
TimelineZoom: 1.6

[Metadata]
Title:Duality
TitleUnicode:Duality
Artist:Set It Off
ArtistUnicode:Set It Off
Creator:xTN_Solitarang
Version:Ridiculous
Source:
Tags:
BeatmapID:1710445
BeatmapSetID:803504

[Difficulty]
HPDrainRate:7
CircleSize:5
OverallDifficulty:8
ApproachRate:9
SliderMultiplier:2
SliderTickRate:1

[Events]
//Background and Video events
0,0,"duality.jpg",0,0
//Break Periods
2,99628,100542
2,169914,182828
//Storyboard Layer 0 (Background)
//Storyboard Layer 1 (Fail)
//Storyboard Layer 2 (Pass)
//Storyboard Layer 3 (Foreground)
//Storyboard Sound Samples

[TimingPoints]
0,428.571428571429,4,2,0,40,1,0
27964,-40,4,3,0,40,0,0
30000,-40,4,2,0,40,0,0
30530,-66.6666666666667,4,3,0,40,0,0
31607,-66.6666666666667,4,2,0,40,0,0
32464,-66.6666666666667,4,3,0,40,0,0
33321,-66.6666666666667,4,2,0,40,0,0
34178,-66.6666666666667,4,3,0,40,0,0
35035,-66.6666666666667,4,2,0,40,0,0
35892,-66.6666666666667,4,3,0,40,0,0
37714,-66.6666666666667,4,3,0,40,0,0
38892,-66.6666666666667,4,1,0,40,0,0
39321,-66.6666666666667,4,3,0,40,0,0
40607,-66.6666666666667,4,1,0,40,0,0
41035,-66.6666666666667,4,3,0,40,0,0
44892,-66.6666666666667,4,2,0,70,0,0
51321,-66.6666666666667,4,3,0,40,0,0
51750,-66.6666666666667,4,2,0,70,0,0
56785,-66.6666666666667,4,3,0,34,0,0
57964,-50,4,1,0,70,0,0
58569,-50,4,2,0,70,0,1
60423,-50,4,3,0,70,0,1
61188,-50,4,2,0,70,0,1
65785,-66.6666666666667,4,2,0,70,0,1
71058,-50,4,2,0,70,0,1
78964,-66.6666666666667,4,2,0,70,0,0
85928,-66.6666666666667,4,3,0,70,0,0
90964,-66.6666666666667,4,2,0,70,0,0
92678,-66.6666666666667,4,3,0,70,0,0
97714,-40,4,2,0,70,0,0
100285,-66.6666666666667,4,3,0,70,0,0
113980,-66.6666666666667,4,2,0,70,0,0
128250,-66.6666666666667,4,1,0,70,0,0
128678,-50,4,2,0,70,0,1
136821,-66.6666666666667,4,2,0,70,0,1
142607,-50,4,2,0,70,0,1
149250,-66.6666666666667,4,2,0,70,0,0
153107,-50,4,2,0,70,0,0
155035,-66.6666666666667,4,2,0,70,0,0
156107,-66.6666666666667,4,3,0,70,0,0
168321,-50,4,2,0,70,0,0
183214,-66.6666666666667,4,2,0,70,0,0
196821,-66.6666666666667,4,1,0,70,0,0
197357,-50,4,2,0,70,0,1
202613,-33.3333333333333,4,2,0,70,0,1
203038,-50,4,2,0,70,0,1
203565,-33.3333333333333,4,2,0,70,0,1
203995,-66.6666666666667,4,2,0,70,0,1
207642,-50,4,2,0,70,0,1
208073,-40,4,2,0,70,0,1
208500,-33.3333333333333,4,2,0,70,0,1
209035,-40,4,2,0,70,0,1
217821,-40,4,2,0,70,0,0
224678,-50,4,3,0,70,0,0
237321,-39.2156862745098,4,3,0,70,0,0

[Colours]
Combo1 : 243,236,143
Combo2 : 164,240,145
Combo3 : 255,128,128
Combo4 : 255,169,83
Combo5 : 128,128,255

[HitObjects]
256,36,642,5,0,0:0:0:0:
316,168,857,1,0,0:0:0:0:
256,168,964,1,0,0:0:0:0:
196,168,1071,1,0,0:0:0:0:
256,104,1285,1,0,0:0:0:0:
256,304,1500,1,0,0:0:0:0:
220,192,1714,5,0,0:0:0:0:
183,300,1929,1,0,0:0:0:0:
71,335,2143,1,0,0:0:0:0:
90,281,2250,1,0,0:0:0:0:
112,227,2357,1,0,0:0:0:0:
288,72,2571,5,0,0:0:0:0:
184,135,2786,1,0,0:0:0:0:
80,81,3000,1,0,0:0:0:0:
132,49,3107,1,0,0:0:0:0:
184,18,3215,1,0,0:0:0:0:
372,192,3428,5,0,0:0:0:0:
256,312,3642,1,0,0:0:0:0:
140,192,3857,1,0,0:0:0:0:
256,60,4071,2,0,B|216:136|216:136|300:136|300:136|268:88,1,200
256,96,4714,5,0,0:0:0:0:
324,228,4929,1,0,0:0:0:0:
192,228,5143,1,0,0:0:0:0:
362,129,5357,6,0,P|406:134|426:177,1,50
377,191,5571,1,0,0:0:0:0:
115,207,5785,6,0,P|92:217|68:215,1,50
83,153,5999,1,0,0:0:0:0:
228,152,6214,5,0,0:0:0:0:
254,194,6321,1,0,0:0:0:0:
280,236,6428,1,0,0:0:0:0:
360,148,6642,5,0,0:0:0:0:
298,172,6857,2,0,P|335:84|425:132,1,200
360,148,7500,2,0,P|323:236|233:188,1,200
156,261,8142,1,0,0:0:0:0:
231,326,8357,1,0,0:0:0:0:
330,330,8571,1,0,0:0:0:0:
71,78,9000,5,0,0:0:0:0:
400,40,9428,5,0,0:0:0:0:
160,144,9642,1,0,0:0:0:0:
352,240,9857,1,0,0:0:0:0:
112,344,10071,1,0,0:0:0:0:
256,192,10500,5,0,0:0:0:0:
256,192,10607,1,0,0:0:0:0:
256,192,10714,1,0,0:0:0:0:
372,240,10928,5,0,0:0:0:0:
176,168,11142,2,0,P|176:232|136:252,1,100
144,108,11464,2,0,P|88:76|91:31,1,100
212,112,11785,2,0,P|267:80|304:104,1,100
420,100,12214,5,0,0:0:0:0:
380,191,12428,1,0,0:0:0:0:
280,193,12642,1,0,0:0:0:0:
179,193,12857,1,0,0:0:0:0:
127,278,13071,1,0,0:0:0:0:
226,280,13285,1,0,0:0:0:0:
256,68,13714,5,0,0:0:0:0:
256,32,14357,5,0,0:0:0:0:
196,156,14571,1,0,0:0:0:0:
256,156,14678,1,0,0:0:0:0:
316,156,14785,1,0,0:0:0:0:
256,300,15000,1,0,0:0:0:0:
256,300,15214,1,0,0:0:0:0:
464,300,15428,5,0,0:0:0:0:
483,207,15642,1,0,0:0:0:0:
388,208,15857,2,0,B|388:256|388:256|344:340,1,100
304,224,16285,2,0,B|304:176|304:176|260:92,1,100
220,224,16714,2,0,B|168:224|168:224|88:268,1,100
104,168,17142,2,0,B|146:144|146:144|198:144,1,100
296,312,17571,1,0,0:0:0:0:
292,192,17785,1,0,0:0:0:0:
296,312,18000,1,0,0:0:0:0:
368,192,18214,1,0,0:0:0:0:
296,312,18428,1,0,0:0:0:0:
444,192,18642,1,0,0:0:0:0:
296,312,18857,1,0,0:0:0:0:
256,40,19285,6,0,B|256:92|256:92|208:92,1,100
208,160,19714,2,0,B|256:160|256:160|256:212,1,100
324,212,20142,2,0,B|324:160|324:160|372:160,1,100
328,92,20571,1,0,0:0:0:0:
328,20,20785,1,0,0:0:0:0:
328,92,21000,1,0,0:0:0:0:
423,92,21214,1,0,0:0:0:0:
328,92,21428,1,0,0:0:0:0:
324,216,21642,1,0,0:0:0:0:
328,92,21857,1,0,0:0:0:0:
136,92,22071,1,0,0:0:0:0:
328,92,22285,1,0,0:0:0:0:
176,152,23142,6,0,B|176:184|176:184|216:212|216:212|216:268,1,100
336,152,23571,2,0,B|336:184|336:184|296:212|296:212|296:268,1,100
256,132,24214,1,0,0:0:0:0:
256,132,24321,1,0,0:0:0:0:
256,132,24428,1,0,0:0:0:0:
256,348,24642,5,0,0:0:0:0:
168,234,24857,2,0,P|145:183|168:143,1,100
210,101,25178,2,0,P|255:82|298:105,1,100
343,149,25500,2,0,P|366:192|347:236,1,100
256,268,25928,1,0,0:0:0:0:
256,116,26142,1,0,0:0:0:0:
256,268,26357,1,0,0:0:0:0:
256,116,26571,1,0,0:0:0:0:
460,328,27000,5,0,0:0:0:0:
52,328,27428,5,0,0:0:0:0:
256,168,28071,5,0,0:0:0:0:
260,284,28285,2,0,B|212:168|212:168|256:52|256:52|300:168|300:168|232:356,1,500
256,164,29142,1,0,0:0:0:0:
380,72,29464,5,0,0:0:0:0:
392,216,29785,1,0,0:0:0:0:
88,192,30000,1,4,0:0:0:0:
312,64,30428,5,0,0:0:0:0:
312,88,30535,1,0,0:0:0:0:
320,104,30642,1,0,0:0:0:0:
336,120,30750,1,0,0:0:0:0:
352,128,30857,1,0,0:0:0:0:
396,48,31178,5,0,0:0:0:0:
116,336,31500,1,0,0:0:0:0:
132,88,31714,6,0,B|192:136|192:136|192:260,1,150.000005722046
276,136,32142,2,0,B|276:214|276:214|356:282,1,150.000005722046
408,164,32571,5,0,0:0:0:0:
304,308,32785,1,0,0:0:0:0:
256,340,32892,1,0,0:0:0:0:
212,308,33000,1,0,0:0:0:0:
104,164,33214,1,0,0:0:0:0:
195,175,33428,2,0,B|256:224|256:224|331:163,1,150.000005722046
256,135,33857,2,0,B|257:110|257:110|324:76|257:46|257:46|257:7,1,150.000005722046
392,88,34285,5,0,0:0:0:0:
392,192,34500,1,0,0:0:0:0:
344,228,34607,1,0,0:0:0:0:
296,260,34714,1,0,0:0:0:0:
296,48,34928,1,0,0:0:0:0:
217,94,35142,6,0,B|168:156|168:156|168:276,1,150.000005722046
94,206,35571,2,0,B|96:128|96:128|152:60,1,150.000005722046
132,304,36000,5,0,0:0:0:0:
356,340,36214,2,0,P|356:236|432:224,1,150.000005722046
408,288,36642,2,0,L|248:244,1,150.000005722046
256,192,37071,5,0,0:0:0:0:
256,192,37178,1,0,0:0:0:0:
256,192,37285,1,0,0:0:0:0:
256,192,37392,1,0,0:0:0:0:
256,192,37499,1,0,0:0:0:0:
256,76,37714,5,0,0:0:0:0:
400,188,37928,2,0,P|352:188|324:244,1,75.0000028610231
380,256,38142,1,0,0:0:0:0:
100,270,38357,2,0,P|172:270|216:166,1,150.000005722046
137,195,38785,2,0,P|182:138|255:138,1,150.000005722046
441,254,39214,1,0,0:0:0:0:
256,32,39428,5,0,0:0:0:0:
256,304,39642,2,0,L|300:220,1,75.0000028610231
322,180,39857,1,0,0:0:0:0:
221,163,40071,2,0,P|214:75|100:35,1,150.000005722046
120,158,40500,2,0,P|151:106|97:126,1,150.000005722046
112,331,40928,1,0,0:0:0:0:
352,316,41142,5,0,0:0:0:0:
347,240,41357,2,0,P|313:249|279:298,2,75.0000028610231
165,51,41785,2,0,P|89:50|32:153,1,150.000005722046
126,137,42214,1,0,0:0:0:0:
269,179,42428,1,0,0:0:0:0:
414,145,42642,1,0,0:0:0:0:
56,70,42857,5,0,0:0:0:0:
58,219,43071,1,0,0:0:0:0:
174,312,43285,1,0,0:0:0:0:
323,312,43499,1,0,0:0:0:0:
399,289,43714,6,0,P|434:258|419:190,1,75.0000028610231
373,226,43928,2,0,L|302:186,1,75.0000028610231
260,237,44142,2,0,P|240:206|243:170,1,75.0000028610231
294,116,44357,1,0,0:0:0:0:
262,323,44571,5,0,0:0:0:0:
93,188,45000,6,0,B|144:78|231:49|368:100,1,300.000011444092
185,270,45642,1,0,0:0:0:0:
342,91,45857,1,0,0:0:0:0:
286,328,46071,1,0,0:0:0:0:
348,95,46285,1,0,0:0:0:0:
402,329,46500,1,0,0:0:0:0:
342,91,46714,6,0,B|167:26|262:223|79:149,1,300.000011444092
119,334,47357,1,0,0:0:0:0:
89,186,47571,1,0,0:0:0:0:
265,335,47785,1,0,0:0:0:0:
90,192,48000,1,0,0:0:0:0:
436,323,48214,1,0,0:0:0:0:
89,186,48428,6,0,L|417:54,1,300.000011444092
146,265,49071,1,0,0:0:0:0:
367,73,49285,1,0,0:0:0:0:
242,343,49500,1,0,0:0:0:0:
367,73,49714,6,0,B|400:143|400:143|370:210,1,150.000005722046
315,136,50142,2,0,B|282:206|282:206|316:275,1,150.000005722046
211,320,50571,6,0,B|247:264|214:221|214:221|214:172,1,150.000005722046
153,238,51000,2,0,B|109:238|109:238|66:271|10:235,1,150.000005722046
296,229,51428,5,0,0:0:0:0:
296,229,51642,1,0,0:0:0:0:
356,195,51857,2,0,P|227:221|352:268,1,300.000011444092
400,134,52500,5,0,0:0:0:0:
305,296,52714,1,0,0:0:0:0:
222,150,52928,1,0,0:0:0:0:
305,296,53142,1,0,0:0:0:0:
71,231,53357,1,0,0:0:0:0:
263,51,53571,2,0,B|189:51|119:4|119:4|114:88|45:137,1,300.000011444092
174,316,54214,5,0,0:0:0:0:
55,131,54428,1,0,0:0:0:0:
280,219,54642,1,0,0:0:0:0:
55,131,54857,1,0,0:0:0:0:
275,68,55071,1,0,0:0:0:0:
422,128,55285,6,0,P|484:196|440:287,1,150.000005722046
402,211,55714,2,0,B|360:194|336:230|336:230|305:270|253:242,1,150.000005722046
219,231,56035,1,0,0:0:0:0:
168,206,56142,1,0,0:0:0:0:
103,337,56357,1,0,0:0:0:0:
256,192,56678,12,0,57428,0:0:0:0:
362,78,57642,5,0,0:0:0:0:
377,87,57750,1,0,0:0:0:0:
388,99,57857,1,0,0:0:0:0:
403,207,58071,1,0,0:0:0:0:
270,260,58285,1,0,0:0:0:0:
76,101,58714,6,0,P|92:151|183:173,1,100
152,103,58928,2,0,P|191:131|205:178,1,100
281,174,59142,1,0,0:0:0:0:
281,174,59250,1,0,0:0:0:0:
281,174,59357,2,0,P|267:221|228:250,1,100
69,297,59571,6,0,L|177:331,1,100
215,342,59785,1,0,0:0:0:0:
356,341,60000,1,0,0:0:0:0:
407,317,60107,1,0,0:0:0:0:
450,278,60214,1,0,0:0:0:0:
277,85,60428,1,0,0:0:0:0:
327,37,60642,1,0,0:0:0:0:
345,79,60749,1,0,0:0:0:0:
336,123,60856,2,0,P|222:130|214:53,1,200
99,106,61285,5,0,0:0:0:0:
75,114,61392,1,0,0:0:0:0:
58,132,61499,1,0,0:0:0:0:
50,155,61606,1,0,0:0:0:0:
48,181,61714,2,0,B|48:234|48:234|94:285,1,100
124,204,61928,2,0,B|155:238|155:238|155:291,1,100
316,316,62142,5,0,0:0:0:0:
316,291,62249,1,0,0:0:0:0:
316,266,62356,1,0,0:0:0:0:
316,241,62463,1,0,0:0:0:0:
316,217,62571,2,0,P|265:192|245:137,1,100
321,139,62785,2,0,P|296:96|251:77,1,100
151,51,63000,5,0,0:0:0:0:
128,61,63107,1,0,0:0:0:0:
111,79,63214,1,0,0:0:0:0:
102,103,63321,1,0,0:0:0:0:
97,127,63428,2,0,L|201:162,1,100
370,127,63642,2,0,L|266:162,1,100
97,211,63857,2,0,L|201:246,1,100
370,211,64071,2,0,L|266:246,1,100
438,321,64285,6,0,P|458:268|435:208,1,100
438,63,64500,2,0,P|418:116|441:176,1,100
342,321,64714,2,0,P|362:268|339:208,1,100
342,63,64929,2,0,P|322:116|345:176,1,100
331,156,65142,1,0,0:0:0:0:
211,123,65357,5,0,0:0:0:0:
189,321,65571,1,0,0:0:0:0:
248,316,65678,1,0,0:0:0:0:
304,341,65785,1,0,0:0:0:0:
369,96,66000,5,0,0:0:0:0:
439,301,66214,1,0,0:0:0:0:
396,261,66321,1,0,0:0:0:0:
452,244,66428,1,0,0:0:0:0:
127,292,66642,5,0,0:0:0:0:
110,110,66857,2,0,P|162:112|208:49,1,75.0000028610231
140,45,67071,2,0,P|174:31|211:36,1,75.0000028610231
235,53,67285,1,0,0:0:0:0:
195,253,67500,5,0,0:0:0:0:
138,201,67714,2,0,P|121:270|169:324,1,150.000005722046
253,304,68035,2,0,P|270:235|222:182,1,150.000005722046
171,138,68357,1,0,0:0:0:0:
257,36,68571,6,0,B|220:103|220:103|311:102,1,150.000005722046
163,317,69000,2,0,B|123:251|123:251|78:330,1,150.000005722046
352,321,69428,2,0,B|428:319|428:319|382:241,1,150.000005722046
296,175,69857,2,0,B|256:240|256:240|211:161,1,150.000005722046
258,100,70285,1,0,0:0:0:0:
387,73,70500,5,0,0:0:0:0:
237,301,70714,1,0,0:0:0:0:
237,301,70821,1,0,0:0:0:0:
237,301,70928,1,0,0:0:0:0:
142,140,71142,5,0,0:0:0:0:
191,185,71357,2,0,P|161:205|124:206,1,75.0000028610231
76,160,71571,2,0,P|74:123|92:91,1,75.0000028610231
155,71,71785,2,0,P|188:88|206:119,1,75.0000028610231
206,119,72000,1,0,0:0:0:0:
294,330,72214,1,0,0:0:0:0:
414,70,72428,6,0,P|438:116|389:196,1,100
361,125,72642,2,0,P|353:172|376:215,1,100
448,240,72856,1,0,0:0:0:0:
448,240,72964,1,0,0:0:0:0:
448,240,73071,2,0,P|418:279|372:293,1,100
136,116,73285,6,0,P|193:112|235:154,1,100
168,186,73499,1,0,0:0:0:0:
127,283,73714,1,0,0:0:0:0:
167,302,73821,1,0,0:0:0:0:
206,285,73928,1,0,0:0:0:0:
406,298,74142,5,0,0:0:0:0:
433,180,74356,1,0,0:0:0:0:
450,217,74463,1,0,0:0:0:0:
463,256,74570,2,0,P|349:249|341:326,1,200
231,133,75000,6,0,P|184:157|104:108,3,100
84,96,75428,2,0,P|127:72|176:80,3,100
387,216,75857,6,0,L|422:310,1,100
326,241,76071,1,0,0:0:0:0:
301,177,76178,2,0,L|208:212,1,100
279,117,76392,1,0,0:0:0:0:
340,93,76500,2,0,L|302:-11,1,100
361,333,76714,5,0,0:0:0:0:
384,323,76821,1,0,0:0:0:0:
401,305,76928,1,0,0:0:0:0:
410,281,77035,1,0,0:0:0:0:
415,257,77142,2,0,L|311:222,1,100
142,257,77356,2,0,L|246:222,1,100
415,173,77571,2,0,L|311:138,1,100
142,173,77785,2,0,L|246:138,1,100
74,321,77999,6,0,B|54:268|54:268|77:208,1,100
74,63,78214,2,0,B|94:116|94:116|71:176,1,100
170,321,78428,2,0,B|150:268|150:268|173:208,1,100
170,63,78643,2,0,B|190:116|190:116|167:176,1,100
234,199,78856,1,0,0:0:0:0:
360,176,79071,5,0,0:0:0:0:
338,142,79178,1,0,0:0:0:0:
319,109,79285,2,0,P|391:104|435:162,1,150.000005722046
511,178,79714,6,0,P|466:235|395:229,1,150.000005722046
176,303,80035,1,0,0:0:0:0:
210,317,80142,2,0,P|282:313|328:257,1,150.000005722046
300,82,80571,1,0,0:0:0:0:
242,232,80785,5,0,0:0:0:0:
242,232,80892,1,0,0:0:0:0:
242,232,81000,1,0,0:0:0:0:
372,116,81214,2,0,B|320:198|228:130,1,150.000005722046
381,175,81642,6,0,P|476:119|489:264,1,300.000011444092
456,194,82178,1,0,0:0:0:0:
456,194,82285,1,0,0:0:0:0:
456,190,82393,2,0,P|416:231|357:244,1,75.0000028610231
400,130,82607,2,0,P|360:171|301:184,1,75.0000028610231
257,344,82928,5,0,0:0:0:0:
206,330,83035,1,0,0:0:0:0:
164,297,83142,2,0,P|130:271|125:210,1,75.0000028610231
223,232,83357,2,0,P|185:214|230:224,1,75.0000028610231
145,124,83571,1,0,0:0:0:0:
179,59,83785,5,0,0:0:0:0:
179,59,83892,1,0,0:0:0:0:
150,48,84000,2,0,P|113:53|84:76,1,75.0000028610231
317,235,84214,1,0,0:0:0:0:
340,273,84321,2,0,P|340:316|381:364,1,75.0000028610231
372,93,84642,5,0,0:0:0:0:
422,291,84856,5,0,0:0:0:0:
233,340,85071,1,0,0:0:0:0:
265,290,85178,1,0,0:0:0:0:
298,240,85285,1,0,0:0:0:0:
361,301,85714,5,0,0:0:0:0:
361,226,85928,1,0,0:0:0:0:
425,263,86143,1,0,0:0:0:0:
103,21,86357,5,0,0:0:0:0:
66,85,86572,1,0,0:0:0:0:
141,85,86786,1,0,0:0:0:0:
141,85,86893,1,0,0:0:0:0:
140,84,87000,2,0,P|167:152|132:215,1,150.000005722046
352,170,87428,5,0,0:0:0:0:
352,50,87643,1,0,0:0:0:0:
455,110,87857,1,0,0:0:0:0:
187,193,88071,5,0,0:0:0:0:
84,253,88286,1,0,0:0:0:0:
193,318,88500,1,0,0:0:0:0:
193,318,88607,1,0,0:0:0:0:
193,318,88714,2,0,B|234:317|267:345|267:345|283:259|360:284,1,150.000005722046
63,207,89143,5,0,0:0:0:0:
63,34,89357,1,0,0:0:0:0:
212,120,89571,1,0,0:0:0:0:
465,150,89786,5,0,0:0:0:0:
465,323,90000,1,0,0:0:0:0:
316,237,90214,1,0,0:0:0:0:
316,237,90321,1,0,0:0:0:0:
316,237,90428,2,0,B|336:204|369:199|369:199|369:150|316:123,1,150.000005722046
382,273,91071,5,0,0:0:0:0:
257,29,91500,1,0,0:0:0:0:
308,328,91714,2,0,B|305:240|221:215,2,150.000005722046
489,329,92357,1,0,0:0:0:0:
194,337,92571,1,0,0:0:0:0:
327,54,92785,6,0,P|267:101|183:50,1,150.000005722046
229,52,93107,1,0,0:0:0:0:
256,25,93214,2,0,L|291:208,1,150.000005722046
392,54,93642,5,0,0:0:0:0:
344,117,93750,2,0,P|365:187|339:235,1,75.0000028610231
453,95,93964,2,0,P|464:60|458:23,1,75.0000028610231
443,185,94285,6,0,P|381:262|342:108,1,300.000011444092
125,137,94928,2,0,P|136:166|222:201,1,75.0000028610231
295,0,95142,1,0,0:0:0:0:
295,0,95250,1,0,0:0:0:0:
286,106,95357,2,0,P|275:77|189:42,1,75.0000028610231
205,123,95571,5,0,0:0:0:0:
343,46,95678,2,0,L|427:159,1,75.0000028610231
110,288,96000,5,0,0:0:0:0:
163,231,96214,2,0,P|93:211|38:257,1,150.000005722046
40,303,96535,1,0,0:0:0:0:
57,344,96642,2,0,P|126:364|182:318,2,150.000005722046
110,288,97178,2,0,L|91:203,1,75.0000028610231
180,222,97392,2,0,L|199:137,1,75.0000028610231
428,323,97928,5,0,0:0:0:0:
256,168,98357,5,0,0:0:0:0:
139,171,98571,2,0,B|255:123|255:123|371:167|371:167|255:211|255:211|67:143,1,500
90,316,99428,1,0,0:0:0:0:
73,64,101142,5,0,0:0:0:0:
228,333,101464,1,0,0:0:0:0:
347,106,101786,1,0,0:0:0:0:
250,163,102000,6,0,B|323:303,1,150.000005722046
214,103,102428,2,0,B|161:134|161:134|215:239,1,150.000005722046
430,330,102857,5,0,0:0:0:0:
413,142,103071,1,0,0:0:0:0:
365,174,103178,1,0,0:0:0:0:
316,204,103286,1,0,0:0:0:0:
164,174,103500,5,0,0:0:0:0:
235,145,103714,2,0,B|257:249|128:255,1,150.000005722046
163,81,104143,2,0,B|196:81|196:81|238:58|276:83|276:83|344:83,1,150.000005722046
209,289,104571,5,0,0:0:0:0:
426,304,104786,1,0,0:0:0:0:
426,304,104893,1,0,0:0:0:0:
426,304,105000,1,0,0:0:0:0:
78,124,105214,1,0,0:0:0:0:
285,107,105428,6,0,B|221:130|233:201|233:201|146:230,1,150.000005722046
305,178,105857,2,0,B|369:155|357:84|357:84|386:74,1,150.000005722046
408,288,106286,5,0,0:0:0:0:
452,196,106500,2,0,P|396:149|311:235,1,150.000005722046
384,220,106928,2,0,P|334:271|356:340,1,150.000005722046
261,210,107357,5,0,0:0:0:0:
240,203,107464,1,0,0:0:0:0:
240,180,107571,1,0,0:0:0:0:
261,173,107678,1,0,0:0:0:0:
275,192,107785,1,0,0:0:0:0:
276,97,108000,5,0,0:0:0:0:
495,32,108214,2,0,P|495:80|439:108,1,75.0000028610231
358,79,108428,2,0,P|312:22|239:22,1,150.000005722046
427,52,108857,1,0,0:0:0:0:
276,97,109071,2,0,P|231:154|158:154,1,150.000005722046
441,254,109500,1,0,0:0:0:0:
191,71,109714,5,0,0:0:0:0:
340,165,109928,2,0,P|369:137|427:160,1,75.0000028610231
392,201,110143,1,0,0:0:0:0:
493,196,110357,2,0,P|486:284|372:324,1,150.000005722046
369,237,110786,2,0,P|427:247|392:201,1,150.000005722046
126,137,111214,1,0,0:0:0:0:
352,316,111428,5,0,0:0:0:0:
347,240,111643,2,0,P|313:249|279:298,2,75.0000028610231
165,51,112071,2,0,P|89:50|32:153,1,150.000005722046
126,137,112500,1,0,0:0:0:0:
324,192,112714,1,0,0:0:0:0:
75,211,112928,1,0,0:0:0:0:
185,151,113143,5,0,0:0:0:0:
441,145,113357,1,0,0:0:0:0:
138,215,113571,1,0,0:0:0:0:
364,227,113785,1,0,0:0:0:0:
392,290,114000,6,0,P|427:259|412:191,1,75.0000028610231
263,137,114214,2,0,P|241:167|243:203,1,75.0000028610231
307,189,114428,2,0,P|330:219|373:226,1,75.0000028610231
368,160,114643,1,0,0:0:0:0:
72,36,114857,5,0,0:0:0:0:
105,215,115285,6,0,B|179:154|238:212|238:212|304:272|391:194,1,300.000011444092
177,263,115928,1,0,0:0:0:0:
299,159,116142,1,0,0:0:0:0:
374,135,116357,2,0,P|348:92|296:82,1,75.0000028610231
243,105,116571,2,0,P|218:149|236:199,1,75.0000028610231
262,233,116785,1,0,0:0:0:0:
262,233,116892,1,0,0:0:0:0:
73,62,117214,5,0,0:0:0:0:
73,62,117321,1,0,0:0:0:0:
73,62,117428,2,0,L|90:179,1,75.0000028610231
143,172,117642,1,0,0:0:0:0:
399,56,117857,2,0,B|410:122|410:122|351:139|350:215,1,150.000005722046
430,197,118178,1,0,0:0:0:0:
430,197,118285,1,0,0:0:0:0:
208,198,118500,6,0,P|120:305|230:268,1,300.000011444092
163,251,119142,1,0,0:0:0:0:
163,251,119250,1,0,0:0:0:0:
163,251,119357,1,0,0:0:0:0:
350,111,119571,1,0,0:0:0:0:
350,111,119678,1,0,0:0:0:0:
350,111,119785,2,0,P|317:42|211:37,1,150.000005722046
265,106,120214,1,0,0:0:0:0:
109,62,120428,5,0,0:0:0:0:
137,259,120642,1,0,0:0:0:0:
418,177,120857,1,0,0:0:0:0:
418,155,120964,1,0,0:0:0:0:
437,166,121071,1,0,0:0:0:0:
58,178,121285,2,0,B|123:231|104:317|104:317|181:260|250:288,1,300.000011444092
341,69,121928,5,0,0:0:0:0:
306,329,122142,2,0,P|359:304|376:242,1,75.0000028610231
303,254,122357,2,0,P|328:227|364:216,1,75.0000028610231
435,234,122571,1,0,0:0:0:0:
41,59,122785,1,0,0:0:0:0:
154,258,123000,6,0,B|125:282|125:282|117:335,1,75.0000028610231
95,210,123214,2,0,B|123:185|123:185|132:133,1,75.0000028610231
174,93,123428,1,0,0:0:0:0:
434,334,123642,1,0,0:0:0:0:
387,35,123857,5,0,0:0:0:0:
349,36,123964,1,0,0:0:0:0:
315,42,124071,1,0,0:0:0:0:
296,74,124178,1,0,0:0:0:0:
278,107,124285,1,0,0:0:0:0:
112,262,124500,2,0,P|103:355|-2:365,1,150.000005722046
51,339,124821,5,0,0:0:0:0:
47,302,124928,1,0,0:0:0:0:
398,288,125142,5,0,0:0:0:0:
384,256,125249,1,0,0:0:0:0:
398,225,125356,1,0,0:0:0:0:
384,191,125463,1,0,0:0:0:0:
398,157,125570,1,0,0:0:0:0:
337,111,125785,2,0,P|428:87|473:183,1,150.000005722046
156,235,126214,5,0,0:0:0:0:
156,235,126321,1,0,0:0:0:0:
156,235,126428,1,0,0:0:0:0:
167,144,126642,2,0,P|201:154|239:211,1,75.0000028610231
256,192,127071,12,0,127714,0:0:0:0:
294,333,127928,5,0,0:0:0:0:
294,333,128035,1,0,0:0:0:0:
294,333,128142,1,0,0:0:0:0:
27,200,128357,1,0,0:0:0:0:
377,299,128571,1,0,0:0:0:0:
418,94,129000,6,0,P|370:82|325:102,1,100
410,224,129214,2,0,P|443:188|448:139,1,100
303,153,129428,2,0,P|316:200|356:228,1,100
377,156,129642,1,0,0:0:0:0:
377,156,129750,1,0,0:0:0:0:
309,343,129857,5,0,0:0:0:0:
309,293,129964,1,0,0:0:0:0:
352,318,130071,1,0,0:0:0:0:
168,200,130285,2,0,P|154:163|72:169,2,100
425,74,130714,1,0,0:0:0:0:
284,150,130928,1,0,0:0:0:0:
326,132,131035,1,0,0:0:0:0:
366,112,131142,2,0,P|480:119|488:42,1,200
245,61,131571,6,0,L|171:128,1,100
121,303,131785,2,0,L|194:235,1,100
96,108,132000,2,0,P|97:157|128:195,1,100
270,256,132214,2,0,P|268:206|237:168,1,100
428,92,132428,5,0,0:0:0:0:
428,132,132535,1,0,0:0:0:0:
388,132,132642,1,0,0:0:0:0:
388,92,132750,1,0,0:0:0:0:
445,25,132857,2,0,B|494:25|494:25|494:75,1,100
320,144,133071,2,0,B|321:195|321:195|370:195,1,100
214,256,133286,5,0,0:0:0:0:
190,246,133393,1,0,0:0:0:0:
165,247,133500,1,0,0:0:0:0:
142,258,133607,1,0,0:0:0:0:
124,274,133714,2,0,P|103:224|132:215,1,100
32,275,133928,2,0,P|28:220|88:159,1,100
245,122,134142,2,0,P|266:72|237:63,1,100
337,123,134356,2,0,P|341:68|281:7,1,100
285,316,134571,6,0,P|302:260|279:200,1,100
130,251,134785,2,0,P|175:270|224:262,1,100
192,96,135000,2,0,P|172:141|181:189,1,100
345,161,135215,2,0,P|292:141|232:164,1,100
55,86,135428,1,0,0:0:0:0:
138,310,135643,5,0,0:0:0:0:
392,160,135857,1,0,0:0:0:0:
392,160,135964,1,0,0:0:0:0:
392,160,136071,1,0,0:0:0:0:
282,319,136286,5,0,0:0:0:0:
138,41,136500,1,0,0:0:0:0:
138,41,136607,1,0,0:0:0:0:
138,41,136714,1,0,0:0:0:0:
127,292,136928,5,0,0:0:0:0:
110,110,137143,2,0,P|162:112|208:49,1,75.0000028610231
83,231,137357,2,0,P|117:217|154:222,1,75.0000028610231
384,178,137571,1,0,0:0:0:0:
294,149,137786,5,0,0:0:0:0:
138,201,138000,2,0,P|121:270|169:324,1,150.000005722046
195,253,138321,2,0,P|212:184|164:131,1,150.000005722046
407,92,138643,1,0,0:0:0:0:
257,348,138857,6,0,B|220:281|220:281|311:282,1,150.000005722046
163,67,139286,2,0,B|123:133|123:133|78:54,1,150.000005722046
352,63,139714,2,0,B|428:65|428:65|382:143,1,150.000005722046
296,209,140143,2,0,B|256:144|256:144|211:223,1,150.000005722046
256,353,140571,1,0,0:0:0:0:
50,141,140786,5,0,0:0:0:0:
440,101,141000,2,0,P|401:119|376:165,2,75.0000028610231
304,74,141428,5,0,0:0:0:0:
451,175,141643,2,0,P|433:222|391:232,1,75.0000028610231
346,207,141857,2,0,P|328:254|286:264,1,75.0000028610231
238,245,142071,2,0,P|220:292|178:302,1,75.0000028610231
168,237,142286,1,0,0:0:0:0:
490,302,142500,1,0,0:0:0:0:
112,96,142714,5,0,0:0:0:0:
112,96,142821,2,0,P|140:51|233:54,1,100
186,114,143035,1,0,0:0:0:0:
186,114,143142,2,0,P|230:97|256:55,1,100
128,171,143357,2,0,P|79:165|43:132,1,100
128,34,143571,6,0,L|51:98,2,100
384,350,144000,2,0,L|460:285,2,100
442,230,144428,5,0,0:0:0:0:
462,99,144642,1,0,0:0:0:0:
479,136,144749,1,0,0:0:0:0:
492,175,144856,2,0,B|450:140|399:168|399:168|348:196|290:148,1,200
359,104,145285,5,0,0:0:0:0:
308,81,145392,1,0,0:0:0:0:
258,59,145499,1,0,0:0:0:0:
208,36,145606,1,0,0:0:0:0:
162,15,145714,2,0,P|159:66|118:104,3,100
98,39,146143,6,0,L|202:88,1,100
290,131,146357,1,0,0:0:0:0:
323,146,146464,2,0,L|228:211,1,100
137,261,146678,1,0,0:0:0:0:
107,282,146785,2,0,L|97:167,1,100
388,340,147000,6,0,P|362:307|341:345,1,100
124,340,147214,2,0,P|150:307|171:345,1,100
384,241,147428,2,0,P|327:241|284:291,1,100
128,241,147642,2,0,P|185:241|228:291,1,100
391,169,147857,2,0,P|438:188|459:240,1,100
121,169,148071,2,0,P|73:188|52:240,1,100
123,82,148285,6,0,P|176:62|236:85,1,100
376,135,148500,2,0,P|323:155|263:132,1,100
123,242,148714,2,0,P|176:222|236:245,1,100
374,296,148929,2,0,P|321:316|261:293,1,100
456,43,149142,1,0,0:0:0:0:
238,44,149357,5,0,0:0:0:0:
216,78,149464,1,0,0:0:0:0:
192,109,149571,2,0,P|120:104|76:162,1,150.000005722046
370,125,150000,5,0,0:0:0:0:
151,172,150214,1,0,0:0:0:0:
153,222,150321,1,0,0:0:0:0:
190,254,150428,2,0,L|18:326,1,150.000005722046
362,300,150857,1,0,0:0:0:0:
242,232,151071,5,0,0:0:0:0:
242,232,151178,1,0,0:0:0:0:
242,232,151286,1,0,0:0:0:0:
211,361,151500,2,0,B|263:279|355:347,1,150.000005722046
293,186,151928,6,0,P|388:130|401:275,1,300.000011444092
368,201,152464,2,0,P|341:251|262:253,1,75.0000028610231
252,252,152678,2,0,P|235:293|147:303,1,75.0000028610231
178,240,152892,2,0,P|138:227|138:247,1,75.0000028610231
201,155,153214,6,0,P|152:143|93:174,1,100
107,160,153428,1,0,0:0:0:0:
107,160,153535,1,0,0:0:0:0:
36,162,153642,2,0,B|38:119|76:98|76:98|68:49,2,100
324,210,154071,6,0,P|289:162|308:92,1,100
401,159,154285,1,0,0:0:0:0:
381,163,154392,1,0,0:0:0:0:
365,150,154499,1,0,0:0:0:0:
365,130,154606,1,0,0:0:0:0:
381,118,154714,1,0,0:0:0:0:
472,40,154928,1,0,0:0:0:0:
90,93,155142,5,0,0:0:0:0:
281,133,155357,1,0,0:0:0:0:
249,183,155464,1,0,0:0:0:0:
216,233,155571,1,0,0:0:0:0:
218,189,155999,5,0,0:0:0:0:
255,124,156213,1,0,0:0:0:0:
292,188,156428,1,0,0:0:0:0:
258,254,156642,1,0,0:0:0:0:
106,150,156856,6,0,P|141:213|113:280,1,150.000005722046
58,275,157178,1,0,0:0:0:0:
66,217,157285,2,0,P|31:154|59:87,1,150.000005722046
193,148,157713,5,0,0:0:0:0:
322,73,157927,1,0,0:0:0:0:
322,221,158142,1,0,0:0:0:0:
197,301,158356,1,0,0:0:0:0:
56,60,158570,6,0,B|66:114|66:114|41:175|88:212,1,150.000005722046
129,91,158892,1,0,0:0:0:0:
133,156,158999,2,0,B|160:170|166:216|166:216|208:190|246:198,1,150.000005722046
206,88,159427,5,0,0:0:0:0:
431,87,159641,1,0,0:0:0:0:
320,279,159856,1,0,0:0:0:0:
97,290,160070,1,0,0:0:0:0:
117,83,160285,6,0,B|128:146|128:146|51:143|40:243,1,150.000005722046
124,218,160606,1,0,0:0:0:0:
184,258,160713,2,0,B|212:222|184:177|184:177|259:150,1,150.000005722046
475,197,161357,5,0,0:0:0:0:
188,235,161785,2,0,B|185:323|101:348,2,150.000005722046
411,238,162428,1,0,0:0:0:0:
74,226,162642,1,0,0:0:0:0:
230,45,162857,5,0,0:0:0:0:
438,321,163071,5,0,0:0:0:0:
366,346,163285,1,0,0:0:0:0:
366,346,163392,1,0,0:0:0:0:
366,346,163500,2,0,P|385:266|480:255,1,150.000005722046
97,26,163928,6,0,B|112:60|112:60|201:61,1,75.0000028610231
147,128,164142,2,0,B|110:123|110:123|64:200,1,75.0000028610231
64,315,164357,1,0,0:0:0:0:
453,99,164571,6,0,B|369:144|330:247|330:247|318:182|238:183,1,300.000011444092
257,260,165214,2,0,P|268:289|354:324,1,75.0000028610231
397,288,165428,1,0,0:0:0:0:
397,288,165536,1,0,0:0:0:0:
397,288,165643,2,0,P|426:277|461:191,1,75.0000028610231
390,211,165857,5,0,0:0:0:0:
330,245,165964,2,0,L|285:184,1,75.0000028610231
402,96,166286,5,0,0:0:0:0:
349,153,166500,2,0,P|418:173|473:127,1,150.000005722046
472,81,166821,1,0,0:0:0:0:
454,39,166928,2,0,P|385:20|330:65,2,150.000005722046
402,96,167464,2,0,L|418:169,1,75.0000028610231
332,162,167678,2,0,L|315:235,1,75.0000028610231
428,323,168214,5,0,0:0:0:0:
256,177,168643,5,0,0:0:0:0:
216,104,168857,2,0,B|176:196|176:196|256:256|256:256|336:196|336:196|292:96,2,400
256,64,183428,5,0,0:0:0:0:
256,192,183642,1,0,0:0:0:0:
256,320,183857,2,0,P|356:284|376:88,1,300.000011444092
368,340,184500,5,0,0:0:0:0:
256,192,184714,1,0,0:0:0:0:
144,44,184928,1,0,0:0:0:0:
256,192,185142,1,0,0:0:0:0:
368,340,185357,1,0,0:0:0:0:
255,191,185571,2,0,B|368:238|407:311|407:311|411:223|484:218,1,300.000011444092
484,296,186214,5,0,0:0:0:0:
256,192,186428,1,0,0:0:0:0:
28,88,186642,1,0,0:0:0:0:
256,192,186857,1,0,0:0:0:0:
484,296,187071,1,0,0:0:0:0:
256,192,187285,2,0,P|241:80|191:202,1,300.000011444092
468,192,187928,5,0,0:0:0:0:
44,192,188142,1,0,0:0:0:0:
468,192,188357,1,0,0:0:0:0:
376,188,188571,6,0,B|352:116|352:116|252:80|284:-44,1,225.000008583069
304,224,189000,2,0,B|251:168|251:168|145:178|122:52,1,225.000008583069
260,292,189428,2,0,B|189:264|189:264|97:317|23:213,1,225.000008583069
368,288,189857,1,0,0:0:0:0:
213,70,190285,6,0,P|238:123|300:140,1,75.0000028610231
308,199,190500,1,0,0:0:0:0:
326,128,190607,2,0,P|315:92|288:67,1,75.0000028610231
194,338,190928,1,0,0:0:0:0:
425,160,191142,6,0,B|461:163|461:163|470:111,1,75.0000028610231
372,88,191357,2,0,B|408:91|408:91|417:39,1,75.0000028610231
174,93,191571,1,0,0:0:0:0:
308,341,191785,1,0,0:0:0:0:
85,295,192000,5,0,0:0:0:0:
56,255,192107,1,0,0:0:0:0:
102,270,192214,1,0,0:0:0:0:
85,246,192321,1,0,0:0:0:0:
56,285,192428,1,0,0:0:0:0:
349,154,192643,2,0,P|328:246|231:269,1,150.000005722046
263,184,192964,2,0,L|164:137,1,75.0000028610231
114,96,193285,5,0,0:0:0:0:
128,128,193392,1,0,0:0:0:0:
114,159,193499,1,0,0:0:0:0:
128,193,193606,1,0,0:0:0:0:
114,227,193713,1,0,0:0:0:0:
175,272,193928,2,0,P|109:302|47:265,1,150.000005722046
356,149,194357,5,0,0:0:0:0:
356,149,194464,1,0,0:0:0:0:
356,149,194571,1,0,0:0:0:0:
345,240,194785,2,0,P|309:229|283:202,1,75.0000028610231
283,202,195000,1,0,0:0:0:0:
88,343,195214,1,0,0:0:0:0:
256,192,195535,12,0,196285,0:0:0:0:
432,88,196500,5,0,0:0:0:0:
384,103,196607,1,0,0:0:0:0:
420,137,196714,1,0,0:0:0:0:
184,284,196928,1,0,0:0:0:0:
68,76,197142,1,0,0:0:0:0:
457,57,197571,6,0,P|409:45|364:65,1,100
55,56,197785,2,0,P|102:44|147:64,1,100
415,118,198000,2,0,P|411:167|378:204,1,100
96,118,198214,2,0,P|100:167|134:204,1,100
300,162,198428,5,0,0:0:0:0:
300,112,198535,1,0,0:0:0:0:
343,137,198642,1,0,0:0:0:0:
212,162,198857,1,0,0:0:0:0:
212,112,198964,1,0,0:0:0:0:
169,137,199071,1,0,0:0:0:0:
315,28,199285,5,0,0:0:0:0:
228,234,199499,1,0,0:0:0:0:
186,252,199606,1,0,0:0:0:0:
146,272,199713,2,0,P|32:265|24:342,1,200
280,24,200142,6,0,P|281:73|312:111,1,100
508,98,200357,2,0,P|458:99|420:130,1,100
434,327,200571,2,0,P|432:277|401:239,1,100
206,253,200785,2,0,P|255:251|293:220,1,100
64,45,201000,6,0,L|192:44,1,100
305,130,201214,2,0,L|177:129,1,100
207,254,201428,2,0,L|306:254,1,100
448,339,201642,2,0,L|348:339,1,100
256,227,201857,5,0,0:0:0:0:
220,192,201964,1,0,0:0:0:0:
256,156,202071,1,0,0:0:0:0:
291,192,202178,1,0,0:0:0:0:
345,138,202285,2,0,P|367:189|346:244,1,100
167,246,202500,2,0,P|145:195|166:140,1,100
413,96,202714,2,0,P|446:166|424:269,1,150.000005722046
99,288,202928,2,0,P|66:218|88:115,1,150.000005722046
202,103,203142,6,0,B|247:79|247:79|308:102,1,100
310,281,203357,2,0,B|265:305|265:305|204:282,1,100
171,26,203571,2,0,B|238:-9|238:-9|390:39,1,150.000005722046
341,358,203785,2,0,B|274:393|274:393|122:345,1,150.000005722046
256,191,204000,1,0,0:0:0:0:
38,62,204214,5,0,0:0:0:0:
435,206,204428,1,0,0:0:0:0:
435,206,204535,1,0,0:0:0:0:
435,206,204642,1,0,0:0:0:0:
437,79,204857,5,0,0:0:0:0:
51,324,205071,1,0,0:0:0:0:
51,324,205178,1,0,0:0:0:0:
51,324,205285,1,0,0:0:0:0:
127,292,205499,5,0,0:0:0:0:
301,39,205714,1,0,0:0:0:0:
83,231,205928,2,0,P|117:217|154:222,1,75.0000028610231
352,95,206143,2,0,P|318:109|281:104,1,75.0000028610231
280,103,206357,5,0,0:0:0:0:
213,57,206571,2,0,P|196:126|243:182,1,150.000005722046
192,252,206892,2,0,P|261:269|321:218,1,150.000005722046
363,144,207214,1,0,0:0:0:0:
296,206,207428,6,0,B|261:143|261:143|218:210,1,150.000005722046
329,288,207857,6,0,B|430:287|430:287|382:199,1,200
143,180,208285,6,0,B|79:288|79:288|204:288,1,250
337,110,208714,6,0,B|261:-17|261:-17|182:113,1,300.000011444092
256,353,209142,1,0,0:0:0:0:
183,51,209357,5,0,0:0:0:0:
475,130,209571,2,0,P|442:78|382:69,2,125
134,101,209999,5,0,0:0:0:0:
401,141,210214,2,0,P|336:150|277:89,1,125
211,114,210428,2,0,P|171:166|86:164,1,125
92,245,210642,2,0,P|101:310|40:369,1,125
168,237,210857,1,0,0:0:0:0:
490,302,211071,1,0,0:0:0:0:
111,138,211285,5,0,0:0:0:0:
111,63,211392,1,0,0:0:0:0:
175,100,211500,2,0,P|210:152|292:161,1,125
349,95,211714,1,0,0:0:0:0:
262,77,211821,2,0,P|292:24|350:4,1,125
52,284,212142,6,0,P|62:338|128:349,2,125
460,99,212571,2,0,P|450:45|384:34,2,125
222,297,213000,6,0,B|268:242|233:178|233:178|203:119|263:36,1,250
339,94,213320,1,0,0:0:0:0:
351,190,213427,2,0,B|296:144|232:179|232:179|173:209|90:149,1,250
418,142,213857,5,0,0:0:0:0:
346,118,213964,1,0,0:0:0:0:
346,43,214071,1,0,0:0:0:0:
418,20,214178,1,0,0:0:0:0:
461,81,214285,2,0,P|496:118|434:204,3,125
418,142,214714,6,0,B|328:142|328:142|282:174,1,125
226,161,214928,1,0,0:0:0:0:
150,160,215035,2,0,B|121:140|121:140|31:140,1,125
33,231,215250,2,0,B|58:229|58:229|76:284|76:284|194:284,2,125
6,296,215571,5,0,0:0:0:0:
62,351,215678,2,0,L|194:351,1,125
187,276,215892,1,0,0:0:0:0:
251,313,216000,2,0,L|400:313,1,125
337,240,216214,2,0,L|337:115,1,125
337,40,216428,1,0,0:0:0:0:
401,77,216536,2,0,P|437:119|550:77,2,125
473,54,216857,5,0,0:0:0:0:
447,108,216964,1,0,0:0:0:0:
414,158,217071,1,0,0:0:0:0:
375,204,217178,1,0,0:0:0:0:
331,244,217285,2,0,P|294:194|199:215,1,125
258,260,217500,2,0,P|197:253|162:204,2,125
50,314,217928,5,0,0:0:0:0:
72,280,218035,1,0,0:0:0:0:
96,249,218142,2,0,P|206:272|229:162,1,250
162,204,218571,5,0,0:0:0:0:
364,98,218785,1,0,0:0:0:0:
364,35,218892,1,0,0:0:0:0:
418,66,219000,2,0,B|468:144|399:205|399:205|476:181|506:243,1,250
435,290,219428,1,0,0:0:0:0:
122,131,219642,5,0,0:0:0:0:
122,131,219749,1,0,0:0:0:0:
122,131,219857,1,0,0:0:0:0:
81,213,220071,2,0,B|146:242|204:176|204:176|207:294|363:280,1,250
295,184,220499,6,0,P|390:128|313:314,1,500
390,237,221036,2,0,L|257:292,1,125
191,326,221250,2,0,L|58:271,1,125
110,209,221463,2,0,P|132:159|103:169,1,125
213,234,221785,6,0,P|227:177|194:118,1,125
184,51,222000,1,0,0:0:0:0:
241,2,222107,1,0,0:0:0:0:
312,26,222214,1,0,0:0:0:0:
326,100,222321,1,0,0:0:0:0:
269,149,222428,1,0,0:0:0:0:
62,259,222642,6,0,P|110:224|187:243,1,125
113,336,222856,1,0,0:0:0:0:
109,316,222963,1,0,0:0:0:0:
122,300,223070,1,0,0:0:0:0:
142,300,223177,1,0,0:0:0:0:
154,316,223285,1,0,0:0:0:0:
424,78,223499,1,0,0:0:0:0:
256,32,223714,5,0,0:0:0:0:
196,156,223928,1,0,0:0:0:0:
256,156,224035,1,0,0:0:0:0:
316,156,224142,1,0,0:0:0:0:
66,315,224571,5,0,0:0:0:0:
0,125,224785,1,0,0:0:0:0:
160,5,225000,1,0,0:0:0:0:
324,120,225214,1,0,0:0:0:0:
265,311,225428,1,0,0:0:0:0:
402,354,225643,1,0,0:0:0:0:
432,317,225750,1,0,0:0:0:0:
441,271,225857,1,0,0:0:0:0:
448,51,226072,1,0,0:0:0:0:
336,330,226285,5,0,0:0:0:0:
176,330,226499,1,0,0:0:0:0:
96,191,226714,1,0,0:0:0:0:
176,53,226928,1,0,0:0:0:0:
336,53,227142,1,0,0:0:0:0:
416,192,227357,1,0,0:0:0:0:
395,235,227464,1,0,0:0:0:0:
375,279,227571,1,0,0:0:0:0:
256,192,227785,1,0,0:0:0:0:
327,38,228000,5,0,0:0:0:0:
457,335,228214,1,0,0:0:0:0:
185,38,228428,1,0,0:0:0:0:
55,335,228642,1,0,0:0:0:0:
256,143,228857,1,0,0:0:0:0:
209,220,229071,2,0,P|251:234|334:182,2,100
256,328,229500,1,0,0:0:0:0:
442,46,229928,5,0,0:0:0:0:
89,306,230357,1,0,0:0:0:0:
383,245,230571,2,0,B|331:252|306:314|306:314|287:253|225:224,2,200
406,348,231214,1,0,0:0:0:0:
406,348,231428,1,0,0:0:0:0:
78,67,231642,6,0,P|101:156|194:156,1,200
217,77,231963,1,0,0:0:0:0:
146,38,232071,2,0,P|122:127|29:127,1,200
381,96,232500,6,0,P|332:101|286:214,1,100
273,237,232714,2,0,L|183:157,1,100
360,169,232928,1,0,0:0:0:0:
298,126,233142,6,0,P|186:28|191:206,1,400
106,276,233786,2,0,L|224:276,1,100
208,116,234000,2,0,L|273:226,1,100
270,266,234215,1,0,0:0:0:0:
61,276,234428,6,0,L|148:345,1,100
139,338,234642,1,0,0:0:0:0:
148,201,234857,5,0,0:0:0:0:
244,178,235071,2,0,P|321:220|394:129,1,200
470,197,235392,1,0,0:0:0:0:
465,109,235500,2,0,P|387:66|314:157,2,200
222,113,236035,2,0,L|192:244,1,100
293,224,236250,2,0,L|403:252,1,100
144,320,236785,5,0,0:0:0:0:
72,52,237214,1,0,0:0:0:0:
139,189,237428,2,0,B|196:188|196:188|232:92|232:92|280:268|280:268|312:176|312:176|454:176,2,509.999993190765
