osu file format v14

[General]
AudioFilename: audio.mp3
AudioLeadIn: 0
PreviewTime: -1
Countdown: 0
SampleSet: None
StackLeniency: 0.7
Mode: 0
LetterboxInBreaks: 0
WidescreenStoryboard: 0

[Editor]
DistanceSpacing: 1
BeatDivisor: 2
GridSize: 4
TimelineZoom: 1

[Metadata]
Title:Duality
TitleUnicode:Duality
Artist:Set It Off
ArtistUnicode:Set It Off
Creator:xTN_Solitarang
Version:Linear
Source:
Tags:
BeatmapID:1686411
BeatmapSetID:803504

[Difficulty]
HPDrainRate:2
CircleSize:4
OverallDifficulty:3
ApproachRate:4
SliderMultiplier:0.5
SliderTickRate:1

[Events]
//Background and Video events
//Break Periods
2,99629,113537
2,169915,182108
//Storyboard Layer 0 (Background)
//Storyboard Layer 1 (Fail)
//Storyboard Layer 2 (Pass)
//Storyboard Layer 3 (Foreground)
//Storyboard Sound Samples

[TimingPoints]
0,428.571428571429,4,2,0,100,1,0
198642,-40,4,2,0,100,0,1
224928,-40,4,2,0,100,0,0

[Colours]
Combo1 : 243,236,143
Combo2 : 164,240,145
Combo3 : 255,128,128
Combo4 : 255,169,83
Combo5 : 128,128,255

[HitObjects]
188,92,857,5,0,0:0:0:0:
257,191,1714,1,0,0:0:0:0:
409,193,3428,5,0,0:0:0:0:
255,191,4285,1,0,0:0:0:0:
101,192,5142,1,0,0:0:0:0:
371,67,6857,1,0,0:0:0:0:
372,190,7714,1,0,0:0:0:0:
373,319,8571,1,0,0:0:0:0:
256,64,10285,6,0,L|204:264,1,200
388,192,13714,1,0,0:0:0:0:
100,240,15428,5,0,0:0:0:0:
188,320,16285,1,0,0:0:0:0:
272,240,17142,1,0,0:0:0:0:
256,76,18857,5,0,0:0:0:0:
180,192,19714,1,0,0:0:0:0:
332,192,20571,1,0,0:0:0:0:
256,268,22285,5,0,0:0:0:0:
256,72,24000,1,0,0:0:0:0:
100,188,25714,6,2,L|276:308,1,200
212,136,28285,6,0,P|260:112|303:143,1,100
256,192,30000,1,0,0:0:0:0:
256,72,30857,5,0,0:0:0:0:
328,140,31286,1,0,0:0:0:0:
400,76,31714,2,0,L|460:224,1,150
352,256,33428,2,0,L|292:108,1,150
200,116,35142,2,0,L|140:264,1,150
72,176,36857,5,0,0:0:0:0:
72,60,37285,1,0,0:0:0:0:
200,116,37714,2,0,L|140:264,1,150
232,252,39428,2,0,L|400:252,1,150
352,172,41142,2,0,L|292:24,1,150
244,104,42857,5,0,0:0:0:0:
104,156,43714,1,0,0:0:0:0:
244,216,44571,1,0,0:0:0:0:
296,276,45000,1,0,0:0:0:0:
400,68,45857,5,0,0:0:0:0:
328,112,46285,2,0,L|348:144,2,25
252,164,47571,5,0,0:0:0:0:
180,112,47999,2,0,L|160:144,2,25
256,260,49285,5,0,0:0:0:0:
256,164,49714,2,0,L|256:96,2,50
256,260,51000,1,0,0:0:0:0:
256,64,51857,5,0,0:0:0:0:
256,168,52714,1,0,0:0:0:0:
168,224,53142,2,0,L|328:256,1,150
316,112,54857,2,0,L|156:144,1,150
256,40,56571,1,0,0:0:0:0:
256,192,57000,12,0,58285,0:0:0:0:
56,192,59142,5,0,0:0:0:0:
136,120,60000,2,0,B|228:120|248:68|352:124,1,200
432,116,62571,1,0,0:0:0:0:
432,216,63428,2,0,B|391:263|343:275|255:207,1,200
360,128,66000,6,0,L|324:124,3,25
256,192,67714,1,0,0:0:0:0:
208,104,68571,2,0,B|152:148|152:240|216:296,1,200
300,192,71142,5,0,0:0:0:0:
152,192,72000,1,0,0:0:0:0:
148,284,72858,2,0,B|240:284|260:336|364:280,1,200
352,188,75428,1,0,0:0:0:0:
254,185,76286,2,0,B|168:252|120:240|79:192,1,200
324,284,78857,5,0,0:0:0:0:
432,276,79714,2,0,L|464:266,3,25
456,184,81428,1,0,0:0:0:0:
456,96,82285,2,0,B|412:40|320:40|264:104,1,200
180,192,84857,5,0,0:0:0:0:
256,260,85285,1,0,0:0:0:0:
332,192,85714,1,0,0:0:0:0:
256,192,86571,5,0,0:0:0:0:
316,76,87428,2,0,P|368:124|388:220,1,150
324,300,89142,2,0,P|256:321|163:290,1,150
122,198,90857,2,0,P|142:126|196:75,1,150
256,192,92571,5,0,0:0:0:0:
315,75,93428,2,0,P|335:147|389:198,1,150
323,299,95142,2,0,P|252:280|181:302,1,150
122,197,96857,2,0,P|176:146|196:75,1,150
188,192,98571,5,4,0:0:0:0:
256,320,99000,1,4,0:0:0:0:
324,192,99429,1,4,0:0:0:0:
256,72,114857,5,0,0:0:0:0:
160,72,115714,2,0,L|220:220,1,150
280,128,117428,2,0,L|336:267,1,150
400,184,119142,2,0,L|456:323,1,150
344,328,120857,5,0,0:0:0:0:
344,212,121285,1,0,0:0:0:0:
344,112,121714,2,0,L|232:220,1,150
208,128,123428,2,0,L|96:236,1,150
80,132,125142,2,0,L|188:28,1,150
244,104,126857,5,0,0:0:0:0:
104,156,127714,1,0,0:0:0:0:
244,216,128571,1,0,0:0:0:0:
256,68,129857,5,0,0:0:0:0:
180,160,130285,2,0,L|200:192,2,25
328,160,131142,2,0,L|308:192,2,25
256,260,132000,1,0,0:0:0:0:
156,192,133285,5,0,0:0:0:0:
269,133,133713,2,0,L|248:120,2,25
269,254,134570,2,0,L|248:268,2,25
348,192,135428,1,0,0:0:0:0:
256,188,136285,5,0,0:0:0:0:
176,232,137142,2,0,L|16:264,1,150
28,120,138857,2,0,L|188:152,1,150
256,40,140571,1,0,0:0:0:0:
256,192,141428,5,0,0:0:0:0:
256,344,142285,1,0,0:0:0:0:
68,80,143571,5,0,0:0:0:0:
144,124,143999,2,0,L|180:124,2,25
168,208,144856,2,0,L|128:208,2,25
256,260,145714,1,0,0:0:0:0:
360,68,146999,5,0,0:0:0:0:
388,152,147427,2,0,L|354:150,2,25
336,232,148284,2,0,L|370:233,2,25
360,312,149142,1,0,0:0:0:0:
256,188,149999,5,0,0:0:0:0:
336,232,150856,2,0,L|496:264,1,150
484,120,152571,2,0,L|324:152,1,150
256,192,154285,1,0,0:0:0:0:
200,136,155142,5,0,0:0:0:0:
312,136,155571,1,0,0:0:0:0:
312,248,156000,1,0,0:0:0:0:
256,192,156857,5,0,0:0:0:0:
316,308,157714,2,0,P|368:260|388:164,1,150
324,84,159428,2,0,P|256:62|163:93,1,150
122,185,161143,2,0,P|142:257|196:308,1,150
256,192,162857,5,0,0:0:0:0:
315,308,163713,2,0,P|335:236|389:186,1,150
323,84,165427,2,0,P|252:103|181:82,1,150
122,186,167142,2,0,P|176:237|196:309,1,150
256,124,168857,5,0,0:0:0:0:
384,192,169286,1,0,0:0:0:0:
128,192,169715,1,0,0:0:0:0:
56,312,183428,5,0,0:0:0:0:
104,196,183857,1,0,0:0:0:0:
160,72,184285,2,0,L|220:220,1,150
356,72,185999,2,0,L|299:211,1,150
180,304,187713,2,0,L|332:304,1,150
180,172,189428,5,0,0:0:0:0:
180,56,189856,1,0,0:0:0:0:
276,112,190285,2,0,L|383:7,1,150
384,128,191999,2,0,L|272:236,1,150
168,216,193713,2,0,L|275:111,1,150
256,244,195428,5,0,0:0:0:0:
396,192,196285,1,0,0:0:0:0:
256,132,197142,1,0,0:0:0:0:
256,92,198428,5,0,0:0:0:0:
196,32,198857,2,0,P|180:120|200:168,1,125
316,32,199714,2,0,P|332:120|312:168,1,125
256,92,200571,1,0,0:0:0:0:
256,296,201857,5,0,0:0:0:0:
316,220,202285,2,0,P|228:204|180:224,1,125
316,132,203142,2,0,P|228:116|180:136,1,125
256,32,203999,1,0,0:0:0:0:
448,56,204857,5,0,0:0:0:0:
380,184,205714,1,0,0:0:0:0:
456,304,206571,1,0,0:0:0:0:
364,256,207428,2,0,B|228:296|148:152|264:4|440:36|412:204,1,500
68,192,210000,5,0,0:0:0:0:
190,151,210857,2,0,P|177:91|196:32,1,125
192,228,211714,2,0,P|176:316|196:364,1,125
256,92,212571,1,0,0:0:0:0:
436,192,213428,5,0,0:0:0:0:
340,216,214285,2,0,P|324:188|256:224,1,125
172,236,215142,2,0,P|156:208|88:244,1,125
4,256,215999,1,0,0:0:0:0:
256,104,216857,5,0,0:0:0:0:
256,272,217714,1,0,0:0:0:0:
284,192,218571,2,0,B|252:160|268:232|216:184|216:156,3,62.5
256,48,220285,5,0,0:0:0:0:
176,112,221142,2,0,B|0:88|-68:352|320:92|356:300|56:324,1,500
296,304,223284,5,4,0:0:0:0:
248,160,223714,1,4,0:0:0:0:
392,208,224143,1,4,0:0:0:0:
434,346,224571,1,12,0:0:0:0:
256,192,225428,5,0,0:0:0:0:
164,268,225857,1,0,0:0:0:0:
140,148,226285,2,0,B|196:36|196:36|320:36|320:36|376:156|376:156,1,375
372,232,228000,2,0,B|375:224|319:344|319:344|195:344|195:344|140:232,1,375
256,192,229714,2,4,B|192:80|192:80|332:80,2,250
428,192,231857,5,0,0:0:0:0:
436,360,232285,2,0,B|324:360|324:360|436:264|436:264|320:264,1,375
188,264,234000,2,0,B|72:264|72:264|184:360|184:360|72:360,1,375
28,192,235714,1,0,0:0:0:0:
104,192,236142,6,0,B|188:192|188:192|220:80|220:80|272:268|272:268|308:160|308:160|344:192|344:192|456:192,1,625
