osu file format v14

[General]
AudioFilename: 2013OP.mp3
AudioLeadIn: 0
PreviewTime: 53058
Countdown: 0
SampleSet: Normal
StackLeniency: 0.7
Mode: 1
LetterboxInBreaks: 0
WidescreenStoryboard: 0

[Editor]
DistanceSpacing: 0.8
BeatDivisor: 2
GridSize: 32
TimelineZoom: 0.4999988

[Metadata]
Title:START
TitleUnicode:START
Artist:Seshimo Chiaki
ArtistUnicode:瀬下千晶
Creator:EdamaMe411
Version:Kantan
Source:実況パワフルプロ野球2013
Tags:実況パワフルプロ野球 JUDYDANNY baseball opening intro REFLEC BEAT
BeatmapID:822726
BeatmapSetID:375684

[Difficulty]
HPDrainRate:5
CircleSize:2
OverallDifficulty:4
ApproachRate:5
SliderMultiplier:1.20000000596046
SliderTickRate:2

[Events]
//Background and Video events
0,0,"IXVBN.jpg",0,0
//Break Periods
//Storyboard Layer 0 (Background)
//Storyboard Layer 1 (Fail)
//Storyboard Layer 2 (Pass)
//Storyboard Layer 3 (Foreground)
//Storyboard Sound Samples

[TimingPoints]
-675,324.675324675325,4,1,0,60,1,0
53870,-100,4,1,0,80,0,1
73675,-100,4,1,0,60,0,0
98026,-100,4,1,0,80,0,1
105818,-100,4,1,0,80,0,0
106467,-125,4,1,0,40,0,0

[HitObjects]
256,192,623,5,4,0:0:0:0:
256,192,1273,1,0,0:0:0:0:
256,224,1597,1,0,0:0:0:0:
256,192,1921,1,8,0:0:0:0:
256,192,3220,1,4,0:0:0:0:
256,192,3870,1,8,0:0:0:0:
256,192,4195,1,8,0:0:0:0:
256,192,4519,1,0,0:0:0:0:
256,192,5817,1,12,0:0:0:0:
256,192,7116,1,4,0:0:0:0:
256,192,8415,1,4,0:0:0:0:
288,224,8902,1,8,0:0:0:0:
256,224,9551,1,4,0:0:0:0:
256,192,11012,1,0,0:0:0:0:
256,192,12312,1,8,0:0:0:0:
256,160,13610,1,0,0:0:0:0:
256,192,14909,1,8,0:0:0:0:
224,160,15558,1,0,0:0:0:0:
224,160,16207,1,0,0:0:0:0:
256,192,17506,1,0,0:0:0:0:
224,160,18804,1,0,0:0:0:0:
224,160,19454,1,8,0:0:0:0:
224,160,20103,1,0,0:0:0:0:
256,160,21402,1,4,0:0:0:0:
224,160,22700,1,8,0:0:0:0:
256,192,23350,1,0,0:0:0:0:
224,160,23999,1,0,0:0:0:0:
224,160,25298,1,8,0:0:0:0:
256,192,25947,1,0,0:0:0:0:
224,160,26597,1,8,0:0:0:0:
256,192,27895,1,0,0:0:0:0:
256,192,28545,1,0,0:0:0:0:
224,160,29194,1,8,0:0:0:0:
224,160,29844,1,0,0:0:0:0:
224,160,30493,1,4,0:0:0:0:
224,160,31791,1,12,0:0:0:0:
224,160,33090,1,0,0:0:0:0:
224,160,34389,1,8,0:0:0:0:
192,160,35039,1,0,0:0:0:0:
192,160,35687,1,8,0:0:0:0:
224,160,36986,1,0,0:0:0:0:
224,160,38285,1,8,0:0:0:0:
224,160,39584,1,0,0:0:0:0:
224,160,40882,1,8,0:0:0:0:
192,32,41532,1,0,0:0:0:0:
224,160,42181,1,8,0:0:0:0:
224,160,43480,1,0,0:0:0:0:
256,160,44778,1,4,0:0:0:0:
224,160,45265,1,12,0:0:0:0:
224,160,45915,1,4,0:0:0:0:
224,160,47376,1,0,0:0:0:0:
224,160,48025,1,0,0:0:0:0:
224,192,48674,1,8,0:0:0:0:
224,96,49973,1,4,0:0:0:0:
288,224,50623,1,4,0:0:0:0:
288,224,51597,1,12,0:0:0:0:
128,64,52896,1,0,0:0:0:0:
256,192,53869,1,4,0:0:0:0:
256,160,54519,1,8,0:0:0:0:
288,192,55168,1,0,0:0:0:0:
288,192,56467,1,8,0:0:0:0:
288,192,57117,1,8,0:0:0:0:
288,192,57765,1,0,0:0:0:0:
288,192,59064,1,0,0:0:0:0:
288,192,59713,1,0,0:0:0:0:
256,192,60039,1,0,0:0:0:0:
288,192,60363,1,12,0:0:0:0:
160,192,60850,1,12,0:0:0:0:
256,192,61661,1,8,0:0:0:0:
256,192,62960,1,8,0:0:0:0:
256,192,64259,1,4,0:0:0:0:
256,192,64908,1,0,0:0:0:0:
256,160,65558,1,8,0:0:0:0:
288,192,66856,1,0,0:0:0:0:
288,192,67506,1,8,0:0:0:0:
256,192,68155,1,0,0:0:0:0:
256,192,69454,1,0,0:0:0:0:
256,128,70104,1,0,0:0:0:0:
224,192,70428,1,0,0:0:0:0:
256,192,70752,1,12,0:0:0:0:
288,192,71239,1,12,0:0:0:0:
288,192,72051,1,8,0:0:0:0:
288,192,72700,1,0,0:0:0:0:
288,192,73350,1,4,0:0:0:0:
256,192,74648,1,0,0:0:0:0:
256,192,75298,1,8,0:0:0:0:
288,192,75947,1,0,0:0:0:0:
256,160,77247,1,8,0:0:0:0:
256,160,77895,1,0,0:0:0:0:
256,160,78545,1,8,0:0:0:0:
224,128,79843,1,0,0:0:0:0:
224,128,81142,1,0,0:0:0:0:
224,128,81791,1,8,0:0:0:0:
256,192,82441,1,0,0:0:0:0:
224,192,83740,1,8,0:0:0:0:
256,192,85038,1,4,0:0:0:0:
224,192,85687,1,0,0:0:0:0:
224,192,86013,1,0,0:0:0:0:
224,192,86337,1,8,0:0:0:0:
256,192,86986,1,8,0:0:0:0:
224,192,87635,1,0,0:0:0:0:
224,192,88285,1,8,0:0:0:0:
256,192,88610,1,8,0:0:0:0:
224,192,88934,1,0,0:0:0:0:
256,160,90233,1,12,0:0:0:0:
224,192,90720,1,12,0:0:0:0:
224,192,91532,1,4,0:0:0:0:
224,160,92019,1,4,0:0:0:0:
224,160,92830,1,4,0:0:0:0:
224,160,93480,1,12,0:0:0:0:
32,192,94130,2,0,L|512:192,1,480.000002384184
256,160,96726,5,0,0:0:0:0:
256,192,97052,1,0,0:0:0:0:
224,160,97376,1,8,0:0:0:0:
256,160,98025,1,4,0:0:0:0:
256,160,98674,1,8,0:0:0:0:
192,160,99324,1,0,0:0:0:0:
256,192,99648,1,12,0:0:0:0:
256,192,100298,1,12,0:0:0:0:
256,192,100623,1,4,0:0:0:0:
256,192,101272,1,0,0:0:0:0:
256,192,101597,1,0,0:0:0:0:
256,192,101921,1,12,0:0:0:0:
256,192,102408,1,12,0:0:0:0:
256,192,103220,1,8,0:0:0:0:
256,192,103870,1,0,0:0:0:0:
256,192,104519,1,8,0:0:0:0:
256,192,105169,1,8,0:0:0:0:
224,160,105817,1,0,0:0:0:0:
256,192,107116,1,0,0:0:0:0:
256,192,108415,1,8,0:0:0:0:
224,192,109713,1,0,0:0:0:0:
224,192,111012,1,8,0:0:0:0:
256,192,111661,1,8,0:0:0:0:
256,192,112311,1,8,0:0:0:0:
