osu file format v14

[General]
AudioFilename: audio.mp3
AudioLeadIn: 0
PreviewTime: 80189
Countdown: 0
SampleSet: Soft
StackLeniency: 0.3
Mode: 0
LetterboxInBreaks: 0
WidescreenStoryboard: 0

[Editor]
Bookmarks: 268,5268,10268,20268,30268,40268,50268,60268,70268,80268,100268,110268,120268,125111
DistanceSpacing: 1
BeatDivisor: 8
GridSize: 32
TimelineZoom: 2.700006

[Metadata]
Title:Piplup Step
TitleUnicode:Piplup Step
Artist:Serph feat. Zun
ArtistUnicode:Serph feat. ずん
Creator:Kaitjuh
Version:Extra
Source:プロジェクトポッチャマ
Tags:pokemon pokémon pocket monsters Nintendo Game Freak ポケットモンスター ポケモン project pochama english japanese pop 久保淳司 noble LimeTwist Sylvarus ratokkoy
BeatmapID:3482582
BeatmapSetID:1704375

[Difficulty]
HPDrainRate:5.4
CircleSize:4.4
OverallDifficulty:8
ApproachRate:9
SliderMultiplier:2
SliderTickRate:1

[Events]
//Background and Video events
0,0,"piplupbg.jpg",0,0
Video,182,"video.mp4"
//Break Periods
//Storyboard Layer 0 (Background)
//Storyboard Layer 1 (Fail)
//Storyboard Layer 2 (Pass)
//Storyboard Layer 3 (Foreground)
//Storyboard Layer 4 (Overlay)
//Storyboard Sound Samples

[TimingPoints]
268,625,4,2,1,50,1,0
268,-80,4,2,1,50,0,0
346,-80,4,2,1,5,0,0
736,-80,4,2,1,50,0,0
814,-80,4,2,1,5,0,0
893,-80,4,2,1,50,0,0
1596,-80,4,2,1,5,0,0
1986,-80,4,2,1,50,0,0
2064,-80,4,2,1,5,0,0
2143,-80,4,2,1,50,0,0
2846,-80,4,2,1,5,0,0
3236,-80,4,2,1,50,0,0
3314,-80,4,2,1,5,0,0
3393,-80,4,2,1,50,0,0
3627,-80,4,2,1,5,0,0
3705,-80,4,2,1,50,0,0
3939,-80,4,2,1,5,0,0
4018,-66.6666666666667,4,2,1,50,0,0
4564,-80,4,2,1,5,0,0
4643,-66.6666666666667,4,2,1,50,0,0
5189,-80,4,2,1,5,0,0
5268,-80,4,2,1,50,0,0
5346,-80,4,2,1,5,0,0
5736,-80,4,2,1,50,0,0
5814,-80,4,2,1,5,0,0
5893,-80,4,2,1,50,0,0
6413,-80,4,2,1,40,0,0
7143,-80,4,2,1,55,0,0
7768,-80,4,2,1,60,0,0
19643,-57.1428571428571,4,2,1,70,0,0
19903,-57.1428571428571,4,2,1,5,0,0
19955,-57.1428571428571,4,2,1,70,0,0
20215,-57.1428571428571,4,2,1,5,0,0
20268,-57.1428571428571,4,2,1,70,0,0
20580,-100,4,2,1,70,0,0
20893,-57.1428571428571,4,2,1,70,0,0
21205,-100,4,2,1,70,0,0
21518,-57.1428571428571,4,2,1,70,0,0
21986,-80,4,2,1,70,0,0
28549,-133.333333333333,4,2,1,70,0,0
29018,-80,4,2,1,70,0,0
29799,-133.333333333333,4,2,1,70,0,0
30268,-66.6666666666667,4,2,1,60,0,0
50268,-74.0740740740741,4,2,1,50,0,0
59643,-66.6666666666667,4,2,1,50,0,0
60268,-57.1428571428571,4,2,1,70,0,0
70502,-86.9565217391304,4,2,1,70,0,0
70736,-57.1428571428571,4,2,1,70,0,0
72299,-74.0740740740741,4,2,1,70,0,0
72768,-57.1428571428571,4,2,1,70,0,0
79643,-133.333333333333,4,2,1,70,0,0
80268,312.5,4,2,1,70,1,0
80268,-114.285714285714,4,2,1,70,0,0
100268,-100,4,2,1,80,0,1
110268,-114.285714285714,4,2,0,70,0,1
119799,-200,4,2,0,70,0,1
120268,-200,4,2,1,50,0,0

[Colours]
Combo1 : 255,218,106
Combo2 : 81,199,255
Combo3 : 0,128,192
Combo4 : 185,233,255

[HitObjects]
34,41,268,6,0,L|75:33,1,31.25,2|0,0:3|0:0,0:0:0:0:
64,35,736,2,0,L|105:27,1,31.25,2|0,0:3|0:0,0:0:0:0:
162,63,893,2,0,P|166:106|154:67,1,125,2|0,0:0|0:0,0:0:0:0:
478,41,1518,6,0,L|437:33,1,31.25,2|0,0:3|0:3,0:3:0:0:
448,35,1986,2,0,L|407:27,1,31.25,2|0,0:3|0:3,0:3:0:0:
350,63,2143,2,0,P|346:106|358:67,1,125,2|0,0:0|0:0,0:0:0:0:
478,343,2768,6,0,L|437:351,1,31.25,2|0,0:3|0:3,0:3:0:0:
448,349,3236,2,0,L|407:357,1,31.25,2|0,0:3|0:3,0:3:0:0:
344,315,3393,2,0,P|340:284|350:316,1,93.75,2|0,0:0|0:0,0:0:0:0:
282,353,3705,2,0,P|263:303|281:242,1,93.75,2|0,0:0|0:0,0:0:0:0:
386,215,4018,2,0,B|356:202|320:213|320:213|285:174|220:186|189:226|216:246|131:264,1,262.500010013581,2|0,0:0|0:0,0:0:0:0:
99,325,4643,2,0,B|97:276|53:217|2:257|36:348|96:276|131:202|81:213|36:179|91:110,1,262.500010013581,2|0,0:0|0:0,0:0:0:0:
120,62,5268,6,0,L|164:52,1,31.25,2|0,0:3|0:3,0:3:0:0:
150,55,5736,2,0,L|194:45,1,31.25,2|0,0:3|0:3,0:3:0:0:
249,94,5893,2,0,P|253:137|241:98,1,125,2|0,0:0|0:0,0:0:0:0:
353,44,6413,5,0,1:0:0:0:
370,89,6518,2,0,L|471:103,1,83.3333333333333,0|0,3:0|0:0,0:0:0:0:
502,108,6830,2,0,L|439:188,1,83.3333333333333,0|0,0:0|3:0,0:0:0:0:
419,212,7143,2,0,L|380:117,1,83.3333333333333,0|0,1:0|0:0,0:0:0:0:
370,89,7455,1,0,3:0:0:0:
309,215,7663,5,0,1:0:0:0:
329,233,7768,2,0,P|344:275|332:330,1,83.3333333333333,4|0,1:3|0:0,0:0:0:0:
293,330,8080,2,0,L|195:313,1,83.3333333333333,0|0,0:0|1:0,0:0:0:0:
161,307,8393,1,0,0:0:0:0:
48,288,8601,1,0,0:0:0:0:
48,288,8705,1,0,0:0:0:0:
169,160,8861,6,0,P|174:129|166:100,1,62.5,4|0,1:3|0:0,0:0:0:0:
30,109,9173,2,0,P|27:140|36:170,1,62.5,4|0,1:3|0:0,0:0:0:0:
101,135,9486,1,4,1:3:0:0:
68,13,9643,5,4,1:2:0:0:
228,34,9955,1,8,1:2:0:0:
388,55,10268,1,4,1:3:0:0:
295,102,10476,5,0,0:0:0:0:
275,138,10580,2,0,P|271:184|292:235,1,83.3333333333333,2|0,0:0|0:0,0:0:0:0:
306,252,10893,1,2,1:2:0:0:
380,156,11101,1,0,0:0:0:0:
380,143,11205,1,0,0:0:0:0:
479,212,11413,1,0,1:0:0:0:
493,239,11518,2,0,P|497:285|476:336,1,83.3333333333333,4|0,0:3|1:0,0:0:0:0:
457,349,11830,1,2,0:0:0:0:
284,301,11986,6,0,L|315:295,1,20.8333333333333,0|0,1:0|0:0,0:0:0:0:
284,301,12455,6,0,L|315:295,1,20.8333333333333,0|0,1:0|0:0,0:0:0:0:
104,364,12768,6,0,P|87:320|95:275,1,83.3333333333333,4|0,1:3|0:0,0:0:0:0:
114,250,13080,1,2,0:0:0:0:
90,115,13288,1,0,1:0:0:0:
120,144,13393,2,0,P|169:150|212:123,1,83.3333333333333,2|0,0:0|0:0,0:0:0:0:
220,100,13705,2,0,L|241:195,1,83.3333333333333,0|4,0:0|0:3,0:0:0:0:
250,221,14018,6,0,L|328:202,1,62.5,4|4,0:3|0:3,0:0:0:0:
310,206,14330,1,0,0:0:0:0:
437,53,14486,6,0,L|424:83,1,20.8333333333333,2|0,1:2|0:0,0:0:0:0:
437,53,14955,6,0,L|424:83,1,20.8333333333333,0|0,1:0|0:0,0:0:0:0:
479,219,15268,6,0,L|467:318,1,83.3333333333333,4|0,1:3|0:0,0:0:0:0:
443,334,15580,1,2,0:0:0:0:
375,229,15788,1,0,0:0:0:0:
376,216,15893,1,2,1:2:0:0:
299,305,16101,1,0,0:0:0:0:
298,318,16205,1,0,0:0:0:0:
199,210,16413,1,0,1:0:0:0:
227,241,16518,2,0,P|185:257|134:244,1,83.3333333333333,4|0,1:3|0:0,0:0:0:0:
113,228,16830,1,0,0:0:0:0:
58,50,16986,6,0,L|67:73,1,20.8333333333333,2|0,1:2|0:0,0:0:0:0:
58,50,17455,6,0,L|67:73,1,20.8333333333333,0|0,1:0|0:0,0:0:0:0:
228,70,17768,6,0,P|293:39|332:57,1,83.3333333333333,4|0,1:3|0:0,0:0:0:0:
337,21,18080,2,0,L|342:123,1,83.3333333333333,2|0,0:0|1:0,0:0:0:0:
348,145,18393,2,0,P|413:176|452:158,1,83.3333333333333,2|0,1:2|0:0,0:0:0:0:
457,156,18705,2,0,L|452:258,1,83.3333333333333,2|4,0:0|1:3,0:0:0:0:
451,281,19018,5,2,0:0:0:0:
299,235,19174,1,4,1:3:0:0:
374,254,19330,2,0,L|311:250,1,62.5,2|4,0:0|1:3,0:0:0:0:
289,276,19643,6,0,P|231:312|158:294,1,145.833334724108,4|0,1:2|0:0,0:0:0:0:
156,257,19955,2,0,P|214:221|287:239,1,145.833334724108,0|0,1:0|0:0,0:0:0:0:
79,323,20268,6,0,P|59:259|90:177,1,116.666667779287,4|0,1:3|0:0,0:0:0:0:
141,175,20580,2,0,P|111:196|74:198,1,66.6666666666667,2|0,0:0|0:0,0:0:0:0:
200,240,20893,6,0,P|180:176|211:94,1,116.666667779287,4|0,1:3|0:0,0:0:0:0:
263,92,21205,2,0,P|233:113|196:115,1,66.6666666666667
321,156,21518,6,0,P|301:92|332:10,1,116.666667779287,4|0,1:3|0:0,0:0:0:0:
384,9,21830,1,0,0:0:0:0:
413,192,22038,5,0,0:0:0:0:
472,156,22143,2,0,L|462:265,1,83.3333333333333,0|0,1:0|0:0,0:0:0:0:
460,280,22455,1,4,1:3:0:0:
263,295,22643,5,0,1:0:0:0:
322,258,22768,2,0,L|312:367,1,83.3333333333333,4|0,1:3|0:0,0:0:0:0:
280,374,23080,2,0,L|171:364,1,83.3333333333333,2|0,0:0|0:0,0:0:0:0:
155,359,23393,1,2,1:2:0:0:
216,227,23601,1,0,0:0:0:0:
228,224,23705,1,2,0:0:0:0:
60,134,23893,5,2,1:2:0:0:
84,150,24018,2,0,P|116:160|170:147,1,83.3333333333333,4|0,1:3|1:0,0:0:0:0:
190,137,24330,1,4,1:3:0:0:
338,33,24518,5,2,1:2:0:0:
276,0,24643,2,0,L|289:91,1,83.3333333333333,0|0,1:0|0:0,0:0:0:0:
293,110,24955,1,0,1:3:0:0:
456,204,25143,5,0,1:0:0:0:
394,171,25268,2,0,L|407:262,1,83.3333333333333,4|0,1:3|0:0,0:0:0:0:
411,281,25580,1,2,0:0:0:0:
431,366,25736,5,0,1:0:0:0:
327,339,26049,5,0,1:0:0:0:
223,312,26361,5,0,1:0:0:0:
160,354,26518,6,0,P|120:364|49:352,1,93.75,4|0,1:3|0:0,0:0:0:0:
48,348,26830,2,0,L|43:234,1,93.75,0|0,1:0|0:0,0:0:0:0:
43,232,27143,5,0,1:0:0:0:
115,183,27299,1,4,1:3:0:0:
138,62,27455,5,0,1:0:0:0:
66,111,27611,1,4,1:3:0:0:
187,134,27768,6,0,L|236:143,4,31.25,0|0|0|0|0,1:0|1:0|1:0|1:0|1:0,1:0:0:0:
322,168,28236,1,0,1:0:0:0:
322,168,28314,1,0,1:0:0:0:
322,168,28393,1,0,1:0:0:0:
412,182,28549,2,0,L|461:191,1,37.5000014305115,0|0,1:0|1:0,0:0:0:0:
451,308,29018,6,0,L|402:317,4,31.25,0|0|0|0|0,1:0|1:0|1:0|1:0|1:0,1:0:0:0:
330,340,29486,1,0,1:0:0:0:
330,340,29564,1,0,1:0:0:0:
330,340,29643,1,0,1:0:0:0:
189,362,29799,1,0,3:0:0:0:
226,356,29955,2,0,L|177:365,1,37.5000014305115,0|0,1:0|1:0,0:0:0:0:
40,354,30268,6,0,P|75:295|57:193,1,150.000005722046,2|0,3:2|0:0,0:0:0:0:
5,169,30736,2,0,P|73:169|152:103,1,150.000005722046,2|0,3:2|0:0,0:0:0:0:
147,46,31205,1,2,3:2:0:0:
147,46,31361,1,0,3:0:0:0:
251,140,31518,2,0,P|202:123|168:94,1,75.0000028610231,8|0,0:0|0:0,0:0:0:0:
184,110,31986,5,0,0:0:0:0:
184,110,32143,2,0,P|215:130|251:140,1,75.0000028610231,2|0,0:0|3:2,0:0:0:0:
326,140,32455,2,0,P|361:129|393:109,1,75.0000028610231,0|0,0:0|3:2,0:0:0:0:
449,27,32768,5,2,3:2:0:0:
449,27,32924,2,0,P|457:74|483:110,1,75.0000028610231,0|0,3:2|0:0,0:0:0:0:
511,168,33236,2,0,P|438:179|378:238,1,150.000005722046,2|0,3:2|0:0,0:0:0:0:
386,319,33705,1,2,3:2:0:0:
386,319,33861,1,0,0:0:0:0:
233,320,34018,2,0,P|263:299|300:290,1,75.0000028610231,8|2,0:0|0:0,0:0:0:0:
386,319,34330,5,0,3:2:0:0:
386,319,34486,1,0,3:2:0:0:
227,232,34799,5,0,3:2:0:0:
76,330,35111,5,0,3:2:0:0:
145,367,35268,6,0,P|110:290|125:215,1,150.000005722046,2|0,3:2|0:0,0:0:0:0:
37,190,35736,2,0,P|86:121|158:96,1,150.000005722046,2|0,3:2|0:0,0:0:0:0:
135,9,36205,1,2,3:2:0:0:
135,9,36361,1,0,3:0:0:0:
269,55,36518,2,0,P|208:12|182:7,1,75.0000028610231,8|0,0:0|0:0,0:0:0:0:
208,12,36986,5,0,0:0:0:0:
208,12,37143,2,0,P|242:28|269:55,1,75.0000028610231,2|0,0:0|3:2,0:0:0:0:
303,121,37455,2,0,P|305:158|296:194,1,75.0000028610231,0|0,0:0|3:2,0:0:0:0:
240,276,37768,5,2,3:2:0:0:
240,276,37924,2,0,P|275:292|326:283,1,75.0000028610231,0|0,3:2|0:0,0:0:0:0:
378,348,38236,2,0,P|429:311|458:231,1,150.000005722046,2|0,3:2|0:0,0:0:0:0:
419,150,38705,1,2,3:2:0:0:
419,150,38861,1,0,0:0:0:0:
507,25,39018,2,0,P|506:62|494:98,1,75.0000028610231,8|2,0:0|0:0,0:0:0:0:
419,150,39330,5,0,3:2:0:0:
419,150,39486,1,0,3:2:0:0:
242,188,39799,5,0,3:2:0:0:
104,71,40111,5,0,3:2:0:0:
147,0,40268,6,0,P|130:47|120:101,1,75.0000028610231,2|0,3:2|0:0,0:0:0:0:
62,155,40580,2,0,P|79:202|89:256,1,75.0000028610231,2|0,0:0|3:2,0:0:0:0:
107,346,40893,2,0,P|70:352|34:365,1,75.0000028610231,2|0,0:0|0:0,0:0:0:0:
153,277,41205,1,2,3:2:0:0:
199,208,41361,2,0,P|235:201|271:188,1,75.0000028610231,2|8,0:0|0:0,0:0:0:0:
268,198,41830,1,0,0:0:0:0:
467,347,42143,6,0,P|422:334|367:330,1,75.0000028610231,2|2,0:0|3:2,0:0:0:0:
296,369,42455,1,0,0:0:0:0:
320,263,42611,1,2,3:2:0:0:
320,263,42768,2,0,P|365:250|420:246,1,75.0000028610231,0|0,3:2|3:2,0:0:0:0:
496,230,43080,1,0,0:0:0:0:
299,57,43393,6,0,P|260:73|214:80,1,75.0000028610231,2|2,0:0|0:0,0:0:0:0:
82,16,43705,2,0,P|117:27|154:32,1,75.0000028610231,0|2,3:2|0:0,0:0:0:0:
212,167,44018,2,0,P|221:231|246:287,1,112.500004291535,8|0,0:0|0:0,0:0:0:0:
239,274,44330,1,2,3:2:0:0:
148,275,44486,5,2,3:2:0:0:
344,199,44799,5,2,3:2:0:0:
487,351,45111,5,0,3:2:0:0:
364,384,45268,6,0,P|378:349|387:312,1,75.0000028610231,2|0,3:2|0:0,0:0:0:0:
453,225,45580,2,0,P|439:190|430:153,1,75.0000028610231,2|0,0:0|3:2,0:0:0:0:
322,52,45893,2,0,P|357:44|405:20,1,75.0000028610231,2|0,0:0|0:0,0:0:0:0:
246,103,46205,1,2,3:2:0:0:
196,34,46361,2,0,P|161:23|108:20,1,75.0000028610231,2|8,0:0|0:0,0:0:0:0:
118,28,46830,1,0,0:0:0:0:
81,208,47143,6,0,P|74:264|81:318,1,75.0000028610231,2|2,0:0|3:2,0:0:0:0:
102,383,47455,1,0,0:0:0:0:
208,310,47611,2,0,P|215:254|208:200,1,75.0000028610231,2|0,3:2|3:0,0:0:0:0:
187,135,47924,1,0,3:0:0:0:
187,135,48080,1,0,0:0:0:0:
364,228,48393,5,2,0:0:0:0:
364,228,48549,2,0,P|407:232|451:246,1,75.0000028610231,2|0,0:0|3:2,0:0:0:0:
508,323,48861,1,2,0:0:0:0:
508,323,49018,1,8,0:0:0:0:
429,58,49330,1,0,3:2:0:0:
490,143,49486,5,0,3:2:0:0:
281,174,49799,5,0,3:2:0:0:
103,62,50111,5,0,3:2:0:0:
196,13,50268,6,0,P|192:50|193:94,1,67.5000002574921,2|0,0:0|0:0,0:0:0:0:
116,146,50580,2,0,P|115:179|112:213,1,67.5000002574921,2|0,0:0|0:0,0:0:0:0:
32,328,50893,1,10,0:0:0:0:
67,305,51049,1,0,0:0:0:0:
108,300,51205,1,2,0:0:0:0:
148,314,51361,1,2,0:0:0:0:
177,343,51518,6,0,P|214:346|255:340,1,67.5000002574921
371,283,51830,2,0,P|334:280|293:286,1,67.5000002574921
444,357,52143,1,10,0:0:0:0:
419,323,52299,1,2,0:0:0:0:
409,282,52455,1,0,0:0:0:0:
416,241,52611,1,2,0:0:0:0:
438,206,52768,6,0,P|441:155|436:117,1,67.5000002574921
506,52,53080,2,0,P|472:53|438:51,1,67.5000002574921
295,2,53393,1,10,0:0:0:0:
314,39,53549,1,2,0:0:0:0:
324,80,53705,1,0,0:0:0:0:
322,122,53861,1,2,0:0:0:0:
309,162,54018,6,0,P|316:194|321:233,1,67.5000002574921
210,86,54330,1,8,0:0:0:0:
170,79,54486,1,0,0:0:0:0:
54,118,54643,5,8,0:0:0:0:
70,156,54799,1,0,0:0:0:0:
74,198,54955,1,0,0:0:0:0:
65,239,55111,1,0,0:0:0:0:
43,274,55268,6,0,P|44:311|56:349,1,67.5000002574921,2|0,0:0|0:0,0:0:0:0:
178,312,55580,2,0,P|176:274|164:236,1,67.5000002574921,2|0,0:0|0:0,0:0:0:0:
261,361,55893,1,10,0:0:0:0:
294,335,56049,1,2,0:0:0:0:
334,323,56205,1,0,0:0:0:0:
376,324,56361,1,2,0:0:0:0:
415,340,56518,6,0,P|451:338|486:340,1,67.5000002574921
512,232,56830,2,0,P|476:234|441:232,1,67.5000002574921
309,142,57143,1,10,0:0:0:0:
331,174,57299,1,2,0:0:0:0:
310,208,57455,1,0,0:0:0:0:
271,202,57611,1,2,0:0:0:0:
261,164,57768,6,0,P|267:125|267:93,1,67.5000002574921
134,10,58080,2,0,P|134:43|140:76,1,67.5000002574921
37,231,58393,1,10,0:0:0:0:
67,201,58549,1,2,0:0:0:0:
106,188,58705,1,0,0:0:0:0:
148,193,58861,1,2,0:0:0:0:
184,215,59018,6,0,P|183:249|190:287,1,67.5000002574921
303,315,59330,1,8,0:0:0:0:
301,356,59486,1,0,0:0:0:0:
413,287,59643,6,0,P|394:242|420:205,1,75.0000028610231,10|0,0:0|0:0,0:0:0:0:
451,56,59955,2,0,P|470:101|444:138,1,75.0000028610231,2|0,0:0|0:0,0:0:0:0:
332,126,60268,5,0,3:2:0:0:
313,123,60346,1,0,0:0:0:0:
294,120,60424,1,0,0:0:0:0:
178,34,60580,2,0,P|199:29|224:30,5,29.1666669448217
158,52,60893,1,10,0:0:0:0:
158,52,61049,1,0,0:0:0:0:
74,95,61205,2,0,P|55:97|26:95,3,29.1666669448217,2|0|0|0,0:0|0:0|0:0|0:0,0:0:0:0:
132,163,61518,6,0,P|141:207|144:273,1,87.500000834465
223,196,61830,1,0,0:0:0:0:
67,280,61986,1,0,0:0:0:0:
234,341,62143,1,10,0:0:0:0:
278,265,62299,1,0,0:0:0:0:
362,243,62455,2,0,P|407:244|455:264,1,87.500000834465,2|0,0:0|0:0,0:0:0:0:
446,365,62768,5,0,0:0:0:0:
365,330,62924,1,0,0:0:0:0:
362,243,63080,1,0,0:0:0:0:
433,192,63236,1,0,0:0:0:0:
499,134,63393,2,0,L|550:136,1,43.7500004172325,2|0,3:2|0:0,0:0:0:0:
474,50,63549,1,0,0:0:0:0:
387,38,63705,1,2,0:0:0:0:
337,109,63861,1,0,0:0:0:0:
202,172,64018,6,0,L|147:171,2,43.7500004172325,8|0|0,0:0|0:0|0:0,0:0:0:0:
39,105,64330,5,8,0:0:0:0:
60,105,64408,1,0,0:0:0:0:
82,105,64486,1,0,0:0:0:0:
134,278,64643,6,0,L|128:317,3,29.1666669448217,10|0|0|0,0:0|0:0|0:0|0:0,0:0:0:0:
180,60,64955,2,0,L|186:21,3,29.1666669448217,2|0|0|0,0:0|0:0|0:0|0:0,0:0:0:0:
33,218,65268,5,0,3:2:0:0:
51,207,65346,1,0,0:0:0:0:
71,198,65424,1,0,0:0:0:0:
156,181,65580,1,0,0:0:0:0:
227,231,65736,1,0,0:0:0:0:
349,198,65893,2,0,P|389:189|436:184,1,87.500000834465,10|0,0:0|0:0,0:0:0:0:
314,293,66205,1,2,0:0:0:0:
268,137,66361,1,0,0:0:0:0:
441,24,66518,5,0,0:0:0:0:
376,83,66674,1,0,0:0:0:0:
289,92,66830,1,0,0:0:0:0:
218,40,66986,1,0,0:0:0:0:
110,14,67143,2,0,P|61:19|6:37,1,87.500000834465,10|0,0:0|0:0,0:0:0:0:
25,178,67455,2,0,P|67:189|110:193,1,87.500000834465,2|0,0:0|0:0,0:0:0:0:
248,242,67768,6,0,L|205:254,5,29.1666669448217
257,247,68080,1,0,0:0:0:0:
129,298,68236,1,0,0:0:0:0:
201,153,68393,1,2,3:2:0:0:
270,364,68549,1,0,0:0:0:0:
342,219,68705,2,0,P|369:178|418:134,1,87.500000834465,2|0,0:0|0:0,0:0:0:0:
396,9,69018,5,8,0:0:0:0:
380,24,69096,1,0,0:0:0:0:
364,39,69174,1,0,0:0:0:0:
250,25,69330,5,8,0:0:0:0:
243,46,69408,1,0,0:0:0:0:
237,67,69486,1,0,0:0:0:0:
131,111,69643,6,0,L|144:164,6,29.1666669448217,10|0|0|0|0|0|0,0:0|0:0|0:0|0:0|0:0|0:0|0:0,0:0:0:0:
128,97,70007,1,2,0:0:0:0:
111,278,70268,6,0,L|138:290,2,29.1666669448217,8|0|0,3:2|0:0|0:0,0:0:0:0:
58,283,70502,6,0,L|25:304,1,29.1666669448217,8|0,0:0|0:0,0:0:0:0:
80,235,70736,6,0,L|77:204,1,29.1666669448217,8|0,0:0|0:0,0:0:0:0:
83,265,70893,6,0,L|92:377,1,87.500000834465,10|0,0:0|0:0,0:0:0:0:
197,371,71127,1,8,0:0:0:0:
197,371,71205,2,0,L|195:336,3,29.1666669448217,2|0|0|8,0:0|0:0|0:0|0:0,0:0:0:0:
207,267,71518,5,8,0:0:0:0:
292,293,71674,1,0,0:0:0:0:
292,293,71752,1,8,0:0:0:0:
377,319,71908,1,0,0:0:0:0:
377,319,71986,1,8,0:0:0:0:
436,178,72143,1,10,0:0:0:0:
346,142,72299,2,0,L|318:224,2,67.5000002574921,0|2|0,0:0|0:0|0:0,0:0:0:0:
425,65,72768,6,0,P|380:70|320:62,1,87.500000834465,8|0,0:0|0:0,0:0:0:0:
234,5,73080,2,0,P|190:1|147:6,1,87.500000834465
48,79,73393,5,2,3:2:0:0:
105,162,73549,2,0,L|161:153,2,43.7500004172325,0|0|2,0:0|0:0|0:0,0:0:0:0:
72,255,73861,1,2,0:0:0:0:
184,367,74018,5,8,0:0:0:0:
189,345,74096,1,0,0:0:0:0:
195,324,74174,1,2,0:0:0:0:
313,370,74330,5,8,0:0:0:0:
307,348,74408,1,0,0:0:0:0:
302,327,74486,1,2,0:0:0:0:
426,308,74643,6,0,L|388:269,3,29.1666669448217,10|0|0|0,0:0|0:0|0:0|0:0,0:0:0:0:
264,135,74955,2,0,L|301:173,3,29.1666669448217,2|0|0|0,0:0|0:0|0:0|0:0,0:0:0:0:
377,64,75268,5,8,3:2:0:0:
270,45,75502,1,8,0:0:0:0:
270,45,75580,1,0,0:0:0:0:
163,26,75736,1,8,0:0:0:0:
44,92,75893,6,0,P|88:91|138:104,1,87.500000834465,2|0,0:0|0:0,0:0:0:0:
146,115,76127,2,0,L|152:212,1,87.500000834465,8|0,0:0|0:0,0:0:0:0:
139,220,76361,1,8,0:0:0:0:
59,325,76518,5,8,0:0:0:0:
166,306,76752,1,8,0:0:0:0:
166,306,76830,1,0,0:0:0:0:
273,287,76986,1,8,0:0:0:0:
344,355,77143,6,0,P|348:304|363:240,1,87.500000834465,10|0,0:0|0:0,0:0:0:0:
409,200,77455,1,0,0:0:0:0:
409,200,77611,1,2,0:0:0:0:
357,129,77768,2,0,L|352:77,7,29.1666669448217,8|0|0|0|0|0|0|0,0:0|0:0|0:0|0:0|0:0|0:0|0:0|0:0,0:0:0:0:
350,70,78236,5,2,0:0:0:0:
265,40,78393,2,0,L|274:124,1,43.7500004172325,8|0,3:2|0:0,0:0:0:0:
201,112,78549,1,2,0:0:0:0:
129,61,78705,1,0,0:0:0:0:
59,283,78861,5,2,0:0:0:0:
91,220,79018,1,10,0:0:0:0:
162,185,79174,1,2,0:0:0:0:
248,183,79330,1,10,0:0:0:0:
323,242,79486,1,2,0:0:0:0:
380,329,79643,6,0,L|383:366,1,37.5000014305115,8|0,0:0|0:0,0:0:0:0:
454,359,79955,2,0,L|450:321,1,37.5000014305115
454,137,80268,5,2,3:2:0:0:
454,137,80424,1,2,0:0:0:0:
271,19,80580,1,8,3:2:0:0:
381,100,80736,2,0,P|348:84|293:90,1,87.500000834465,2|0,0:3|3:0,0:3:0:0:
329,163,81049,1,0,0:0:0:0:
439,244,81205,1,8,3:2:0:0:
358,253,81361,6,0,L|374:343,1,87.500000834465,2|0,0:0|3:2,0:0:0:0:
270,230,81674,2,0,L|286:320,1,87.500000834465,2|8,0:0|3:2,0:0:0:0:
215,369,81986,1,2,0:0:0:0:
200,283,82143,2,0,L|216:373,1,87.500000834465,2|0,3:2|0:0,0:0:0:0:
131,339,82455,2,0,L|116:253,1,87.500000834465,10|0,3:2|0:0,0:0:0:0:
200,283,82768,5,2,3:2:0:0:
200,283,82924,1,2,0:0:0:0:
286,126,83080,1,8,3:2:0:0:
223,64,83236,2,0,P|188:54|113:83,1,87.500000834465,2|0,0:3|3:2,0:0:0:0:
201,147,83549,1,0,0:0:0:0:
308,39,83705,5,8,3:2:0:0:
316,48,83783,1,2,0:3:0:0:
324,57,83861,2,0,L|432:45,1,87.500000834465,2|0,0:0|3:2,0:0:0:0:
376,128,84174,2,0,L|462:118,1,87.500000834465,2|8,0:0|3:2,3:2:0:0:
431,199,84486,1,2,0:0:0:0:
345,209,84643,2,0,L|453:197,1,87.500000834465,2|0,3:2|0:0,0:0:0:0:
483,269,84955,2,0,L|396:278,1,87.500000834465,10|0,3:2|0:0,0:0:0:0:
265,215,85268,5,2,3:2:0:0:
315,286,85424,2,0,P|322:335|303:381,1,87.500000834465,2|8,0:0|3:2,0:0:0:0:
180,284,85736,1,2,0:3:0:0:
183,272,85814,1,2,0:3:0:0:
186,260,85893,1,0,3:2:0:0:
220,136,86049,1,0,0:0:0:0:
265,215,86205,1,8,3:2:0:0:
69,161,86361,6,0,L|56:67,1,87.500000834465,2|0,0:0|3:2,0:0:0:0:
138,105,86674,2,0,L|127:19,1,87.500000834465,2|8,0:0|3:2,0:0:0:0:
208,49,86986,1,2,0:0:0:0:
220,136,87143,2,0,L|207:42,1,87.500000834465,2|0,3:2|0:0,0:0:0:0:
275,0,87455,2,0,L|287:85,1,87.500000834465,10|0,3:2|0:0,0:0:0:0:
297,94,87689,1,0,0:3:0:0:
306,101,87768,1,2,3:2:0:0:
346,172,87924,6,0,P|381:150|443:151,1,87.500000834465,2|8,0:0|3:2,0:0:0:0:
286,224,88236,2,0,L|229:217,2,43.7500004172325,2|2|0,0:3|0:3|3:2,0:0:0:0:
369,252,88549,1,0,0:0:0:0:
301,355,88705,1,8,3:2:0:0:
196,295,88861,6,0,L|93:310,1,87.500000834465,2|0,0:0|3:2,0:0:0:0:
143,226,89174,2,0,L|56:238,1,87.500000834465,2|8,0:0|3:2,0:0:0:0:
88,156,89486,1,2,0:0:0:0:
175,144,89643,2,0,L|72:159,1,87.500000834465,2|0,3:2|0:0,0:0:0:0:
167,59,89955,2,0,L|254:47,1,87.500000834465,10|0,3:2|0:0,0:0:0:0:
423,57,90268,6,0,L|466:50,2,43.7500004172325,2|2|0,3:2|0:0|0:0,0:0:0:0:
340,29,90580,2,0,P|336:73|370:127,1,87.500000834465,8|2,3:2|0:3,0:0:0:0:
362,121,90814,1,2,0:3:0:0:
371,130,90893,1,0,3:2:0:0:
455,151,91049,1,0,0:0:0:0:
455,151,91205,1,8,3:2:0:0:
298,219,91361,5,2,0:0:0:0:
350,289,91518,2,0,L|359:399,1,87.500000834465,0|2,3:2|0:0,0:0:0:0:
391,211,91830,1,10,3:2:0:0:
391,211,91986,1,2,0:0:0:0:
443,281,92143,2,0,L|450:368,1,87.500000834465,2|0,3:2|0:0,0:0:0:0:
264,384,92455,2,0,L|256:296,1,87.500000834465,10|0,3:2|0:0,0:0:0:0:
100,70,92768,5,2,3:2:0:0:
98,58,92846,1,2,0:0:0:0:
96,46,92924,1,2,0:3:0:0:
70,134,93080,2,0,P|111:115|158:124,1,87.500000834465,8|2,3:2|0:3,0:0:0:0:
162,128,93314,1,2,0:3:0:0:
172,136,93393,2,0,P|214:141|253:122,1,87.500000834465,0|0,3:2|0:0,0:0:0:0:
121,192,93705,1,8,3:2:0:0:
328,72,93861,5,2,0:0:0:0:
406,113,94018,2,0,L|516:104,1,87.500000834465,0|2,3:2|0:0,0:0:0:0:
336,165,94330,1,8,3:2:0:0:
336,165,94486,1,2,0:0:0:0:
398,20,94643,2,0,L|485:12,1,87.500000834465,2|0,3:2|0:0,0:0:0:0:
501,199,94955,2,0,L|413:207,1,87.500000834465,10|0,3:2|0:0,0:0:0:0:
97,321,95268,6,0,L|53:325,2,43.7500004172325,2|2|0,3:2|0:0|0:0,0:0:0:0:
174,361,95580,1,8,3:2:0:0:
180,340,95658,1,0,0:0:0:0:
181,318,95736,1,2,0:3:0:0:
178,297,95814,1,0,0:0:0:0:
169,277,95892,1,2,3:2:0:0:
89,239,96049,2,0,P|79:196|87:153,1,87.500000834465,0|8,0:0|3:2,0:0:0:0:
189,14,96361,5,2,0:0:0:0:
30,88,96518,2,0,L|132:76,1,87.500000834465,0|2,3:2|0:0,0:0:0:0:
129,76,96752,1,2,0:3:0:0:
141,74,96830,1,8,3:2:0:0:
275,24,96986,1,0,0:0:0:0:
189,14,97143,6,0,L|291:26,1,87.500000834465,2|0,3:2|0:0,0:0:0:0:
332,91,97455,1,8,3:2:0:0:
418,80,97611,2,0,L|332:91,1,87.500000834465,2|2,0:0|3:2,0:0:0:0:
478,146,97924,1,0,0:0:0:0:
437,309,98080,2,0,L|426:222,1,87.500000834465,10|2,3:2|0:3,0:0:0:0:
424,209,98315,1,2,0:3:0:0:
423,197,98393,6,0,L|336:207,1,87.500000834465,2|0,3:2|0:0,0:0:0:0:
323,210,98627,1,0,0:0:0:0:
311,211,98705,2,0,L|321:297,1,87.500000834465,10|0,3:2|0:0,0:0:0:0:
309,298,98939,1,0,0:0:0:0:
295,300,99018,2,0,L|209:311,1,87.500000834465,2|0,3:2|0:0,0:0:0:0:
125,363,99330,5,8,3:2:0:0:
55,310,99486,2,0,L|12:315,2,43.7500004172325,2|0|0,0:0|0:0|3:2,0:0:0:0:
180,230,99799,1,0,0:0:0:0:
83,220,99955,2,0,P|66:165|76:117,1,87.500000834465,8|0,3:2|0:0,0:0:0:0:
137,22,100268,5,10,3:2:0:0:
241,39,100502,1,8,0:0:0:0:
241,39,100580,1,10,3:2:0:0:
345,56,100736,1,8,0:0:0:0:
263,144,100893,6,0,P|222:117|172:119,1,100,8|0,3:2|0:0,0:0:0:0:
161,125,101127,1,8,0:0:0:0:
151,133,101205,1,8,3:2:0:0:
341,190,101361,2,0,P|365:183|390:185,1,50,8|0,0:0|0:0,0:0:0:0:
433,339,101518,6,0,P|384:304|365:258,1,100,8|0,3:2|0:0,0:0:0:0:
363,256,101752,1,8,0:0:0:0:
350,271,101830,2,0,P|340:300|317:323,1,50,8|0,3:2|0:0,0:0:0:0:
228,318,101986,2,0,P|213:298|205:274,1,50,8|0,0:0|0:0,0:0:0:0:
149,194,102143,1,8,3:2:0:0:
141,217,102221,1,8,0:0:0:0:
126,237,102299,1,8,0:0:0:0:
106,252,102377,1,8,0:0:0:0:
83,261,102455,1,0,3:2:0:0:
63,15,102611,6,0,P|86:29|106:57,1,50,8|0,0:0|0:0,0:0:0:0:
112,68,102767,2,0,L|211:58,1,100,8|0,3:2|0:0,0:0:0:0:
224,52,103002,1,0,0:0:0:0:
237,46,103080,2,0,L|336:36,1,100,0|0,3:2|0:0,0:0:0:0:
406,127,103393,5,2,3:3:0:0:
312,141,103627,1,2,2:3:0:0:
312,141,103705,1,2,3:3:0:0:
218,156,103861,1,2,2:3:0:0:
80,187,104018,6,0,P|132:189|172:240,1,100,8|0,3:2|0:0,0:0:0:0:
169,234,104252,1,2,0:3:0:0:
171,248,104330,1,0,3:2:0:0:
8,233,104486,1,0,0:0:0:0:
236,290,104643,6,0,P|184:292|144:343,1,100,8|0,3:2|0:0,0:0:0:0:
147,337,104877,1,2,0:3:0:0:
145,351,104955,1,0,3:2:0:0:
308,336,105111,1,0,0:0:0:0:
370,136,105268,5,8,3:2:0:0:
339,236,105502,1,8,0:0:0:0:
339,236,105580,1,8,3:2:0:0:
308,336,105736,1,8,0:0:0:0:
512,162,105893,6,0,L|392:178,1,100,8|0,3:2|0:0,0:0:0:0:
399,177,106127,1,8,0:0:0:0:
386,179,106205,2,0,L|378:118,1,50,8|0,3:2|0:0,0:0:0:0:
424,11,106361,2,0,L|430:60,1,50,8|0,0:0|0:0,0:0:0:0:
298,28,106518,6,0,L|418:12,1,100,8|0,3:2|0:0,0:0:0:0:
411,13,106752,1,8,0:0:0:0:
424,11,106830,1,8,3:2:0:0:
256,120,106986,1,8,0:0:0:0:
214,28,107143,1,8,3:2:0:0:
189,24,107221,1,8,0:0:0:0:
164,21,107299,1,8,0:0:0:0:
139,18,107377,1,8,0:0:0:0:
114,14,107455,1,0,3:2:0:0:
256,120,107611,6,0,P|258:152|240:185,1,50
14,217,107768,1,2,3:2:0:0:
109,187,107924,1,2,0:0:0:0:
193,239,108080,1,2,3:2:0:0:
214,336,108236,1,2,0:0:0:0:
284,271,108393,5,2,3:3:0:0:
370,303,108627,1,2,2:3:0:0:
370,303,108705,1,2,3:0:0:0:
456,335,108861,1,2,0:3:0:0:
328,110,109018,6,0,P|310:167|332:213,1,100,8|0,3:2|0:0,0:0:0:0:
333,212,109252,1,2,0:3:0:0:
346,219,109330,1,0,3:2:0:0:
234,140,109486,1,0,0:0:0:0:
406,50,109643,6,0,P|424:107|402:153,1,100,8|0,3:2|0:0,0:0:0:0:
401,152,109877,1,2,0:3:0:0:
388,159,109955,1,0,3:2:0:0:
500,80,110111,1,0,0:0:0:0:
267,18,110268,6,0,L|125:47,1,131.250001251698,8|8,0:0|0:0,0:0:0:0:
126,38,110580,1,8,0:0:0:0:
318,89,110736,1,8,0:0:0:0:
227,106,110893,6,0,L|85:135,1,131.250001251698,8|8,0:0|0:0,0:0:0:0:
86,126,111205,1,8,0:0:0:0:
278,177,111361,1,8,0:0:0:0:
187,194,111518,6,0,L|45:223,1,131.250001251698,8|8,0:0|0:0,0:0:0:0:
46,214,111830,1,8,0:0:0:0:
238,265,111986,1,8,0:0:0:0:
18,308,112143,5,8,0:0:0:0:
50,301,112221,1,8,0:0:0:0:
82,295,112299,1,8,0:0:0:0:
114,288,112377,1,0,3:0:0:0:
147,282,112455,1,0,3:0:0:0:
198,353,112611,1,0,0:0:0:0:
329,334,112768,6,0,P|384:333|437:267,1,131.250001251698,8|0,0:0|0:0,0:0:0:0:
436,266,113080,1,0,3:0:0:0:
339,228,113236,1,0,0:0:0:0:
495,140,113393,5,2,0:3:0:0:
423,188,113627,1,2,0:3:0:0:
423,188,113705,1,2,3:3:0:0:
347,146,113861,1,2,0:3:0:0:
468,27,114018,6,0,P|409:53|325:20,1,131.250001251698,8|0,0:0|0:0,0:0:0:0:
336,27,114330,1,0,3:0:0:0:
406,96,114486,1,0,0:0:0:0:
276,85,114643,6,0,P|213:69|154:95,1,131.250001251698,8|0,0:0|0:0,0:0:0:0:
148,108,114955,1,0,3:0:0:0:
216,26,115111,1,0,0:0:0:0:
75,222,115268,6,0,L|102:369,1,131.250001251698,8|8,0:0|0:0,0:0:0:0:
110,360,115580,1,8,0:0:0:0:
7,182,115736,1,8,0:0:0:0:
147,189,115893,6,0,L|174:336,1,131.250001251698,8|8,0:0|0:0,0:0:0:0:
182,327,116205,1,8,0:0:0:0:
79,149,116361,1,8,0:0:0:0:
219,156,116518,6,0,L|246:303,1,131.250001251698,8|8,0:0|0:0,0:0:0:0:
254,294,116830,1,8,0:0:0:0:
151,116,116986,1,8,0:0:0:0:
314,252,117143,5,8,0:0:0:0:
308,219,117221,1,8,0:0:0:0:
302,187,117299,1,8,0:0:0:0:
296,155,117377,1,0,3:0:0:0:
291,123,117455,1,0,3:0:0:0:
343,53,117611,1,0,0:0:0:0:
450,84,117768,6,0,P|487:137|485:213,1,131.250001251698,8|0,0:0|0:3,0:0:0:0:
480,215,118080,1,0,3:0:0:0:
392,168,118236,1,0,0:0:0:0:
498,292,118393,5,2,0:3:0:0:
418,325,118627,1,2,0:3:0:0:
418,325,118705,1,2,3:3:0:0:
338,358,118861,1,2,0:3:0:0:
343,275,119018,5,10,0:0:0:0:
266,233,119174,1,2,0:0:0:0:
180,249,119330,1,2,0:0:0:0:
141,327,119486,1,2,0:0:0:0:
228,321,119643,1,10,0:0:0:0:
144,179,119799,6,0,L|87:72,1,100,2|0,0:0|0:0,0:0:0:0:
119,8,120268,5,2,0:0:0:0:
201,31,120424,1,2,0:0:0:0:
178,113,120580,1,2,0:0:0:0:
96,90,120736,1,0,0:0:0:0:
342,74,120893,5,2,0:0:0:0:
260,97,121049,1,2,0:0:0:0:
283,179,121205,1,2,0:0:0:0:
365,156,121361,1,2,0:0:0:0:
243,263,121518,5,0,0:0:0:0:
192,192,121674,1,2,0:0:0:0:
108,219,121831,1,2,0:0:0:0:
108,306,121987,1,2,0:0:0:0:
192,334,122143,1,2,0:0:0:0:
283,179,122299,5,0,0:0:0:0:
295,170,122455,1,0,0:0:0:0:
308,163,122611,1,2,0:0:0:0:
322,158,122767,1,2,0:0:0:0:
337,157,122924,1,2,0:0:0:0:
352,158,123080,1,2,0:0:0:0:
366,163,123236,1,0,0:0:0:0:
379,170,123392,1,2,0:0:0:0:
391,179,123549,1,2,0:0:0:0:
404,187,123705,1,2,0:0:0:0:
418,193,123861,1,0,0:0:0:0:
432,197,124017,1,2,0:0:0:0:
447,197,124174,1,2,0:0:0:0:
461,193,124330,1,2,0:0:0:0:
474,186,124486,1,2,0:0:0:0:
485,175,124642,1,0,0:0:0:0:
492,194,124799,5,2,0:0:0:0:
435,129,124955,1,2,0:0:0:0:
458,19,125111,1,2,0:0:0:0:
