osu file format v14

[General]
AudioFilename: audio.mp3
AudioLeadIn: 0
PreviewTime: 125966
Countdown: 0
SampleSet: Soft
StackLeniency: 0.7
Mode: 2
LetterboxInBreaks: 0
WidescreenStoryboard: 0

[Editor]
Bookmarks: 16829,25395,34537,43680,61966,80252,89394,98537,107680,144252,160252
DistanceSpacing: 2
BeatDivisor: 4
GridSize: 16
TimelineZoom: 1.8

[Metadata]
Title:Sky Is Over
TitleUnicode:Sky Is Over
Artist:Serj Tankian
ArtistUnicode:Serj Tankian
Creator:Hareimu
Version:The Sun
Source:
Tags:system of a down vocalist rock english elect the dead
BeatmapID:1910610
BeatmapSetID:914791

[Difficulty]
HPDrainRate:5
CircleSize:4.5
OverallDifficulty:9
ApproachRate:9
SliderMultiplier:2
SliderTickRate:4

[Events]
//Background and Video events
0,0,"bg.jpeg",0,0
//Break Periods
//Storyboard Layer 0 (Background)
//Storyboard Layer 1 (Fail)
//Storyboard Layer 2 (Pass)
//Storyboard Layer 3 (Foreground)
//Storyboard Sound Samples

[TimingPoints]
252,571.428571428571,4,2,0,25,1,0
966,517.241379310345,4,2,0,25,1,0
1095,540.540540540541,4,2,0,25,1,0
1230,526.315789473684,4,2,0,25,1,0
1361,638.297872340426,4,2,0,25,1,0
1680,571.428571428571,4,2,0,25,1,0
2537,555.555555555556,4,2,0,25,1,0
3092,526.315789473684,4,2,0,25,1,0
3355,517.241379310345,4,2,0,25,1,0
3484,652.173913043478,4,2,0,25,1,0
3647,645.161290322581,4,2,0,25,1,0
3969,545.454545454546,4,2,0,25,1,0
4241,576.923076923077,4,2,0,25,1,0
4529,603.015075376884,4,2,0,25,1,0
4830,555.555555555556,4,2,0,25,1,0
5385,500,4,2,0,25,1,0
5635,461.538461538462,4,2,0,25,1,0
5750,740.740740740741,4,2,0,25,1,0
5935,638.297872340426,4,2,0,25,1,0
6254,558.139534883721,4,2,0,25,1,0
6533,571.428571428571,4,2,0,25,1,0
7115,571.428571428571,4,2,0,25,1,0
7686,530.973451327434,4,2,0,25,1,0
7818,521.739130434783,4,2,0,25,1,0
7948,550.45871559633,4,2,0,25,1,0
8085,545.454545454546,4,2,0,25,1,0
8221,652.173913043478,4,2,0,25,1,0
8221,-66.6666666666667,4,2,0,25,0,0
8547,576.923076923077,4,2,0,25,1,0
9412,540.540540540541,4,2,0,25,1,0
9952,500,4,2,0,25,1,0
10077,538.116591928251,4,2,0,25,1,0
10211,487.80487804878,4,2,0,25,1,0
10332,697.674418604651,4,2,0,25,1,0
10506,638.297872340426,4,2,0,25,1,0
10825,545.454545454546,4,2,0,25,1,0
11097,582.52427184466,4,2,0,25,1,0
11388,594.059405940594,4,2,0,25,1,0
11685,555.555555555556,4,2,0,25,1,0
12240,500,4,2,0,25,1,0
12490,618.556701030928,4,2,0,25,1,0
12799,582.52427184466,4,2,0,25,1,0
13090,600,4,2,0,25,1,0
13690,545.454545454546,4,2,0,25,1,0
13962,576.923076923077,4,2,0,25,1,0
15114,594.059405940594,4,2,0,25,1,0
15708,512.820512820513,4,2,0,25,1,0
15964,631.578947368421,4,2,0,25,1,0
16279,550.45871559633,4,2,0,25,1,0
16829,566.037735849057,4,2,0,25,1,0
17112,545.454545454546,4,2,0,25,1,0
17385,588.235294117647,4,2,0,25,1,0
17967,574.162679425837,4,2,0,25,1,0
18540,550.45871559633,4,2,0,25,1,0
19090,549.199084668192,4,2,0,25,1,0
19364,598.503740648379,4,2,0,25,1,0
19663,555.555555555556,4,2,0,25,1,0
19940,566.037735849057,4,2,0,25,1,0
20223,588.235294117647,4,2,0,25,1,0
20517,571.428571428571,4,2,0,25,1,0
20802,579.710144927536,4,2,0,25,1,0
21381,500,4,2,0,25,1,0
21631,612.244897959184,4,2,0,25,1,0
21937,576.923076923077,4,2,0,25,1,0
22225,603.015075376884,4,2,0,25,1,0
22526,612.244897959184,4,2,0,25,1,0
22832,560.747663551402,4,2,0,25,1,0
23112,587.371512481645,4,2,0,25,1,0
23699,545.454545454546,4,2,0,25,1,0
23971,588.235294117647,4,2,0,25,1,0
24265,566.839867737364,4,2,0,25,1,0
24832,563.380281690141,4,2,1,40,1,0
25395,571.428571428571,4,2,1,40,1,0
25395,-71.4285714285714,4,2,1,40,0,0
34537,-71.4285714285714,4,2,1,50,0,0
43680,-71.4285714285714,4,3,2,60,0,1
61966,-71.4285714285714,4,2,1,60,0,0
89680,-71.4285714285714,4,2,0,60,0,0
90537,-71.4285714285714,4,2,1,60,0,0
90823,-71.4285714285714,4,2,0,60,0,0
91680,-71.4285714285714,4,2,1,60,0,0
91966,-71.4285714285714,4,2,0,60,0,0
92823,-71.4285714285714,4,2,1,60,0,0
93109,-71.4285714285714,4,2,0,60,0,0
93966,-71.4285714285714,4,2,1,60,0,0
94252,-71.4285714285714,4,2,0,60,0,0
95109,-71.4285714285714,4,2,1,60,0,0
95394,-71.4285714285714,4,2,0,60,0,0
96252,-71.4285714285714,4,2,1,60,0,0
96537,-71.4285714285714,4,2,0,60,0,0
97394,-71.4285714285714,4,2,1,60,0,0
97680,-71.4285714285714,4,2,0,60,0,0
98537,-71.4285714285714,4,2,1,60,0,0
125966,-100,4,2,0,60,0,0
127680,-71.4285714285714,4,2,1,60,0,0
128252,-71.4285714285714,4,3,2,60,0,1
167109,576.09217474796,4,3,2,60,1,0
168261,-100,4,2,0,50,0,0
169413,-100,4,2,0,40,0,0
170565,-100,4,2,0,30,0,0
171717,-100,4,2,0,20,0,0

[Colours]
Combo1 : 128,128,128
Combo2 : 255,255,128
Combo3 : 255,128,0
Combo4 : 192,192,192

[HitObjects]
109,259,252,5,0,0:0:0:0:
408,256,823,1,2,0:0:0:0:
455,227,966,1,0,0:0:0:0:
467,181,1095,1,2,0:0:0:0:
454,131,1230,1,2,0:0:0:0:
413,108,1361,2,0,L|298:107,1,100,2|0,0:0|0:0,0:0:0:0:
113,103,1965,2,0,L|232:102,1,100,2|0,0:0|0:0,0:0:0:0:
445,151,2537,1,0,0:0:0:0:
193,261,3092,6,0,L|190:170,1,50,2|0,0:0|0:0,0:0:0:0:
318,212,3355,2,0,L|324:147,1,50,2|2,0:0|0:0,0:0:0:0:
191,211,3647,2,0,L|81:211,1,100,2|0,0:0|0:0,0:0:0:0:
291,211,4241,2,0,L|181:211,1,100,2|0,0:0|0:0,0:0:0:0:
440,89,4830,1,0,0:0:0:0:
104,128,5385,5,2,0:0:0:0:
54,155,5510,1,0,0:0:0:0:
41,207,5635,1,2,0:0:0:0:
57,236,5750,1,2,0:0:0:0:
120,239,5935,2,0,L|235:240,1,100,2|0,0:0|0:0,0:0:0:0:
440,195,6533,2,0,L|325:196,1,100,2|0,0:0|0:0,0:0:0:0:
107,240,7115,1,0,0:0:0:0:
375,318,7686,5,2,0:0:0:0:
363,268,7818,1,0,0:0:0:0:
328,235,7948,1,2,0:0:0:0:
270,229,8085,1,2,0:0:0:0:
181,129,8221,2,0,L|331:130,1,150.000005722046,2|0,0:0|0:0,0:0:0:0:
131,127,8835,2,0,L|125:264,1,100,2|0,0:0|0:0,0:0:0:0:
367,276,9412,6,0,P|422:243|347:155,1,200,0|2,0:0|0:0,0:0:0:0:
299,153,10077,1,0,0:0:0:0:
204,152,10211,1,2,0:0:0:0:
299,153,10332,1,2,0:0:0:0:
162,152,10506,2,0,L|50:151,1,100,2|0,0:0|0:0,0:0:0:0:
248,234,11097,2,0,L|130:234,1,100,2|0,0:0|0:0,0:0:0:0:
415,234,11685,1,0,0:0:0:0:
129,146,12240,6,0,L|113:210,1,50,2|0,0:0|0:0,0:0:0:0:
207,214,12490,2,0,L|216:280,1,50,2|0,0:0|0:0,0:0:0:0:
341,148,12799,1,2,0:0:0:0:
171,189,13090,1,2,0:0:0:0:
403,71,13390,2,0,L|408:197,1,100,2|0,0:0|0:0,0:0:0:0:
114,171,13962,6,0,L|111:64,1,100
360,80,14538,2,0,L|228:79,1,100,2|0,0:0|0:0,0:0:0:0:
453,130,15114,2,0,L|456:237,1,100
206,245,15708,2,0,L|316:246,1,100,2|0,0:0|0:0,0:0:0:0:
52,134,16279,1,2,0:0:0:0:
439,110,16829,6,0,L|295:112,1,100,2|2,0:0|0:0,0:0:0:0:
153,113,17385,2,0,L|262:112,1,100,2|0,0:0|0:0,0:0:0:0:
457,104,17967,2,0,L|462:219,1,100,2|0,0:0|0:0,0:0:0:0:
253,205,18540,6,0,P|221:201|128:61,1,200,2|2,0:0|0:0,0:0:0:0:
326,84,19364,1,2,0:0:0:0:
110,87,19663,2,0,L|242:87,1,100,2|0,0:0|0:0,0:0:0:0:
402,88,20223,2,0,L|281:88,1,100,2|0,0:0|0:0,0:0:0:0:
31,144,20802,6,0,P|64:235|154:272,1,200,2|2,0:0|0:0,0:0:0:0:
219,272,21506,1,0,0:0:0:0:
290,253,21631,1,0,0:0:0:0:
190,253,21784,1,0,0:0:0:0:
52,273,21937,1,2,0:0:0:0:
244,270,22225,1,0,0:0:0:0:
48,277,22526,2,0,L|50:177,1,100,2|0,0:0|0:0,0:0:0:0:
319,128,23112,6,0,P|408:164|442:255,1,200,0|2,0:0|0:0,0:0:0:0:
242,251,23971,1,0,0:0:0:0:
449,255,24265,2,0,L|271:256,1,150
450,256,24831,2,0,L|454:142,1,100,2|8,0:2|0:0,0:0:0:0:
45,71,25395,6,0,L|41:217,1,139.999995727539,2|0,3:2|0:0,0:0:0:0:
256,188,25966,1,2,0:2:0:0:
311,162,26108,1,0,0:0:0:0:
334,106,26251,1,0,0:0:0:0:
312,49,26394,1,0,0:0:0:0:
257,23,26537,1,2,0:2:0:0:
74,27,26823,1,8,0:0:0:0:
283,109,27109,2,0,L|426:107,1,139.999995727539,2|8,0:0|0:0,0:0:0:0:
181,219,27680,6,0,P|120:163|186:76,1,209.999993591309,10|0,0:0|0:0,0:0:0:0:
323,309,28252,2,0,L|183:308,1,139.999995727539,2|0,0:0|0:0,0:0:0:0:
432,60,28823,2,0,L|436:209,1,139.999995727539,2|8,0:0|0:0,0:0:0:0:
155,209,29394,1,2,0:0:0:0:
435,199,29680,2,0,L|345:199,1,69.9999978637696
74,123,29966,6,0,L|221:122,1,139.999995727539,10|0,0:0|0:0,0:0:0:0:
224,191,30394,1,0,0:0:0:0:
81,282,30537,2,0,P|37:237|79:189,1,139.999995727539,2|0,0:0|0:0,0:0:0:0:
149,190,30965,1,0,0:0:0:0:
290,192,31109,1,2,0:0:0:0:
79,189,31394,1,8,0:0:0:0:
149,190,31537,1,0,0:0:0:0:
218,192,31680,2,0,L|53:188,1,139.999995727539,2|0,0:0|0:0,0:0:0:0:
328,99,32252,6,0,L|472:99,1,139.999995727539,10|0,0:0|0:0,0:0:0:0:
187,99,32823,2,0,L|346:99,1,139.999995727539,2|0,3:2|0:0,0:0:0:0:
77,197,33394,2,0,L|68:49,1,139.999995727539,2|8,3:2|0:0,0:0:0:0:
256,281,33966,2,0,L|97:281,1,139.999995727539,6|8,3:2|0:0,0:0:0:0:
186,281,34394,1,0,0:0:0:0:
466,292,34537,6,0,L|471:136,1,139.999995727539,14|0,0:1|0:0,0:0:0:0:
245,146,35109,2,0,L|240:302,1,139.999995727539,2|0,0:1|0:0,0:0:0:0:
416,237,35680,2,0,L|250:235,1,139.999995727539,2|8,0:0|0:0,0:0:0:0:
466,292,36252,2,0,L|461:152,1,139.999995727539,2|8,0:1|0:0,0:0:0:0:
111,146,36823,6,0,B|41:146|41:146|110:146,1,139.999995727539,10|0,0:0|0:0,0:0:0:0:
328,90,37394,2,0,L|188:90,1,139.999995727539,2|0,0:0|0:0,0:0:0:0:
361,182,37966,1,2,0:0:0:0:
151,182,38252,1,8,0:0:0:0:
401,146,38537,2,0,B|471:146|471:146|401:146,1,139.999995727539,2|0,0:0|0:0,0:0:0:0:
49,150,39109,6,0,L|49:308,1,139.999995727539,10|0,0:0|0:0,0:0:0:0:
294,233,39680,2,0,L|146:234,1,139.999995727539,2|0,0:0|0:0,0:0:0:0:
358,151,40252,2,0,L|215:152,1,139.999995727539,10|8,3:2|0:0,0:0:0:0:
461,289,40823,2,0,L|464:130,1,139.999995727539,12|8,0:0|0:0,0:0:0:0:
186,91,41394,5,8,1:2:0:0:
326,91,41680,1,8,1:2:0:0:
151,142,41966,1,8,1:2:0:0:
361,142,42252,1,8,1:2:0:0:
116,199,42537,1,8,1:2:0:0:
396,199,42823,1,8,1:2:0:0:
45,196,43109,2,0,L|41:56,1,139.999995727539,8|8,1:3|1:2,0:0:0:0:
467,80,43680,5,6,0:1:0:0:
256,77,43966,1,0,0:0:0:0:
467,80,44252,2,0,L|320:80,1,139.999995727539,10|0,0:0|0:0,0:0:0:0:
45,304,44823,1,6,0:0:0:0:
256,307,45109,1,0,0:0:0:0:
45,80,45394,2,0,L|184:81,1,139.999995727539,10|0,0:0|0:0,0:0:0:0:
462,144,45966,6,0,L|467:305,1,139.999995727539,6|0,0:0|0:0,0:0:0:0:
186,288,46537,1,10,0:0:0:0:
396,283,46823,1,0,0:0:0:0:
187,306,47109,2,0,L|181:158,1,139.999995727539,6|0,0:0|0:0,0:0:0:0:
462,103,47680,2,0,L|470:257,1,139.999995727539,10|0,0:0|0:0,0:0:0:0:
45,304,48252,5,6,0:1:0:0:
256,307,48538,1,0,0:0:0:0:
45,304,48824,2,0,L|192:304,1,139.999995727539,10|0,0:0|0:0,0:0:0:0:
467,80,49395,1,6,0:0:0:0:
256,77,49681,1,0,0:0:0:0:
467,304,49966,2,0,L|469:151,1,139.999995727539,10|0,0:0|0:0,0:0:0:0:
40,85,50537,6,0,L|34:238,1,139.999995727539,6|0,0:0|0:0,0:0:0:0:
386,229,51109,1,10,0:0:0:0:
126,229,51395,1,0,0:0:0:0:
472,85,51680,2,0,L|478:238,1,139.999995727539,6|0,0:0|0:0,0:0:0:0:
231,164,52252,1,10,0:0:0:0:
477,224,52537,1,0,0:0:0:0:
40,85,52823,6,0,L|34:238,1,139.999995727539,6|0,0:1|0:0,0:0:0:0:
256,193,53394,2,0,L|104:193,1,139.999995727539,10|0,0:0|0:0,0:0:0:0:
362,121,53966,1,6,0:0:0:0:
256,123,54109,1,8,0:0:0:0:
150,121,54252,1,0,0:0:0:0:
430,121,54537,2,0,B|502:121|502:121|430:121,1,139.999995727539,10|0,0:0|0:0,0:0:0:0:
46,105,55109,6,0,L|186:105,1,139.999995727539,6|0,0:0|0:0,0:0:0:0:
396,105,55680,2,0,L|256:106,1,139.999995727539,10|0,0:0|0:0,0:0:0:0:
466,115,56252,2,0,L|470:261,1,139.999995727539,6|0,0:0|0:0,0:0:0:0:
256,259,56823,2,0,L|117:260,1,139.999995727539,10|0,0:0|0:0,0:0:0:0:
467,268,57394,6,0,L|313:268,1,139.999995727539,6|0,0:1|0:0,0:0:0:0:
116,268,57966,1,10,0:0:0:0:
326,269,58252,1,0,0:0:0:0:
45,116,58537,2,0,L|199:116,1,139.999995727539,6|0,0:0|0:0,0:0:0:0:
396,116,59109,1,10,0:0:0:0:
186,115,59395,1,0,0:0:0:0:
465,115,59680,5,6,0:0:0:0:
366,115,59823,1,8,0:0:0:0:
464,116,59966,1,0,0:0:0:0:
219,52,60252,1,10,0:0:0:0:
464,116,60537,1,8,0:0:0:0:
79,195,60823,2,0,L|74:114,1,69.9999978637696,6|8,0:0|0:0,0:0:0:0:
208,129,61109,2,0,L|203:210,1,69.9999978637696,0|0,0:0|0:0,0:0:0:0:
336,205,61394,2,0,L|331:286,1,69.9999978637696,10|0,0:0|0:0,0:0:0:0:
465,281,61680,2,0,L|460:200,1,69.9999978637696,8|0,0:1|0:0,0:0:0:0:
161,218,61966,6,0,L|21:218,1,139.999995727539,14|0,3:1|0:0,0:0:0:0:
161,218,62394,2,0,L|319:219,1,139.999995727539,2|0,0:0|0:0,0:0:0:0:
161,218,62823,2,0,P|124:149|181:99,1,139.999995727539,2|0,0:0|3:0,0:0:0:0:
297,106,63252,2,0,L|146:106,1,139.999995727539,2|0,0:0|0:0,0:0:0:0:
402,103,63680,6,0,P|455:221|351:299,1,279.999991455078,10|10,3:0|3:3,0:0:0:0:
211,302,64537,1,0,0:0:0:0:
456,243,64823,2,0,L|463:98,1,139.999995727539,10|0,3:0|0:0,0:0:0:0:
232,116,65394,2,0,L|394:117,1,139.999995727539,10|0,3:0|0:0,0:0:0:0:
161,118,65966,1,10,3:0:0:0:
371,116,66252,1,8,0:0:0:0:
21,60,66537,6,0,L|17:212,1,139.999995727539,10|0,3:3|0:0,0:0:0:0:
242,195,67109,2,0,L|245:55,1,139.999995727539,10|0,3:3|0:0,0:0:0:0:
469,59,67680,2,0,L|472:199,1,139.999995727539,10|8,3:3|0:0,0:0:0:0:
247,191,68252,2,0,L|242:99,1,69.9999978637696,14|0,3:2|0:0,0:0:0:0:
383,121,68537,1,8,0:0:0:0:
32,132,68823,6,0,L|28:277,1,139.999995727539,14|8,3:2|0:0,0:0:0:0:
238,264,69394,1,10,3:3:0:0:
168,264,69536,1,0,0:0:0:0:
98,265,69679,1,0,0:0:0:0:
449,266,69966,2,0,L|452:109,1,139.999995727539,14|8,3:2|0:0,0:0:0:0:
207,64,70537,1,10,3:3:0:0:
417,64,70823,1,8,0:0:0:0:
38,64,71109,6,0,L|177:64,1,139.999995727539,14|0,3:1|0:0,0:0:0:0:
388,137,71680,2,0,L|247:138,2,139.999995727539,10|0|10,3:3|0:0|3:3,0:0:0:0:
177,139,72537,1,0,0:0:0:0:
422,253,72823,2,0,P|472:195|411:158,1,139.999995727539,10|8,3:3|0:0,0:0:0:0:
368,160,73252,1,0,0:0:0:0:
173,111,73394,6,0,L|24:110,1,139.999995727539,10|8,3:3|0:0,0:0:0:0:
80,111,73775,1,0,0:0:0:0:
325,167,74109,1,0,0:0:0:0:
255,169,74252,1,0,0:0:0:0:
325,167,74394,1,0,0:0:0:0:
89,317,74537,2,0,P|41:275|82:227,1,139.999995727539,10|8,3:3|0:0,0:0:0:0:
224,224,74966,2,0,P|271:181|230:133,1,139.999995727539,0|8,0:0|0:0,0:0:0:0:
91,121,75394,2,0,L|85:193,1,69.9999978637696
347,291,75680,6,0,L|492:291,2,139.999995727539,6|0|10,3:2|0:0|3:3,0:0:0:0:
137,200,76537,1,0,0:0:0:0:
382,156,76823,2,0,L|388:297,1,139.999995727539,10|8,3:3|0:0,0:0:0:0:
178,91,77394,2,0,L|27:91,1,139.999995727539,10|8,3:3|0:0,0:0:0:0:
472,299,77966,6,0,L|478:146,1,139.999995727539,6|8,3:2|0:0,0:0:0:0:
126,155,78538,1,10,3:3:0:0:
386,155,78824,1,8,0:0:0:0:
40,299,79109,2,8,L|34:146,1,139.999995727539,14|8,3:2|0:0,0:0:0:0:
105,159,79537,1,8,0:0:0:0:
351,219,79681,1,10,3:0:0:0:
105,159,79966,1,8,0:0:0:0:
469,332,80252,6,0,L|477:192,1,139.999995727539,12|8,3:1|0:0,0:0:0:0:
267,216,80823,2,0,L|256:76,1,139.999995727539,10|8,3:3|0:0,0:0:0:0:
43,192,81394,2,0,L|51:331,1,139.999995727539,10|8,3:3|0:0,0:0:0:0:
330,192,81966,2,0,L|469:192,1,139.999995727539,10|8,3:3|0:0,0:0:0:0:
43,332,82537,6,0,L|40:192,1,139.999995727539,14|8,3:2|0:0,0:0:0:0:
292,103,83108,2,0,L|148:105,1,139.999995727539,10|8,3:0|0:0,0:0:0:0:
360,192,83680,2,0,L|220:193,1,139.999995727539,10|8,3:0|0:0,0:0:0:0:
473,192,84252,2,0,L|465:332,1,139.999995727539,10|8,3:0|0:0,0:0:0:0:
115,122,84823,6,0,L|256:122,1,139.999995727539,6|8,3:2|0:0,0:0:0:0:
45,52,85394,2,0,L|37:192,1,139.999995727539,10|8,3:0|0:0,0:0:0:0:
256,228,85966,2,0,L|248:88,1,139.999995727539,6|8,3:2|0:0,0:0:0:0:
467,52,86537,2,0,L|475:192,1,139.999995727539,10|8,3:0|0:0,0:0:0:0:
53,192,87109,5,12,1:2:0:0:
239,192,87394,1,8,1:2:0:0:
71,192,87680,1,8,1:2:0:0:
281,191,87966,1,8,1:2:0:0:
95,192,88252,1,8,1:2:0:0:
339,191,88537,1,8,1:3:0:0:
129,92,88823,1,8,1:3:0:0:
409,100,89109,1,8,1:3:0:0:
60,183,89394,5,4,0:0:0:0:
199,192,89680,1,0,0:0:0:0:
129,192,89822,1,2,0:0:0:0:
246,130,89966,1,0,0:0:0:0:
176,130,90108,1,0,0:0:0:0:
60,92,90252,1,2,0:0:0:0:
54,161,90394,1,0,0:0:0:0:
256,57,90537,5,4,0:0:0:0:
116,162,90823,1,0,0:0:0:0:
110,92,90965,1,2,0:0:0:0:
228,59,91109,1,0,0:0:0:0:
298,59,91251,1,0,0:0:0:0:
181,190,91395,1,2,0:0:0:0:
251,190,91537,1,0,0:0:0:0:
452,183,91680,5,4,0:0:0:0:
313,192,91966,1,0,0:0:0:0:
383,192,92108,1,2,0:0:0:0:
266,130,92252,1,0,0:0:0:0:
336,130,92394,1,0,0:0:0:0:
452,92,92538,1,2,0:0:0:0:
457,161,92680,1,0,0:0:0:0:
256,57,92823,5,4,0:0:0:0:
396,162,93109,1,0,0:0:0:0:
401,92,93251,1,2,0:0:0:0:
284,59,93395,1,0,0:0:0:0:
214,59,93537,1,0,0:0:0:0:
331,190,93681,1,2,0:0:0:0:
333,120,93823,1,0,0:0:0:0:
60,183,93966,5,4,0:0:0:0:
200,181,94252,1,0,0:0:0:0:
130,181,94394,1,2,0:0:0:0:
270,182,94537,1,0,0:0:0:0:
339,182,94679,1,0,0:0:0:0:
198,119,94823,1,2,0:0:0:0:
195,49,94965,1,0,0:0:0:0:
453,183,95109,5,4,0:0:0:0:
312,181,95394,1,0,0:0:0:0:
382,181,95536,1,2,0:0:0:0:
242,182,95679,1,0,0:0:0:0:
312,182,95821,1,0,0:0:0:0:
453,146,95965,1,2,0:0:0:0:
455,76,96107,1,0,0:0:0:0:
256,118,96252,5,4,0:0:0:0:
396,222,96537,1,0,0:0:0:0:
401,291,96679,1,2,0:0:0:0:
284,325,96823,1,0,0:0:0:0:
214,325,96965,1,0,0:0:0:0:
331,194,97109,1,2,0:0:0:0:
261,192,97251,1,0,0:0:0:0:
59,183,97394,5,4,0:0:0:0:
199,192,97680,1,0,0:0:0:0:
129,192,97822,1,2,0:0:0:0:
245,254,97966,1,0,0:0:0:0:
247,184,98108,1,0,0:0:0:0:
129,192,98252,1,2,0:0:0:0:
199,192,98394,1,0,0:0:0:0:
453,183,98537,6,0,L|304:181,1,139.999995727539,12|0,3:2|0:0,0:0:0:0:
442,70,98966,1,0,0:0:0:0:
326,73,99109,2,0,L|256:72,1,69.9999978637696,8|0,0:0|0:0,0:0:0:0:
372,189,99394,2,0,L|302:188,1,69.9999978637696
59,183,99680,6,0,L|208:181,1,139.999995727539,8|0,0:0|0:0,0:0:0:0:
70,314,100109,1,0,0:0:0:0:
186,311,100252,2,0,L|255:311,1,69.9999978637696,8|0,0:0|0:0,0:0:0:0:
140,195,100537,2,0,L|133:125,1,69.9999978637696
341,106,100823,6,0,L|483:105,1,139.999995727539,8|0,0:0|0:0,0:0:0:0:
351,237,101252,1,0,0:0:0:0:
467,219,101394,2,0,L|471:144,1,69.9999978637696,8|0,0:0|0:0,0:0:0:0:
353,134,101680,2,0,L|432:134,1,69.9999978637696
171,106,101966,6,0,L|29:105,1,139.999995727539,8|0,0:0|0:0,0:0:0:0:
161,237,102395,1,0,0:0:0:0:
45,219,102537,2,0,L|121:218,1,69.9999978637696,8|0,0:0|0:0,0:0:0:0:
232,162,102823,2,0,L|153:162,1,69.9999978637696
426,318,103109,6,0,P|472:265|418:230,1,139.999995727539,8|0,0:0|0:0,0:0:0:0:
290,124,103537,1,0,0:0:0:0:
412,294,103680,2,0,L|413:222,1,69.9999978637696,8|0,0:0|0:0,0:0:0:0:
289,143,103966,2,0,L|359:143,1,69.9999978637696
86,318,104252,6,0,P|40:265|94:230,1,139.999995727539,8|0,0:0|0:0,0:0:0:0:
222,124,104680,1,0,0:0:0:0:
100,294,104823,2,0,L|24:294,1,69.9999978637696,8|0,0:0|0:0,0:0:0:0:
153,143,105109,2,0,L|73:144,1,69.9999978637696
363,278,105394,6,0,P|398:278|459:191,1,139.999995727539,8|0,0:0|0:0,0:0:0:0:
330,146,105823,1,0,0:0:0:0:
445,98,105965,2,0,L|421:32,1,69.9999978637696,8|0,0:0|0:0,0:0:0:0:
303,62,106251,2,0,L|233:62,1,69.9999978637696
459,202,106537,6,0,P|429:263|363:278,1,139.999995727539,8|0,0:0|0:0,0:0:0:0:
234,264,106966,1,0,0:0:0:0:
363,278,107109,1,8,0:0:0:0:
429,262,107251,1,8,0:0:0:0:
445,194,107394,1,8,0:0:0:0:
393,146,107537,1,8,0:0:0:0:
165,101,107680,6,0,L|8:100,1,139.999995727539,6|8,3:2|0:0,0:0:0:0:
270,134,108252,2,0,L|427:133,1,139.999995727539,10|8,3:0|0:0,0:0:0:0:
165,251,108823,1,10,3:0:0:0:
375,142,109109,1,0,0:0:0:0:
96,122,109394,2,0,P|54:172|92:225,1,139.999995727539,10|8,3:0|0:0,0:0:0:0:
433,316,109966,5,8,0:0:0:0:
485,255,110108,1,0,0:0:0:0:
471,189,110251,1,8,0:0:0:0:
394,154,110394,1,0,0:0:0:0:
79,316,110537,1,8,0:0:0:0:
27,255,110679,1,0,0:0:0:0:
41,189,110822,1,8,0:0:0:0:
118,154,110965,1,0,0:0:0:0:
416,68,111109,5,8,0:0:0:0:
468,129,111251,1,0,0:0:0:0:
454,195,111394,1,8,0:0:0:0:
377,230,111537,1,0,0:0:0:0:
96,68,111680,1,8,0:0:0:0:
44,129,111822,1,0,0:0:0:0:
58,195,111965,1,8,0:0:0:0:
135,230,112108,1,0,0:0:0:0:
347,283,112252,6,0,L|504:284,1,139.999995727539,6|8,3:2|0:0,0:0:0:0:
242,250,112824,2,0,L|85:251,1,139.999995727539,10|8,3:0|0:0,0:0:0:0:
347,133,113395,1,10,3:0:0:0:
137,242,113681,1,0,0:0:0:0:
416,262,113966,2,0,P|458:212|420:159,1,139.999995727539,10|8,3:0|0:0,0:0:0:0:
24,290,114537,5,8,0:0:0:0:
47,221,114679,1,0,0:0:0:0:
114,173,114822,1,8,0:0:0:0:
207,170,114965,1,0,0:0:0:0:
488,290,115109,1,8,0:0:0:0:
465,221,115251,1,0,0:0:0:0:
398,173,115394,1,8,0:0:0:0:
305,170,115537,1,0,0:0:0:0:
42,290,115680,5,8,0:0:0:0:
65,221,115822,1,0,0:0:0:0:
132,173,115965,1,8,0:0:0:0:
225,170,116108,1,0,0:0:0:0:
470,290,116252,1,8,0:0:0:0:
447,221,116394,1,0,0:0:0:0:
380,173,116537,1,8,0:0:0:0:
287,170,116680,1,0,0:0:0:0:
48,283,116823,6,0,L|44:143,1,139.999995727539,6|8,3:2|0:0,0:0:0:0:
289,101,117394,2,0,L|149:101,1,139.999995727539,10|8,3:0|0:0,0:0:0:0:
395,273,117966,1,10,3:0:0:0:
185,164,118252,1,0,0:0:0:0:
464,116,118537,2,0,L|468:255,1,139.999995727539,10|8,3:0|0:0,0:0:0:0:
115,258,119109,6,0,L|142:113,1,139.999995727539,6|8,3:2|0:0,0:0:0:0:
373,256,119680,2,0,L|448:133,1,139.999995727539,10|8,3:0|0:0,0:0:0:0:
95,169,120252,2,0,L|170:46,1,139.999995727539,10|8,3:0|0:0,0:0:0:0:
343,82,120823,2,0,L|482:78,1,139.999995727539,10|8,3:0|0:0,0:0:0:0:
62,144,121394,6,0,L|215:144,1,139.999995727539,6|8,3:2|0:0,0:0:0:0:
411,134,121966,2,0,L|417:287,1,139.999995727539,10|8,3:0|0:0,0:0:0:0:
136,193,122537,1,10,3:0:0:0:
346,202,122823,1,8,0:0:0:0:
101,134,123109,2,0,L|95:287,1,139.999995727539,10|8,3:0|0:0,0:0:0:0:
459,192,123680,5,12,1:2:0:0:
273,192,123965,1,8,1:2:0:0:
441,192,124251,1,8,1:2:0:0:
231,191,124537,1,8,1:2:0:0:
417,192,124823,1,8,1:2:0:0:
173,191,125108,1,8,1:3:0:0:
383,92,125394,1,8,1:3:0:0:
103,100,125680,1,8,1:3:0:0:
303,334,125966,6,0,P|331:295|305:255,1,100,2|0,0:0|0:0,0:0:0:0:
156,195,126537,2,0,L|256:195,1,100
80,59,127109,2,0,P|52:97|78:137,1,100,2|0,0:0|0:0,0:0:0:0:
361,144,127680,1,8,0:3:0:0:
116,216,127966,1,8,0:0:0:0:
466,144,128252,6,0,L|471:305,1,139.999995727539,6|0,0:1|0:0,0:0:0:0:
190,288,128823,1,10,0:0:0:0:
400,283,129109,1,0,0:0:0:0:
191,306,129395,2,0,L|185:158,1,139.999995727539,14|0,0:0|0:0,0:0:0:0:
466,103,129966,2,0,L|474:257,1,139.999995727539,10|0,0:0|0:0,0:0:0:0:
45,304,130537,5,6,0:1:0:0:
256,307,130823,1,0,0:0:0:0:
45,304,131109,2,0,L|192:304,1,139.999995727539,10|0,0:0|0:0,0:0:0:0:
467,80,131680,1,6,0:0:0:0:
256,77,131966,1,0,0:0:0:0:
467,304,132251,2,0,L|469:151,1,139.999995727539,10|0,0:0|0:0,0:0:0:0:
40,85,132822,6,0,L|34:238,1,139.999995727539,6|0,0:0|0:0,0:0:0:0:
386,229,133394,1,10,0:0:0:0:
126,229,133680,1,0,0:0:0:0:
472,85,133965,2,0,L|478:238,1,139.999995727539,6|0,0:0|0:0,0:0:0:0:
231,164,134537,1,10,0:0:0:0:
477,224,134822,1,0,0:0:0:0:
40,85,135108,6,0,L|34:238,1,139.999995727539,6|0,0:1|0:0,0:0:0:0:
256,193,135679,2,0,L|104:193,1,139.999995727539,10|0,0:0|0:0,0:0:0:0:
362,121,136251,1,6,0:0:0:0:
468,123,136394,1,8,0:0:0:0:
362,121,136537,1,0,0:0:0:0:
82,121,136822,2,0,B|10:121|10:121|82:121,1,139.999995727539,10|0,0:0|0:0,0:0:0:0:
466,105,137394,6,0,L|326:105,1,139.999995727539,6|0,0:0|0:0,0:0:0:0:
116,105,137965,2,0,L|256:106,1,139.999995727539,10|0,0:0|0:0,0:0:0:0:
46,115,138537,2,0,L|42:261,1,139.999995727539,6|0,0:0|0:0,0:0:0:0:
256,259,139108,2,0,L|395:260,1,139.999995727539,10|0,0:0|0:0,0:0:0:0:
45,268,139679,6,0,L|199:268,1,139.999995727539,6|0,0:1|0:0,0:0:0:0:
396,268,140251,1,10,0:0:0:0:
186,269,140537,1,0,0:0:0:0:
467,116,140822,2,0,L|313:116,1,139.999995727539,6|0,0:0|0:0,0:0:0:0:
116,116,141394,1,10,0:0:0:0:
326,115,141680,1,0,0:0:0:0:
47,269,141966,5,6,0:0:0:0:
146,269,142109,1,8,0:0:0:0:
48,268,142252,1,0,0:0:0:0:
293,332,142538,1,10,0:0:0:0:
48,268,142823,1,8,0:0:0:0:
433,195,143109,2,0,L|438:114,1,69.9999978637696,6|8,0:0|0:0,0:0:0:0:
304,129,143395,2,0,L|309:210,1,69.9999978637696,0|0,0:0|0:0,0:0:0:0:
176,205,143680,2,0,L|181:286,1,69.9999978637696,10|0,0:0|0:0,0:0:0:0:
47,281,143966,2,0,L|52:200,1,69.9999978637696,8|0,0:1|0:0,0:0:0:0:
327,80,144252,6,0,L|467:80,1,139.999995727539,6|0,0:1|0:0,0:0:0:0:
256,77,144823,1,10,0:0:0:0:
467,80,145109,1,0,0:0:0:0:
185,304,145394,2,0,L|45:304,1,139.999995727539,14|0,0:0|0:0,0:0:0:0:
256,307,145965,1,10,0:0:0:0:
45,304,146251,1,0,0:0:0:0:
395,72,146537,6,0,L|255:72,1,139.999995727539,14|0,0:0|0:0,0:0:0:0:
466,332,147109,2,0,L|472:187,1,139.999995727539,10|0,0:0|0:0,0:0:0:0:
116,72,147680,2,0,L|256:72,1,139.999995727539,14|0,0:0|0:0,0:0:0:0:
326,73,148109,1,0,0:0:0:0:
81,92,148252,1,10,0:0:0:0:
29,153,148394,1,0,0:0:0:0:
43,219,148537,1,0,0:0:0:0:
120,254,148680,1,0,0:0:0:0:
414,249,148823,6,0,P|456:201|415:152,1,139.999995727539,6|0,0:1|0:0,0:0:0:0:
204,112,149394,2,0,L|349:112,1,139.999995727539,10|0,0:0|0:0,0:0:0:0:
63,152,149966,2,0,P|20:199|61:248,1,139.999995727539,14|0,0:0|0:0,0:0:0:0:
275,288,150537,2,0,L|130:288,1,139.999995727539,10|0,0:0|0:0,0:0:0:0:
491,42,151109,6,0,L|336:42,1,139.999995727539,14|0,0:0|0:0,0:0:0:0:
106,215,151680,1,10,0:0:0:0:
316,220,151966,1,0,0:0:0:0:
106,215,152252,2,0,P|63:168|104:119,1,139.999995727539,14|0,0:0|0:0,0:0:0:0:
347,92,152823,2,0,L|487:92,1,139.999995727539,10|0,0:0|0:0,0:0:0:0:
136,199,153394,6,0,P|72:172|45:110,1,139.999995727539,6|0,0:1|0:0,0:0:0:0:
256,77,153965,1,10,0:0:0:0:
116,75,154251,1,0,0:0:0:0:
375,199,154536,2,0,P|433:177|465:108,1,139.999995727539,14|0,0:0|0:0,0:0:0:0:
256,307,155107,1,10,0:0:0:0:
467,304,155393,1,0,0:0:0:0:
117,72,155679,6,0,L|257:72,1,139.999995727539,14|0,0:0|0:0,0:0:0:0:
46,332,156251,2,0,L|40:187,1,139.999995727539,10|0,0:0|0:0,0:0:0:0:
396,72,156822,2,0,L|256:72,1,139.999995727539,14|0,0:0|0:0,0:0:0:0:
466,332,157394,2,0,L|472:187,1,139.999995727539,10|0,0:0|0:0,0:0:0:0:
116,289,157966,6,0,B|47:291|47:291|119:286,1,139.999995727539,6|0,0:1|0:0,0:0:0:0:
327,68,158537,1,10,0:0:0:0:
116,65,158823,1,0,0:0:0:0:
396,289,159109,2,0,B|465:291|465:291|393:286,1,139.999995727539,14|0,0:0|0:0,0:0:0:0:
185,68,159680,1,10,0:0:0:0:
396,65,159966,1,0,0:0:0:0:
39,309,160252,6,0,L|184:311,2,139.999995727539,6|0|10,0:1|0:0|0:1,0:0:0:0:
284,249,161109,2,0,L|139:247,2,139.999995727539,8|10|8,0:0|0:1|0:1,0:0:0:0:
39,74,161966,2,0,P|62:139|124:167,1,139.999995727539,10|8,0:0|0:1,0:0:0:0:
473,309,162537,6,0,L|328:311,2,139.999995727539,6|0|10,0:0|0:0|0:1,0:0:0:0:
228,132,163394,2,0,L|373:134,2,139.999995727539,8|10|8,0:0|0:1|0:1,0:0:0:0:
472,74,164251,2,0,L|479:225,1,139.999995727539,10|8,0:0|0:1,0:0:0:0:
46,189,164823,6,0,L|256:188,2,209.999993591309,6|8|8,0:1|0:1|0:1,0:0:0:0:
326,302,165966,2,0,L|330:160,1,139.999995727539,10|0,0:0|0:0,0:0:0:0:
120,223,166537,2,0,L|116:81,1,139.999995727539,2|0,0:0|0:0,0:0:0:0:
465,79,167109,1,14,3:1:0:0:
256,192,167397,12,2,171717,0:0:0:0:
