osu file format v14

[General]
AudioFilename: audio.mp3
AudioLeadIn: 0
PreviewTime: 61873
Countdown: 0
SampleSet: None
StackLeniency: 0.7
Mode: 0
LetterboxInBreaks: 0
WidescreenStoryboard: 0

[Editor]
Bookmarks: 9935,14623,26623,28498,62623,74623,148123
DistanceSpacing: 2.1
BeatDivisor: 4
GridSize: 16
TimelineZoom: 1.2

[Metadata]
Title:Empty Walls
TitleUnicode:Empty Walls
Artist:Serj Tankian
ArtistUnicode:Serj Tankian
Creator:Thexo
Version:Denial
Source:
Tags:elect the dead soad system of a down rock
BeatmapID:1324457
BeatmapSetID:628192

[Difficulty]
HPDrainRate:6.5
CircleSize:4.3
OverallDifficulty:8
ApproachRate:9.1
SliderMultiplier:1.8
SliderTickRate:1

[Events]
//Background and Video events
0,0,"62938409_p0.png",0,0
//Break Periods
//Storyboard Layer 0 (Background)
//Storyboard Layer 1 (Fail)
//Storyboard Layer 2 (Pass)
//Storyboard Layer 3 (Foreground)
//Storyboard Sound Samples

[TimingPoints]
2623,375,4,3,2,60,1,0
8623,-90.9090909090909,4,3,2,60,0,0
11623,-95.2380952380952,4,3,2,60,0,0
13123,-90.9090909090909,4,3,2,60,0,0
14623,-86.9565217391304,4,3,2,60,0,0
22873,-83.3333333333333,4,3,2,60,0,0
26623,-142.857142857143,4,2,2,55,0,0
39748,-166.666666666667,4,2,2,55,0,0
40873,-142.857142857143,4,2,2,55,0,0
44623,-125,4,2,2,55,0,0
46123,-153.846153846154,4,2,2,55,0,0
47623,-142.857142857143,4,2,2,55,0,0
49123,-166.666666666667,4,2,2,55,0,0
49873,-133.333333333333,4,2,2,55,0,0
50623,-117.647058823529,4,2,2,55,0,0
53252,-111.111111111111,4,2,2,55,0,0
54373,-125,4,2,2,55,0,0
55873,-117.647058823529,4,2,2,55,0,0
59623,-105.263157894737,4,2,2,55,0,0
61873,-100,4,2,2,55,0,0
62623,-90.9090909090909,4,3,2,75,0,1
65623,-83.3333333333333,4,3,2,75,0,1
68248,-83.3333333333333,4,3,2,85,0,1
68623,-90.9090909090909,4,3,2,75,0,1
71623,-83.3333333333333,4,3,2,75,0,1
74623,-86.9565217391304,4,3,2,75,0,1
86623,-133.333333333333,4,3,2,75,0,0

[Colours]
Combo1 : 192,192,192
Combo2 : 128,0,0

[HitObjects]
64,104,2623,22,0,P|113:84|173:80,1,90,12|0,0:0|0:0,0:0:0:0:
364,125,2998,2,0,P|319:131|278:149,1,90,8|0,0:0|0:0,0:0:0:0:
144,283,3373,1,8,0:0:0:0:
361,217,3560,1,0,0:0:0:0:
202,131,3748,1,8,0:0:0:0:
268,348,3935,1,0,0:0:0:0:
340,52,4123,6,0,P|291:72|231:76,1,90,8|0,0:0|0:0,0:0:0:0:
40,31,4498,2,0,P|85:25|126:7,1,90,8|0,0:0|0:0,0:0:0:0:
422,48,4873,2,0,P|416:93|398:134,1,90,8|0,0:0|0:0,0:0:0:0:
443,348,5248,2,0,P|463:299|467:239,1,90,8|0,0:0|0:0,0:0:0:0:
157,288,5623,6,0,P|206:308|266:312,1,90,12|0,0:0|0:0,0:0:0:0:
372,224,5904,1,0,2:0:0:0:
372,224,5998,2,0,P|327:230|286:248,1,90,8|0,0:0|0:0,0:0:0:0:
179,58,6373,2,0,P|159:107|156:167,1,90,8|0,0:0|0:0,0:0:0:0:
245,127,6654,1,0,2:0:0:0:
245,127,6748,2,0,P|289:133|330:150,1,90,8|0,0:0|0:0,0:0:0:0:
110,214,7123,5,8,0:0:0:0:
61,33,7310,1,0,2:0:0:0:
61,33,7404,1,0,2:0:0:0:
61,33,7498,2,0,P|41:82|38:142,1,90,8|0,0:0|0:0,0:0:0:0:
431,114,7873,2,0,P|386:120|345:138,1,90,8|0,0:0|0:0,0:0:0:0:
131,93,8248,2,0,P|180:73|240:69,1,90,8|0,0:0|0:0,0:0:0:0:
320,353,8623,6,0,P|326:304|346:259,1,99.0000030212403,12|0,0:0|0:0,0:0:0:0:
299,53,8998,2,0,P|277:106|272:171,1,99.0000030212403,8|0,0:0|0:0,0:0:0:0:
301,277,9373,1,8,0:0:0:0:
35,195,9560,1,0,0:0:0:0:
230,90,9748,1,8,0:0:0:0:
149,356,9935,1,0,2:0:0:0:
149,356,10029,1,0,2:0:0:0:
149,356,10123,6,0,P|100:349|55:329,1,99.0000030212403,8|0,0:0|0:0,0:0:0:0:
129,168,10498,2,0,P|80:174|35:194,1,99.0000030212403,8|0,0:0|0:0,0:0:0:0:
199,188,10873,1,8,0:0:0:0:
465,270,11060,1,0,0:0:0:0:
270,375,11248,1,8,0:0:0:0:
351,109,11435,1,0,0:0:0:0:
136,259,11623,6,0,P|185:279|245:283,1,94.499997116089,12|0,0:0|0:0,0:0:0:0:
351,195,11998,2,0,P|303:201|260:220,1,94.499997116089,8|0,0:0|0:0,0:0:0:0:
60,156,12373,2,0,P|40:106|37:46,1,94.499997116089,8|0,0:0|0:0,0:0:0:0:
126,87,12654,1,0,2:0:0:0:
126,87,12748,2,0,P|172:79|216:61,1,94.499997116089,8|0,0:0|0:0,0:0:0:0:
333,38,13029,1,0,2:0:0:0:
333,38,13123,6,0,P|340:87|359:133,1,99.0000030212403,12|0,0:0|0:0,0:0:0:0:
512,313,13498,2,0,P|505:263|486:219,1,99.0000030212403,8|0,0:0|0:0,0:0:0:0:
448,94,13873,2,0,P|428:143|424:203,1,99.0000030212403,8|0,0:0|0:0,0:0:0:0:
451,360,14248,1,8,0:0:0:0:
271,134,14435,1,0,2:0:0:0:
271,134,14529,1,0,2:0:0:0:
271,134,14623,6,0,P|219:140|172:160,1,103.500001974106,12|0,0:0|0:0,0:0:0:0:
356,254,14998,2,0,P|308:233|257:227,1,103.500001974106,8|0,0:0|0:0,0:0:0:0:
156,349,15373,2,0,P|207:342|254:322,1,103.500001974106,8|0,0:0|0:0,0:0:0:0:
71,229,15748,2,0,P|118:249|169:255,1,103.500001974106,8|0,0:0|0:0,0:0:0:0:
98,14,16123,6,0,P|149:20|196:40,1,103.500001974106,12|0,0:0|0:0,0:0:0:0:
13,134,16498,2,0,P|60:113|111:107,1,103.500001974106,8|0,0:0|0:0,0:0:0:0:
414,14,16873,2,0,P|362:20|315:40,1,103.500001974106,8|0,0:0|0:0,0:0:0:0:
499,134,17248,2,0,P|451:113|400:107,1,103.500001974106,8|0,0:0|0:0,0:0:0:0:
359,344,17623,6,0,P|352:292|332:246,1,103.500001974106,12|0,0:0|0:0,0:0:0:0:
256,88,17998,2,0,P|236:137|232:197,1,103.500001974106,8|0,0:0|0:0,0:0:0:0:
168,336,18373,2,0,P|161:284|141:238,1,103.500001974106,8|0,0:0|0:0,0:0:0:0:
65,80,18748,2,0,P|45:129|41:189,1,103.500001974106,8|0,0:0|0:0,0:0:0:0:
84,305,19029,1,0,2:0:0:0:
84,305,19123,6,0,P|131:284|182:277,1,103.500001974106,8|0,0:0|0:0,0:0:0:0:
367,370,19498,2,0,P|315:363|269:343,1,103.500001974106,8|0,0:0|0:0,0:0:0:0:
168,191,19873,2,0,P|215:170|266:163,1,103.500001974106,8|0,0:0|0:0,0:0:0:0:
451,256,20248,2,0,P|399:249|353:229,1,103.500001974106,8|0,0:0|0:0,0:0:0:0:
139,117,20623,6,0,P|144:65|165:18,1,103.500001974106,12|0,0:0|0:0,0:0:0:0:
72,202,20998,2,0,P|51:154|45:103,1,103.500001974106,8|0,0:0|0:0,0:0:0:0:
285,143,21373,2,0,P|279:91|258:44,1,103.500001974106,8|0,0:0|0:0,0:0:0:0:
352,228,21748,2,0,P|372:180|378:129,1,103.500001974106,8|0,0:0|0:0,0:0:0:0:
192,281,22123,6,0,P|186:229|165:182,1,103.500001974106,8|0,0:0|0:0,0:0:0:0:
259,366,22498,2,0,P|279:318|285:267,1,103.500001974106,8|0,0:0|0:0,0:0:0:0:
111,22,22873,6,0,P|164:28|213:49,1,107.999996704102,8|0,0:0|0:0,0:0:0:0:
23,147,23248,2,0,P|72:125|125:118,1,107.999996704102,8|0,0:0|0:0,0:0:0:0:
398,270,23623,5,12,0:0:0:0:
322,20,23810,1,0,0:0:0:0:
505,119,23998,1,8,0:0:0:0:
256,195,24185,1,0,0:0:0:0:
236,25,24373,2,0,P|214:74|208:127,1,107.999996704102,8|0,0:0|0:0,0:0:0:0:
370,197,24748,1,8,0:0:0:0:
130,78,24935,1,0,0:0:0:0:
172,326,25123,5,14,0:0:0:0:
281,89,25310,1,2,0:0:0:0:
269,346,25498,5,10,0:0:0:0:
379,110,25685,1,10,0:0:0:0:
397,81,25873,1,10,0:0:0:0:
412,52,26060,1,10,0:0:0:0:
362,366,26248,5,10,0:0:0:0:
471,129,26435,1,2,0:0:0:0:
475,285,26623,6,0,P|416:258|352:251,1,125.999996154785,4|0,0:0|0:0,0:0:0:0:
216,154,27373,2,0,P|246:162|274:176,1,62.9999980773926,8|0,0:0|0:0,0:0:0:0:
232,280,27935,1,0,0:0:0:0:
172,224,28123,6,0,P|113:197|49:190,1,125.999996154785
0,244,28685,1,0,0:0:0:0:
57,384,28873,2,0,P|83:325|90:261,1,125.999996154785,8|0,0:0|0:0,0:0:0:0:
32,114,29435,1,0,0:0:0:0:
32,114,29529,1,0,0:0:0:0:
32,114,29623,6,0,P|94:106|151:80,1,125.999996154785
292,45,30373,2,0,P|263:30|233:22,1,62.9999980773926,8|0,0:0|0:0,0:0:0:0:
225,97,30748,1,0,0:0:0:0:
286,140,30935,1,0,0:0:0:0:
318,296,31123,6,0,P|343:238|351:176,1,125.999996154785
365,25,31873,1,8,0:0:0:0:
365,25,32248,1,0,0:0:0:0:
243,352,32435,1,0,0:0:0:0:
243,352,32529,1,0,0:0:0:0:
243,352,32623,6,0,P|217:294|209:232,1,125.999996154785
372,243,33373,2,0,P|343:228|313:220,1,62.9999980773926,8|0,0:0|0:0,0:0:0:0:
318,296,33748,1,0,0:0:0:0:
382,334,33935,1,0,0:0:0:0:
490,213,34123,6,0,P|482:275|456:332,1,125.999996154785
423,184,34685,1,0,0:0:0:0:
482,102,34873,1,8,0:0:0:0:
482,102,35248,1,0,0:0:0:0:
287,42,35435,1,0,0:0:0:0:
287,42,35529,1,0,0:0:0:0:
287,42,35623,6,0,P|279:104|253:161,1,125.999996154785
92,156,36373,2,0,P|120:141|150:133,1,62.9999980773926,8|0,0:0|0:0,0:0:0:0:
150,209,36748,1,0,0:0:0:0:
78,232,36935,1,0,0:0:0:0:
121,328,37123,6,0,B|90:322|90:322|63:306,2,62.9999980773926
254,270,37685,1,0,0:0:0:0:
254,270,37873,2,0,B|260:238|260:238|276:211,2,62.9999980773926,8|0|0,0:0|0:0|0:0,0:0:0:0:
300,329,38435,1,0,0:0:0:0:
403,180,38623,6,0,B|397:243|397:243|370:300,1,125.999996154785
297,116,39373,2,0,B|328:109|328:109|355:93,1,62.9999980773926,8|0,0:0|0:0,0:0:0:0:
267,45,39748,6,0,B|298:38|298:38|325:22,1,53.9999983520508
182,212,40123,6,0,P|207:154|215:92,1,107.999996704102
152,60,40685,1,0,0:0:0:0:
64,152,40873,2,0,P|91:138|121:128,1,62.9999980773926,8|0,0:0|0:0,0:0:0:0:
57,322,41248,6,0,B|84:338|84:338|115:345,1,62.9999980773926
207,303,41529,1,0,0:0:0:0:
207,303,41623,6,0,P|264:328|326:336,1,125.999996154785
397,273,42185,1,0,0:0:0:0:
276,223,42373,2,0,P|304:209|335:200,1,62.9999980773926,8|0,0:0|0:0,0:0:0:0:
476,243,42748,1,0,0:0:0:0:
427,162,42935,1,0,0:0:0:0:
430,67,43123,6,0,P|372:41|310:34,1,125.999996154785
197,202,43685,1,0,0:0:0:0:
197,202,43873,2,0,P|222:144|229:82,1,125.999996154785,8|0,0:0|0:0,0:0:0:0:
0,138,44435,1,0,0:0:0:0:
20,63,44623,6,0,B|85:32|85:32|157:25,1,144
55,187,45373,2,0,P|87:170|122:160,1,72,8|0,0:0|0:0,0:0:0:0:
62,302,45748,1,0,0:0:0:0:
62,302,45935,1,0,0:0:0:0:
216,367,46123,6,0,P|273:358|326:333,1,116.999994644165
390,253,46685,1,0,0:0:0:0:
390,253,46873,2,0,P|400:218|416:186,1,58.4999973220826,8|0,0:0|0:0,0:0:0:0:
507,149,47248,1,0,0:0:0:0:
318,115,47435,1,0,0:0:0:0:
318,115,47529,1,0,0:0:0:0:
318,115,47623,6,0,P|375:90|438:83,1,125.999996154785
229,82,48373,2,0,P|239:47|255:15,1,62.9999980773926,8|0,0:0|0:0,0:0:0:0:
157,36,48748,1,0,0:0:0:0:
151,130,48935,1,0,0:0:0:0:
75,225,49123,6,0,B|106:218|126:207,1,53.9999983520508
188,268,49498,2,0,P|195:242|206:218,1,53.9999983520508
358,240,49873,6,0,B|324:243|324:243|297:262,1,67.5000025749208,8|0,0:0|0:0,0:0:0:0:
314,361,50248,1,0,0:0:0:0:
1,256,50435,1,0,0:0:0:0:
1,256,50529,1,0,0:0:0:0:
1,256,50623,6,0,P|10:180|40:111,1,153.000002918243
137,318,51373,2,0,P|101:303|64:294,1,76.5000014591217,8|0,0:0|0:0,0:0:0:0:
108,188,51748,1,0,0:0:0:0:
203,251,51935,1,0,0:0:0:0:
212,136,52123,6,0,P|281:105|357:95,1,153.000002918243
455,155,52685,1,0,0:0:0:0:
326,257,52873,1,8,0:0:0:0:
326,257,53060,1,0,0:0:0:0:
261,328,53248,6,0,P|297:345|333:352,1,76.5000014591217
446,370,53529,1,0,0:0:0:0:
462,363,53623,2,0,P|472:281|505:206,1,161.999995056153
484,42,54373,6,0,B|454:59|454:59|418:68,1,72,8|0,0:0|0:0,0:0:0:0:
251,50,54748,2,0,B|287:41|287:41|317:24,1,72
127,184,55123,2,0,B|157:118|157:118|164:47,1,144
43,96,55685,1,0,0:0:0:0:
221,192,55873,6,0,P|302:181|377:148,1,153.000002918243,8|0,0:0|0:0,0:0:0:0:
236,289,56435,1,0,0:0:0:0:
236,289,56529,1,0,0:0:0:0:
236,289,56623,6,0,B|317:278|317:278|392:245,1,153.000002918243
122,337,57373,2,0,B|152:355|152:355|192:363,1,76.5000014591217,8|0,0:0|0:0,0:0:0:0:
309,358,57748,1,0,0:0:0:0:
309,358,57935,1,0,0:0:0:0:
59,209,58123,6,0,B|39:240|39:240|30:280,2,76.5000014591217
287,160,58685,1,0,0:0:0:0:
287,160,58873,6,0,P|322:174|359:183,1,76.5000014591217,8|0,0:0|0:0,0:0:0:0:
425,89,59248,1,0,0:0:0:0:
425,89,59435,1,0,0:0:0:0:
386,369,59623,6,0,B|422:290|422:290|431:204,1,170.999995433807
230,45,60373,2,0,P|271:54|310:71,1,85.4999977169037,8|0,0:0|0:0,0:0:0:0:
320,199,60748,1,0,0:0:0:0:
194,223,60935,1,0,0:0:0:0:
295,21,61123,5,0,0:0:0:0:
251,173,61310,1,0,0:0:0:0:
140,39,61498,1,8,0:0:0:0:
140,39,61685,1,8,0:0:0:0:
39,215,61873,6,8,L|124:187,1,90
35,51,62248,1,8,0:0:0:0:
106,275,62435,1,8,0:0:0:0:
340,124,62623,6,0,P|410:133|476:162,1,99.0000030212403,12|0,0:0|0:0,0:0:0:0:
481,212,62904,1,0,0:0:0:0:
488,224,62998,2,0,P|438:228|391:242,1,99.0000030212403
268,354,63373,1,0,0:0:0:0:
268,354,63560,1,0,0:0:0:0:
262,100,63748,1,0,0:0:0:0:
359,310,63935,1,0,0:0:0:0:
155,341,64123,6,0,P|168:293|173:244,1,99.0000030212403,12|0,0:0|0:0,0:0:0:0:
150,158,64404,1,0,0:0:0:0:
154,139,64498,2,0,P|104:144|57:157,1,99.0000030212403
0,231,64873,1,0,0:0:0:0:
86,371,65060,1,0,0:0:0:0:
231,179,65248,1,0,0:0:0:0:
73,283,65435,1,0,0:0:0:0:
310,157,65623,6,0,P|304:210|289:262,1,107.999996704102,12|0,0:0|0:0,0:0:0:0:
220,304,65904,1,0,0:0:0:0:
250,378,65998,2,0,P|303:372|355:357,1,107.999996704102
426,276,66373,1,0,0:0:0:0:
461,174,66560,1,0,0:0:0:0:
301,74,66748,1,0,0:0:0:0:
386,206,66935,1,0,0:0:0:0:
178,202,67123,6,0,P|162:150|157:96,1,107.999996704102,12|0,0:0|0:0,0:0:0:0:
219,47,67404,1,0,0:0:0:0:
301,74,67498,2,0,P|295:127|280:179,1,107.999996704102
205,271,67873,1,0,0:0:0:0:
126,25,68060,1,0,0:0:0:0:
28,226,68248,1,4,0:0:0:0:
381,104,68435,1,4,0:0:0:0:
108,291,68623,6,0,P|160:275|214:270,1,99.0000030212403,12|0,0:0|0:0,0:0:0:0:
326,348,68904,1,0,0:0:0:0:
360,352,68998,2,0,P|354:298|338:246,1,99.0000030212403
260,157,69373,1,0,0:0:0:0:
178,363,69560,1,0,0:0:0:0:
115,118,69748,1,0,0:0:0:0:
268,239,69935,1,0,0:0:0:0:
420,28,70123,6,0,P|404:80|399:134,1,99.0000030212403,12|0,0:0|0:0,0:0:0:0:
464,253,70404,1,0,0:0:0:0:
479,283,70498,2,0,P|425:277|373:261,1,99.0000030212403
325,129,70873,1,0,0:0:0:0:
355,360,71060,1,0,0:0:0:0:
231,93,71248,1,0,0:0:0:0:
473,121,71435,1,0,0:0:0:0:
176,221,71623,6,0,P|123:215|71:200,1,107.999996704102,12|0,0:0|0:0,0:0:0:0:
29,117,71904,1,0,0:0:0:0:
11,110,71998,1,0,0:0:0:0:
96,340,72185,1,0,0:0:0:0:
136,140,72373,1,0,0:0:0:0:
17,273,72560,1,0,0:0:0:0:
248,170,72748,2,0,P|254:223|269:275,1,107.999996704102
291,42,73123,6,0,P|342:57|396:63,1,107.999996704102,12|0,0:0|0:0,0:0:0:0:
464,24,73404,1,0,0:0:0:0:
478,101,73498,2,0,P|471:154|456:206,1,107.999996704102
342,288,73873,1,0,0:0:0:0:
208,329,74060,1,0,0:0:0:0:
340,97,74248,1,0,0:0:0:0:
434,285,74435,1,0,0:0:0:0:
15,192,74623,6,0,P|118:226|231:235,1,207.000003948212,12|0,0:0|0:0,0:0:0:0:
354,194,75185,1,0,0:0:0:0:
293,154,75279,1,0,0:0:0:0:
253,93,75373,1,8,0:0:0:0:
9,206,75560,1,0,0:0:0:0:
32,126,75654,1,0,0:0:0:0:
77,55,75748,2,8,P|126:41|178:35,1,103.500001974106,8|0,0:0|0:0,0:0:0:0:
100,194,76029,1,0,0:0:0:0:
100,194,76123,6,0,P|105:245|119:295,1,103.500001974106,12|0,0:0|0:0,0:0:0:0:
298,243,76498,1,8,0:0:0:0:
186,161,76685,1,0,0:0:0:0:
192,243,76779,1,0,0:0:0:0:
230,316,76873,1,8,0:0:0:0:
286,126,77060,1,0,0:0:0:0:
212,87,77154,1,0,0:0:0:0:
128,85,77248,2,0,P|76:90|26:104,1,103.500001974106,8|0,0:0|0:0,0:0:0:0:
12,330,77529,1,0,0:0:0:0:
12,330,77623,6,0,P|25:280|31:228,1,103.500001974106,12|0,0:0|0:0,0:0:0:0:
244,188,77998,2,0,P|194:174|142:168,1,103.500001974106,8|0,0:0|0:0,0:0:0:0:
372,161,78279,1,0,0:0:0:0:
372,161,78373,6,0,P|358:111|352:59,1,103.500001974106,8|0,0:0|0:0,0:0:0:0:
467,11,78654,1,0,0:0:0:0:
467,11,78748,1,8,0:0:0:0:
397,359,78935,1,0,0:0:0:0:
477,252,79123,6,0,P|425:246|375:232,1,103.500001974106,12|0,0:0|0:0,0:0:0:0:
271,103,79498,2,0,P|219:97|169:83,1,103.500001974106,8|0,0:0|0:0,0:0:0:0:
112,23,79779,1,0,0:0:0:0:
53,81,79873,2,8,P|39:130|33:182,1,103.500001974106
141,347,80248,1,8,0:0:0:0:
484,88,80435,1,8,0:0:0:0:
287,348,80623,6,0,P|297:245|330:147,1,207.000003948212,12|8,0:0|0:0,0:0:0:0:
103,271,81185,1,0,0:0:0:0:
143,210,81279,1,0,0:0:0:0:
204,170,81373,1,8,0:0:0:0:
216,384,81560,1,0,0:0:0:0:
18,115,81748,2,0,P|69:120|119:134,1,103.500001974106,8|0,0:0|0:0,0:0:0:0:
374,307,82029,1,0,0:0:0:0:
374,307,82123,6,0,P|387:257|393:205,1,103.500001974106,12|0,0:0|0:0,0:0:0:0:
266,29,82498,1,8,0:0:0:0:
28,357,82685,1,4,0:0:0:0:
216,254,82873,1,0,0:0:0:0:
16,220,83060,1,0,0:0:0:0:
305,150,83248,6,0,P|253:155|203:169,1,103.500001974106,8|0,0:0|0:0,0:0:0:0:
112,373,83529,1,0,0:0:0:0:
112,373,83623,6,0,P|117:321|131:271,1,103.500001974106,12|0,0:0|0:0,0:0:0:0:
328,363,83998,1,8,0:0:0:0:
484,220,84185,1,0,0:0:0:0:
423,180,84279,1,0,0:0:0:0:
383,119,84373,1,8,0:0:0:0:
507,31,84560,1,0,0:0:0:0:
437,325,84748,1,8,0:0:0:0:
335,214,84935,1,0,0:0:0:0:
0,152,85123,6,0,P|71:200|169:184,1,155.250002961159,12|0,0:0|0:0,0:0:0:0:
158,158,85498,2,0,L|177:211,1,51.7500009870529,8|0,0:0|0:0,0:0:0:0:
231,330,85685,6,0,P|160:282|62:298,1,155.250002961159,8|0,0:0|0:0,0:0:0:0:
25,368,86060,1,0,0:0:0:0:
258,196,86248,1,8,0:0:0:0:
22,76,86435,1,0,0:0:0:0:
407,29,86623,6,0,P|349:38|447:108,1,270.000010299683,12|0,0:0|0:0,0:0:0:0:
