osu file format v14

[General]
AudioFilename: audio.mp3
AudioLeadIn: 0
PreviewTime: 58550
Countdown: 0
SampleSet: Normal
StackLeniency: 0.7
Mode: 0
LetterboxInBreaks: 1
WidescreenStoryboard: 1

[Editor]
DistanceSpacing: 1
BeatDivisor: 4
GridSize: 16
TimelineZoom: 1.6

[Metadata]
Title:Saiaku na hi demo Anata ga Suki
TitleUnicode:最悪な日でもあなたが好き
Artist:Serizawa Yuu
ArtistUnicode:芹澤 優
Creator:poiuyos
Version:Insane
Source:異世界魔王と召喚少女の奴隷魔術
Tags:How Not to Summon a Demon Lord
BeatmapID:1706266
BeatmapSetID:813601

[Difficulty]
HPDrainRate:6
CircleSize:4
OverallDifficulty:7
ApproachRate:9
SliderMultiplier:1.4
SliderTickRate:1

[Events]
//Background and Video events
0,0,"owo2.jpg",0,0
//Break Periods
//Storyboard Layer 0 (Background)
//Storyboard Layer 1 (Fail)
//Storyboard Layer 2 (Pass)
//Storyboard Layer 3 (Foreground)
//Storyboard Sound Samples

[TimingPoints]
3715,645.161290322581,4,1,0,50,1,0
17905,322.58064516129,4,1,0,50,1,0
25646,-133.333333333333,4,1,0,100,0,0
38550,-100,4,1,0,100,0,0
59195,-200,4,1,0,100,0,0
61775,-80,4,1,0,100,0,0
90646,-66.6666666666667,4,1,0,100,0,0
91130,-80,4,1,0,100,0,0

[HitObjects]
165,217,2747,6,0,L|156:134,2,70
375,145,3715,2,0,P|331:121|288:116,1,70
336,32,4360,2,0,P|285:33|246:50,1,70,0|0,3:0|3:0,3:0:0:0:
352,264,5005,2,0,P|325:221|291:195,1,70
297,201,5489,2,0,P|253:225|210:230,1,70,0|0,3:0|3:0,3:0:0:0:
216,233,6134,5,0,0:0:0:0:
284,366,6295,2,0,L|309:283,1,70
271,287,6779,2,0,P|230:300|180:295,1,70
116,251,7263,1,0,3:0:0:0:
231,84,7585,5,0,0:0:0:0:
204,197,7908,1,0,0:0:0:0:
319,35,8231,5,0,0:0:0:0:
370,205,8553,1,0,0:0:0:0:
216,35,8876,6,0,P|155:27|122:39,1,70
87,117,9521,2,0,P|110:173|137:196,1,70,0|0,3:0|3:0,3:0:0:0:
264,129,10166,2,0,L|173:122,1,70
179,125,10650,2,0,P|225:100|270:102,1,70
266,101,11295,5,0,0:0:0:0:
210,282,11456,2,0,L|176:203,1,70
177,201,11940,2,0,P|228:223|252:227,1,70
261,224,12424,2,0,P|283:188|321:152,1,70
333,271,13876,5,0,0:0:0:0:
273,208,14037,2,0,L|226:157,1,70
217,143,14521,2,0,P|232:111|252:82,1,70
262,68,15005,2,0,P|240:40|218:20,1,35
256,192,15327,12,0,16618,0:0:0:0:
130,153,17747,5,0,0:0:0:0:
130,153,17827,1,0,0:0:0:0:
130,153,17905,2,0,B|168:118|235:159|274:121,1,140
343,233,18388,2,0,P|333:201|334:163,1,70
456,248,18711,2,0,P|431:225|413:191,1,70
284,336,19034,5,0,0:0:0:0:
284,336,19114,1,0,0:0:0:0:
284,336,19195,2,0,L|302:166,1,140
198,98,19679,2,0,L|223:177,1,70
101,229,20001,2,0,L|116:151,1,70
132,70,20324,1,0,0:0:0:0:
275,131,20485,6,0,P|328:106|308:205,1,210
444,244,21130,6,0,P|389:264|473:321,1,210
328,366,21775,6,0,P|294:341|244:325,1,70
209,196,22098,1,0,0:0:0:0:
177,347,22259,1,0,0:0:0:0:
140,224,22421,2,0,P|124:255|123:294,1,70
282,221,22743,1,0,0:0:0:0:
296,189,22823,1,0,0:0:0:0:
301,154,22904,1,0,0:0:0:0:
295,120,22984,1,0,0:0:0:0:
279,89,23066,2,0,P|344:100|376:97,1,70
384,202,23388,5,0,0:0:0:0:
425,50,23550,1,0,0:0:0:0:
482,192,23711,2,0,L|433:132,1,70
476,293,24034,5,0,0:0:0:0:
437,137,24195,1,0,0:0:0:0:
396,347,24356,2,0,L|305:333,1,70
192,214,24679,1,0,0:0:0:0:
243,353,24840,1,0,0:0:0:0:
260,158,25001,1,0,0:0:0:0:
260,158,25163,1,0,0:0:0:0:
112,255,25324,1,0,0:0:0:0:
112,255,25485,1,0,0:0:0:0:
148,66,25646,2,0,L|162:125,2,52.5000020027161
244,110,26130,2,0,L|225:181,1,52.5000020027161
317,169,26453,1,0,0:0:0:0:
317,169,26615,2,0,L|331:228,1,52.5000020027161
344,240,26856,5,0,0:0:0:0:
369,246,26937,2,0,L|429:220,2,52.5000020027161
409,147,27421,2,0,L|464:153,1,52.5000020027161
343,87,27743,1,0,0:0:0:0:
343,88,27904,2,0,L|401:68,1,52.5000020027161
254,50,28227,6,0,L|212:89,1,52.5000020027161
236,209,28550,2,0,L|255:142,1,52.5000020027161
268,46,28872,2,0,L|226:85,1,52.5000020027161
251,206,29195,2,0,L|270:139,1,52.5000020027161
365,268,29517,6,0,L|305:265,1,52.5000020027161
263,336,29840,2,0,L|235:282,1,52.5000020027161
151,288,30163,2,0,L|183:237,1,52.5000020027161
139,166,30485,2,0,L|192:169,1,52.5000020027161
95,54,30808,6,0,L|78:110,1,52.5000020027161
221,61,31130,2,0,L|149:82,1,52.5000020027161
98,69,31453,2,0,L|81:125,1,52.5000020027161
224,76,31775,2,0,L|152:97,1,52.5000020027161
250,151,32098,2,0,L|300:136,1,52.5000020027161
386,190,32421,6,0,L|388:246,1,52.5000020027161
425,222,32743,2,0,L|398:271,1,52.5000020027161
442,269,33066,2,0,L|394:298,1,52.5000020027161
457,355,33388,6,0,P|412:345|339:348,1,105.000004005432
261,360,33872,1,0,0:0:0:0:
299,272,34034,2,0,L|324:214,1,52.5000020027161
264,100,34356,2,0,L|273:153,1,52.5000020027161
159,192,34679,1,0,0:0:0:0:
184,116,34840,1,0,0:0:0:0:
233,225,35001,2,0,L|196:288,1,52.5000020027161
133,145,35324,1,0,0:0:0:0:
134,230,35485,1,0,0:0:0:0:
215,141,35646,2,0,L|199:69,1,52.5000020027161
326,220,35969,1,0,0:0:0:0:
326,220,36292,1,0,0:0:0:0:
326,220,36614,1,0,0:0:0:0:
326,220,36937,1,0,0:0:0:0:
402,281,37259,5,0,0:0:0:0:
402,281,37421,1,0,0:0:0:0:
324,96,37582,1,0,0:0:0:0:
293,342,37743,1,0,0:0:0:0:
293,342,37824,1,0,0:0:0:0:
293,342,37904,1,0,0:0:0:0:
345,208,38066,1,0,0:0:0:0:
245,255,38227,1,0,0:0:0:0:
397,293,38388,1,0,0:0:0:0:
257,142,38550,6,0,P|211:145|160:160,1,70
139,286,38872,2,0,L|134:214,1,70
60,288,39195,1,0,0:0:0:0:
191,158,39356,1,0,0:0:0:0:
246,338,39517,2,0,L|331:308,1,70
440,307,39840,2,0,P|404:270|380:213,1,105
370,193,40163,2,0,L|287:187,1,70
148,181,40485,1,0,0:0:0:0:
250,58,40646,1,0,0:0:0:0:
236,236,40808,2,0,L|230:312,1,70
97,230,41130,6,0,P|137:286|150:361,1,140
176,144,41614,1,0,0:0:0:0:
224,309,41775,1,0,0:0:0:0:
264,205,41937,1,0,0:0:0:0:
238,316,42098,2,0,L|329:299,1,70
453,333,42421,2,0,P|408:265|397:213,1,105
395,209,42743,1,0,0:0:0:0:
453,333,42904,1,0,0:0:0:0:
485,140,43066,2,0,P|432:131|388:133,1,70
312,211,43388,2,0,L|330:122,1,70
157,253,43711,6,0,P|210:261|268:286,1,105
283,299,44034,1,0,0:0:0:0:
350,219,44195,1,0,0:0:0:0:
329,366,44356,1,0,0:0:0:0:
254,180,44517,1,0,0:0:0:0:
235,366,44679,2,0,P|230:320|212:276,1,70
69,315,45001,2,0,P|111:333|158:340,1,70
197,197,45324,2,0,P|159:224|130:261,1,70
222,297,45646,1,0,0:0:0:0:
281,130,45808,1,0,0:0:0:0:
298,255,45969,1,0,0:0:0:0:
204,88,46130,1,0,0:0:0:0:
171,240,46292,5,0,0:0:0:0:
327,85,46453,2,0,L|375:33,1,70
353,133,46775,2,0,L|369:63,1,70,0|0,2:0|0:0,0:0:0:0:
442,213,47098,1,0,0:0:0:0:
448,207,47259,2,0,L|422:105,1,70,0|0,2:0|0:0,0:0:0:0:
366,306,47582,5,0,0:0:0:0:
318,139,47743,2,0,L|249:64,1,70
153,146,48066,2,0,L|244:158,1,70
226,370,48388,2,0,L|262:206,1,140
77,178,48872,5,0,0:0:0:0:
37,301,49034,1,0,0:0:0:0:
144,334,49195,2,0,L|106:250,1,70
143,265,49517,6,0,P|149:300|143:334,1,70
237,177,50163,6,0,P|198:140|174:88,1,105
279,248,50485,6,0,P|317:211|350:137,1,105
209,305,50808,6,0,P|187:244|143:200,1,105
286,332,51130,6,0,P|328:320|399:314,1,105
305,37,51453,6,0,L|275:196,1,140
411,153,51937,1,0,0:0:0:0:
411,153,52098,2,0,L|300:255,1,140
174,118,52582,1,0,0:0:0:0:
174,118,52743,5,0,0:0:0:0:
203,240,52904,1,0,0:0:0:0:
88,85,53066,2,0,P|116:47|159:19,1,70
203,240,53388,2,0,L|136:261,1,70
103,272,53630,1,0,0:0:0:0:
69,282,53711,1,0,0:0:0:0:
128,161,53872,1,0,0:0:0:0:
273,290,54034,6,0,P|287:242|276:192,1,70
346,113,54356,2,0,P|344:147|357:180,1,70
356,179,54679,2,0,L|370:104,1,70
254,339,55324,6,0,P|183:323|136:293,1,105
298,267,55646,6,0,P|340:216|366:152,1,105
222,257,55969,6,0,P|192:211|127:168,1,105
264,177,56292,6,0,P|252:131|251:102,1,70
123,35,56534,1,0,0:0:0:0:
123,35,56614,2,0,L|186:189,1,140
40,185,57098,5,0,0:0:0:0:
40,185,57259,2,0,L|156:271,1,140
300,100,57743,5,0,0:0:0:0:
300,100,57824,1,0,0:0:0:0:
300,100,57904,2,0,P|266:151|256:187,1,70
300,331,58227,1,0,0:0:0:0:
311,297,58307,1,0,0:0:0:0:
327,266,58388,1,0,0:0:0:0:
347,238,58468,1,0,0:0:0:0:
372,213,58550,2,0,L|430:184,1,35
216,194,58711,2,0,L|162:217,1,35
391,302,58872,2,0,L|393:347,1,35
306,119,59034,2,0,L|304:84,1,35
226,316,59195,2,0,B|265:332|279:278|267:221|181:228|154:308|86:306|52:276,1,280
94,162,61775,6,0,L|123:52,1,87.5
250,152,62098,1,0,0:0:0:0:
204,38,62259,1,0,0:0:0:0:
128,272,62421,2,0,P|179:240|234:230,1,87.5
360,326,62743,1,0,0:0:0:0:
214,330,62904,1,0,0:0:0:0:
413,235,63066,2,0,P|389:198|353:173,1,87.5
360,326,63388,1,0,0:0:0:0:
266,185,63550,1,0,0:0:0:0:
279,144,63630,1,0,0:0:0:0:
294,106,63711,1,0,0:0:0:0:
317,255,63872,1,0,0:0:0:0:
192,126,64034,1,0,0:0:0:0:
179,287,64195,1,0,0:0:0:0:
179,287,64275,1,0,0:0:0:0:
179,287,64356,6,0,B|254:300|254:300|331:287,1,131.25
337,284,64679,1,0,0:0:0:0:
181,152,64840,1,0,0:0:0:0:
144,355,65001,1,0,0:0:0:0:
271,210,65163,1,0,0:0:0:0:
246,341,65324,1,0,0:0:0:0:
139,254,65485,1,0,0:0:0:0:
337,284,65646,2,0,P|364:220|360:165,1,87.5
127,126,65969,2,0,P|162:158|209:174,1,87.5
388,28,66292,2,0,P|342:42|304:75,1,87.5
276,268,66614,1,0,0:0:0:0:
245,236,66694,1,0,0:0:0:0:
222,199,66775,1,0,0:0:0:0:
207,158,66855,1,0,0:0:0:0:
199,115,66936,1,0,0:0:0:0:
218,323,67098,1,0,0:0:0:0:
199,115,67259,2,8,P|152:98|105:98,1,87.5
126,311,67582,1,0,0:0:0:0:
199,115,67743,1,0,0:0:0:0:
270,251,67904,2,8,P|319:242|359:218,1,87.5
200,195,68227,5,0,0:0:0:0:
268,327,68388,1,0,0:0:0:0:
422,170,68550,1,0,0:0:0:0:
394,307,68711,1,0,0:0:0:0:
340,96,68872,2,0,P|265:108|233:125,1,87.5
216,134,69114,1,0,0:0:0:0:
182,163,69195,1,0,0:0:0:0:
230,345,69356,1,0,0:0:0:0:
230,345,69437,1,0,0:0:0:0:
230,345,69517,5,0,0:0:0:0:
328,121,69679,1,0,0:0:0:0:
91,135,69840,1,0,0:0:0:0:
242,345,70001,5,0,0:0:0:0:
319,113,70163,1,0,0:0:0:0:
84,147,70324,1,0,0:0:0:0:
338,275,70485,2,0,P|368:211|367:160,1,87.5
241,229,70808,5,0,0:0:0:0:
266,218,70888,1,0,0:0:0:0:
292,211,70969,1,0,0:0:0:0:
319,211,71049,1,0,0:0:0:0:
346,216,71130,1,0,0:0:0:0:
373,222,71211,1,0,0:0:0:0:
400,225,71291,1,0,0:0:0:0:
427,220,71372,1,0,0:0:0:0:
452,210,71453,6,0,L|452:156,1,43.75
358,316,71614,2,0,L|358:359,1,43.75
376,151,71775,2,0,L|376:107,1,43.75
439,298,71937,2,0,L|439:341,1,43.75
209,212,72098,6,0,P|250:156|267:111,1,87.5
316,333,72421,1,0,0:0:0:0:
303,225,72582,1,0,0:0:0:0:
183,335,72743,2,0,P|137:261|61:201,1,175
90,342,73227,1,0,0:0:0:0:
218,228,73388,1,0,0:0:0:0:
214,184,73468,1,0,0:0:0:0:
210,140,73549,1,0,0:0:0:0:
267,288,73711,1,0,0:0:0:0:
297,171,73872,1,0,0:0:0:0:
139,284,74034,2,0,L|119:178,1,87.5
103,85,74356,1,0,0:0:0:0:
219,263,74517,5,0,0:0:0:0:
219,263,74598,1,0,0:0:0:0:
219,263,74679,2,0,B|301:242|301:242|361:263,1,131.25
371,273,75001,1,0,0:0:0:0:
238,132,75163,1,0,0:0:0:0:
181,326,75324,1,0,0:0:0:0:
316,203,75485,1,0,0:0:0:0:
285,312,75646,1,0,0:0:0:0:
197,229,75808,1,0,0:0:0:0:
399,286,75969,6,0,P|405:329|405:372,1,87.5
316,203,76292,2,0,P|309:154|311:98,1,87.5
418,186,76614,1,0,0:0:0:0:
311,302,76775,1,0,0:0:0:0:
245,47,76937,5,0,0:0:0:0:
221,83,77018,1,0,0:0:0:0:
204,123,77098,1,0,0:0:0:0:
191,165,77179,1,0,0:0:0:0:
187,210,77259,5,0,0:0:0:0:
148,58,77421,1,0,0:0:0:0:
270,246,77582,2,0,L|259:364,1,87.5
282,138,77904,5,0,0:0:0:0:
178,296,78066,1,0,0:0:0:0:
138,96,78227,2,0,L|146:8,1,87.5
178,296,78550,5,0,0:0:0:0:
411,153,78711,1,0,0:0:0:0:
272,61,78872,1,0,0:0:0:0:
362,286,79034,1,0,0:0:0:0:
249,346,79195,2,0,P|208:305|183:249,1,87.5
175,239,79437,1,0,0:0:0:0:
170,195,79517,1,0,0:0:0:0:
274,110,79679,5,0,0:0:0:0:
274,110,79759,1,0,0:0:0:0:
274,110,79840,5,0,0:0:0:0:
21,240,80001,1,0,0:0:0:0:
256,220,80163,1,0,0:0:0:0:
54,69,80324,5,0,0:0:0:0:
136,339,80485,1,0,0:0:0:0:
161,95,80647,1,0,0:0:0:0:
19,275,80808,2,0,P|129:240|178:230,1,131.25
301,142,81130,6,0,L|282:194,1,43.75,0|0,0:0|0:0,0:0:0:0:
352,292,81292,2,0,L|367:250,1,43.75,0|0,0:0|0:0,0:0:0:0:
404,173,81453,2,0,L|360:180,1,43.75,0|0,0:0|0:0,0:0:0:0:
247,262,81614,2,0,L|290:254,1,43.75,0|0,0:0|0:0,0:0:0:0:
455,254,81775,5,0,3:0:0:0:
488,226,81855,1,0,3:0:0:0:
501,187,81936,1,0,3:0:0:0:
501,144,82016,1,0,3:0:0:0:
489,104,82098,1,0,3:0:0:0:
456,100,82178,1,0,3:0:0:0:
423,97,82259,1,0,3:0:0:0:
391,93,82339,1,0,3:0:0:0:
364,89,82421,6,0,P|335:63|322:13,1,87.5
257,98,82743,1,0,0:0:0:0:
185,28,82904,1,0,0:0:0:0:
161,186,83066,6,0,L|135:88,2,87.5
328,126,83550,1,0,0:0:0:0:
328,126,83630,1,0,0:0:0:0:
328,126,83711,1,0,0:0:0:0:
378,204,83872,6,0,L|344:311,1,87.5
246,183,84195,1,0,0:0:0:0:
197,263,84356,6,0,L|231:370,2,87.5
372,342,84840,5,0,0:0:0:0:
372,342,84921,1,0,0:0:0:0:
372,342,85001,2,0,P|327:305|299:295,1,87.5
242,219,85324,2,0,P|296:198|319:179,1,87.5,0|0,3:0|3:0,3:0:0:0:
247,37,85646,2,0,P|237:94|242:123,1,87.5,0|0,3:0|3:0,3:0:0:0:
347,85,85969,1,0,0:0:0:0:
417,155,86130,1,0,0:0:0:0:
368,287,86292,5,0,0:0:0:0:
368,287,86453,2,0,L|256:249,1,87.5
190,349,86775,1,0,0:0:0:0:
190,349,86937,2,0,L|130:267,2,87.5
191,49,87582,6,0,L|158:150,1,87.5
280,105,87904,1,0,0:0:0:0:
257,214,88066,1,0,0:0:0:0:
373,154,88227,6,0,L|381:267,2,87.5
304,315,88711,1,0,0:0:0:0:
304,315,88792,1,0,0:0:0:0:
304,315,88872,1,0,0:0:0:0:
257,221,89034,2,0,L|281:105,1,87.5
142,216,89356,1,0,0:0:0:0:
148,117,89517,2,0,L|220:48,1,87.5
199,281,89840,2,0,L|135:341,1,87.5
40,122,90163,6,0,L|40:246,2,87.5
221,239,90646,6,0,P|222:149|159:207,1,210.000008010865
418,128,91130,6,0,B|425:192|425:192|429:232|390:260|347:240|342:204|342:204|334:125,1,262.5
