osu file format v14

[General]
AudioFilename: audio.mp3
AudioLeadIn: 0
PreviewTime: 59324
Countdown: 0
SampleSet: Soft
StackLeniency: 0.7
Mode: 0
LetterboxInBreaks: 0
WidescreenStoryboard: 1

[Editor]
Bookmarks: 144243
DistanceSpacing: 0.8
BeatDivisor: 4
GridSize: 4
TimelineZoom: 1.6

[Metadata]
Title:Saiaku na Hi demo Anata ga Suki.
TitleUnicode:最悪な日でもあなたが好き。
Artist:Serizawa Yu
ArtistUnicode:芹澤優
Creator:Knotts
Version:Normal
Source:異世界魔王と召喚少女の奴隷魔術
Tags:honeyworks How Not to Summon a Demon Lord ending Isekai Maou to Shoukan Shoujo no Dorei Majutsu gaia meyrink
BeatmapID:1743245
BeatmapSetID:830225

[Difficulty]
HPDrainRate:3
CircleSize:3
OverallDifficulty:4
ApproachRate:5
SliderMultiplier:1.1
SliderTickRate:1

[Events]
//Background and Video events
0,0,"tymeyrink.jpg",0,0
//Break Periods
//Storyboard Layer 0 (Background)
//Storyboard Layer 1 (Fail)
//Storyboard Layer 2 (Pass)
//Storyboard Layer 3 (Foreground)
//Storyboard Layer 4 (Overlay)
//Storyboard Sound Samples

[TimingPoints]
50,322.58064516129,4,2,1,60,1,0
50,-100,4,2,1,60,0,0
14243,-100,4,2,1,40,0,0
15372,-100,4,2,1,60,0,0
19888,-100,4,2,1,30,0,0
20695,-100,4,2,1,60,0,0
23275,-100,4,2,1,50,0,0
36179,-100,4,2,1,70,0,0
55695,-100,4,2,1,40,0,0
56340,-100,4,2,1,70,0,0
59404,-100,4,2,1,75,0,0
64082,-100,4,2,1,40,0,0
64566,-100,4,2,1,75,0,0
68598,-100,4,2,1,40,0,0
69727,-100,4,2,1,75,0,0
74404,-100,4,2,1,40,0,0
74888,-100,4,2,1,75,0,0
76985,-100,4,2,1,40,0,0
77469,-100,4,2,1,75,0,0
79001,-100,4,2,1,40,0,0
79727,-100,4,2,1,75,0,0
90372,-100,4,2,1,60,0,0
134243,-100,4,2,1,75,0,0
138920,-100,4,2,1,40,0,0
139404,-100,4,2,1,75,0,0
141501,-100,4,2,1,40,0,0
141985,-100,4,2,1,75,0,0
143437,-100,4,2,1,40,0,0
144566,-100,4,2,1,75,0,0
149243,-100,4,2,1,40,0,0
149727,-100,4,2,1,75,0,0
153759,-100,4,2,1,40,0,0
154888,-100,4,2,1,75,0,0
180211,-100,4,2,1,40,0,0
180695,-100,4,2,1,75,0,0
185372,-100,4,2,1,40,0,0
185856,-100,4,2,1,75,0,0
190211,-100,4,2,1,40,0,0
190695,-100,4,2,1,75,0,0
198275,-100,4,2,1,40,0,0
198759,-100,4,2,1,75,0,0
200211,-100,4,2,1,40,0,0
201017,-100,4,2,1,75,0,0
201985,-100,4,2,1,40,0,0
203920,-100,4,2,1,75,0,0
207146,-100,4,2,1,40,0,0
209082,-100,4,2,1,75,0,0
212953,-100,4,2,1,30,0,0
221985,-100,4,2,1,75,0,0
224243,-100,4,2,1,30,0,0
224566,-100,4,2,1,75,0,0
229243,-100,4,2,1,40,0,0
229727,-100,4,2,1,75,0,0
231824,-100,4,2,1,40,0,0
232308,-100,4,2,1,75,0,0
233759,-100,4,2,1,40,0,0
234888,-100,4,2,1,75,0,0
239566,-100,4,2,1,40,0,0
240049,-100,4,2,1,75,0,0
243920,-100,4,2,1,45,0,0
245211,-100,4,2,1,75,0,0

[HitObjects]
418,62,372,6,0,P|454:100|447:167,1,110,0|0,0:0|0:0,0:0:0:0:
387,212,1017,1,0,0:0:0:0:
299,200,1340,2,0,B|217:183|166:206|166:206|178:160|168:112,2,220,2|0|2,0:0|0:0|0:0,0:0:0:0:
370,251,2953,1,0,0:0:0:0:
288,284,3275,2,0,P|234:279|164:297,1,110,0|0,0:0|0:0,0:0:0:0:
91,283,3920,6,0,B|51:216|70:140|70:140|98:163|152:165,1,220,2|0,0:0|0:0,0:0:0:0:
221,140,4888,1,0,0:0:0:0:
304,169,5211,2,0,P|375:149|338:10,1,220,2|2,0:0|0:0,0:0:0:0:
221,140,6501,6,0,B|171:148|110:99|110:99|125:163|86:231,2,220,2|0|2,0:0|0:0|0:0,0:0:0:0:
302,106,8114,1,0,0:0:0:0:
362,169,8437,2,0,P|348:242|344:310,1,110,0|0,0:0|0:0,0:0:0:0:
283,340,9082,6,0,P|218:341|188:290,1,110,2|0,0:0|0:0,0:0:0:0:
199,266,9566,2,0,P|208:210|222:101,1,165
302,259,10695,2,0,P|365:260|429:262,2,110,2|2|2,0:0|0:0|0:0,0:0:0:0:
292,348,11662,6,0,P|238:333|153:326,1,110,2|0,0:0|0:0,0:0:0:0:
140,329,12146,2,0,P|98:262|160:186,1,165
225,190,12953,1,2,0:0:0:0:
20,136,14243,6,0,P|42:66|97:44,1,110,4|4,0:0|0:0,0:0:0:0:
154,75,14888,2,0,P|219:64|292:54,1,110,4|4,0:0|0:0,0:0:0:0:
306,52,15372,1,8,0:0:0:0:
349,45,15533,6,0,P|337:114|330:219,1,165,4|0,0:0|0:0,0:0:0:0:
403,257,16340,2,0,P|354:297|289:288,1,110,0|8,0:0|0:0,0:0:0:0:
270,277,16824,2,0,B|211:279|168:248|168:248|157:282|117:327,2,165,4|4|4,0:0|0:3|0:3,0:0:0:0:
352,248,18114,6,0,P|364:169|376:105,1,110,12|0,0:0|0:0,0:0:0:0:
369,51,18759,2,0,P|294:43|264:77,1,110,4|0,0:0|0:0,0:0:0:0:
196,107,19404,2,0,P|125:95|72:91,1,110,4|0,0:0|0:0,0:0:0:0:
75,179,20049,2,0,P|87:240|94:298,1,110,8|8,0:0|0:0,0:0:0:0:
142,360,20695,5,4,0:0:0:0:
222,325,21017,2,0,B|273:299|273:299|327:342,1,110,8|2,0:0|0:0,0:0:0:0:
356,347,21501,1,2,0:0:0:0:
396,330,21662,2,0,P|466:337|514:350,2,110,8|2|8,0:0|0:0|0:0,0:0:0:0:
355,251,22630,2,0,P|348:179|410:137,1,110,2|8,0:0|0:0,0:0:0:0:
433,92,23275,5,4,0:0:0:0:
433,92,23437,2,0,P|381:95|301:86,1,110,0|0,0:0|0:0,0:0:0:0:
236,75,24082,2,0,P|229:49|235:1,2,55,0|0|0,0:0|0:0|0:0,0:0:0:0:
239,119,24566,1,0,0:0:0:0:
239,162,24727,2,0,L|230:317,1,110,0|0,0:0|0:0,0:0:0:0:
146,289,25372,2,0,L|154:151,1,110,0|0,0:0|0:0,0:0:0:0:
138,137,25856,6,0,P|61:148|3:184,1,110,2|2,0:0|0:0,0:0:0:0:
47,249,26501,2,0,P|31:301|32:356,1,110,2|2,0:0|0:0,0:0:0:0:
117,380,27146,1,2,0:0:0:0:
193,336,27469,1,2,0:0:0:0:
276,363,27791,2,0,P|333:355|388:358,1,110,2|2,0:0|0:0,0:0:0:0:
464,318,28437,6,0,P|470:338|473:383,2,55,2|0|2,0:0|0:0|0:0,0:0:0:0:
444,278,28920,1,0,0:0:0:0:
415,244,29082,2,0,P|405:171|402:103,1,110,2|2,0:0|0:0,0:0:0:0:
475,84,29727,2,0,P|486:137|493:192,1,110,2|2,0:0|0:0,0:0:0:0:
415,244,30372,1,2,0:0:0:0:
330,218,30695,1,2,0:0:0:0:
266,278,31017,6,0,L|157:297,2,110,2|2|2,0:0|0:0|0:0,0:0:0:0:
330,218,31985,1,2,0:0:0:0:
329,129,32308,2,0,B|318:63|318:63|265:85,1,110,2|2,0:0|0:0,0:0:0:0:
197,115,32953,2,0,P|132:102|86:98,1,110,2|2,0:0|0:0,0:0:0:0:
68,184,33598,6,0,P|86:242|94:305,1,110,2|2,0:0|0:0,0:0:0:0:
155,353,34243,2,0,P|214:328|226:254,1,110,2|2,0:0|0:0,0:0:0:0:
198,207,34888,2,0,P|203:179|211:149,1,55,4|4,0:3|0:3,0:0:0:0:
243,125,35211,2,0,P|306:137|364:139,1,110,8|2,0:0|0:0,0:0:0:0:
424,89,35856,1,12,0:0:0:0:
473,162,36179,6,0,P|493:213|492:293,1,110,4|8,0:0|0:0,0:0:0:0:
466,299,36662,1,0,0:0:0:0:
423,311,36824,2,0,L|285:294,1,110,2|8,0:0|0:0,0:0:0:0:
227,280,37469,2,0,B|219:210|219:210|273:183,1,110,2|8,0:0|0:0,0:0:0:0:
297,183,37953,1,0,0:0:0:0:
339,192,38114,2,0,P|345:127|336:63,1,110,2|8,0:0|0:0,0:0:0:0:
256,56,38759,6,0,P|186:45|128:93,1,110,2|8,0:0|0:0,0:0:0:0:
121,92,39243,1,0,0:0:0:0:
121,92,39404,2,0,P|129:165|125:221,1,110,2|8,0:0|0:0,0:0:0:0:
158,287,40049,2,0,L|290:255,1,110,2|8,0:0|0:0,0:0:0:0:
308,255,40533,1,0,0:0:0:0:
351,247,40695,2,0,L|382:121,1,110,2|8,0:0|0:0,0:0:0:0:
299,99,41340,6,0,L|277:157,2,55,2|0|8,0:0|0:0|0:0,0:0:0:0:
328,65,41824,1,0,0:0:0:0:
369,51,41985,2,0,P|426:58|465:120,1,110,2|8,0:0|0:0,0:0:0:0:
497,175,42630,2,0,P|485:239|481:289,1,110,0|8,0:0|0:0,0:0:0:0:
424,355,43275,1,0,0:0:0:0:
361,293,43598,1,4,0:0:0:0:
287,346,43920,6,0,B|229:357|229:357|153:325,1,110,2|8,0:0|0:0,0:0:0:0:
103,296,44566,2,0,L|43:314,2,55,2|0|8,0:0|0:0|0:0,0:0:0:0:
168,237,45211,2,0,P|157:195|145:168,1,55,2|8,0:0|0:0,0:0:0:0:
127,148,45533,2,0,P|138:106|150:79,1,55,4|4,0:3|0:3,0:0:0:0:
179,71,45856,1,4,0:3:0:0:
220,85,46017,2,0,P|290:84|348:77,1,110,4|2,0:0|0:0,0:0:0:0:
371,66,46501,6,0,P|396:68|433:85,2,55,4|2|8,0:3|0:0|0:0,0:0:0:0:
371,154,47146,2,0,P|391:217|400:296,1,110,0|0,0:0|0:0,0:0:0:0:
327,312,47791,2,0,P|245:335|210:287,1,110,0|0,0:0|0:0,0:0:0:0:
165,267,48437,2,0,B|157:191|157:191|219:202,1,110,0|0,0:0|0:0,0:0:0:0:
200,109,49082,6,0,B|132:105|90:124|90:124|59:193|80:267,1,220,4|8,0:0|0:0,0:0:0:0:
160,227,50049,1,0,0:0:0:0:
247,213,50372,2,0,P|307:202|369:195,1,110,2|0,0:0|0:0,0:0:0:0:
427,145,51017,2,0,L|419:87,2,55,8|2|8,0:0|0:0|0:0,0:0:0:0:
446,184,51501,1,4,0:3:0:0:
446,184,51662,6,0,L|436:243,1,55,4|2,0:0|0:0,0:0:0:0:
444,281,51985,2,0,P|385:288|335:296,1,110,8|0,0:0|0:0,0:0:0:0:
257,337,52630,1,0,0:0:0:0:
176,300,52953,2,0,P|166:231|132:156,1,110,0|0,0:0|0:0,0:0:0:0:
72,155,53598,2,0,P|105:112|188:120,1,110,0|0,0:0|0:0,0:0:0:0:
199,119,54082,1,8,0:0:0:0:
234,145,54243,6,0,P|250:199|266:298,1,110,4|0,0:0|0:0,0:0:0:0:
308,326,54888,2,0,P|369:308|453:302,1,110,8|0,0:0|0:0,0:0:0:0:
484,247,55533,2,0,P|493:211|489:163,1,55,8|8,0:0|0:0,0:0:0:0:
478,151,55856,2,0,P|473:84|476:28,2,110,8|8|8,0:0|0:0|0:0,0:0:0:0:
404,199,56824,5,0,0:0:0:0:
73,77,58114,1,2,0:0:0:0:
73,77,59404,6,0,B|131:33|131:33|199:63,1,110,4|8,0:0|0:0,0:0:0:0:
242,90,60049,2,0,P|206:149|188:218,1,110,2|8,0:0|0:0,0:0:0:0:
232,266,60695,1,2,0:0:0:0:
319,258,61017,1,8,0:0:0:0:
319,258,61179,2,0,P|390:246|442:244,1,110,0|2,0:0|0:0,0:0:0:0:
473,168,61824,1,0,0:0:0:0:
473,168,61985,6,0,P|432:132|335:144,1,110,2|8,0:0|0:0,0:0:0:0:
296,156,62630,1,2,0:0:0:0:
234,89,62953,1,8,0:0:0:0:
164,142,63275,2,0,P|111:153|58:174,1,110,2|8,0:0|0:0,0:0:0:0:
60,262,63920,2,0,P|110:282|164:293,1,110,2|8,0:0|0:0,0:0:0:0:
237,243,64566,6,0,P|337:239|337:348,1,220,4|2,0:0|0:0,0:0:0:0:
261,359,65533,1,8,0:0:0:0:
177,330,65856,2,0,P|143:262|116:218,1,110,2|8,0:0|0:0,0:0:0:0:
88,209,66340,1,0,0:0:0:0:
88,209,66501,2,0,P|144:152|214:173,1,110,2|8,0:0|0:0,0:0:0:0:
235,209,67146,6,0,P|292:197|385:193,1,110,12|2,0:0|0:0,0:0:0:0:
386,202,67630,2,0,P|381:150|386:71,1,110,12|2,0:0|0:0,0:0:0:0:
363,53,68114,2,0,P|322:11|234:37,1,110,12|2,0:0|0:0,0:0:0:0:
192,42,68759,2,0,P|205:90|221:192,1,110,8|8,0:0|0:0,0:0:0:0:
167,222,69404,1,8,0:0:0:0:
97,168,69727,6,0,P|47:160|-2:207,1,110,4|8,0:0|0:0,0:0:0:0:
10,282,70372,2,0,P|64:306|110:335,1,110,2|8,0:0|0:0,0:0:0:0:
193,351,71017,2,0,P|253:326|336:302,1,110,2|8,0:0|0:0,0:0:0:0:
339,311,71501,2,0,B|357:197|357:197|283:212,1,165,0|8,0:0|0:0,0:0:0:0:
220,207,72308,6,0,P|205:132|260:77,1,110,2|8,0:0|0:0,0:0:0:0:
305,90,72953,1,2,0:0:0:0:
362,156,73275,2,0,P|368:223|383:301,1,110,8|2,0:0|0:0,0:0:0:0:
429,334,73920,1,8,0:0:0:0:
477,260,74243,2,0,P|485:205|490:150,1,110,2|8,0:0|0:0,0:0:0:0:
441,77,74888,6,0,P|383:88|356:168,1,110,2|8,0:0|0:0,0:0:0:0:
292,189,75533,2,0,L|181:173,1,110,2|8,0:0|0:0,0:0:0:0:
138,175,76017,1,0,0:0:0:0:
93,173,76179,2,0,P|118:214|139:301,1,110,2|8,0:0|0:0,0:0:0:0:
79,340,76824,2,0,P|50:336|11:326,2,55,2|8|8,0:0|0:0|0:0,0:0:0:0:
162,369,77469,6,0,P|220:356|310:349,1,110,12|2,0:0|0:0,0:0:0:0:
314,345,77953,2,0,P|319:268|277:228,1,110,12|2,0:0|0:0,0:0:0:0:
271,212,78437,2,0,P|263:165|261:102,1,110,12|2,0:0|0:0,0:0:0:0:
334,53,79082,2,0,B|399:45|399:45|447:92,2,110,8|2|2,0:0|0:0|0:0,0:0:0:0:
347,139,80049,6,0,P|358:192|366:255,1,110,4|0,0:0|0:0,0:0:0:0:
318,322,80695,1,8,0:0:0:0:
235,290,81017,1,0,0:0:0:0:
235,290,81179,2,0,P|172:287|130:325,1,110,0|8,0:0|0:0,0:0:0:0:
58,275,81824,1,2,0:0:0:0:
73,233,81985,2,0,P|70:178|57:112,1,110,8|0,0:0|0:0,0:0:0:0:
122,61,82630,6,0,P|225:62|246:149,2,165,2|2|0,0:0|0:0|0:0,0:0:0:0:
91,92,83759,1,0,0:0:0:0:
71,131,83920,2,0,P|93:192|107:266,1,110,2|2,0:0|0:3,0:0:0:0:
60,313,84566,2,0,P|25:320|6:327,2,55,8|0|0,0:0|0:0|0:0,0:0:0:0:
133,361,85211,6,0,L|262:346,1,110,4|0,0:0|0:0,0:0:0:0:
330,353,85857,1,8,0:0:0:0:
314,266,86179,1,0,0:0:0:0:
314,266,86341,2,0,P|315:223|325:144,1,110,0|8,0:0|0:0,0:0:0:0:
396,108,86986,1,2,0:0:0:0:
364,77,87147,2,0,P|316:66|254:103,1,110,8|0,0:0|0:0,0:0:0:0:
184,130,87792,6,0,B|132:132|93:104|93:104|77:137|21:167,2,165,6|6|6,0:0|0:0|0:0,0:0:0:0:
436,54,89727,2,0,P|446:83|451:126,1,55,0|0,0:0|0:0,0:0:0:0:
433,147,90049,2,0,P|422:172|415:224,1,55,0|0,0:0|0:0,0:0:0:0:
431,240,90372,6,0,P|371:220|289:205,1,110,6|8,0:0|0:0,0:0:0:0:
251,258,91017,2,0,P|201:266|165:209,1,110,2|8,0:0|0:0,0:0:0:0:
132,142,91662,2,0,P|123:66|109:5,1,110,2|8,0:0|0:0,0:0:0:0:
160,29,92146,2,0,P|248:20|297:20,1,110,0|2,0:0|0:0,0:0:0:0:
311,33,92630,1,8,0:0:0:0:
389,72,92953,6,0,P|407:123|373:201,1,110,2|8,0:0|0:0,0:0:0:0:
338,243,93598,2,0,L|346:307,2,55,2|2|8,0:0|0:0|0:0,0:0:0:0:
266,191,94243,2,0,P|218:182|157:176,1,110,2|8,0:0|0:0,0:0:0:0:
152,264,94888,2,0,P|206:274|260:279,1,110,2|8,0:0|0:0,0:0:0:0:
304,276,95372,1,8,0:0:0:0:
341,253,95533,6,0,P|421:284|415:365,2,165,2|0|8,0:0|0:0|0:0,0:0:0:0:
277,314,96824,2,0,P|219:302|137:294,1,110,2|8,0:0|0:0,0:0:0:0:
88,331,97469,2,0,B|73:278|73:278|113:209,1,110,2|8,0:0|0:0,0:0:0:0:
170,176,98114,6,0,L|163:36,1,110,4|8,0:0|0:0,0:0:0:0:
249,41,98759,2,0,L|256:158,1,110,2|8,0:0|0:0,0:0:0:0:
313,217,99404,2,0,P|342:215|370:217,2,55,2|8|8,0:0|0:0|0:0,0:0:0:0:
278,244,99888,1,8,0:0:0:0:
121,88,100695,6,0,P|171:67|228:103,1,110,4|8,0:0|0:0,0:0:0:0:
294,135,101340,2,0,P|344:124|439:125,1,110,2|8,0:0|0:0,0:0:0:0:
467,180,101985,1,2,0:0:0:0:
426,258,102308,1,8,0:0:0:0:
451,342,102630,2,0,P|396:339|341:347,1,110,0|8,0:0|0:0,0:0:0:0:
253,345,103276,6,0,P|226:351|201:362,2,55,2|0|8,0:0|0:0|0:0,0:0:0:0:
271,305,103759,1,0,0:0:0:0:
271,305,103921,2,0,P|281:232|229:177,1,110,2|8,0:0|0:0,0:0:0:0:
178,186,104566,2,0,P|167:133|160:78,1,110,2|8,0:0|0:0,0:0:0:0:
229,23,105211,1,0,0:0:0:0:
307,63,105534,1,4,0:3:0:0:
394,66,105856,6,0,P|398:39|408:12,2,55,8|2|2,0:0|0:0|0:0,0:0:0:0:
379,107,106340,1,8,0:0:0:0:
383,150,106501,2,0,P|394:198|402:291,1,110,2|8,0:0|0:0,0:0:0:0:
344,325,107147,2,0,P|264:332|228:281,1,110,4|0,0:0|0:0,0:0:0:0:
224,230,107792,2,0,B|216:150|216:150|180:172,1,110,0|0,0:0|0:0,0:0:0:0:
105,144,108437,6,0,P|113:89|130:37,1,110,10|10,0:0|0:0,0:0:0:0:
218,42,109082,2,0,P|276:33|341:29,1,110,10|2,0:0|0:3,0:0:0:0:
397,83,109727,2,0,P|390:109|385:136,1,55,8|0,0:0|0:0,0:0:0:0:
403,177,110050,2,0,P|420:238|427:296,1,110,10|10,0:0|0:0,0:0:0:0:
365,347,110695,1,0,0:0:0:0:
279,327,111018,6,0,L|146:343,1,110,4|8,0:0|0:0,0:0:0:0:
125,340,111501,1,0,0:0:0:0:
89,313,111663,2,0,P|77:250|57:177,1,110,2|8,0:0|0:0,0:0:0:0:
19,130,112308,2,0,B|33:60|33:60|92:51,1,110,2|8,0:0|0:0,0:0:0:0:
115,63,112792,1,0,0:0:0:0:
158,71,112953,2,0,P|229:58|280:57,1,110,2|8,0:0|0:0,0:0:0:0:
354,68,113598,6,0,P|335:125|325:182,1,110,2|8,0:0|0:0,0:0:0:0:
346,213,114082,1,0,0:0:0:0:
371,248,114243,2,0,P|379:321|333:356,1,110,2|8,0:0|0:0,0:0:0:0:
270,336,114888,2,0,P|218:331|160:329,1,110,2|8,0:0|0:0,0:0:0:0:
116,327,115372,1,0,0:0:0:0:
72,322,115534,2,0,P|97:253|103:196,1,110,2|8,0:0|0:0,0:0:0:0:
62,138,116179,6,0,P|50:115|40:80,2,55,6|2|8,0:0|0:0|0:0,0:0:0:0:
105,133,116663,1,0,0:0:0:0:
148,127,116824,2,0,L|281:110,1,110,2|8,0:0|0:0,0:0:0:0:
343,95,117469,2,0,P|377:150|359:220,1,110,2|8,0:0|0:0,0:0:0:0:
302,245,118114,1,2,0:0:0:0:
217,220,118437,1,12,0:0:0:0:
137,256,118759,6,0,P|134:304|137:391,1,110,6|8,0:0|0:0,0:0:0:0:
223,359,119405,2,0,L|275:343,2,55,8|0|0,0:0|0:0|0:0,0:0:0:0:
225,274,120050,2,0,P|220:238|212:201,1,55,8|0,0:0|0:0,0:0:0:0:
196,180,120372,2,0,P|207:138|219:111,1,55,8|0,0:0|0:0,0:0:0:0:
244,98,120695,1,8,0:0:0:0:
287,94,120856,2,0,P|357:95|415:102,1,110,4|0,0:0|0:0,0:0:0:0:
437,115,121340,6,0,P|456:99|495:86,2,55,2|2|8,0:0|0:0|0:0,0:0:0:0:
396,193,121985,2,0,P|416:256|425:335,1,110,0|0,0:0|0:0,0:0:0:0:
352,351,122630,2,0,P|297:335|235:326,1,110,0|0,0:0|0:0,0:0:0:0:
158,343,123276,2,0,P|139:285|197:222,1,110,0|0,0:0|0:0,0:0:0:0:
237,203,123921,6,0,B|287:211|331:171|331:171|414:176|442:237,1,220,2|8,0:0|0:0,0:0:0:0:
496,280,124888,1,0,0:0:0:0:
511,193,125211,2,0,P|479:145|424:113,1,110,2|0,0:0|0:0,0:0:0:0:
359,72,125856,2,0,P|353:38|351:14,2,55,8|2|8,0:0|0:0|0:0,0:0:0:0:
318,89,126340,1,8,0:0:0:0:
318,89,126501,6,0,P|280:83|252:79,1,55,6|2,0:0|0:0,0:0:0:0:
222,61,126824,2,0,P|218:120|212:170,1,110,8|0,0:0|0:0,0:0:0:0:
148,230,127469,1,0,0:0:0:0:
203,298,127792,2,0,P|251:272|304:257,1,110,0|0,0:0|0:0,0:0:0:0:
391,271,128437,2,0,P|422:209|395:148,1,110,0|0,0:0|0:0,0:0:0:0:
377,145,128921,1,8,0:0:0:0:
333,152,129082,6,0,P|276:147|176:152,1,110,4|0,0:0|0:0,0:0:0:0:
239,61,129727,2,0,P|293:61|348:57,1,110,8|0,0:0|0:0,0:0:0:0:
431,86,130372,2,0,P|429:113|421:139,1,55,2|8,0:0|0:0,0:0:0:0:
419,183,130695,2,0,P|417:237|422:292,2,110,2|8|8,0:0|0:0|0:0,0:0:0:0:
505,166,131663,5,0,0:0:0:0:
154,194,132953,1,0,0:0:0:0:
69,77,134243,6,0,P|124:75|195:63,1,110,4|8,0:0|0:0,0:0:0:0:
264,47,134888,2,0,P|300:106|265:181,1,110,2|8,0:0|0:0,0:0:0:0:
231,205,135534,1,2,0:0:0:0:
286,272,135856,1,8,0:0:0:0:
286,272,136018,2,0,P|357:260|409:258,1,110,0|2,0:0|0:0,0:0:0:0:
442,183,136663,1,0,0:0:0:0:
472,214,136824,6,0,P|486:259|449:330,1,110,2|8,0:0|0:0,0:0:0:0:
380,340,137469,1,2,0:0:0:0:
298,307,137792,1,8,0:0:0:0:
221,349,138114,2,0,P|169:331|113:321,1,110,2|8,0:0|0:0,0:0:0:0:
79,295,138598,2,0,P|119:213|201:215,1,165,2|8,0:0|0:0,0:0:0:0:
272,201,139405,6,0,B|273:117|298:46|298:46|232:66,1,220,2|2,0:0|0:0,0:0:0:0:
164,112,140372,1,8,0:0:0:0:
75,108,140695,2,0,P|86:161|93:216,1,110,2|8,0:0|0:0,0:0:0:0:
84,259,141179,1,0,0:0:0:0:
62,297,141340,2,0,P|123:285|192:285,1,110,2|8,0:0|0:0,0:0:0:0:
247,326,141985,6,0,P|304:314|314:229,1,110,12|2,0:0|0:0,0:0:0:0:
319,227,142469,2,0,P|314:175|319:96,1,110,12|2,0:0|0:0,0:0:0:0:
337,78,142953,2,0,P|310:31|257:23,1,110,12|2,0:0|0:0,0:0:0:0:
187,76,143598,2,0,P|188:125|181:228,1,110,8|8,0:0|0:0,0:0:0:0:
135,257,144243,1,8,0:0:0:0:
186,328,144566,6,0,L|301:311,1,110,4|8,0:0|0:0,0:0:0:0:
378,340,145211,2,0,L|493:361,1,110,2|8,0:0|0:0,0:0:0:0:
496,272,145856,2,0,P|494:192|506:121,1,110,2|8,0:0|0:0,0:0:0:0:
485,119,146340,2,0,P|404:86|360:152,1,165,0|8,0:0|0:0,0:0:0:0:
301,201,147147,6,0,B|246:214|246:214|169:175,1,110,2|8,0:0|0:0,0:0:0:0:
150,116,147792,1,2,0:0:0:0:
72,157,148114,2,0,P|66:224|51:302,1,110,8|2,0:0|0:0,0:0:0:0:
96,345,148759,1,8,0:0:0:0:
169,296,149082,2,0,P|223:292|269:352,1,110,2|8,0:0|0:0,0:0:0:0:
304,340,149566,1,8,0:0:0:0:
350,335,149727,6,0,P|402:308|450:290,1,110,4|8,0:0|0:0,0:0:0:0:
509,225,150372,2,0,P|459:200|398:219,1,110,2|8,0:0|0:0,0:0:0:0:
366,226,150856,1,0,0:0:0:0:
323,239,151018,2,0,P|307:186|279:139,1,110,2|8,0:0|0:0,0:0:0:0:
193,122,151663,2,0,P|182:94|173:55,2,55,2|8|8,0:0|0:0|0:0,0:0:0:0:
138,191,152308,6,0,P|83:197|29:209,1,110,4|0,0:0|0:0,0:0:0:0:
12,250,152792,2,0,P|-12:298|0:350,1,110,4|0,0:0|0:0,0:0:0:0:
41,365,153276,2,0,P|97:352|161:344,1,110,4|2,0:0|0:0,0:0:0:0:
235,328,153921,2,0,P|282:347|349:369,2,110,8|8|8,0:0|0:0|0:0,0:0:0:0:
192,250,154888,6,0,P|199:195|255:154,1,110,4|0,0:0|0:0,0:0:0:0:
326,153,155534,1,8,0:0:0:0:
412,155,155856,1,2,0:0:0:0:
444,185,156018,2,0,P|455:253|457:305,1,110,0|8,0:0|0:0,0:0:0:0:
391,352,156663,1,2,0:0:0:0:
353,328,156824,2,0,P|301:309|224:350,1,110,2|8,0:0|0:0,0:0:0:0:
183,265,157469,6,0,P|194:183|211:102,2,165,2|2|0,0:0|0:0|0:0,0:0:0:0:
184,309,158598,1,8,0:0:0:0:
184,352,158759,2,0,P|119:352|44:342,1,110,2|0,0:0|0:0,0:0:0:0:
54,261,159405,2,0,P|19:268|0:275,2,55,8|0|0,0:0|0:0|0:0,0:0:0:0:
104,189,160050,6,0,L|107:59,1,110,2|0,0:0|0:0,0:0:0:0:
175,24,160696,1,8,0:0:0:0:
243,79,161018,1,0,0:0:0:0:
285,67,161180,2,0,P|324:51|401:29,1,110,0|8,0:0|0:0,0:0:0:0:
461,82,161825,1,2,0:0:0:0:
494,110,161986,2,0,P|502:168|446:235,1,110,8|0,0:0|0:0,0:0:0:0:
393,230,162631,6,0,B|341:232|302:204|302:204|286:237|230:267,2,165,6|6|6,0:0|0:0|0:0,0:0:0:0:
194,56,164566,2,0,P|184:80|178:108,1,55,0|0,0:0|0:0,0:0:0:0:
195,148,164888,2,0,P|200:179|202:220,1,55,0|0,0:0|0:0,0:0:0:0:
185,243,165211,6,0,P|243:237|297:237,1,110,2|0,0:0|0:0,0:0:0:0:
336,159,165856,2,0,P|372:192|359:287,1,110,8|0,0:0|0:0,0:0:0:0:
326,320,166501,2,0,P|271:322|216:330,1,110,2|0,0:0|0:0,0:0:0:0:
132,305,167146,2,0,P|115:241|85:175,1,110,8|0,0:0|0:0,0:0:0:0:
100,112,167791,6,0,P|155:60|210:72,1,110,2|0,0:0|0:0,0:0:0:0:
252,117,168437,2,0,B|308:121|308:121|371:65,1,110,8|0,0:0|0:0,0:0:0:0:
425,42,169082,1,2,0:0:0:0:
496,93,169404,1,0,0:0:0:0:
455,171,169727,2,0,P|461:228|465:303,1,110,8|0,0:0|0:0,0:0:0:0:
400,340,170372,6,0,L|285:329,1,110,2|0,0:0|0:0,0:0:0:0:
214,285,171017,2,0,L|75:329,1,110,8|0,0:0|0:0,0:0:0:0:
38,265,171662,1,2,0:0:0:0:
100,202,171985,1,0,0:0:0:0:
50,129,172308,2,0,P|52:59|112:9,1,110,8|0,0:0|0:0,0:0:0:0:
135,92,172953,6,0,P|195:81|276:77,1,110,2|0,0:0|0:0,0:0:0:0:
331,69,173598,2,0,L|316:190,1,110,8|0,0:0|0:0,0:0:0:0:
354,258,174243,1,2,0:0:0:0:
320,339,174566,1,0,0:0:0:0:
232,328,174888,2,0,P|176:321|122:316,1,110,0|0,0:0|0:0,0:0:0:0:
36,295,175533,6,0,P|26:243|73:196,1,110,6|0,0:0|0:0,0:0:0:0:
147,197,176179,2,0,P|148:145|140:70,1,110,8|0,0:0|0:0,0:0:0:0:
220,46,176824,2,0,B|272:31|272:31|328:74,1,110,2|0,0:0|0:0,0:0:0:0:
399,92,177469,2,0,P|384:146|374:222,1,110,8|0,0:0|0:0,0:0:0:0:
390,240,177953,1,0,0:0:0:0:
400,282,178114,6,0,P|332:304|285:267,1,110,2|0,0:0|0:0,0:0:0:0:
221,251,178759,2,0,P|160:244|90:252,1,110,8|0,0:0|0:0,0:0:0:0:
66,172,179404,2,0,P|37:175|6:184,2,55,2|8|0,0:0|0:0|0:0,0:0:0:0:
148,140,180049,2,0,P|157:66|160:-4,1,110,8|8,0:0|0:0,0:0:0:0:
246,19,180695,6,0,P|311:29|338:105,1,110,4|8,0:0|0:0,0:0:0:0:
409,109,181340,2,0,L|385:194,1,55,2|2,0:0|0:0,0:0:0:0:
371,199,181662,2,0,P|379:246|393:333,2,110,8|2|8,0:0|0:0|0:0,0:0:0:0:
284,182,182630,2,0,P|206:169|174:195,1,110,2|8,0:0|0:0,0:0:0:0:
119,243,183275,5,2,0:0:0:0:
45,292,183598,1,8,0:0:0:0:
1,215,183920,2,0,P|13:151|38:66,1,110,2|8,0:0|0:0,0:0:0:0:
112,101,184566,2,0,B|169:108|169:108|237:57,1,110,2|8,0:0|0:0,0:0:0:0:
296,55,185211,2,0,L|425:100,1,110,2|8,0:0|0:0,0:0:0:0:
480,127,185856,6,0,P|466:160|450:233,1,110,0|8,0:0|0:0,0:0:0:0:
459,320,186501,2,0,P|489:326|537:343,2,55,2|2|8,0:0|0:0|0:0,0:0:0:0:
372,301,187146,2,0,P|312:296|270:347,1,110,4|8,0:0|0:0,0:0:0:0:
203,278,187791,2,0,P|217:214|221:169,1,110,2|0,0:0|0:0,0:0:0:0:
208,127,188275,1,0,0:0:0:0:
208,127,188437,6,0,P|276:92|318:107,1,110,8|2,0:0|0:0,0:0:0:0:
346,112,188920,2,0,P|333:160|326:220,1,110,8|2,0:0|0:0,0:0:0:0:
351,256,189404,1,8,0:0:0:0:
304,330,189727,2,0,P|238:315|150:309,1,110,2|8,0:0|0:0,0:0:0:0:
109,324,190372,2,0,P|74:266|102:193,1,110,8|8,0:0|0:0,0:0:0:0:
146,170,191017,6,0,B|195:192|195:192|273:179,1,110,4|10,0:0|0:0,0:0:0:0:
318,126,191662,2,0,B|367:104|367:104|445:117,1,110,0|10,0:0|0:0,0:0:0:0:
457,194,192308,1,0,0:0:0:0:
391,252,192630,1,8,0:0:0:0:
306,226,192953,2,0,P|238:208|191:202,1,110,2|8,0:0|0:0,0:0:0:0:
110,205,193598,6,0,P|68:241|76:320,1,110,2|8,0:0|0:0,0:0:0:0:
132,346,194243,1,2,0:0:0:0:
213,313,194566,1,10,0:0:0:0:
290,353,194888,2,0,P|359:337|437:332,1,110,0|8,0:0|0:0,0:0:0:0:
485,342,195533,2,0,P|490:293|503:233,1,110,2|2,0:0|0:0,0:0:0:0:
460,156,196179,6,0,P|449:91|444:17,2,110,2|8|2,0:0|0:0|0:0,0:0:0:0:
408,227,197146,1,8,0:0:0:0:
329,186,197469,2,0,P|274:155|201:198,1,110,2|8,0:0|0:0,0:0:0:0:
146,190,198114,2,0,P|145:122|137:69,1,110,2|8,0:0|0:0,0:0:0:0:
58,115,198759,6,0,P|51:169|51:224,1,110,4|0,0:0|0:0,0:0:0:0:
65,266,199243,2,0,P|122:303|186:288,1,110,4|0,0:0|0:0,0:0:0:0:
198,276,199727,2,0,P|256:266|309:263,1,110,4|8,0:0|0:0,0:0:0:0:
370,324,200372,2,0,P|395:271|363:197,1,110,8|8,0:0|0:0,0:0:0:0:
314,169,201017,1,2,0:0:0:0:
226,175,201340,6,0,P|201:177|164:194,2,55,4|2|8,0:0|0:0|0:0,0:0:0:0:
274,101,201985,2,0,P|264:46|216:15,1,110,0|0,0:0|0:0,0:0:0:0:
154,72,202630,2,0,P|86:79|31:83,1,110,0|0,0:0|0:0,0:0:0:0:
28,169,203276,2,0,P|41:225|48:308,1,110,0|0,0:0|0:0,0:0:0:0:
120,325,203921,6,0,B|189:318|223:350|223:350|280:321|280:254,1,220,2|8,0:0|0:0,0:0:0:0:
264,175,204888,1,0,0:0:0:0:
294,92,205211,2,0,P|354:81|402:128,1,110,2|0,0:0|0:0,0:0:0:0:
447,175,205856,2,0,L|503:159,2,55,8|0|0,0:0|0:0|0:0,0:0:0:0:
410,200,206340,1,8,0:0:0:0:
410,200,206501,6,0,P|402:236|400:259,1,55,2|2,0:0|0:0,0:0:0:0:
399,298,206824,2,0,P|340:305|293:269,1,110,8|0,0:0|0:0,0:0:0:0:
276,193,207469,1,0,0:0:0:0:
307,110,207792,2,0,P|297:41|263:-34,1,110,0|0,0:0|0:0,0:0:0:0:
200,32,208437,2,0,P|182:84|176:138,1,110,8|0,0:0|0:0,0:0:0:0:
195,178,208921,1,8,0:0:0:0:
215,216,209082,6,0,P|231:270|247:369,1,110,2|0,0:0|0:0,0:0:0:0:
319,363,209727,2,0,P|392:346|402:277,1,110,8|0,0:0|0:0,0:0:0:0:
459,249,210372,2,0,P|468:213|464:165,1,55,2|8,0:0|0:0,0:0:0:0:
451,154,210695,2,0,P|446:87|449:31,2,110,2|8|0,0:0|0:0|0:0,0:0:0:0:
377,203,211663,5,0,0:0:0:0:
55,59,212953,2,0,P|95:91|104:169,1,110
84,230,213598,2,0,P|74:276|72:348,1,110
158,352,214243,6,0,L|291:321,1,110,2|0,0:0|0:0,0:0:0:0:
349,352,214888,2,0,P|379:298|341:216,1,110,0|0,0:0|0:0,0:0:0:0:
301,199,215533,1,2,0:0:0:0:
335,117,215856,1,0,0:0:0:0:
257,75,216179,2,0,P|202:75|147:77,1,110,2|0,0:0|0:0,0:0:0:0:
62,101,216824,6,0,P|40:154|59:212,2,110,2|0|0,0:0|0:0|0:0,0:0:0:0:
133,158,217791,1,0,0:0:0:0:
212,195,218114,2,0,P|276:177|348:168,1,110,2|0,0:0|0:0,0:0:0:0:
405,184,218759,2,0,P|395:223|379:316,1,110,2|0,0:0|0:0,0:0:0:0:
325,358,219404,6,0,P|260:348|240:292,1,110,2|0,0:0|0:0,0:0:0:0:
199,235,220049,2,0,P|149:233|61:234,1,110,0|0,0:0|0:0,0:0:0:0:
109,147,220695,2,0,P|165:142|233:145,1,110,2|0,0:0|0:0,0:0:0:0:
262,152,221179,1,0,0:0:0:0:
301,170,221340,2,0,P|358:145|356:78,1,110,0|0,0:0|0:0,0:0:0:0:
303,43,221985,5,12,0:0:0:0:
216,58,222308,1,2,0:0:0:0:
216,58,222469,2,0,P|167:53|95:55,1,110,8|2,0:0|0:0,0:0:0:0:
69,78,222953,2,0,P|77:136|83:211,1,110,8|2,0:0|0:0,0:0:0:0:
59,225,223437,1,8,0:0:0:0:
59,225,223598,2,0,P|48:250|40:276,1,55,8|8,0:0|0:0,0:0:0:0:
47,319,223920,1,8,0:0:0:0:
122,365,224243,1,0,0:0:0:0:
201,326,224566,6,0,P|272:287|337:320,1,110,4|8,0:0|0:0,0:0:0:0:
382,312,225211,2,0,P|382:257|390:184,1,110,2|8,0:0|0:0,0:0:0:0:
445,135,225857,1,2,0:0:0:0:
402,57,226179,1,8,0:0:0:0:
314,65,226501,2,0,P|259:61|185:75,1,110,0|8,0:0|0:0,0:0:0:0:
126,110,227147,6,0,P|145:173|145:218,1,110,2|8,0:0|0:0,0:0:0:0:
68,260,227792,1,2,0:0:0:0:
91,344,228115,1,8,0:0:0:0:
180,351,228437,2,0,P|248:333|332:321,1,110,2|8,0:0|0:0,0:0:0:0:
367,362,229082,2,0,P|371:308|337:257,1,110,8|8,0:0|0:0,0:0:0:0:
287,195,229728,6,0,P|296:95|396:99,1,220,2|2,0:0|0:0,0:0:0:0:
454,165,230695,1,8,0:0:0:0:
485,247,231018,2,0,P|494:307|501:374,1,110,2|8,0:0|0:0,0:0:0:0:
456,362,231502,1,0,0:0:0:0:
412,363,231663,2,0,P|355:357|293:358,1,110,2|8,0:0|0:0,0:0:0:0:
220,324,232308,6,0,P|163:312|70:308,1,110,4|2,0:0|0:0,0:0:0:0:
68,318,232792,2,0,B|43:271|43:271|68:187,1,110,4|2,0:0|0:0,0:0:0:0:
78,177,233276,2,0,P|88:124|56:78,1,110,4|8,0:0|0:0,0:0:0:0:
135,37,233921,2,0,P|186:28|274:21,1,110,8|8,0:0|0:0,0:0:0:0:
331,31,234566,1,8,0:0:0:0:
419,32,234889,6,0,P|452:83|433:147,1,110,4|8,0:0|0:0,0:0:0:0:
382,191,235534,2,0,P|382:250|391:303,1,110,2|8,0:0|0:0,0:0:0:0:
319,351,236179,2,0,P|259:326|176:302,1,110,2|8,0:0|0:0,0:0:0:0:
172,315,236662,1,0,0:0:0:0:
127,314,236824,2,0,P|103:256|116:197,1,110,2|8,0:0|0:0,0:0:0:0:
187,169,237469,6,0,P|211:111|198:52,1,110,2|8,0:0|0:0,0:0:0:0:
116,54,238115,1,2,0:0:0:0:
32,80,238437,2,0,P|25:146|24:226,1,110,8|2,0:0|0:0,0:0:0:0:
52,273,239082,1,8,0:0:0:0:
139,279,239405,2,0,P|194:263|247:254,1,110,8|8,0:0|0:0,0:0:0:0:
327,221,240050,6,0,P|356:170|314:97,1,110,4|8,0:0|0:0,0:0:0:0:
276,68,240695,2,0,P|200:71|135:77,1,110,2|8,0:0|0:0,0:0:0:0:
122,75,241179,1,0,0:0:0:0:
122,75,241341,2,0,P|97:116|76:203,1,110,2|0,0:0|0:0,0:0:0:0:
71,262,241986,2,0,P|42:258|3:248,2,55,0|0|0,0:0|0:0|0:0,0:0:0:0:
131,326,242631,6,0,P|189:313|279:306,1,110,4|0,0:0|0:0,0:0:0:0:
278,326,243115,2,0,P|250:264|269:193,1,110,4|0,0:0|0:0,0:0:0:0:
276,186,243598,1,4,0:0:0:0:
363,186,243920,2,0,P|421:177|495:160,1,110,8|8,0:0|0:0,0:0:0:0:
453,79,244566,2,0,P|399:67|344:59,1,110,8|8,0:0|0:0,0:0:0:0:
257,77,245211,6,0,P|268:130|276:193,1,110,4|0,0:0|0:0,0:0:0:0:
248,269,245857,1,8,0:0:0:0:
160,276,246179,1,0,0:0:0:0:
118,262,246341,2,0,P|56:264|6:289,1,110,0|8,0:3|0:0,0:0:0:0:
6,195,246986,1,2,0:0:0:0:
6,195,247147,2,0,P|9:140|22:74,1,110,8|0,0:0|0:0,0:0:0:0:
98,48,247792,6,0,P|201:49|222:136,2,165,2|2|0,0:0|0:0|0:0,0:0:0:0:
77,86,248921,1,0,0:0:0:0:
61,127,249082,2,0,P|39:188|25:262,1,110,2|2,0:0|0:3,0:0:0:0:
107,272,249728,2,0,P|133:263|160:258,2,55,8|0|0,0:0|0:0|0:0,0:0:0:0:
121,358,250373,6,0,P|174:354|250:343,1,110,4|0,0:0|0:0,0:0:0:0:
296,287,251017,1,8,0:0:0:0:
261,206,251341,1,0,0:0:0:0:
271,163,251501,2,0,P|270:120|260:41,1,110,0|8,0:0|0:0,0:0:0:0:
176,34,252146,1,2,0:0:0:0:
176,34,252309,2,0,P|128:23|66:60,1,110,8|0,0:0|0:0,0:0:0:0:
37,127,252954,6,0,P|63:229|149:219,2,165,4|4|0,0:0|0:0|0:0,0:0:0:0:
299,148,254888,2,0,P|334:152|377:156,1,55,0|0,0:0|0:0,0:0:0:0:
391,129,255211,2,0,P|420:116|456:106,1,55,0|0,0:0|0:0,0:0:0:0:
46,125,258114,6,0,P|94:80|180:96,1,110,8|2,0:0|0:0,0:0:0:0:
177,89,258598,2,0,P|165:160|166:242,1,110,8|2,0:0|0:0,0:0:0:0:
175,240,259082,1,8,0:0:0:0:
408,117,260049,1,12,0:0:0:0:
