osu file format v14

[General]
AudioFilename: audio.mp3
AudioLeadIn: 0
PreviewTime: 59324
Countdown: 0
SampleSet: Soft
StackLeniency: 0.7
Mode: 0
LetterboxInBreaks: 0
WidescreenStoryboard: 1

[Editor]
Bookmarks: 144243
DistanceSpacing: 1.4
BeatDivisor: 4
GridSize: 4
TimelineZoom: 2.1

[Metadata]
Title:Saiaku na Hi demo Anata ga Suki.
TitleUnicode:最悪な日でもあなたが好き。
Artist:Serizawa Yu
ArtistUnicode:芹澤優
Creator:Knotts
Version:Hard
Source:異世界魔王と召喚少女の奴隷魔術
Tags:honeyworks How Not to Summon a Demon Lord ending Isekai Maou to Shoukan Shoujo no Dorei Majutsu gaia meyrink
BeatmapID:1740115
BeatmapSetID:830225

[Difficulty]
HPDrainRate:5
CircleSize:4
OverallDifficulty:6
ApproachRate:7
SliderMultiplier:1.4
SliderTickRate:1

[Events]
//Background and Video events
0,0,"tymeyrink.jpg",0,0
//Break Periods
//Storyboard Layer 0 (Background)
//Storyboard Layer 1 (Fail)
//Storyboard Layer 2 (Pass)
//Storyboard Layer 3 (Foreground)
//Storyboard Layer 4 (Overlay)
//Storyboard Sound Samples

[TimingPoints]
50,322.58064516129,4,2,1,60,1,0
50,-125,4,2,1,60,0,0
14243,-125,4,2,1,40,0,0
15372,-125,4,2,1,60,0,0
15534,-100,4,2,1,60,0,0
19888,-100,4,2,1,30,0,0
20695,-100,4,2,1,60,0,0
23275,-125,4,2,1,50,0,0
25856,-111.111111111111,4,2,1,50,0,0
36179,-100,4,2,1,70,0,0
47791,-125,4,2,1,70,0,0
49082,-100,4,2,1,70,0,0
52953,-125,4,2,1,70,0,0
54243,-100,4,2,1,70,0,0
55695,-100,4,2,1,40,0,0
56340,-100,4,2,1,70,0,0
59404,-100,4,2,1,75,0,0
64082,-100,4,2,1,40,0,0
64566,-100,4,2,1,75,0,0
68598,-100,4,2,1,40,0,0
69727,-100,4,2,1,75,0,0
74404,-100,4,2,1,40,0,0
74888,-100,4,2,1,75,0,0
76985,-100,4,2,1,40,0,0
77469,-100,4,2,1,75,0,0
79001,-100,4,2,1,40,0,0
79727,-100,4,2,1,75,0,0
80049,-111.111111111111,4,2,1,75,0,0
90372,-100,4,2,1,60,0,0
100695,-111.111111111111,4,2,1,60,0,0
111017,-100,4,2,1,60,0,0
122630,-125,4,2,1,60,0,0
123920,-100,4,2,1,60,0,0
127791,-125,4,2,1,60,0,0
129082,-100,4,2,1,60,0,0
134243,-100,4,2,1,75,0,0
138920,-100,4,2,1,40,0,0
139404,-100,4,2,1,75,0,0
141501,-100,4,2,1,40,0,0
141985,-100,4,2,1,75,0,0
143437,-100,4,2,1,40,0,0
144566,-100,4,2,1,75,0,0
149243,-100,4,2,1,40,0,0
149727,-100,4,2,1,75,0,0
153759,-100,4,2,1,40,0,0
154888,-111.111111111111,4,2,1,75,0,0
164566,-142.857142857143,4,2,1,75,0,0
180211,-142.857142857143,4,2,1,40,0,0
180695,-100,4,2,1,75,0,0
185372,-100,4,2,1,40,0,0
185856,-100,4,2,1,75,0,0
190211,-100,4,2,1,40,0,0
190695,-100,4,2,1,75,0,0
198275,-100,4,2,1,40,0,0
198759,-100,4,2,1,75,0,0
200211,-100,4,2,1,40,0,0
201017,-100,4,2,1,75,0,0
201985,-125,4,2,1,40,0,0
203920,-100,4,2,1,75,0,0
207146,-125,4,2,1,40,0,0
209082,-100,4,2,1,75,0,0
212953,-125,4,2,1,30,0,0
221179,-200,4,2,1,30,0,0
221985,-100,4,2,1,75,0,0
224243,-83.3333333333333,4,2,1,30,0,0
224566,-100,4,2,1,75,0,0
229243,-100,4,2,1,40,0,0
229727,-100,4,2,1,75,0,0
231824,-100,4,2,1,40,0,0
232308,-100,4,2,1,75,0,0
233759,-100,4,2,1,40,0,0
234888,-100,4,2,1,75,0,0
239566,-100,4,2,1,40,0,0
240049,-100,4,2,1,75,0,0
243920,-100,4,2,1,45,0,0
245211,-111.111111111111,4,2,1,75,0,0
258114,-100,4,2,1,75,0,0

[HitObjects]
170,234,372,6,0,P|109:229|97:171,2,112,0|0|0,0:0|0:0|0:0,0:0:0:0:
284,164,1340,6,0,P|279:227|278:278,1,112,2|0,0:0|0:0,0:0:0:0:
409,245,1985,2,0,P|397:156|389:116,1,112
289,48,2630,6,0,P|253:45|209:49,1,56,2|0,0:0|0:0,0:0:0:0:
172,96,2953,2,0,L|116:85,1,56,0|0,0:0|0:0,0:0:0:0:
44,115,3275,2,0,P|42:170|41:226,1,112,0|0,0:0|0:0,0:0:0:0:
87,290,3759,1,0,0:0:0:0:
162,270,3920,6,0,P|216:263|263:324,1,112,2|0,0:0|0:0,0:0:0:0:
314,352,4404,1,0,0:0:0:0:
314,352,4566,2,0,P|349:344|391:340,1,56,0|0,0:0|0:0,0:0:0:0:
390,266,4888,2,0,P|357:253|333:247,1,56,0|0,0:0|0:0,0:0:0:0:
304,176,5211,6,0,P|304:119|349:85,1,112,2|0,0:0|0:0,0:0:0:0:
495,44,5856,2,0,B|445:30|369:17,1,112,2|0,0:0|0:0,0:0:0:0:
253,107,6501,6,0,P|197:99|119:98,1,112,2|0,0:0|0:0,0:0:0:0:
184,248,7146,2,0,P|239:245|295:238,1,112,0|0,0:0|0:0,0:0:0:0:
451,228,7791,6,0,P|467:287|432:346,1,112,2|0,0:0|0:0,0:0:0:0:
369,334,8275,1,0,0:0:0:0:
295,305,8437,2,0,P|257:297|219:292,1,56,0|0,0:0|0:0,0:0:0:0:
161,299,8759,2,0,P|167:333|175:373,1,56,0|0,0:0|0:0,0:0:0:0:
91,237,9082,5,2,0:0:0:0:
85,146,10695,6,0,L|72:203,1,56,2|0,0:0|0:0,0:0:0:0:
112,267,11017,2,0,L|187:245,1,56,2|0,0:0|0:0,0:0:0:0:
239,224,11340,2,0,L|281:289,1,56,2|0,0:0|0:0,0:0:0:0:
339,306,11662,6,0,P|406:290|464:284,1,112,2|0,0:0|0:0,0:0:0:0:
478,211,12146,2,0,P|466:164|457:134,1,56,0|0,0:0|0:0,0:0:0:0:
386,145,12469,1,0,0:0:0:0:
386,145,12630,2,0,L|394:219,1,56,0|0,0:0|0:0,0:0:0:0:
361,273,12953,1,2,0:0:0:0:
70,63,14243,6,0,P|60:92|55:126,1,56,4|0,0:0|0:0,0:0:0:0:
104,178,14566,2,0,L|178:160,1,56,4|0,0:0|0:0,0:0:0:0:
220,117,14888,2,0,P|225:90|234:61,1,56,4|0,0:0|0:0,0:0:0:0:
309,82,15211,2,0,P|317:108|322:136,1,56,4|8,0:0|0:0,0:0:0:0:
304,171,15453,1,8,0:0:0:0:
304,171,15533,6,0,P|351:159|425:149,1,112,4|0,0:0|0:0,0:0:0:0:
481,211,16017,2,0,B|474:263|487:303|487:303|445:333,1,140,0|0,0:0|0:0,0:0:0:0:
369,284,16501,1,0,0:0:0:0:
295,337,16662,1,8,0:0:0:0:
295,337,16743,1,8,0:0:0:0:
295,337,16824,6,0,P|214:322|146:311,1,140,4|0,0:0|0:0,0:0:0:0:
65,311,17308,2,0,P|81:271|94:227,1,70,4|0,0:3|0:0,0:0:0:0:
19,187,17630,2,0,P|16:152|16:117,2,70,4|4|4,0:3|0:3|0:3,0:0:0:0:
102,223,18114,6,0,B|185:218|185:218|208:163,1,140,12|0,0:0|0:0,0:0:0:0:
168,82,18598,1,0,0:0:0:0:
248,40,18759,2,0,P|322:45|387:52,1,140,4|0,0:0|0:0,0:0:0:0:
464,102,19243,1,0,0:0:0:0:
464,102,19404,6,0,P|463:150|438:192,1,93.3333333333333,4|4,0:0|0:3,0:0:0:0:
372,201,19727,2,0,P|317:173|278:165,1,93.3333333333333
265,180,20049,2,0,P|240:203|173:206,1,93.3333333333333,2|4,0:0|0:3,0:0:0:0:
201,137,20372,2,0,P|184:109|162:84,2,46.6666666666667,4|4|4,0:3|0:3|0:3,0:0:0:0:
183,209,20695,6,0,P|181:267|170:374,2,140,4|8|2,0:0|0:0|0:0,0:0:0:0:
219,125,21501,1,2,0:0:0:0:
219,125,21662,2,0,P|266:113|308:127,1,70,8|0,0:0|0:0,0:0:0:0:
377,120,21985,6,0,P|368:161|358:221,1,70,2|2,0:0|0:0,0:0:0:0:
437,227,22308,1,8,0:0:0:0:
376,282,22469,2,0,B|336:268|336:268|294:290|294:290|220:259,1,140,0|2,0:0|0:0,0:0:0:0:
157,256,22953,2,0,L|145:186,1,70,8|0,0:0|0:0,0:0:0:0:
172,343,23275,5,4,0:0:0:0:
248,362,23437,2,0,P|276:362|310:371,1,56
369,327,23759,2,0,P|391:260|414:201,1,112
453,158,24243,1,0,0:0:0:0:
449,79,24404,1,0,0:0:0:0:
449,79,24485,1,0,0:0:0:0:
449,79,24566,6,0,P|377:54|350:92,1,112,0|0,0:0|0:0,0:0:0:0:
283,96,25049,2,0,L|304:176,1,56
335,219,25372,2,0,L|312:293,2,56
246,215,25856,6,0,L|160:198,1,62.9999980773926,2|0,0:0|0:0,0:0:0:0:
198,121,26179,2,0,L|273:97,1,62.9999980773926,2|0,0:0|0:0,0:0:0:0:
336,80,26501,2,0,P|328:112|326:143,1,62.9999980773926,2|0,0:0|0:0,0:0:0:0:
415,236,26824,2,0,P|412:204|405:173,1,62.9999980773926,2|0,0:0|0:0,0:0:0:0:
335,219,27146,6,0,L|249:209,1,62.9999980773926,2|0,0:0|0:0,0:0:0:0:
206,261,27469,2,0,P|221:300|228:342,1,62.9999980773926,2|0,0:0|0:0,0:0:0:0:
150,353,27791,2,0,L|71:342,1,62.9999980773926,2|0,0:0|0:0,0:0:0:0:
25,290,28114,2,0,P|20:266|32:223,1,62.9999980773926,2|0,0:0|0:0,0:0:0:0:
81,126,28437,6,0,P|94:154|98:186,1,62.9999980773926,2|0,0:0|0:0,0:0:0:0:
114,266,28759,1,2,0:0:0:0:
192,290,28920,1,0,0:0:0:0:
192,290,29082,2,0,L|260:269,1,62.9999980773926,2|0,0:0|0:0,0:0:0:0:
316,220,29404,2,0,L|387:247,1,62.9999980773926,2|0,0:0|0:0,0:0:0:0:
448,279,29727,6,0,P|451:242|465:154,1,125.999996154785,2|2,0:0|0:0,0:0:0:0:
483,73,30211,1,0,0:0:0:0:
409,36,30372,2,0,P|371:25|338:41,1,62.9999980773926,2|0,0:0|0:0,0:0:0:0:
273,64,30695,2,0,P|239:59|199:60,1,62.9999980773926,2|0,0:0|0:0,0:0:0:0:
133,85,31017,6,0,P|129:43|125:12,2,62.9999980773926,2|0|2,0:0|0:0|0:0,0:0:0:0:
80,148,31501,1,0,0:0:0:0:
126,215,31662,2,0,P|133:249|138:298,1,62.9999980773926,2|0,0:0|0:0,0:0:0:0:
3,335,31985,2,0,P|33:324|64:317,1,62.9999980773926,2|0,0:0|0:0,0:0:0:0:
129,366,32308,6,0,P|188:356|208:275,1,125.999996154785,2|2,0:0|0:0,0:0:0:0:
246,225,32791,1,0,0:0:0:0:
246,225,32953,2,0,B|331:213|331:213|367:269,1,125.999996154785,2|2,0:0|0:0,0:0:0:0:
421,291,33437,1,0,0:0:0:0:
421,291,33598,6,0,P|430:225|445:148,1,125.999996154785,2|2,0:0|0:0,0:0:0:0:
492,102,34082,1,0,0:0:0:0:
426,53,34243,2,0,L|358:65,1,62.9999980773926,2|0,0:0|0:0,0:0:0:0:
242,86,34566,2,0,L|299:115,1,62.9999980773926,2|0,0:0|0:0,0:0:0:0:
347,180,34888,5,4,0:3:0:0:
235,231,35049,1,4,0:3:0:0:
355,265,35211,1,8,0:0:0:0:
266,329,35372,1,4,0:3:0:0:
266,329,35453,1,4,0:3:0:0:
266,329,35533,2,0,P|226:322|193:323,1,62.9999980773926,2|2,0:0|0:0,0:0:0:0:
130,359,35856,2,0,P|116:283|106:245,1,94.499997116089,12|0,0:0|0:0,0:0:0:0:
93,245,36179,6,0,P|85:189|165:178,1,140,4|8,0:0|0:0,0:0:0:0:
238,177,36662,1,0,0:0:0:0:
238,177,36824,2,0,P|248:132|251:96,1,70,2|2,0:0|0:0,0:0:0:0:
112,39,37146,2,0,P|143:55|173:74,1,70,8|0,0:0|0:0,0:0:0:0:
250,108,37469,6,0,P|320:114|329:200,1,140,2|8,0:0|0:0,0:0:0:0:
262,202,37953,1,0,0:0:0:0:
311,269,38114,2,0,P|347:261|402:259,1,70,2|0,0:0|0:0,0:0:0:0:
444,204,38437,2,0,P|439:169|438:134,1,70,8|0,0:0|0:0,0:0:0:0:
378,76,38759,6,0,B|325:55|325:55|277:70|275:137,1,140,2|8,0:0|0:0,0:0:0:0:
243,194,39243,1,0,0:0:0:0:
243,194,39404,2,0,P|201:199|171:187,1,70,2|0,0:0|0:0,0:0:0:0:
142,112,39727,1,8,0:0:0:0:
70,156,39888,1,0,0:0:0:0:
70,156,40049,6,0,P|82:244|82:304,1,140,2|8,0:0|0:0,0:0:0:0:
149,346,40533,1,0,0:0:0:0:
231,329,40695,2,0,P|297:286|346:321,1,140,2|8,0:0|0:0,0:0:0:0:
418,348,41179,1,0,0:0:0:0:
418,348,41259,1,0,0:0:0:0:
418,348,41340,6,0,L|442:268,1,70,2|0,0:0|0:0,0:0:0:0:
370,230,41662,2,0,L|394:158,1,70,8|0,0:0|0:0,0:0:0:0:
434,90,41985,2,0,P|467:67|515:71,1,70,2|0,0:0|0:0,0:0:0:0:
392,163,42308,2,0,L|319:144,1,70,8|0,0:0|0:0,0:0:0:0:
254,100,42630,6,0,P|182:101|163:170,1,140,0|8,0:0|0:0,0:0:0:0:
217,217,43114,1,0,0:0:0:0:
134,229,43275,2,0,P|82:218|38:218,1,70,0|0,0:0|0:0,0:0:0:0:
5,276,43598,2,0,P|0:310|0:345,1,70,4|0,0:0|0:0,0:0:0:0:
21,362,43840,1,0,0:0:0:0:
21,362,43920,6,0,P|96:352|192:346,1,140,2|8,0:0|0:0,0:0:0:0:
233,305,44404,1,0,0:0:0:0:
313,329,44566,2,0,P|312:349|304:383,2,46.6666666666667
320,308,44888,2,0,P|324:274|340:225,1,70,8|0,0:0|0:0,0:0:0:0:
411,204,45211,6,0,P|405:173|392:120,2,70,2|8|4,0:0|0:0|0:3,0:0:0:0:
334,239,45695,1,4,0:3:0:0:
296,164,45856,1,4,0:3:0:0:
250,231,46017,2,0,B|206:213|206:213|166:226|166:226|107:206,1,140,4|2,0:0|0:0,0:0:0:0:
90,289,46501,6,0,L|8:300,2,70,4|2|8,0:3|0:0|0:0,0:0:0:0:
118,209,46985,1,0,0:0:0:0:
93,128,47146,2,0,P|92:94|98:52,1,70
175,24,47469,1,0,0:0:0:0:
242,73,47630,1,0,0:0:0:0:
242,73,47791,6,0,L|362:42,1,112,0|0,0:0|0:0,0:0:0:0:
415,89,48275,1,0,0:0:0:0:
415,89,48437,2,0,B|431:167|431:167|383:183,1,112,0|0,0:0|0:0,0:0:0:0:
328,208,48920,1,0,0:0:0:0:
245,188,49082,6,0,P|152:194|145:238,1,140,4|0,0:0|0:0,0:0:0:0:
137,307,49566,1,2,0:0:0:0:
137,307,49727,2,0,P|176:298|211:294,1,70,8|0,0:0|0:0,0:0:0:0:
268,349,50049,2,0,P|304:350|350:354,1,70,0|0,0:0|0:0,0:0:0:0:
364,352,50291,1,0,0:0:0:0:
364,352,50372,6,0,P|380:319|376:283,1,70,2|8,0:0|0:0,0:0:0:0:
303,245,50695,2,0,P|300:210|315:179,1,70,0|2,0:0|0:0,0:0:0:0:
393,148,51017,1,8,0:0:0:0:
349,75,51179,1,2,0:0:0:0:
349,75,51259,1,0,0:0:0:0:
349,75,51340,2,0,L|272:65,1,70,8|4,0:0|0:3,0:0:0:0:
208,110,51662,6,0,L|227:200,2,70,4|2|8,0:0|0:0|0:0,0:0:0:0:
146,52,52146,1,0,0:0:0:0:
146,52,52308,2,0,P|126:79|117:122,1,70,0|0,0:0|0:0,0:0:0:0:
141,194,52630,1,0,0:0:0:0:
210,231,52791,1,0,0:0:0:0:
210,231,52953,6,0,P|273:220|345:213,1,112,0|0,0:0|0:0,0:0:0:0:
395,238,53437,1,0,0:0:0:0:
436,171,53598,2,0,B|445:90|445:90|389:101,1,112,0|0,0:0|0:0,0:0:0:0:
338,119,54082,1,8,0:0:0:0:
338,119,54162,1,4,0:3:0:0:
338,119,54243,6,0,P|256:115|196:108,1,140,4|0,0:0|0:0,0:0:0:0:
134,53,54727,1,2,0:0:0:0:
60,92,54888,2,0,B|60:154|46:195|46:195|99:185,1,140,8|0,0:0|0:0,0:0:0:0:
165,182,55372,1,0,0:0:0:0:
165,182,55453,1,0,0:0:0:0:
165,182,55533,5,8,0:0:0:0:
244,209,55695,2,0,L|238:264,3,35,8|8|8|8,0:0|0:0|0:0|0:0,0:0:0:0:
269,274,56017,2,0,L|288:318,3,35,8|8|8|0,0:0|0:0|0:0|0:0,0:0:0:0:
298,346,56340,1,8,0:0:0:0:
185,306,56501,5,8,0:0:0:0:
347,248,56662,2,0,P|381:250|416:254,1,70,8|0,0:0|0:0,0:0:0:0:
334,118,58114,5,2,0:0:0:0:
64,150,59404,6,0,P|104:81|167:83,1,140,4|8,0:0|0:0,0:0:0:0:
225,129,59888,1,0,0:0:0:0:
266,202,60049,2,0,P|257:249|247:350,1,140,2|8,0:0|0:0,0:0:0:0:
331,345,60533,1,0,0:0:0:0:
378,275,60695,6,0,L|477:255,1,70,2|2,0:0|0:0,0:0:0:0:
458,178,61017,2,0,L|428:89,1,70,8|0,0:0|0:0,0:0:0:0:
418,86,61259,1,0,0:0:0:0:
418,86,61340,2,0,P|381:73|342:82,1,70,2|2,0:0|0:0,0:0:0:0:
272,106,61662,2,0,P|238:96|191:92,1,70,8|0,0:0|0:0,0:0:0:0:
120,108,61985,6,0,P|157:198|177:253,1,140,2|8,0:0|0:0,0:0:0:0:
159,321,62469,2,0,P|222:317|252:240,1,140,0|2,0:0|0:0,0:0:0:0:
171,238,62953,2,0,L|84:227,1,70,8|2,0:0|0:0,0:0:0:0:
48,164,63275,6,0,P|59:111|85:90,1,70,2|2,0:0|0:0,0:0:0:0:
143,61,63598,2,0,P|169:100|183:133,1,70,8|0,0:0|0:0,0:0:0:0:
258,144,63920,2,0,P|304:135|339:135,1,70,2|8,0:0|0:0,0:0:0:0:
351,142,64162,1,8,0:0:0:0:
351,142,64243,2,0,L|360:183,3,35,8|8|8|8,0:0|0:0|0:0|0:0,0:0:0:0:
369,217,64566,6,0,P|350:263|337:301,1,70,4|0,0:0|0:0,0:0:0:0:
281,338,64888,2,0,P|244:329|209:326,1,70,8|0,0:0|0:0,0:0:0:0:
369,371,65211,2,0,P|404:355|422:310,1,70,2|2,0:0|0:0,0:0:0:0:
453,252,65533,2,0,P|450:216|447:179,1,70,8|0,0:0|0:0,0:0:0:0:
392,117,65856,6,0,B|344:107|344:107|304:121|304:121|229:95,1,140,2|8,0:0|0:0,0:0:0:0:
181,69,66340,1,0,0:0:0:0:
112,117,66501,2,0,P|90:143|82:194,1,70,2|2,0:0|0:0,0:0:0:0:
195,244,66824,2,0,P|186:210|164:184,1,70,8|0,0:0|0:0,0:0:0:0:
56,262,67146,6,0,P|128:248|197:244,1,140,8|2,0:0|0:0,0:0:0:0:
278,233,67630,2,0,B|287:178|302:140|302:140|232:142,1,140,8|2,0:0|0:0,0:0:0:0:
293,46,68114,2,0,P|367:60|392:140,1,140,8|2,0:0|0:0,0:0:0:0:
385,197,68598,6,0,L|399:252,3,35,8|8|8|8,0:0|0:0|0:0|0:0,0:0:0:0:
419,264,68920,2,0,L|401:329,3,35,8|8|8|8,0:0|0:0|0:0|0:0,0:0:0:0:
387,334,69243,2,0,L|341:332,3,35,8|8|8|8,0:0|0:0|0:0|0:0,0:0:0:0:
309,327,69566,1,8,0:0:0:0:
309,327,69646,1,8,0:0:0:0:
309,327,69727,6,0,P|236:310|218:367,2,140,4|8|2,0:0|0:0|0:0,0:0:0:0:
387,357,70533,1,2,0:0:0:0:
458,312,70695,2,0,P|457:276|448:238,1,70,8|0,0:0|0:0,0:0:0:0:
455,159,71017,6,0,B|360:145|360:145|359:195,1,140,2|8,0:0|0:0,0:0:0:0:
366,272,71501,1,0,0:0:0:0:
289,236,71662,2,0,L|186:222,1,70,2|2,0:0|0:0,0:0:0:0:
135,221,71985,2,0,P|136:255|152:286,1,70,8|0,0:0|0:0,0:0:0:0:
122,133,72308,6,0,P|62:158|51:248,1,140,2|8,0:0|0:0,0:0:0:0:
84,301,72791,1,0,0:0:0:0:
84,301,72953,2,0,P|118:292|177:285,1,70,2|2,0:0|0:0,0:0:0:0:
225,245,73275,1,8,0:0:0:0:
260,321,73437,1,0,0:0:0:0:
300,191,73598,6,0,P|300:116|292:28,2,140,2|8|2,0:0|0:0|0:0,0:0:0:0:
330,268,74404,1,8,0:0:0:0:
330,268,74485,1,8,0:0:0:0:
330,268,74566,2,0,L|386:275,3,35,8|8|8|8,0:0|0:0|0:0|0:0,0:0:0:0:
405,281,74888,6,0,P|420:244|424:183,1,70,2|0,0:0|0:0,0:0:0:0:
359,76,75211,2,0,P|367:110|377:144,1,70,8|0,0:0|0:0,0:0:0:0:
296,167,75533,2,0,P|226:153|155:143,1,140,2|8,0:0|0:0,0:0:0:0:
115,216,76017,1,0,0:0:0:0:
115,216,76179,6,0,P|132:242|141:289,1,70,2|0,0:0|0:0,0:0:0:0:
75,331,76501,1,8,0:0:0:0:
140,279,76662,2,0,P|174:271|209:271,1,70,0|2,0:0|0:0,0:0:0:0:
284,309,76985,1,8,0:0:0:0:
284,309,77066,1,8,0:0:0:0:
284,309,77146,2,0,P|291:270|304:222,1,70,8|8,0:0|0:0,0:0:0:0:
377,208,77469,6,0,P|349:109|308:112,1,140,12|2,0:0|0:0,0:0:0:0:
372,302,77953,2,0,B|472:286|472:286|448:354,1,140,12|2,0:0|0:0,0:0:0:0:
279,239,78437,2,0,P|205:229|133:226,1,140,12|2,0:0|0:0,0:0:0:0:
59,251,78920,6,0,L|41:220,3,35,8|8|8|8,0:0|0:0|0:0|0:0,0:0:0:0:
56,180,79243,2,0,L|67:146,3,35,8|8|2|8,0:0|0:0|0:0|0:0,0:0:0:0:
59,105,79566,2,0,L|41:74,3,35,8|0|2|0,0:0|0:0|0:0|0:0,0:0:0:0:
74,48,79888,1,4,0:3:0:0:
74,48,79969,1,0,0:0:0:0:
74,48,80049,6,0,P|148:36|226:30,1,125.999996154785,4|0,0:0|0:0,0:0:0:0:
284,52,80533,1,0,0:0:0:0:
284,52,80695,2,0,B|325:65|325:65|313:101|307:162,1,125.999996154785,8|0,0:0|0:0,0:0:0:0:
246,209,81179,1,0,0:0:0:0:
159,195,81340,5,0,0:0:0:0:
159,195,81501,2,0,P|95:186|85:258,1,125.999996154785,8|2,0:0|0:0,0:0:0:0:
106,317,81985,2,0,P|144:307|183:303,1,62.9999980773926,8|0,0:0|0:0,0:0:0:0:
255,309,82308,2,0,P|246:332|232:380,1,62.9999980773926,0|0,0:0|0:0,0:0:0:0:
344,297,82630,6,0,P|329:242|247:224,1,125.999996154785,2|0,0:0|0:0,0:0:0:0:
267,129,83114,2,0,P|268:101|277:66,1,62.9999980773926,2|8,0:0|0:0,0:0:0:0:
365,58,83437,1,0,0:0:0:0:
365,58,83598,2,0,P|399:48|445:27,1,62.9999980773926,0|0,0:0|0:0,0:0:0:0:
445,28,83840,1,0,0:0:0:0:
445,28,83920,6,0,P|437:67|434:109,1,62.9999980773926,2|8,0:0|0:0,0:0:0:0:
446,168,84243,2,0,L|473:234,1,62.9999980773926,2|2,0:3|0:0,0:0:0:0:
410,292,84566,2,0,L|333:283,2,62.9999980773926,8|0|0,0:0|0:0|0:0,0:0:0:0:
371,371,85049,1,0,0:0:0:0:
371,371,85130,1,0,0:0:0:0:
371,371,85211,6,0,L|230:358,1,125.999996154785,4|0,0:0|0:0,0:0:0:0:
158,343,85695,1,2,0:0:0:0:
72,347,85856,2,0,B|67:301|55:265|55:265|96:252,1,125.999996154785,8|0,0:0|0:0,0:0:0:0:
184,260,86340,1,0,0:0:0:0:
266,229,86501,5,2,0:0:0:0:
266,229,86662,2,0,P|269:166|267:78,1,125.999996154785,8|2,0:0|0:0,0:0:0:0:
121,141,87146,2,0,P|151:132|183:128,1,62.9999980773926,8|0,0:0|0:0,0:0:0:0:
268,103,87469,2,0,P|277:72|287:43,1,62.9999980773926,0|0,0:0|0:0,0:0:0:0:
375,53,87791,6,0,P|435:55|452:133,1,125.999996154785,6|0,0:0|0:0,0:0:0:0:
428,178,88275,2,0,P|423:240|425:303,1,125.999996154785,6|0,0:0|0:0,0:0:0:0:
463,368,88759,1,6,0:0:0:0:
168,171,89727,6,0,P|159:146|144:113,2,62.9999980773926,0|0|0,0:0|0:0|0:0,0:0:0:0:
81,185,90211,1,0,0:0:0:0:
136,265,90372,6,0,P|204:249|284:237,1,140,6|8,0:0|0:0,0:0:0:0:
346,195,90856,1,0,0:0:0:0:
424,223,91017,2,0,P|439:254|445:301,1,70,2|2,0:0|0:0,0:0:0:0:
346,195,91340,2,0,P|353:163|359:126,1,70,8|0,0:0|0:0,0:0:0:0:
323,50,91662,6,0,P|240:32|217:92,1,140,2|8,0:0|0:0,0:0:0:0:
217,153,92146,2,0,P|156:136|69:125,1,140,0|2,0:0|0:0,0:0:0:0:
48,203,92630,2,0,P|60:242|68:279,1,70,8|0,0:0|0:0,0:0:0:0:
100,347,92953,6,0,B|194:322|194:322|236:377,1,140,2|8,0:0|0:0,0:0:0:0:
304,352,93437,1,0,0:0:0:0:
304,352,93598,2,0,P|308:311|313:279,1,70,2|2,0:0|0:0,0:0:0:0:
388,246,93920,2,0,P|380:210|371:171,1,70,8|0,0:0|0:0,0:0:0:0:
289,161,94243,6,0,P|333:89|403:109,2,140,2|8|2,0:0|0:0|0:0,0:0:0:0:
300,244,95049,1,2,0:0:0:0:
220,209,95211,2,0,P|176:197|136:191,1,70,8|8,0:0|0:0,0:0:0:0:
132,196,95453,1,8,0:0:0:0:
118,204,95533,6,0,P|146:292|162:365,1,140,2|8,0:0|0:0,0:0:0:0:
72,334,96017,1,0,0:0:0:0:
156,338,96179,2,0,P|184:327|235:316,1,70,2|2,0:0|0:0,0:0:0:0:
292,363,96501,2,0,P|303:325|309:295,1,70,8|2,0:0|0:0,0:0:0:0:
281,215,96824,6,0,B|279:149|294:122|294:122|339:151,1,140,2|8,0:0|0:0,0:0:0:0:
409,180,97308,1,0,0:0:0:0:
409,180,97469,2,0,L|485:157,1,70,2|2,0:0|0:0,0:0:0:0:
331,146,97791,2,0,P|321:112|332:70,1,70,8|0,0:0|0:0,0:0:0:0:
248,48,98114,6,0,P|157:44|156:101,1,140,4|8,0:0|0:0,0:0:0:0:
148,158,98598,1,0,0:0:0:0:
148,158,98759,2,0,P|110:149|77:145,2,70,2|2|8,0:0|0:0|0:0,0:0:0:0:
197,226,99243,2,0,P|196:264|191:316,1,70,0|2,0:0|0:0,0:0:0:0:
130,351,99566,5,8,0:0:0:0:
297,312,99727,1,8,0:0:0:0:
109,255,99888,1,8,0:0:0:0:
119,89,100695,6,0,P|108:121|107:165,1,62.9999980773926,4|0,0:0|0:0,0:0:0:0:
165,205,101017,2,0,L|232:195,1,62.9999980773926,8|0,0:0|0:0,0:0:0:0:
306,219,101340,2,0,P|343:274|301:334,2,125.999996154785,2|8|2,0:0|0:0|0:0,0:0:0:0:
224,226,102146,5,0,0:0:0:0:
160,173,102308,2,0,P|164:137|170:110,1,62.9999980773926,8|2,0:0|0:0,0:0:0:0:
81,24,102630,2,0,P|88:54|92:86,1,62.9999980773926,0|0,0:0|0:0,0:0:0:0:
41,150,102953,2,0,P|23:182|27:236,1,62.9999980773926,8|0,0:0|0:0,0:0:0:0:
61,278,103275,6,0,P|24:281|-18:288,2,62.9999980773926,2|0|8,0:0|0:0|0:0,0:0:0:0:
140,300,103759,1,0,0:0:0:0:
140,300,103920,2,0,L|126:392,1,62.9999980773926,2|2,0:0|0:0,0:0:0:0:
212,350,104243,2,0,L|226:268,1,62.9999980773926,8|0,0:0|0:0,0:0:0:0:
279,228,104566,6,0,P|349:231|358:300,1,125.999996154785,2|8,0:0|0:0,0:0:0:0:
310,336,105049,2,0,P|380:323|434:316,1,125.999996154785,0|2,0:0|0:0,0:0:0:0:
455,318,105453,1,4,0:3:0:0:
455,318,105533,2,0,P|459:281|456:252,1,62.9999980773926,4|0,0:3|0:0,0:0:0:0:
405,190,105856,6,0,P|431:172|466:168,1,62.9999980773926,8|2,0:0|0:0,0:0:0:0:
331,234,106179,1,2,0:0:0:0:
331,234,106340,2,0,P|305:228|257:224,1,62.9999980773926,8|2,0:0|0:0,0:0:0:0:
214,285,106662,1,2,0:0:0:0:
214,285,106824,2,0,L|148:297,1,62.9999980773926,8|0,0:0|0:0,0:0:0:0:
106,228,107146,6,0,P|114:171|124:103,1,125.999996154785,4|0,0:0|0:0,0:0:0:0:
297,179,108437,6,0,B|340:182|377:158|377:158|386:205,2,125.999996154785,10|10|10,0:0|0:0|0:0,0:0:0:0:
227,136,109243,1,0,0:0:0:0:
227,136,109324,1,2,0:3:0:0:
227,136,109404,1,2,0:3:0:0:
163,188,109566,1,2,0:0:0:0:
163,188,109646,1,2,0:0:0:0:
163,188,109727,6,0,P|161:261|152:324,2,125.999996154785,8|10|10,0:0|0:0|0:0,0:0:0:0:
123,116,110533,1,2,0:0:0:0:
123,116,110614,1,0,0:0:0:0:
123,116,110695,2,0,P|163:77|216:94,1,94.499997116089,0|0,0:0|0:0,0:0:0:0:
228,93,111017,6,0,B|325:86|325:86|336:26,1,140,4|8,0:0|0:0,0:0:0:0:
421,24,111501,1,0,0:0:0:0:
478,94,111662,2,0,P|481:132|482:186,1,70,2|0,0:0|0:0,0:0:0:0:
419,230,111985,2,0,L|322:210,1,70,8|0,0:0|0:0,0:0:0:0:
259,207,112308,6,0,P|254:260|254:349,1,140,2|8,0:0|0:0,0:0:0:0:
344,355,112791,1,0,0:0:0:0:
344,355,112953,2,0,P|380:344|429:337,1,70,2|0,0:0|0:0,0:0:0:0:
253,346,113275,2,0,L|184:333,1,70,8|0,0:0|0:0,0:0:0:0:
106,285,113598,6,0,P|88:223|140:177,1,140,2|8,0:0|0:0,0:0:0:0:
228,159,114082,1,0,0:0:0:0:
228,159,114243,2,0,P|221:193|221:242,1,70,2|0,0:0|0:0,0:0:0:0:
292,283,114566,1,8,0:0:0:0:
321,197,114727,1,0,0:0:0:0:
411,205,114888,6,0,P|363:107|315:106,1,140,2|8,0:0|0:0,0:0:0:0:
258,70,115372,1,0,0:0:0:0:
175,108,115533,2,0,P|135:99|93:93,1,70,2|0,0:0|0:0,0:0:0:0:
77,181,115856,2,0,L|90:249,1,70,8|8,0:0|0:0,0:0:0:0:
92,263,116098,1,8,0:0:0:0:
92,263,116179,6,0,P|131:250|178:245,2,70,6|2|8,0:0|0:0|0:0,0:0:0:0:
107,352,116662,1,0,0:0:0:0:
107,352,116824,2,0,P|145:346|196:334,1,70,2|0,0:0|0:0,0:0:0:0:
236,272,117146,2,0,P|280:286|299:329,1,70,8|0,0:0|0:0,0:0:0:0:
378,337,117469,6,0,P|383:260|394:189,2,140,2|8|2,0:0|0:0|0:0,0:0:0:0:
293,303,118275,1,0,0:0:0:0:
212,341,118437,1,12,0:0:0:0:
132,297,118598,1,0,0:0:0:0:
132,297,118759,6,0,P|65:273|-3:333,2,140,6|8|8,0:0|0:0|0:0,0:0:0:0:
205,242,119566,2,0,L|208:204,2,35,0|0|0,0:0|0:0|0:0,0:0:0:0:
231,328,119888,1,2,0:0:0:0:
231,328,119969,1,2,0:0:0:0:
231,328,120049,6,0,P|299:313|386:303,2,140,8|8|8,0:0|0:0|0:0,0:0:0:0:
139,333,120856,2,0,B|111:273|125:236|125:236|171:250,1,140,4|0,0:0|0:0,0:0:0:0:
224,180,121340,6,0,P|218:146|209:111,2,70,2|2|8,0:0|0:0|0:0,0:0:0:0:
307,217,121824,1,0,0:0:0:0:
307,217,121985,2,0,P|343:206|390:196,1,70
456,159,122308,2,0,P|458:116|453:83,1,70
374,67,122630,6,0,P|318:73|301:132,1,112
274,195,123114,1,0,0:0:0:0:
195,189,123275,2,0,P|165:185|63:179,1,112,0|0,0:0|0:0,0:0:0:0:
17,222,123759,1,8,0:0:0:0:
17,222,123840,1,8,0:0:0:0:
17,222,123920,6,0,B|4:285|18:317|18:317|92:336,1,140,2|0,0:0|0:0,0:0:0:0:
94,251,124404,1,2,0:0:0:0:
95,167,124566,2,0,B|107:103|93:71|93:71|51:60,1,140,8|0,0:0|0:0,0:0:0:0:
6,130,125049,1,0,0:0:0:0:
6,130,125211,6,0,P|74:118|166:112,2,140,2|0|8,0:0|0:0|0:0,0:0:0:0:
29,211,126017,2,0,L|52:291,1,70,2|8,0:0|0:0,0:0:0:0:
11,354,126340,1,8,0:0:0:0:
94,350,126501,6,0,P|132:344|184:339,2,70,6|2|8,0:0|0:0|0:0,0:0:0:0:
258,368,126985,1,0,0:0:0:0:
258,368,127146,2,0,P|261:306|206:255,1,140,0|0,0:0|0:0,0:0:0:0:
123,263,127630,1,0,0:0:0:0:
72,193,127791,6,0,P|77:152|77:81,1,112,0|0,0:0|0:0,0:0:0:0:
133,25,128275,1,0,0:0:0:0:
197,70,128437,2,0,P|269:79|297:41,1,112,0|0,0:0|0:0,0:0:0:0:
366,30,128920,1,8,0:0:0:0:
366,30,129001,1,8,0:0:0:0:
366,30,129082,6,0,B|426:26|463:56|463:56|449:104,1,140,4|0,0:0|0:0,0:0:0:0:
407,162,129566,1,2,0:0:0:0:
407,162,129727,2,0,P|418:248|431:305,1,140,8|0,0:0|0:0,0:0:0:0:
355,339,130211,1,8,0:0:0:0:
355,339,130291,1,8,0:0:0:0:
355,339,130372,6,0,P|323:310|270:311,1,70,2|8,0:0|0:0,0:0:0:0:
143,360,130695,2,0,P|177:357|211:349,1,70,2|8,0:0|0:0,0:0:0:0:
219,338,130937,1,8,0:0:0:0:
219,338,131017,2,0,L|206:257,1,70,8|8,0:0|0:0,0:0:0:0:
175,191,131340,1,8,0:0:0:0:
92,283,131501,1,8,0:0:0:0:
111,100,131662,5,0,0:0:0:0:
307,230,132953,5,0,0:0:0:0:
428,189,134243,6,0,P|434:104|451:34,2,140,4|8|2,0:0|0:0|0:0,0:0:0:0:
456,267,135049,1,2,0:0:0:0:
389,318,135211,2,0,P|326:302|280:298,1,105,8|0,0:0|0:0,0:0:0:0:
261,311,135533,6,0,P|274:273|284:235,1,70,2|2,0:0|0:0,0:0:0:0:
226,180,135856,2,0,P|214:146|205:113,1,70,8|0,0:0|0:0,0:0:0:0:
246,39,136179,1,2,0:0:0:0:
205,113,136340,1,2,0:0:0:0:
131,72,136501,2,0,P|93:73|64:104,1,70,8|0,0:0|0:0,0:0:0:0:
68,177,136824,6,0,P|62:243|50:347,1,140,2|8,0:0|0:0,0:0:0:0:
135,336,137308,1,0,0:0:0:0:
135,336,137469,2,0,P|177:334|223:328,1,70,2|2,0:0|0:0,0:0:0:0:
275,285,137791,2,0,P|300:300|339:332,1,70,8|0,0:0|0:0,0:0:0:0:
415,312,138114,6,0,P|421:272|434:234,1,70,2|2,0:0|0:0,0:0:0:0:
324,139,138437,2,0,P|341:170|356:202,1,70,8|2,0:0|0:0,0:0:0:0:
295,259,138759,2,0,L|207:245,1,70,2|8,0:0|0:0,0:0:0:0:
205,238,139001,1,8,0:0:0:0:
205,238,139082,2,0,L|211:202,3,35,8|8|8|8,0:0|0:0|0:0|0:0,0:0:0:0:
200,178,139404,6,0,P|187:89|170:25,1,140,2|8,0:0|0:0,0:0:0:0:
99,79,139888,1,0,0:0:0:0:
174,40,140049,2,0,P|212:30|255:27,1,70,2|2,0:0|0:0,0:0:0:0:
325,43,140372,2,0,P|316:71|306:125,1,70,8|0,0:0|0:0,0:0:0:0:
370,166,140695,6,0,P|388:234|325:258,1,140,2|8,0:0|0:0,0:0:0:0:
262,222,141179,1,0,0:0:0:0:
204,283,141340,1,2,0:0:0:0:
127,249,141501,1,8,0:0:0:0:
127,249,141582,1,8,0:0:0:0:
127,249,141662,2,0,L|90:252,3,35,8|8|8|8,0:0|0:0|0:0|0:0,0:0:0:0:
60,280,141985,6,0,B|79:194|79:194|12:193,1,140,12|2,0:0|0:0,0:0:0:0:
59,115,142469,2,0,P|149:112|211:115,1,140,12|2,0:0|0:0,0:0:0:0:
247,183,142953,2,0,P|285:117|239:47,1,140,12|2,0:0|0:0,0:0:0:0:
341,35,143437,5,8,0:0:0:0:
341,35,143517,1,8,0:0:0:0:
341,35,143598,2,0,L|375:62,3,35,8|8|8|8,0:0|0:0|0:0|0:0,0:0:0:0:
406,75,143920,2,0,L|403:135,3,35,8|8|8|8,0:0|0:0|0:0|0:0,0:0:0:0:
421,148,144243,2,0,L|404:194,3,35,8|8|8|8,0:0|0:0|0:0|0:0,0:0:0:0:
414,223,144566,6,0,P|343:211|267:201,1,140,4|8,0:0|0:0,0:0:0:0:
194,229,145049,1,0,0:0:0:0:
135,289,145211,2,0,P|127:307|119:357,1,70,2|2,0:0|0:0,0:0:0:0:
194,229,145533,2,0,P|183:178|168:138,1,70,8|0,0:0|0:0,0:0:0:0:
188,77,145856,6,0,P|242:44|323:89,1,140,2|8,0:0|0:0,0:0:0:0:
335,149,146340,1,0,0:0:0:0:
335,149,146501,2,0,P|321:183|312:227,1,70,2|0,0:0|0:0,0:0:0:0:
386,257,146824,2,0,P|396:294|402:330,1,70,8|0,0:0|0:0,0:0:0:0:
324,358,147146,6,0,P|284:353|241:355,1,70,2|2,0:0|0:0,0:0:0:0:
169,357,147469,1,8,0:0:0:0:
169,357,147630,2,0,P|150:313|155:280,1,70,0|2,0:0|0:0,0:0:0:0:
213,235,147953,1,2,0:0:0:0:
213,235,148114,2,0,P|223:199|227:166,1,70,8|0,0:0|0:0,0:0:0:0:
261,91,148437,6,0,P|290:84|329:101,1,70,2|2,0:0|0:0,0:0:0:0:
381,197,148759,2,0,P|352:204|313:187,1,70,8|0,0:0|0:0,0:0:0:0:
326,98,149082,2,0,P|330:61|336:28,1,70,2|8,0:0|0:0,0:0:0:0:
378,23,149324,1,8,0:0:0:0:
378,23,149404,2,0,L|432:26,3,35,8|8|8|8,0:0|0:0|0:0|0:0,0:0:0:0:
450,44,149727,6,0,P|435:122|434:144,1,70,4|2,0:0|0:0,0:0:0:0:
414,193,150049,2,0,L|446:269,1,70,8|0,0:0|0:0,0:0:0:0:
392,326,150372,2,0,P|354:313|298:300,1,70,2|2,0:0|0:0,0:0:0:0:
242,319,150695,2,0,P|239:284|266:242,1,70,8|0,0:0|0:0,0:0:0:0:
315,196,151017,6,0,P|326:142|261:100,1,140,2|8,0:0|0:0,0:0:0:0:
178,98,151501,1,0,0:0:0:0:
156,178,151662,2,0,P|197:177|239:170,1,70,2|8,0:0|0:0,0:0:0:0:
178,98,151985,2,0,P|143:93|108:92,1,70,8|4,0:0|0:3,0:0:0:0:
67,166,152308,6,0,P|82:223|95:305,1,140,4|0,0:0|0:0,0:0:0:0:
165,348,152791,2,0,P|253:337|262:296,1,140,4|0,0:0|0:0,0:0:0:0:
338,263,153275,2,0,B|328:207|330:166|330:166|395:197,1,140,4|2,0:0|0:0,0:0:0:0:
450,162,153759,5,8,0:0:0:0:
450,162,153840,1,8,0:0:0:0:
450,162,153920,2,0,L|458:126,3,35,8|8|8|8,0:0|0:0|0:0|0:0,0:0:0:0:
451,85,154243,2,0,L|440:37,3,35,8|8|8|8,0:0|0:0|0:0|0:0,0:0:0:0:
408,26,154566,2,0,L|349:39,3,35,8|8|8|8,0:0|0:0|0:0|0:0,0:0:0:0:
336,40,154888,6,0,P|281:31|203:22,1,125.999996154785,4|0,0:0|0:0,0:0:0:0:
123,36,155372,1,2,0:0:0:0:
123,36,155533,2,0,P|74:56|56:137,1,125.999996154785,8|2,0:0|0:0,0:0:0:0:
103,193,156017,1,0,0:0:0:0:
179,149,156179,5,2,0:0:0:0:
241,210,156340,2,0,P|289:197|317:196,1,62.9999980773926,8|0,0:0|0:0,0:0:0:0:
386,170,156662,1,2,0:0:0:0:
386,170,156824,2,0,P|393:202|371:252,1,62.9999980773926,8|0,0:0|0:0,0:0:0:0:
301,110,157146,2,0,P|309:79|321:50,1,62.9999980773926
406,71,157469,6,0,P|472:134|469:183,1,125.999996154785,2|0,0:0|0:0,0:0:0:0:
446,248,157953,2,0,P|406:235|360:226,1,62.9999980773926,2|8,0:0|0:0,0:0:0:0:
299,209,158275,1,0,0:0:0:0:
251,299,158437,2,0,P|282:300|313:297,1,62.9999980773926,0|8,0:0|0:0,0:0:0:0:
336,295,158679,1,0,0:0:0:0:
336,295,158759,6,0,P|332:326|326:357,1,62.9999980773926,2|8,0:0|0:0,0:0:0:0:
413,339,159082,2,0,P|416:307|423:276,1,62.9999980773926,0|2,0:0|0:0,0:0:0:0:
455,194,159404,2,0,P|484:193|520:204,2,62.9999980773926,8|0|0,0:0|0:0|0:0,0:0:0:0:
395,129,159888,1,8,0:0:0:0:
395,129,159969,1,8,0:0:0:0:
395,129,160049,6,0,P|331:118|306:191,1,125.999996154785,2|0,0:0|0:0,0:0:0:0:
277,249,160533,1,2,0:0:0:0:
190,269,160695,2,0,B|147:250|110:242|110:242|119:200,1,125.999996154785,8|0,0:0|0:0,0:0:0:0:
205,181,161179,1,0,0:0:0:0:
277,249,161340,5,2,0:0:0:0:
277,249,161501,2,0,B|319:267|356:275|356:275|347:317,1,125.999996154785,8|2,0:0|0:0,0:0:0:0:
426,358,161985,2,0,P|435:328|450:299,1,62.9999980773926,8|0,0:0|0:0,0:0:0:0:
466,285,162227,1,0,0:0:0:0:
479,267,162308,2,0,P|469:237|454:208,1,62.9999980773926
381,159,162630,6,0,B|342:143|342:143|310:159|310:159|258:140,1,125.999996154785,6|0,0:0|0:0,0:0:0:0:
190,94,163114,2,0,P|119:105|100:171,1,125.999996154785,6|0,0:0|0:0,0:0:0:0:
107,237,163598,1,6,0:0:0:0:
130,61,164566,6,0,L|145:129,1,48.9999985046387,0|0,0:0|0:0,0:0:0:0:
91,175,164888,2,0,L|70:236,1,48.9999985046387,0|0,0:0|0:0,0:0:0:0:
125,288,165211,6,0,L|245:272,1,97.9999970092774,2|0,0:0|0:0,0:0:0:0:
303,295,165695,1,0,0:0:0:0:
303,295,165856,2,0,P|303:256|309:197,1,97.9999970092774,8|0,0:0|0:0,0:0:0:0:
373,143,166340,1,0,0:0:0:0:
330,71,166501,6,0,P|302:65|261:75,1,48.9999985046387,2|0,0:0|0:0,0:0:0:0:
206,102,166824,2,0,P|178:108|137:98,1,48.9999985046387,0|0,0:0|0:0,0:0:0:0:
76,91,167146,2,0,L|52:158,1,48.9999985046387,8|0,0:0|0:0,0:0:0:0:
93,213,167469,2,0,L|96:272,1,48.9999985046387,0|0,0:0|0:0,0:0:0:0:
102,344,167791,6,0,P|148:334|220:326,1,97.9999970092774,2|0,0:0|0:0,0:0:0:0:
281,321,168275,1,0,0:0:0:0:
281,321,168437,2,0,P|291:267|257:224,1,97.9999970092774,8|0,0:0|0:0,0:0:0:0:
199,187,168920,1,0,0:0:0:0:
163,109,169082,6,0,P|164:75|165:60,1,48.9999985046387,2|0,0:0|0:0,0:0:0:0:
245,34,169404,2,0,P|247:58|247:82,1,48.9999985046387,0|0,0:0|0:0,0:0:0:0:
317,128,169727,2,0,L|377:105,1,48.9999985046387,8|0,0:0|0:0,0:0:0:0:
424,166,170049,2,0,L|381:190,1,48.9999985046387,0|0,0:0|0:0,0:0:0:0:
315,241,170372,6,0,P|310:297|312:360,1,97.9999970092774,2|0,0:0|0:0,0:0:0:0:
229,359,170856,1,0,0:0:0:0:
180,291,171017,2,0,P|139:284|87:323,1,97.9999970092774,8|0,0:0|0:0,0:0:0:0:
42,245,171501,1,0,0:0:0:0:
42,245,171662,6,0,L|23:199,1,48.9999985046387,2|0,0:0|0:0,0:0:0:0:
88,146,171985,2,0,L|99:98,1,48.9999985046387,0|0,0:0|0:0,0:0:0:0:
181,92,172308,2,0,L|250:78,1,48.9999985046387,8|0,0:0|0:0,0:0:0:0:
307,112,172630,2,0,L|347:152,1,48.9999985046387,0|0,0:0|0:0,0:0:0:0:
420,173,172953,6,0,P|400:205|371:257,1,97.9999970092774,2|0,0:0|0:0,0:0:0:0:
371,341,173437,1,0,0:0:0:0:
287,341,173598,2,0,L|189:329,1,97.9999970092774,8|0,0:0|0:0,0:0:0:0:
109,308,174082,1,0,0:0:0:0:
109,308,174243,6,0,P|105:294|111:259,1,48.9999985046387,2|8,0:0|0:0,0:0:0:0:
168,200,174566,2,0,L|162:151,1,48.9999985046387,0|0,0:0|0:0,0:0:0:0:
239,117,174888,2,0,L|249:180,1,48.9999985046387,0|0,0:0|0:0,0:0:0:0:
302,227,175211,2,0,P|328:221|359:219,1,48.9999985046387,0|0,0:0|0:0,0:0:0:0:
428,249,175533,6,0,P|436:200|410:152,1,97.9999970092774,6|0,0:0|0:0,0:0:0:0:
338,124,176017,1,0,0:0:0:0:
258,150,176179,2,0,P|219:142|146:133,1,97.9999970092774,8|0,0:0|0:0,0:0:0:0:
81,156,176662,1,0,0:0:0:0:
81,156,176824,6,0,L|89:216,1,48.9999985046387,2|0,0:0|0:0,0:0:0:0:
103,286,177146,2,0,P|55:296|7:308,2,97.9999970092774,0|8|0,0:0|0:0|0:0,0:0:0:0:
174,329,177953,1,0,0:0:0:0:
174,329,178033,1,0,0:0:0:0:
174,329,178114,6,0,P|215:333|286:334,2,97.9999970092774,2|0|8,0:0|0:0|0:0,0:0:0:0:
179,246,178920,1,0,0:0:0:0:
179,246,179082,2,0,P|187:214|194:178,1,48.9999985046387,0|0,0:0|0:0,0:0:0:0:
152,124,179404,5,2,0:0:0:0:
152,124,179566,1,8,0:0:0:0:
195,53,179727,2,0,P|245:27|296:51,1,97.9999970092774,0|8,0:0|0:0,0:0:0:0:
353,83,180211,1,8,0:0:0:0:
353,83,180291,1,8,0:0:0:0:
353,83,180372,2,0,L|366:128,3,24.4999992523194,8|8|8|8,0:0|0:0|0:0|0:0,0:0:0:0:
371,137,180695,6,0,L|347:216,1,70,4|2,0:0|0:0,0:0:0:0:
313,279,181017,2,0,P|262:270|218:267,1,70,8|0,0:0|0:0,0:0:0:0:
219,348,181340,2,0,P|178:346|132:341,1,70,2|2,0:0|0:0,0:0:0:0:
83,291,181662,2,0,P|62:318|53:352,1,70,8|0,0:0|0:0,0:0:0:0:
164,262,181985,6,0,P|159:184|149:89,1,140,2|8,0:0|0:0,0:0:0:0:
138,39,182469,1,0,0:0:0:0:
3,110,182630,2,0,P|39:102|83:96,1,70,2|0,0:0|0:0,0:0:0:0:
153,122,182953,2,0,P|195:129|222:132,1,70,8|0,0:0|0:0,0:0:0:0:
297,94,183275,6,0,P|344:141|320:224,2,140,2|8|2,0:0|0:0|0:0,0:0:0:0:
222,53,184082,1,2,0:0:0:0:
154,103,184243,2,0,P|157:143|165:192,1,70,8|0,0:0|0:0,0:0:0:0:
245,181,184566,6,0,P|169:197|102:217,1,140,2|8,0:0|0:0,0:0:0:0:
33,250,185049,1,0,0:0:0:0:
63,328,185211,1,2,0:0:0:0:
142,291,185372,1,8,0:0:0:0:
142,291,185453,1,8,0:0:0:0:
142,291,185533,2,0,L|148:346,3,35,8|8|8|8,0:0|0:0|0:0|0:0,0:0:0:0:
142,356,185856,6,0,P|217:332|291:313,2,140,0|8|2,0:0|0:0|0:0,0:0:0:0:
59,370,186662,1,2,0:0:0:0:
14,298,186824,2,0,P|8:268|21:224,1,70,8|0,0:0|0:0,0:0:0:0:
95,189,187146,6,0,B|87:181|93:139|86:78|86:78|40:95,1,140,4|8,0:0|0:0,0:0:0:0:
95,189,187630,2,0,P|134:180|170:178,1,70,0|2,0:0|0:0,0:0:0:0:
228,232,187953,2,0,L|224:283,2,35
294,181,188275,1,0,0:0:0:0:
294,181,188356,1,0,0:0:0:0:
294,181,188437,6,0,P|353:181|365:257,1,140,8|2,0:0|0:0,0:0:0:0:
367,334,188920,2,0,P|287:317|219:303,1,140,8|2,0:0|0:0,0:0:0:0:
156,264,189404,2,0,P|123:303|129:354,1,105,8|0,0:0|0:0,0:0:0:0:
101,373,189727,6,0,P|93:339|62:280,1,70,2|0,0:0|0:0,0:0:0:0:
62,292,189969,1,0,0:0:0:0:
62,292,190049,1,8,0:0:0:0:
42,209,190211,1,0,0:0:0:0:
42,209,190291,1,8,0:0:0:0:
42,209,190372,2,0,L|64:151,3,35,8|8|8|8,0:0|0:0|0:0|0:0,0:0:0:0:
66,135,190695,2,0,L|51:103,3,35,8|8|8|8,0:0|0:0|0:0|0:0,0:0:0:0:
19,75,191017,6,0,P|110:60|156:50,1,140,4|10,0:0|0:0,0:0:0:0:
240,63,191501,2,0,P|229:94|222:140,1,70,2|0,0:0|0:0,0:0:0:0:
281,190,191824,1,0,0:0:0:0:
281,190,191985,2,0,P|313:176|347:167,1,70,10|2,0:0|0:0,0:0:0:0:
408,109,192308,5,0,0:0:0:0:
452,182,192469,1,0,0:0:0:0:
452,182,192630,2,0,L|434:254,1,70,8|0,0:0|0:0,0:0:0:0:
365,321,192953,1,2,0:0:0:0:
449,332,193114,1,2,0:0:0:0:
365,321,193275,2,0,P|329:325|296:332,1,70,8|0,0:0|0:0,0:0:0:0:
280,344,193517,1,0,0:0:0:0:
280,344,193598,6,0,P|292:259|291:195,1,140,2|8,0:0|0:0,0:0:0:0:
249,132,194082,2,0,P|159:125|143:190,1,140,2|0,0:0|0:0,0:0:0:0:
156,242,194566,2,0,P|130:238|86:237,1,70,10|0,0:0|0:0,0:0:0:0:
97,320,194888,6,0,P|136:318|191:313,1,70,0|0,0:0|0:0,0:0:0:0:
244,282,195211,2,0,P|297:297|317:324,1,70,8|2,0:0|0:0,0:0:0:0:
317,323,195453,1,0,0:0:0:0:
317,323,195533,1,2,0:0:0:0:
401,329,195695,2,0,L|400:385,2,35,0|0|8,0:0|0:0|0:0,0:0:0:0:
445,258,196017,1,0,0:0:0:0:
445,258,196098,1,0,0:0:0:0:
445,258,196179,6,0,P|441:200|430:118,1,140,2|8,0:0|0:0,0:0:0:0:
449,37,196662,1,0,0:0:0:0:
415,114,196824,2,0,L|346:100,1,70,2|2,0:0|0:0,0:0:0:0:
264,118,197146,2,0,L|278:192,1,70,8|0,0:0|0:0,0:0:0:0:
274,36,197469,6,0,P|200:55|182:127,1,140,2|8,0:0|0:0,0:0:0:0:
198,191,197953,1,0,0:0:0:0:
125,232,198114,2,0,L|90:225,3,35,2|0|8|8,0:0|0:0|0:0|0:0,0:0:0:0:
65,190,198437,2,0,L|14:222,3,35,8|8|8|8,0:0|0:0|0:0|0:0,0:0:0:0:
0,186,198759,6,0,P|23:261|30:322,1,140,4|0,0:0|0:0,0:0:0:0:
99,369,199243,2,0,B|146:350|193:355|193:355|211:300,1,140,4|0,0:0|0:0,0:0:0:0:
236,234,199727,2,0,P|297:213|348:242,1,105,4|0,0:0|0:0,0:0:0:0:
349,253,200049,6,0,P|352:227|361:184,1,70,8|8,0:0|0:0,0:0:0:0:
373,175,200291,1,8,0:0:0:0:
386,170,200372,2,0,L|423:173,3,35,8|8|8|8,0:0|0:0|0:0|0:0,0:0:0:0:
462,162,200695,2,0,L|492:144,3,35,8|8|8|8,0:0|0:0|0:0|0:0,0:0:0:0:
512,119,201017,2,0,P|508:93|495:45,1,70,2|0,0:0|0:0,0:0:0:0:
414,35,201340,6,0,P|379:29|344:27,2,70,4|2|8,0:0|0:0|0:0,0:0:0:0:
390,115,201824,1,0,0:0:0:0:
390,115,201985,2,0,P|334:120|276:129,1,112,0|0,0:0|0:0,0:0:0:0:
201,116,202469,1,0,0:0:0:0:
174,189,202630,6,0,P|170:253|159:320,1,112,0|0,0:0|0:0,0:0:0:0:
90,331,203114,1,0,0:0:0:0:
162,300,203275,2,0,P|221:262|273:294,1,112,0|0,0:0|0:0,0:0:0:0:
317,322,203759,1,8,0:0:0:0:
317,322,203840,1,8,0:0:0:0:
317,322,203920,6,0,B|371:309|409:324|409:324|401:265,1,140,2|0,0:0|0:0,0:0:0:0:
440,203,204404,1,2,0:0:0:0:
379,143,204566,2,0,P|360:114|357:76,1,70,8|0,0:0|0:0,0:0:0:0:
296,21,204888,2,0,P|257:28|209:43,1,70,0|0,0:0|0:0,0:0:0:0:
214,48,205130,1,0,0:0:0:0:
214,48,205211,6,0,B|191:147|191:147|142:116,1,140,2|0,0:0|0:0,0:0:0:0:
91,77,205695,1,2,0:0:0:0:
20,121,205856,2,0,P|14:150|13:202,1,70,8|0,0:0|0:0,0:0:0:0:
81,238,206179,2,0,P|87:270|87:323,1,70,0|8,0:0|0:0,0:0:0:0:
76,323,206420,1,0,0:0:0:0:
76,323,206501,6,0,P|117:308|145:302,2,70,2|2|8,0:0|0:0|0:0,0:0:0:0:
6,275,206985,1,0,0:0:0:0:
81,238,207146,2,0,P|94:167|108:108,1,112,0|0,0:0|0:0,0:0:0:0:
158,72,207630,1,0,0:0:0:0:
158,72,207791,6,0,B|206:64|206:64|229:81|229:81|285:73,1,112,0|0,0:0|0:0,0:0:0:0:
340,59,208275,1,0,0:0:0:0:
406,101,208437,2,0,P|396:161|391:221,1,112,8|0,0:0|0:0,0:0:0:0:
427,286,208920,1,8,0:0:0:0:
427,286,209001,1,8,0:0:0:0:
427,286,209082,6,0,P|373:294|315:206,1,140,2|0,0:0|0:0,0:0:0:0:
250,178,209566,1,2,0:0:0:0:
250,178,209727,2,0,P|217:170|163:164,1,70,8|0,0:0|0:0,0:0:0:0:
117,219,210049,2,0,P|125:264|129:300,1,70,0|0,0:0|0:0,0:0:0:0:
114,298,210291,1,0,0:0:0:0:
114,298,210372,6,0,L|18:278,1,70,2|8,0:0|0:0,0:0:0:0:
42,199,210695,1,2,0:0:0:0:
89,129,210856,1,8,0:0:0:0:
89,129,210937,1,8,0:0:0:0:
89,129,211017,2,0,P|92:93|89:50,1,70,8|0,0:0|0:0,0:0:0:0:
171,36,211340,1,0,0:0:0:0:
243,123,211501,1,8,0:0:0:0:
71,156,211662,5,0,0:0:0:0:
66,93,212953,6,0,L|127:104,1,56,0|0,0:0|0:0,0:0:0:0:
187,144,213275,2,0,P|174:176|160:222,1,56,0|0,0:0|0:0,0:0:0:0:
224,250,213598,2,0,P|280:237|334:228,1,112,0|0,0:0|0:0,0:0:0:0:
490,238,214243,5,2,0:0:0:0:
214,87,214888,1,0,0:0:0:0:
214,87,215533,2,0,P|160:125|172:184,1,112,2|0,0:0|0:0,0:0:0:0:
224,212,216017,1,0,0:0:0:0:
302,203,216179,2,0,P|349:184|419:171,1,112,2|0,0:0|0:0,0:0:0:0:
407,328,216824,5,2,0:0:0:0:
289,192,218114,2,0,P|294:246|296:320,1,112,2|0,0:0|0:0,0:0:0:0:
156,231,218759,2,0,P|157:175|163:119,1,112,2|0,0:0|0:0,0:0:0:0:
315,80,219404,6,0,P|321:50|322:31,2,48.9999985046387,2|0|0,0:0|0:0|0:0,0:0:0:0:
294,175,219888,1,0,0:0:0:0:
294,175,220049,2,0,P|356:164|401:160,1,97.9999970092774,0|0,0:0|0:0,0:0:0:0:
360,67,220533,1,0,0:0:0:0:
281,76,220695,6,0,P|235:88|207:164,1,112,2|0,0:0|0:0,0:0:0:0:
262,206,221179,6,0,B|258:257|258:257|227:290|227:290|222:355,1,157.5,0|0,0:0|0:0,0:0:0:0:
219,369,221985,6,0,P|260:356|300:356,1,70,12|0,0:0|0:0,0:0:0:0:
370,362,222308,1,2,0:0:0:0:
398,282,222469,2,0,P|413:213|440:124,1,140,8|2,0:0|0:0,0:0:0:0:
476,74,222953,2,0,P|438:63|385:89,1,70,8|0,0:0|0:0,0:0:0:0:
343,122,223275,5,2,0:0:0:0:
343,122,223437,2,0,P|304:116|274:116,2,70,8|8|8,0:0|0:0|0:0,0:0:0:0:
406,176,223920,1,8,0:0:0:0:
406,176,224243,6,0,P|393:243|383:337,1,125.999996154785
390,318,224566,6,0,B|316:274|316:274|287:297|289:337,1,140,4|8,0:0|0:0,0:0:0:0:
212,352,225049,1,0,0:0:0:0:
212,352,225211,2,0,P|197:261|185:213,1,140,2|8,0:0|0:0,0:0:0:0:
167,132,225695,1,0,0:0:0:0:
185,214,225856,6,0,P|218:204|284:194,1,70,2|0,0:0|0:0,0:0:0:0:
292,270,226179,2,0,P|325:235|330:182,1,70,8|0,0:0|0:0,0:0:0:0:
310,133,226501,2,0,P|268:107|216:114,1,70,2|2,0:0|0:0,0:0:0:0:
167,132,226824,2,0,P|154:97|145:42,1,70,8|0,0:0|0:0,0:0:0:0:
168,150,227146,6,0,P|165:227|157:303,1,140,2|8,0:0|0:0,0:0:0:0:
150,370,227630,2,0,P|213:366|243:289,1,140,0|0,0:0|0:0,0:0:0:0:
284,228,228114,2,0,P|279:183|280:145,1,70,8|0,0:0|0:0,0:0:0:0:
346,108,228437,6,0,L|444:95,1,70,2|2,0:0|0:0,0:0:0:0:
461,169,228759,2,0,L|439:259,1,70,8|2,0:0|0:0,0:0:0:0:
406,311,229082,2,0,P|367:298|328:298,1,70,8|8,0:0|0:0,0:0:0:0:
328,311,229324,1,8,0:0:0:0:
328,311,229404,2,0,L|316:351,3,35,8|8|8|8,0:0|0:0|0:0|0:0,0:0:0:0:
292,372,229727,6,0,L|215:352,1,70,2|0,0:0|0:0,0:0:0:0:
197,274,230049,2,0,L|127:293,1,70,8|0,0:0|0:0,0:0:0:0:
51,261,230372,2,0,P|49:208|70:173,1,70,2|2,0:0|0:0,0:0:0:0:
138,187,230695,2,0,P|177:182|212:175,1,70,8|0,0:0|0:0,0:0:0:0:
270,120,231017,6,0,P|345:130|347:205,1,140,2|8,0:0|0:0,0:0:0:0:
356,268,231501,1,0,0:0:0:0:
356,268,231662,2,0,P|390:259|435:251,1,70,2|8,0:0|0:0,0:0:0:0:
438,253,231904,1,8,0:0:0:0:
449,257,231985,2,0,L|471:289,3,35,8|8|8|8,0:0|0:0|0:0|0:0,0:0:0:0:
481,300,232308,6,0,P|462:229|453:160,1,140,4|2,0:0|0:0,0:0:0:0:
369,152,232791,2,0,B|316:134|275:129|275:129|310:68,1,140,4|2,0:0|0:0,0:0:0:0:
310,8,233275,2,0,B|362:25|403:30|403:30|381:68,1,140,4|8,0:0|0:0,0:0:0:0:
297,91,233759,5,8,0:0:0:0:
297,91,233840,1,8,0:0:0:0:
297,91,233920,2,0,L|238:83,3,35,8|8|8|8,0:0|0:0|0:0|0:0,0:0:0:0:
220,88,234243,2,0,L|170:116,3,35,8|8|8|8,0:0|0:0|0:0|0:0,0:0:0:0:
146,105,234566,2,0,L|99:88,3,35,8|8|8|8,0:0|0:0|0:0|0:0,0:0:0:0:
82,63,234888,6,0,P|106:148|122:227,2,140,4|8|2,0:0|0:0|0:0,0:0:0:0:
11,108,235695,1,2,0:0:0:0:
11,108,235856,2,0,P|3:142|2:177,1,70,8|0,0:0|0:0,0:0:0:0:
12,260,236179,6,0,P|87:240|150:227,1,140,2|8,0:0|0:0,0:0:0:0:
228,252,236662,1,0,0:0:0:0:
228,252,236824,2,0,P|230:210|211:167,1,70,2|0,0:0|0:0,0:0:0:0:
148,227,237146,2,0,P|143:261|152:295,1,70,8|0,0:0|0:0,0:0:0:0:
217,349,237469,6,0,B|278:355|308:340|308:340|327:284,1,140,2|8,0:0|0:0,0:0:0:0:
315,211,237953,1,0,0:0:0:0:
361,140,238114,2,0,P|395:131|454:124,1,70,2|2,0:0|0:0,0:0:0:0:
396,48,238437,2,0,P|362:39|303:32,1,70,8|0,0:0|0:0,0:0:0:0:
266,90,238759,6,0,P|271:159|271:229,2,140,2|8|8,0:0|0:0|0:0,0:0:0:0:
194,45,239566,1,8,0:0:0:0:
194,45,239646,1,8,0:0:0:0:
194,45,239727,2,0,L|159:40,3,35,8|8|8|8,0:0|0:0|0:0|0:0,0:0:0:0:
136,33,240049,6,0,P|131:60|122:101,1,70,4|0,0:0|0:0,0:0:0:0:
55,152,240372,2,0,P|22:179|18:215,1,70,8|0,0:0|0:0,0:0:0:0:
60,275,240695,2,0,P|129:284|197:298,1,140,2|8,0:0|0:0,0:0:0:0:
282,292,241179,1,0,0:0:0:0:
282,292,241340,6,0,P|274:257|249:229,1,70,2|0,0:0|0:0,0:0:0:0:
174,201,241662,1,8,0:0:0:0:
174,201,241824,2,0,P|176:166|187:132,1,70,0|0,0:0|0:0,0:0:0:0:
261,91,242146,1,0,0:0:0:0:
261,91,242227,1,0,0:0:0:0:
261,91,242308,2,0,P|269:124|275:159,1,70,0|4,0:0|0:3,0:0:0:0:
296,241,242630,6,0,P|364:221|438:206,1,140,4|0,0:0|0:0,0:0:0:0:
481,139,243114,2,0,P|473:81|390:65,1,140,4|0,0:0|0:0,0:0:0:0:
330,102,243598,2,0,B|246:88,1,70,4|0,0:0|0:0,0:0:0:0:
180,56,243920,6,0,P|172:34|154:0,2,46.6666666666667,8|8|8,0:0|0:0|0:0,0:0:0:0:
130,81,244243,2,0,P|108:65|71:41,2,46.6666666666667,8|8|8,0:0|0:0|0:0,0:0:0:0:
110,133,244566,2,0,P|86:138|29:149,2,46.6666666666667,8|8|8,0:0|0:0|0:0,0:0:0:0:
126,186,244888,2,0,P|118:209|98:263,2,46.6666666666667,8|8|8,0:0|0:0|0:0,0:0:0:0:
176,192,245211,6,0,P|246:168|323:150,1,125.999996154785,4|0,0:0|0:0,0:0:0:0:
378,146,245695,1,0,0:0:0:0:
419,216,245856,2,0,P|401:270|387:367,1,125.999996154785,8|0,0:0|0:0,0:0:0:0:
308,356,246340,1,0,0:3:0:0:
238,314,246501,5,0,0:0:0:0:
238,314,246662,2,0,P|174:305|164:377,1,125.999996154785,8|2,0:0|0:0,0:0:0:0:
87,303,247146,2,0,P|78:265|72:217,1,62.9999980773926,8|0,0:0|0:0,0:0:0:0:
150,211,247469,2,0,P|159:173|165:125,1,62.9999980773926
230,104,247791,6,0,B|282:93|317:90|317:90|319:151,1,125.999996154785,2|0,0:0|0:0,0:0:0:0:
270,195,248275,2,0,P|261:225|260:256,1,62.9999980773926,2|8,0:0|0:0,0:0:0:0:
326,306,248598,1,0,0:0:0:0:
326,306,248759,2,0,P|361:302|410:289,1,62.9999980773926,0|0,0:0|0:0,0:0:0:0:
410,283,249001,1,0,0:0:0:0:
410,283,249082,6,0,P|415:243|415:201,1,62.9999980773926,2|8,0:0|0:0,0:0:0:0:
371,151,249404,2,0,P|380:118|394:92,1,62.9999980773926,2|2,0:3|0:0,0:0:0:0:
393,11,249727,2,0,P|426:14|455:18,2,62.9999980773926,8|0|0,0:0|0:0|0:0,0:0:0:0:
317,42,250211,1,0,0:0:0:0:
317,42,250291,1,0,0:0:0:0:
317,42,250372,6,0,B|267:41|234:30|234:30|204:92,1,125.999996154785,4|0,0:0|0:0,0:0:0:0:
238,146,250856,1,2,0:0:0:0:
238,146,251017,2,0,P|256:210|265:268,1,125.999996154785,8|0,0:0|0:0,0:0:0:0:
246,348,251501,1,0,0:0:0:0:
326,359,251662,5,2,0:0:0:0:
326,359,251824,2,0,P|359:305|343:221,1,125.999996154785,8|2,0:0|0:0,0:0:0:0:
348,162,252308,2,0,P|378:153|410:149,1,62.9999980773926,8|0,0:0|0:0,0:0:0:0:
428,146,252549,1,0,0:0:0:0:
452,148,252630,2,0,P|441:177|432:208,1,62.9999980773926,0|0,0:0|0:0,0:0:0:0:
356,244,252953,6,0,P|277:229|213:220,1,125.999996154785,4|0,0:0|0:0,0:0:0:0:
151,241,253437,2,0,P|148:178|211:132,1,125.999996154785,4|0,0:0|0:0,0:0:0:0:
272,146,253920,1,4,0:0:0:0:
118,120,254888,6,0,P|121:89|129:58,2,62.9999980773926,0|0|0,0:0|0:0|0:0,0:0:0:0:
145,197,255372,1,0,0:0:0:0:
258,108,258114,6,0,P|270:138|283:193,1,70,8|2,0:0|0:0,0:0:0:0:
220,233,258437,1,2,0:0:0:0:
220,233,258598,2,0,P|289:209|370:193,1,140,8|2,0:0|0:0,0:0:0:0:
435,217,259082,1,8,0:0:0:0:
146,105,259888,6,0,L|152:65,2,35,2|0|12,0:0|0:0|0:0,0:0:0:0:
