osu file format v14

[General]
AudioFilename: audio.mp3
AudioLeadIn: 0
PreviewTime: 46100
Countdown: 0
SampleSet: Soft
StackLeniency: 0.7
Mode: 0
LetterboxInBreaks: 0
WidescreenStoryboard: 1

[Editor]
DistanceSpacing: 0.6
BeatDivisor: 4
GridSize: 16
TimelineZoom: 1.3

[Metadata]
Title:Devi-kyuu (TV Size)
TitleUnicode:デビきゅー (TV Size)
Artist:Serizawa Yu
ArtistUnicode:芹澤 優
Creator:Kuki1537
Version:Insane
Source:魔入りました!入間くん
Tags:Mairimashita! Iruma-kun Welcome to Demon School! devikyuu debi-kyuu debikyuu debi devi kyuu anime japanese ending ed my_angel_ram kowari j-pop jpop j pop Stompy_ female vocalist
BeatmapID:4443911
BeatmapSetID:1347474

[Difficulty]
HPDrainRate:5
CircleSize:3.6
OverallDifficulty:8.4
ApproachRate:9
SliderMultiplier:1.7
SliderTickRate:1

[Events]
//Background and Video events
0,0,"BG.jpg",0,0
Video,270,"edededed.avi"
//Break Periods
//Storyboard Layer 0 (Background)
//Storyboard Layer 1 (Fail)
//Storyboard Layer 2 (Pass)
//Storyboard Layer 3 (Foreground)
//Storyboard Layer 4 (Overlay)
//Storyboard Sound Samples

[TimingPoints]
851,333.333333333333,4,2,22,52,1,0
851,-222.222222222221,4,2,22,52,0,0
3350,-222.222222222221,4,2,22,5,0,0
3517,-100,4,2,22,62,0,0
6434,-100,4,2,22,5,0,0
6517,-142.857142857143,4,2,22,62,0,0
7517,-105.263157894737,4,2,22,72,0,0
12850,-133.333333333333,4,2,22,42,0,0
23517,-111.111111111111,4,2,22,52,0,0
34517,-111.111111111111,4,2,22,62,0,0
34850,-111.111111111111,4,2,22,52,0,0
35184,-111.111111111111,4,2,22,42,0,0
35517,-133.333333333333,4,2,22,42,0,0
38184,-133.333333333333,4,2,22,52,0,0
40184,-100,4,2,22,52,0,0
40851,-100,4,2,22,72,0,0
45100,-100,4,2,22,5,0,0
45184,-100,4,2,22,72,0,0
45434,-100,4,2,22,5,0,0
45517,-100,4,2,22,72,0,0
45767,-100,4,2,22,5,0,0
45850,-100,4,2,22,72,0,0
46184,-100,4,2,22,82,0,0
67517,-100,4,2,22,72,0,0
69517,-100,4,2,22,62,0,0
70517,-100,4,2,22,72,0,0
70850,-111.111111111111,4,2,22,72,0,0
71184,-125,4,2,22,72,0,0
71517,-105.263157894737,4,2,22,72,0,0
76850,-95.2380952380951,4,2,22,82,0,0
82184,-105.263157894737,4,2,22,72,0,0

[Colours]
Combo1 : 182,123,217
Combo2 : 91,204,17
Combo3 : 255,121,205
Combo4 : 107,206,214

[HitObjects]
56,75,851,6,0,P|147:32|139:179,1,305.999990661621,2|2,0:2|1:2,0:2:0:0:
256,192,2267,12,2,3350,0:2:0:0:
448,20,3517,5,6,1:2:0:0:
283,68,3684,1,2,1:2:0:0:
457,28,3850,2,0,L|440:118,1,85,2|0,0:2|0:2,0:2:0:0:
415,284,4184,5,6,1:2:0:0:
356,130,4350,1,2,1:2:0:0:
512,181,4517,2,0,L|429:199,1,85,2|0,0:2|0:2,0:2:0:0:
279,184,4850,5,6,1:2:0:0:
415,284,5017,1,2,1:2:0:0:
207,245,5184,2,0,P|185:193|188:161,1,85,2|0,0:2|0:2,0:2:0:0:
260,52,5517,5,6,1:2:0:0:
97,130,5684,1,2,1:2:0:0:
279,184,5850,2,0,L|362:166,1,85,2|0,0:2|0:2,0:2:0:0:
245,343,6184,6,0,L|113:314,1,127.5,2|0,0:2|0:2,0:2:0:0:
102,311,6517,6,0,P|80:342|-11:352,2,118.999996368408,2|2|2,1:2|1:2|1:2,0:2:0:0:
117,196,7517,6,0,L|99:112,1,80.7499978437424,6|0,1:2|3:2,0:2:0:0:
289,181,7850,2,0,P|249:206|204:205,1,80.7499978437424,10|0,0:2|3:2,0:2:0:0:
300,51,8184,1,2,1:2:0:0:
377,190,8350,1,0,3:2:0:0:
223,117,8517,1,10,0:2:0:0:
386,106,8684,1,0,3:2:0:0:
386,106,8767,1,0,3:2:0:0:
386,106,8850,6,0,L|468:88,1,80.7499978437424,2|0,1:2|3:2,0:2:0:0:
295,225,9184,2,0,L|213:207,1,80.7499978437424,10|0,0:2|3:2,0:2:0:0:
307,329,9517,1,2,1:2:0:0:
385,200,9684,1,0,3:2:0:0:
417,352,9850,2,0,P|459:366|502:361,1,80.7499978437424,10|0,0:2|3:2,0:0:0:0:
483,198,10184,6,0,L|466:282,1,80.7499978437424,2|0,1:2|3:2,0:2:0:0:
319,336,10517,2,0,L|302:252,1,80.7499978437424,10|0,0:2|3:2,0:2:0:0:
341,120,10850,1,2,1:2:0:0:
214,214,11017,1,0,3:2:0:0:
382,200,11184,1,10,0:2:0:0:
248,120,11350,1,0,3:2:0:0:
248,120,11434,1,0,3:2:0:0:
248,120,11517,6,0,L|232:40,1,80.7499978437424,2|0,1:2|3:2,0:2:0:0:
112,199,11850,2,0,L|96:279,1,80.7499978437424,10|0,0:2|3:2,0:2:0:0:
297,194,12184,5,10,0:2:0:0:
109,95,12350,1,10,0:2:0:0:
207,253,12517,1,10,0:2:0:0:
207,253,12600,1,10,0:2:0:0:
207,253,12684,2,0,L|217:196,1,40.3749989218712,10|10,0:2|0:2,0:0:0:0:
297,194,12850,6,0,L|433:164,1,127.500004863739,6|0,1:2|1:2,0:2:0:0:
512,297,13350,2,0,P|482:268|391:268,1,127.500004863739,10|8,0:1|0:1,0:2:0:0:
374,362,13850,2,0,P|407:361|449:337,1,63.7500024318696,2|10,1:2|0:1,0:0:0:0:
313,283,14184,6,0,P|280:284|238:308,2,63.7500024318696,2|10|2,1:2|0:1|1:2,0:0:0:0:
399,263,14684,2,0,L|424:135,1,127.500004863739,10|10,0:1|0:1,0:2:0:0:
440,53,15184,1,2,1:2:0:0:
124,16,15517,6,0,L|139:83,1,63.7500024318696,2|2,1:2|0:2,0:0:0:0:
74,141,15850,1,10,1:1:0:0:
74,141,16017,2,0,P|38:127|6:130,1,63.7500024318696,2|0,0:2|1:2,0:2:0:0:
100,223,16350,2,0,P|136:237|168:234,1,63.7500024318696,2|8,0:2|1:1,0:2:0:0:
231,129,16684,5,2,0:2:0:0:
249,222,16850,1,2,1:2:0:0:
249,222,17017,2,0,L|261:288,1,63.7500024318696,2|8,0:2|1:1,0:2:0:0:
334,352,17350,5,2,0:2:0:0:
352,259,17516,1,2,1:2:0:0:
352,259,17683,2,0,L|364:193,1,63.7500024318696,2|8,0:2|1:1,0:2:0:0:
423,94,18017,5,2,0:2:0:0:
497,154,18184,2,0,P|464:182|367:174,1,127.500004863739,2|8,1:2|1:1,0:2:0:0:
321,108,18684,2,0,P|288:80|191:88,1,127.500004863739,2|2,0:2|0:2,0:2:0:0:
119,62,19184,2,0,L|134:-1,1,63.7500024318696,10|2,1:1|0:2,0:0:0:0:
55,133,19517,6,0,L|-8:148,2,63.7500024318696,2|10|2,1:2|2:1|1:2,0:2:0:0:
144,156,20017,2,0,L|282:189,1,127.500004863739,2|8,0:2|0:1,0:2:0:0:
357,209,20517,1,2,1:2:0:0:
111,384,20850,6,0,P|103:343|105:305,1,63.7500024318696,2|8,1:2|0:1,0:2:0:0:
185,235,21184,2,0,P|192:266|192:297,1,63.7500024318696,2|8,1:2|0:1,0:2:0:0:
349,271,21517,6,0,P|357:230|355:192,1,63.7500024318696,2|8,1:2|0:1,0:2:0:0:
275,122,21851,2,0,P|267:153|267:184,1,63.7500024318696,2|8,1:2|0:1,0:2:0:0:
297,337,22184,6,0,L|448:308,1,127.500004863739,2|2,1:2|1:2,0:2:0:0:
511,285,22684,1,2,0:2:0:0:
441,226,22850,2,0,L|453:175,3,31.8750012159348,2|2|2|2,1:2|0:2|0:2|0:2,0:0:0:0:
391,133,23184,2,0,L|403:82,3,31.8750012159348,10|2|2|2,0:1|0:2|0:2|0:2,0:0:0:0:
350,29,23517,6,0,P|384:15|435:21,1,76.4999976654053,6|2,1:2|3:2,0:2:0:0:
313,108,23850,1,10,0:2:0:0:
266,4,24017,1,2,3:2:0:0:
398,101,24184,2,0,L|474:116,1,76.4999976654053,2|0,1:2|3:2,0:2:0:0:
244,169,24517,2,0,L|168:184,1,76.4999976654053,10|2,0:2|3:2,0:0:0:0:
313,108,24850,6,0,P|332:182|342:261,1,152.999995330811,2|10,1:2|0:2,0:2:0:0:
339,345,25350,1,2,3:2:0:0:
425,227,25517,2,0,P|431:271|417:306,1,76.4999976654053,2|2,1:2|3:2,0:2:0:0:
255,378,25850,2,0,P|249:334|263:299,1,76.4999976654053,10|2,0:2|3:2,0:2:0:0:
244,169,26184,6,0,L|164:186,1,76.4999976654053,2|2,1:2|3:2,0:0:0:0:
317,59,26517,2,0,L|397:76,1,76.4999976654053,10|2,0:2|3:2,0:0:0:0:
321,213,26850,1,2,1:2:0:0:
232,80,27017,1,2,3:2:0:0:
331,206,27184,2,0,P|335:244|323:289,1,76.4999976654053,10|2,0:2|3:2,0:0:0:0:
144,341,27517,5,2,1:2:0:0:
144,341,27684,2,0,P|140:303|152:258,1,76.4999976654053,2|8,3:2|0:2,0:2:0:0:
140,164,28017,1,2,3:2:0:0:
58,285,28184,1,2,1:2:0:0:
31,145,28350,1,2,3:2:0:0:
138,252,28517,2,0,L|214:236,1,76.4999976654053,10|2,0:2|3:2,0:0:0:0:
258,70,28850,6,0,P|237:104|230:141,1,76.4999976654053,2|2,1:2|3:2,0:2:0:0:
238,156,29100,1,2,0:2:0:0:
238,156,29184,1,8,0:2:0:0:
297,261,29350,1,2,3:2:0:0:
373,161,29517,2,0,L|388:82,1,76.4999976654053,2|0,1:2|3:2,0:2:0:0:
472,227,29850,2,0,L|487:306,1,76.4999976654053,10|0,0:2|3:2,0:2:0:0:
297,261,30184,6,0,B|242:243|242:243|201:277|140:264,1,152.999995330811,2|8,1:2|0:2,0:2:0:0:
158,104,30684,1,2,3:2:0:0:
158,104,30850,2,0,P|171:139|167:192,1,76.4999976654053,2|0,1:2|3:2,0:2:0:0:
74,320,31184,2,0,P|61:285|65:232,1,76.4999976654053,10|0,0:2|3:2,0:2:0:0:
8,72,31517,6,0,L|157:103,1,152.999995330811,2|8,1:2|0:2,0:0:0:0:
270,247,32017,1,0,3:2:0:0:
270,247,32184,2,0,L|254:164,1,76.4999976654053,2|0,1:2|3:2,0:2:0:0:
355,0,32517,2,0,L|339:83,1,76.4999976654053,10|0,0:2|3:2,0:2:0:0:
458,258,32850,6,0,P|414:258|370:236,1,76.4999976654053,2|0,1:2|3:2,0:2:0:0:
281,142,33184,1,10,0:2:0:0:
439,75,33350,1,2,3:2:0:0:
272,131,33517,2,0,L|195:115,1,76.4999976654053,2|0,1:2|3:2,0:2:0:0:
434,169,33850,2,0,L|508:153,1,76.4999976654053,10|0,0:2|0:2,0:2:0:0:
287,239,34184,5,2,1:2:0:0:
357,89,34350,1,2,3:2:0:0:
412,287,34517,1,10,0:2:0:0:
351,173,34684,1,2,3:2:0:0:
266,323,34850,1,2,1:2:0:0:
425,275,35017,1,2,3:2:0:0:
275,225,35184,2,0,L|195:210,1,76.4999976654053,10|2,0:2|3:2,0:0:0:0:
94,378,35517,6,0,P|132:354|133:262,1,127.500004863739,6|10,1:2|1:1,0:2:0:0:
56,227,36017,1,2,0:2:0:0:
56,227,36184,2,0,L|40:151,1,63.7500024318696,2|0,1:2|0:2,0:2:0:0:
125,99,36517,2,0,L|138:36,1,63.7500024318696,10|0,1:1|0:2,0:2:0:0:
230,0,36850,5,2,1:2:0:0:
212,83,37017,1,2,0:2:0:0:
291,60,37184,1,10,1:1:0:0:
272,141,37350,2,0,L|247:270,1,127.500004863739,2|0,0:2|0:2,0:2:0:0:
185,378,37850,2,0,L|171:314,1,63.7500024318696,10|0,1:1|0:2,0:2:0:0:
149,205,38184,5,2,1:2:0:0:
81,329,38350,1,2,0:2:0:0:
58,185,38517,1,10,1:1:0:0:
165,293,38684,2,0,B|232:279|219:331|295:313,1,127.500004863739,2|2,0:2|0:2,0:2:0:0:
407,230,39184,2,0,P|373:220|333:226,1,63.7500024318696,10|0,1:1|0:2,0:2:0:0:
209,159,39517,5,2,1:2:0:0:
286,314,39684,1,10,0:1:0:0:
306,128,39850,1,2,1:2:0:0:
216,256,40017,1,10,0:1:0:0:
216,256,40100,1,8,0:1:0:0:
216,256,40184,2,0,L|175:247,3,42.5,2|2|10|2,0:2|0:2|0:2|0:2,0:2:0:0:
85,182,40517,2,0,L|126:173,3,42.5,2|2|10|2,1:2|0:2|0:2|0:2,0:2:0:0:
207,111,40850,6,0,P|224:65|214:16,1,85,6|8,1:2|0:2,0:0:0:0:
0,154,41184,2,0,P|-3:195|12:234,1,85,0|8,1:2|0:2,0:0:0:0:
222,187,41517,5,0,1:2:0:0:
55,83,41684,1,8,0:2:0:0:
233,196,41850,2,0,L|324:176,1,85,2|8,1:2|0:2,0:0:0:0:
397,76,42184,5,2,1:2:0:0:
335,282,42350,1,8,0:2:0:0:
317,37,42517,1,2,1:2:0:0:
418,243,42684,1,8,0:2:0:0:
475,31,42850,5,2,1:2:0:0:
238,92,43017,1,8,0:2:0:0:
465,134,43184,1,2,1:2:0:0:
237,0,43350,1,8,0:2:0:0:
365,169,43517,5,6,1:2:0:0:
365,169,43600,1,0,1:2:0:0:
365,169,43684,2,0,L|374:119,1,42.5,0|0,1:2|1:2,0:2:0:0:
280,215,43850,2,0,L|289:265,3,42.5,8|0|0|0,0:2|1:2|1:2|1:2,0:2:0:0:
212,145,44184,5,2,1:2:0:0:
212,145,44267,1,2,1:2:0:0:
212,145,44351,2,0,L|162:136,1,42.5,2|2,1:2|1:2,0:0:0:0:
97,197,44517,2,0,L|47:206,3,42.5,8|2|2|2,0:2|1:2|1:2|1:2,0:2:0:0:
171,315,44850,6,0,P|184:273|183:230,1,85,10|0,0:2|1:0,0:2:0:0:
95,30,45184,2,0,P|82:70|84:113,1,85,10|0,0:2|1:0,0:2:0:0:
322,140,45517,2,0,L|239:159,1,85,10|0,0:2|0:0,0:2:0:0:
55,204,45850,1,2,0:2:0:0:
62,210,46184,6,0,L|46:294,1,85,6|0,1:2|3:2,0:0:0:0:
240,384,46517,2,0,L|224:300,1,85,10|0,0:2|3:2,0:0:0:0:
292,169,46850,1,2,1:2:0:0:
138,267,47017,1,2,3:2:0:0:
315,312,47184,2,0,P|359:325|414:311,1,85,10|0,0:2|3:2,0:2:0:0:
485,162,47517,5,2,1:2:0:0:
405,328,47684,1,2,3:2:0:0:
387,146,47850,2,0,L|404:61,1,85,10|0,0:2|3:2,0:2:0:0:
475,266,48184,2,0,B|425:227|425:227|301:247,1,170,2|8,1:2|0:2,0:2:0:0:
217,74,48684,1,0,3:2:0:0:
217,74,48850,6,0,P|268:71|309:93,1,85,2|0,1:2|3:2,0:0:0:0:
152,245,49184,2,0,P|112:259|70:255,1,85,10|0,0:2|3:2,0:0:0:0:
129,52,49517,1,2,1:2:0:0:
280,192,49684,1,2,3:2:0:0:
74,166,49850,1,10,0:2:0:0:
217,74,50017,6,0,L|198:168,1,85,2|0,3:2|1:2,0:2:0:0:
163,336,50350,1,2,3:2:0:0:
284,212,50517,1,10,0:2:0:0:
106,251,50684,1,2,3:2:0:0:
261,307,50850,2,0,P|306:307|346:288,1,85,2|0,1:2|3:2,0:2:0:0:
387,137,51184,2,0,P|348:120|306:120,1,85,10|0,0:2|3:2,0:2:0:0:
463,227,51517,6,0,L|480:138,1,85,6|0,1:2|3:2,0:0:0:0:
278,27,51850,2,0,L|295:116,1,85,10|0,0:2|3:2,0:0:0:0:
327,287,52184,1,2,1:2:0:0:
204,134,52350,1,2,3:2:0:0:
382,215,52517,2,0,P|340:197|290:202,1,85,10|0,0:2|3:2,0:2:0:0:
144,344,52850,5,2,1:2:0:0:
327,287,53017,1,2,3:2:0:0:
136,258,53184,2,0,L|50:242,1,85,10|0,0:2|3:2,0:2:0:0:
293,110,53517,2,0,L|376:94,1,85,2|0,1:2|3:2,0:2:0:0:
235,267,53850,2,0,P|224:218|226:169,1,85,8|0,0:2|3:2,0:2:0:0:
106,45,54184,6,0,B|64:38|64:38|25:59,1,85,6|0,1:2|3:2,0:0:0:0:
237,172,54517,2,0,B|279:179|279:179|318:158,1,85,10|0,0:2|3:2,0:0:0:0:
193,23,54850,1,2,1:2:0:0:
142,201,55017,1,2,3:2:0:0:
264,86,55184,1,10,0:2:0:0:
293,256,55350,2,0,L|309:342,1,85,2|0,3:2|1:2,0:2:0:0:
335,142,55684,5,2,3:2:0:0:
202,269,55850,1,10,0:2:0:0:
381,237,56017,1,2,3:2:0:0:
201,174,56184,2,0,L|111:155,1,85,0|0,1:2|3:2,0:2:0:0:
71,298,56517,1,10,0:2:0:0:
71,298,56600,1,2,3:2:0:0:
71,298,56684,2,0,L|122:285,1,42.5,2|2,3:2|3:2,0:2:0:0:
202,269,56850,6,0,L|186:359,1,85,6|0,1:2|3:2,0:0:0:0:
335,142,57184,2,0,L|319:52,1,85,10|0,0:2|3:2,0:0:0:0:
290,289,57517,1,2,1:2:0:0:
209,127,57684,1,2,3:2:0:0:
364,223,57850,2,0,P|406:224|455:199,1,85,10|0,0:2|3:2,0:2:0:0:
447,14,58184,5,6,1:2:0:0:
301,149,58350,1,2,3:2:0:0:
503,121,58517,2,0,L|414:103,1,85,10|0,0:2|3:2,0:2:0:0:
220,37,58850,2,0,L|303:20,1,85,2|0,1:2|3:2,0:2:0:0:
225,206,59184,2,0,P|205:162|216:109,1,85,8|0,0:2|3:2,0:2:0:0:
449,306,59517,6,0,P|416:262|304:246,1,170,6|8,1:2|0:2,0:2:0:0:
197,373,60017,1,2,3:2:0:0:
197,373,60184,2,0,L|225:199,1,170,2|8,1:2|0:2,0:2:0:0:
118,89,60684,1,2,3:2:0:0:
2,289,60850,6,0,B|59:273|59:273|110:310|170:293,1,170,6|8,1:2|0:2,0:2:0:0:
278,137,61350,1,2,3:2:0:0:
278,137,61517,2,0,P|234:118|193:123,1,85,2|0,1:2|3:2,0:2:0:0:
300,241,61850,1,8,0:2:0:0:
363,86,62017,1,0,3:2:0:0:
196,210,62184,6,0,B|141:202|141:202|107:158|107:158|47:147,1,170,6|8,1:2|0:2,0:2:0:0:
197,121,62684,1,2,3:2:0:0:
197,121,62850,2,0,L|365:86,1,170,2|8,1:2|0:2,0:2:0:0:
478,196,63350,1,2,3:2:0:0:
299,305,63517,6,0,P|287:254|386:176,1,170,6|8,1:2|0:2,0:2:0:0:
465,282,64017,1,0,3:2:0:0:
465,282,64184,2,0,P|420:275|370:259,1,85,2|0,1:2|3:2,0:2:0:0:
224,355,64517,2,0,P|179:362|129:378,1,85,10|0,0:2|3:2,0:2:0:0:
273,137,64850,6,0,P|283:187|299:315,1,170,4|8,1:2|0:2,0:2:0:0:
370,124,65350,1,0,3:2:0:0:
189,224,65517,2,0,L|101:207,1,85,2|0,1:2|3:2,0:2:0:0:
378,116,65850,2,0,L|461:99,1,85,10|0,0:2|3:2,0:2:0:0:
160,22,66184,6,0,B|69:-1|89:69|-6:52,1,170,6|8,1:2|0:2,0:2:0:0:
180,231,66684,2,0,P|223:189|220:81,1,170,6|0,1:2|1:2,0:2:0:0:
59,162,67184,2,0,L|148:142,1,85,8|0,0:2|1:2,0:2:0:0:
335,80,67517,5,10,0:2:0:0:
167,242,67684,1,2,1:2:0:0:
248,2,67850,1,10,0:2:0:0:
382,212,68017,1,2,1:2:0:0:
382,212,68350,6,0,B|336:165|336:165|229:183,1,170,10|2,0:2|1:2,0:2:0:0:
72,249,68850,5,10,0:2:0:0:
236,91,69017,1,10,0:2:0:0:
215,323,69184,1,14,0:2:0:0:
31,133,70517,6,0,P|44:92|72:61,1,85,6|0,1:2|0:0,0:2:0:0:
124,234,70850,2,0,P|113:191|119:157,1,76.4999976654053,6|0,1:2|0:0,0:2:0:0:
248,283,71184,2,0,P|219:245|215:209,1,68,6|0,1:2|0:0,0:2:0:0:
399,242,71517,5,6,1:2:0:0:
256,142,71684,1,2,0:2:0:0:
409,252,71850,2,0,L|490:234,1,80.7499978437424,10|0,0:2|3:2,0:2:0:0:
385,65,72184,5,2,1:2:0:0:
306,220,72350,1,2,0:2:0:0:
461,114,72517,2,0,P|477:75|471:35,1,80.7499978437424,10|0,0:2|3:2,0:2:0:0:
242,45,72850,5,2,1:2:0:0:
383,152,73017,1,2,0:2:0:0:
233,36,73184,2,0,L|153:19,1,80.7499978437424,10|0,0:2|3:2,0:2:0:0:
169,194,73517,5,2,1:2:0:0:
327,64,73684,1,2,0:2:0:0:
256,219,73850,2,0,L|237:304,1,80.7499978437424,10|0,0:2|3:2,0:2:0:0:
360,185,74184,5,2,1:2:0:0:
169,194,74350,1,2,0:2:0:0:
334,273,74517,2,0,P|378:276|421:252,1,80.7499978437424,10|0,0:2|3:2,0:2:0:0:
278,120,74850,5,2,1:2:0:0:
238,297,75017,1,2,0:2:0:0:
152,114,75184,2,0,L|172:210,1,80.7499978437424,10|0,0:2|3:2,0:2:0:0:
96,352,75517,5,2,1:2:0:0:
21,188,75684,1,2,0:2:0:0:
107,359,75850,2,0,P|151:373|190:366,1,80.7499978437424,10|0,0:2|3:2,0:2:0:0:
312,181,76184,5,2,1:2:0:0:
154,281,76350,1,2,1:2:0:0:
154,281,76434,1,0,1:2:0:0:
154,281,76517,2,0,L|137:201,1,80.7499978437424,10|0,0:2|3:2,0:2:0:0:
41,33,76850,6,0,P|93:28|139:52,1,89.2499972763062,6|10,1:2|0:2,0:0:0:0:
240,216,77184,1,2,1:2:0:0:
69,115,77350,1,8,0:2:0:0:
275,31,77517,1,2,1:2:0:0:
137,201,77684,1,10,0:2:0:0:
347,100,77850,2,0,L|446:122,1,89.2499972763062,2|8,1:2|0:2,0:0:0:0:
246,249,78184,6,0,L|264:150,1,89.2499972763062,2|10,1:2|0:2,0:0:0:0:
393,19,78517,1,2,1:2:0:0:
188,103,78684,1,8,0:2:0:0:
443,129,78850,1,2,1:2:0:0:
239,22,79017,1,10,0:2:0:0:
383,205,79184,2,0,P|431:224|488:216,1,89.2499972763062,2|8,1:2|0:2,0:0:0:0:
237,218,79517,6,0,L|147:240,1,89.2499972763062,6|10,1:2|0:2,0:2:0:0:
294,368,79850,1,2,1:2:0:0:
341,158,80017,1,8,0:2:0:0:
218,320,80184,1,2,1:2:0:0:
163,129,80350,1,10,0:2:0:0:
332,264,80517,1,2,1:2:0:0:
134,225,80684,1,8,0:2:0:0:
305,73,80850,5,10,0:2:0:0:
71,160,81017,1,10,0:2:0:0:
304,247,81184,2,0,L|288:159,1,89.2499972763062,10|8,0:2|0:2,0:0:0:0:
224,339,81517,5,8,0:2:0:0:
224,339,81600,1,8,0:2:0:0:
224,339,81684,2,0,L|172:351,1,44.6249986381531,8|8,0:2|0:2,0:2:0:0:
304,247,81850,2,0,L|356:259,3,44.6249986381531,8|8|8|8,0:2|0:2|0:2|0:2,0:0:0:0:
182,229,82184,6,0,L|98:247,1,80.7499978437424,6|0,1:2|3:2,0:2:0:0:
257,94,82517,2,0,L|335:110,1,80.7499978437424,10|0,0:2|3:2,0:2:0:0:
424,264,82850,1,2,1:2:0:0:
265,188,83017,1,0,3:2:0:0:
438,113,83184,1,10,0:2:0:0:
332,265,83350,1,0,3:2:0:0:
332,265,83434,1,0,3:2:0:0:
332,265,83517,6,0,P|316:305|321:348,1,80.7499978437424,2|0,1:2|3:2,0:2:0:0:
512,291,83850,2,0,P|514:251|498:214,1,80.7499978437424,10|0,0:2|3:2,0:2:0:0:
347,122,84184,1,2,1:2:0:0:
424,264,84350,1,0,3:2:0:0:
335,110,84517,2,0,L|351:25,1,80.7499978437424,10|0,0:2|3:2,0:0:0:0:
282,182,84850,6,0,P|239:183|197:173,1,80.7499978437424,2|0,1:2|3:2,0:2:0:0:
48,31,85184,2,0,P|91:30|133:40,1,80.7499978437424,10|0,0:2|3:2,0:2:0:0:
161,255,85517,1,2,1:2:0:0:
63,117,85684,1,0,3:2:0:0:
61,281,85850,1,10,0:2:0:0:
202,174,86017,1,0,3:2:0:0:
202,174,86100,1,0,3:2:0:0:
202,174,86184,6,0,L|219:91,1,80.7499978437424,2|0,1:2|3:2,0:2:0:0:
305,281,86517,2,0,L|322:364,1,80.7499978437424,10|0,0:2|3:2,0:2:0:0:
446,151,86850,5,10,0:2:0:0:
446,151,86934,1,10,0:2:0:0:
446,151,87017,2,0,L|402:142,1,40.3749989218712,10|10,0:2|0:2,0:0:0:0:
330,185,87184,2,0,L|291:194,3,40.3749989218712,8|10|10|10,0:2|0:2|0:2|0:2,0:2:0:0:
252,73,87517,5,2,1:2:0:0:
252,73,87600,1,2,1:2:0:0:
252,73,87684,2,0,L|242:121,1,40.3749989218712,2|2,1:2|1:2,0:2:0:0:
172,176,87850,2,0,L|180:215,3,40.3749989218712,10|2|2|2,0:2|1:2|1:2|1:2,0:2:0:0:
256,307,88184,5,2,1:2:0:0:
84,253,88350,1,2,1:2:0:0:
290,194,88517,1,14,0:2:0:0:
