osu file format v14

[General]
AudioFilename: roda.ogg
AudioLeadIn: 0
PreviewTime: 27502
Countdown: 0
SampleSet: Normal
StackLeniency: 0.7
Mode: 1
LetterboxInBreaks: 0
WidescreenStoryboard: 1

[Editor]
Bookmarks: 808
DistanceSpacing: 1.3
BeatDivisor: 4
GridSize: 32
TimelineZoom: 2.95

[Metadata]
Title:Roda
TitleUnicode:Roda
Artist:Sergio Mendes & Brasil '66
ArtistUnicode:Sergio Mendes & Brasil '66
Creator:meiqth
Version:Dificil
Source:
Tags:bossa nova gilberto sérgio gil joão joao augusto samba mpb musica música popular português portugues portuguese latin jazz 1968 look around brazil
BeatmapID:4435047
BeatmapSetID:2112497

[Difficulty]
HPDrainRate:7
CircleSize:2
OverallDifficulty:5
ApproachRate:10
SliderMultiplier:1.4
SliderTickRate:1

[Events]
//Background and Video events
0,0,"HeartofSenso-status-1649217625023455234__(@Serpent____x).jpg",0,80
//Break Periods
//Storyboard Layer 0 (Background)
//Storyboard Layer 1 (Fail)
//Storyboard Layer 2 (Pass)
//Storyboard Layer 3 (Foreground)
//Storyboard Layer 4 (Overlay)
//Storyboard Sound Samples

[TimingPoints]
581,454.545454545455,4,1,0,21,1,8
581,-118.918918918919,4,1,0,21,0,8
1067,544.909635818727,4,1,0,35,1,0
1067,-99.1981981981982,4,1,0,35,0,0
9779,585.9375,4,1,0,35,1,8
9779,-92.2522522522522,4,1,0,35,0,8
10954,550.45871559633,4,1,0,35,1,0
10954,-98.1981981981983,4,1,0,35,0,0
15357,546.697038724374,4,1,0,35,1,0
15357,-98.8738738738738,4,1,0,35,0,0
21917,548.195523069895,4,1,0,35,1,0
21917,-98.6036036036036,4,1,0,35,0,0
26302,530.973451327434,4,1,0,35,1,0
26302,-101.801801801802,4,1,0,35,0,0
27834,530.973451327434,4,1,0,35,1,8
27834,-101.801801801802,4,1,0,35,0,8
28490,547.945205479452,4,1,0,50,1,1
28490,-98.6486486486486,4,1,0,50,0,1
30681,545.454545454546,4,1,0,50,1,1
30681,-99.099099099099,4,1,0,50,0,1
35044,554.272517321017,4,1,0,50,1,1
35044,-97.5225225225224,4,1,0,50,0,1
40309,-97.5225225225224,4,1,0,50,0,0
40615,588.957055214724,4,1,0,35,1,8
41793,558.139534883722,4,1,0,35,1,0
41793,-96.8468468468467,4,1,0,35,0,0
44025,550.458715596331,4,1,0,35,1,0
44025,-98.1981981981981,4,1,0,35,0,0
46226,551.724137931035,4,1,0,35,1,0
46226,-97.9729729729729,4,1,0,35,0,0
50639,546.697038724374,4,1,0,35,1,0
50639,-98.8738738738738,4,1,0,35,0,0
52825,544.21768707483,4,1,0,35,1,0
52825,-99.3243243243243,4,1,0,35,0,0
55001,547.945205479452,4,1,0,35,1,0
55001,-98.6486486486486,4,1,0,35,0,0
58758,547.945205479452,4,1,0,35,1,8
58758,-98.6486486486486,4,1,0,35,0,8
59437,547.945205479452,4,1,0,50,1,1
59437,-98.6486486486486,4,1,0,50,0,1
61628,555.555555555556,4,1,0,50,1,1
61628,-97.2972972972972,4,1,0,50,0,1
63850,552.995391705069,4,1,0,50,1,1
63850,-97.7477477477478,4,1,0,50,0,1
68269,542.986425339366,4,1,0,50,1,1
68269,-99.5495495495497,4,1,0,50,0,1
70440,535.714285714286,4,1,0,50,1,1
70440,-100.900900900901,4,1,0,50,0,1
71243,-100.900900900901,4,1,0,50,0,0
71538,582.524271844661,4,1,0,35,1,8
72703,559.44055944056,4,1,0,35,1,0
72703,-96.6216216216215,4,1,0,35,0,0
74940,550.458715596331,4,1,0,35,1,0
74940,-98.1981981981981,4,1,0,35,0,0
77141,546.697038724374,4,1,0,35,1,0
77141,-98.8738738738738,4,1,0,35,0,0
79327,552.99539170507,4,1,0,35,1,0
79327,-97.7477477477476,4,1,0,35,0,0
83749,548.446069469835,4,1,0,35,1,0
83749,-98.5585585585586,4,1,0,35,0,0
88136,560.747663551402,4,1,0,35,1,0
88136,-96.3963963963964,4,1,0,35,0,0
89691,566.037735849057,4,1,0,35,1,0
89691,-95.4954954954954,4,1,0,35,0,0
90436,548.260643109734,4,1,0,50,1,1
90436,-98.591891891892,4,1,0,50,0,1
92629,551.977920883165,4,1,0,50,1,1
92629,-97.9279279279279,4,1,0,50,0,1
97042,549.199084668192,4,1,0,50,1,1
97042,-98.4234234234235,4,1,0,50,0,1
101435,545.454545454546,4,1,0,50,1,1
101435,-99.099099099099,4,1,0,50,0,1
102253,-99.099099099099,4,1,0,50,0,0
102523,595.533498759306,4,1,0,50,1,0
103714,557.491289198606,4,1,0,50,1,0
103714,-96.9594594594595,4,1,0,50,0,0
105943,555.555555555556,4,1,0,50,1,0
105943,-97.2972972972972,4,1,0,50,0,0
110387,549.199084668193,4,1,0,50,1,0
110387,-98.4234234234233,4,1,0,50,0,0
112583,555.555555555556,4,1,0,50,1,0
112583,-97.2972972972972,4,1,0,50,0,0
117027,545.454545454546,4,1,0,50,1,0
117027,-99.099099099099,4,1,0,50,0,0
119208,545.454545454546,4,1,0,50,1,8
119214,553.63321799308,4,1,0,50,1,0
119214,-97.6351351351351,4,1,0,50,0,0
121428,553.63321799308,4,1,0,50,1,8
121430,553.63321799308,4,1,0,50,1,0
121430,-97.6351351351351,4,1,0,50,0,0
123644,547.945205479452,4,1,0,50,1,8
123645,547.945205479452,4,1,0,50,1,0
123645,-98.6486486486486,4,1,0,50,0,0
125836,550.45871559633,4,1,0,50,1,0
125836,-98.1981981981983,4,1,0,50,0,0
128037,545.454545454545,4,1,0,50,1,0
128037,-99.0990990990992,4,1,0,50,0,0
129986,572.792362768496,4,1,0,50,1,8
129986,-94.3693693693695,4,1,0,50,0,8
130270,550.45871559633,4,1,0,50,1,1
130270,-98.1981981981983,4,1,0,50,0,1
137976,544.21768707483,4,1,0,50,1,9
137976,-99.3243243243243,4,1,0,50,0,9
139064,544.21768707483,4,1,0,50,1,1
139064,-99.3243243243243,4,1,0,50,0,1
142057,-99.3243243243243,4,1,0,50,0,0

[HitObjects]
256,192,808,5,0,0:0:0:0:
256,192,1067,1,8,0:0:0:0:
256,192,1611,1,8,0:0:0:0:
256,192,2156,1,8,0:0:0:0:
256,192,2701,1,8,0:0:0:0:
256,192,2837,1,8,0:0:0:0:
256,192,3246,1,8,0:0:0:0:
256,192,3791,1,8,0:0:0:0:
256,192,4336,1,8,0:0:0:0:
256,192,4881,1,8,0:0:0:0:
256,192,5017,1,8,0:0:0:0:
256,192,5426,1,8,0:0:0:0:
256,192,5971,1,8,0:0:0:0:
256,192,6516,1,8,0:0:0:0:
256,192,7061,1,8,0:0:0:0:
256,192,7197,1,8,0:0:0:0:
256,192,7605,1,8,0:0:0:0:
256,192,8150,1,8,0:0:0:0:
256,192,8695,1,8,0:0:0:0:
256,192,9240,1,8,0:0:0:0:
256,192,9376,1,8,0:0:0:0:
256,192,9779,1,8,0:0:0:0:
256,192,10657,1,0,0:0:0:0:
256,192,10954,1,8,0:0:0:0:
256,192,11229,1,0,0:0:0:0:
256,192,11366,1,0,0:0:0:0:
256,192,11642,1,0,0:0:0:0:
256,192,11917,1,8,0:0:0:0:
256,192,12467,1,8,0:0:0:0:
256,192,12605,1,8,0:0:0:0:
256,192,12880,1,0,0:0:0:0:
256,192,13155,1,8,0:0:0:0:
256,192,13431,1,0,0:0:0:0:
256,192,13568,1,0,0:0:0:0:
256,192,13843,1,8,0:0:0:0:
256,192,14119,1,0,0:0:0:0:
256,192,14669,1,0,0:0:0:0:
256,192,14807,1,0,0:0:0:0:
256,192,15082,1,8,0:0:0:0:
256,192,15357,1,0,0:0:0:0:
256,192,15630,1,8,0:0:0:0:
256,192,15767,1,8,0:0:0:0:
256,192,15903,1,8,0:0:0:0:
256,192,16177,1,0,0:0:0:0:
256,192,16860,1,0,0:0:0:0:
256,192,16997,1,0,0:0:0:0:
256,192,17270,1,8,0:0:0:0:
256,192,17543,1,0,0:0:0:0:
256,192,17817,1,8,0:0:0:0:
256,192,18090,1,8,0:0:0:0:
256,192,18363,1,8,0:0:0:0:
256,192,18910,1,0,0:0:0:0:
256,192,19047,1,0,0:0:0:0:
256,192,19183,1,0,0:0:0:0:
256,192,19457,1,8,0:0:0:0:
256,192,19730,1,0,0:0:0:0:
256,192,20003,1,0,0:0:0:0:
256,192,20277,1,8,0:0:0:0:
256,192,20413,1,8,0:0:0:0:
256,192,20687,1,0,0:0:0:0:
256,192,21233,1,8,0:0:0:0:
256,192,21507,1,0,0:0:0:0:
256,192,21644,1,0,0:0:0:0:
256,192,21917,1,8,0:0:0:0:
256,192,22191,1,0,0:0:0:0:
256,192,22328,1,0,0:0:0:0:
256,192,22602,1,8,0:0:0:0:
256,192,22876,1,0,0:0:0:0:
256,192,23424,1,8,0:0:0:0:
256,192,23561,1,8,0:0:0:0:
256,192,23835,1,0,0:0:0:0:
256,192,24109,1,8,0:0:0:0:
256,192,24657,1,8,0:0:0:0:
256,192,24795,1,8,0:0:0:0:
256,192,25069,1,0,0:0:0:0:
256,192,25343,1,0,0:0:0:0:
256,192,25617,1,8,0:0:0:0:
256,192,25891,1,8,0:0:0:0:
256,192,26165,1,8,0:0:0:0:
256,192,26302,1,0,0:0:0:0:
256,192,26567,1,0,0:0:0:0:
256,192,26832,1,8,0:0:0:0:
256,192,27098,1,4,0:0:0:0:
256,192,27834,1,0,0:0:0:0:
256,192,27966,1,0,0:0:0:0:
256,192,28099,1,0,0:0:0:0:
256,192,28232,1,0,0:0:0:0:
256,192,28490,1,12,0:0:0:0:
256,192,28763,1,0,0:0:0:0:
256,192,29037,1,0,0:0:0:0:
256,192,29174,1,8,0:0:0:0:
256,192,29448,1,0,0:0:0:0:
256,192,29722,1,8,0:0:0:0:
256,192,29996,1,8,0:0:0:0:
256,192,30270,1,8,0:0:0:0:
256,192,30544,1,0,0:0:0:0:
256,192,30953,1,0,0:0:0:0:
256,192,31090,1,0,0:0:0:0:
256,192,31362,1,8,0:0:0:0:
256,192,31635,1,0,0:0:0:0:
256,192,32044,1,8,0:0:0:0:
256,192,32181,1,8,0:0:0:0:
256,192,32317,1,8,0:0:0:0:
256,192,32590,1,8,0:0:0:0:
256,192,33135,1,0,0:0:0:0:
256,192,33408,1,8,0:0:0:0:
256,192,33544,1,0,0:0:0:0:
256,192,33817,1,0,0:0:0:0:
256,192,34090,1,0,0:0:0:0:
256,192,34362,1,0,0:0:0:0:
256,192,34499,1,8,0:0:0:0:
256,192,34771,1,0,0:0:0:0:
256,192,35321,1,8,0:0:0:0:
256,192,35598,1,0,0:0:0:0:
256,192,35736,1,8,0:0:0:0:
256,192,36013,1,0,0:0:0:0:
256,192,36291,1,0,0:0:0:0:
256,192,36568,1,8,0:0:0:0:
256,192,36706,1,8,0:0:0:0:
256,192,36845,1,8,0:0:0:0:
256,192,37122,1,0,0:0:0:0:
256,192,37261,1,0,0:0:0:0:
256,192,37538,1,8,0:0:0:0:
256,192,37815,1,0,0:0:0:0:
256,192,38092,1,8,0:0:0:0:
256,192,38231,1,8,0:0:0:0:
256,192,38508,1,0,0:0:0:0:
256,192,38785,1,8,0:0:0:0:
256,192,38923,1,8,0:0:0:0:
256,192,39201,1,0,0:0:0:0:
256,192,39478,1,8,0:0:0:0:
256,192,39755,1,8,0:0:0:0:
256,192,40032,1,0,0:0:0:0:
256,192,40309,1,12,0:0:0:0:
256,192,41498,1,0,0:0:0:0:
256,192,41793,1,8,0:0:0:0:
256,192,42072,1,0,0:0:0:0:
256,192,42211,1,0,0:0:0:0:
256,192,42490,1,8,0:0:0:0:
256,192,42769,1,8,0:0:0:0:
256,192,43048,1,8,0:0:0:0:
256,192,43327,1,0,0:0:0:0:
256,192,43606,1,8,0:0:0:0:
256,192,43746,1,8,0:0:0:0:
256,192,44025,1,0,0:0:0:0:
256,192,44162,1,0,0:0:0:0:
256,192,44437,1,8,0:0:0:0:
256,192,44713,1,0,0:0:0:0:
256,192,44988,1,8,0:0:0:0:
256,192,45538,1,0,0:0:0:0:
256,192,45676,1,0,0:0:0:0:
256,192,45951,1,0,0:0:0:0:
256,192,46226,1,8,0:0:0:0:
256,192,46501,1,8,0:0:0:0:
256,192,46639,1,8,0:0:0:0:
256,192,46915,1,0,0:0:0:0:
256,192,47191,1,0,0:0:0:0:
256,192,47467,1,8,0:0:0:0:
256,192,47881,1,0,0:0:0:0:
256,192,48019,1,0,0:0:0:0:
256,192,48294,1,8,0:0:0:0:
256,192,48432,1,8,0:0:0:0:
256,192,48708,1,0,0:0:0:0:
256,192,48984,1,0,0:0:0:0:
256,192,49260,1,8,0:0:0:0:
256,192,49812,1,0,0:0:0:0:
256,192,49950,1,0,0:0:0:0:
256,192,50088,1,0,0:0:0:0:
256,192,50363,1,8,0:0:0:0:
256,192,50639,1,0,0:0:0:0:
256,192,50912,1,8,0:0:0:0:
256,192,51049,1,8,0:0:0:0:
256,192,51322,1,0,0:0:0:0:
256,192,51595,1,8,0:0:0:0:
256,192,51869,1,0,0:0:0:0:
256,192,52142,1,8,0:0:0:0:
256,192,52279,1,8,0:0:0:0:
256,192,52552,1,0,0:0:0:0:
256,192,52825,1,8,0:0:0:0:
256,192,53097,1,8,0:0:0:0:
256,192,53369,1,0,0:0:0:0:
256,192,53641,1,8,0:0:0:0:
256,192,54321,1,0,0:0:0:0:
256,192,54457,1,0,0:0:0:0:
256,192,54729,1,8,0:0:0:0:
256,192,54865,1,8,0:0:0:0:
256,192,55274,1,0,0:0:0:0:
256,192,55411,1,0,0:0:0:0:
256,192,55685,1,8,0:0:0:0:
256,192,55822,1,8,0:0:0:0:
256,192,56096,1,0,0:0:0:0:
256,192,56507,1,0,0:0:0:0:
256,192,56644,1,8,0:0:0:0:
256,192,56918,1,0,0:0:0:0:
256,192,57192,1,8,0:0:0:0:
256,192,57466,1,8,0:0:0:0:
256,192,57740,1,0,0:0:0:0:
256,192,58014,1,12,0:0:0:0:
256,192,58758,1,0,0:0:0:0:
256,192,58894,1,0,0:0:0:0:
256,192,59031,1,0,0:0:0:0:
256,192,59168,1,0,0:0:0:0:
256,192,59437,1,12,0:0:0:0:
256,192,59710,1,0,0:0:0:0:
256,192,59984,1,0,0:0:0:0:
256,192,60121,1,8,0:0:0:0:
256,192,60395,1,0,0:0:0:0:
256,192,60669,1,8,0:0:0:0:
256,192,60943,1,8,0:0:0:0:
256,192,61217,1,8,0:0:0:0:
256,192,61491,1,0,0:0:0:0:
256,192,61905,1,8,0:0:0:0:
256,192,62044,1,0,0:0:0:0:
256,192,62322,1,0,0:0:0:0:
256,192,62600,1,8,0:0:0:0:
256,192,62878,1,0,0:0:0:0:
256,192,63155,1,0,0:0:0:0:
256,192,63294,1,8,0:0:0:0:
256,192,63572,1,8,0:0:0:0:
256,192,64126,1,0,0:0:0:0:
256,192,64402,1,8,0:0:0:0:
256,192,64541,1,0,0:0:0:0:
256,192,64817,1,8,0:0:0:0:
256,192,65094,1,8,0:0:0:0:
256,192,65370,1,0,0:0:0:0:
256,192,65508,1,0,0:0:0:0:
256,192,65785,1,8,0:0:0:0:
256,192,66338,1,8,0:0:0:0:
256,192,66614,1,0,0:0:0:0:
256,192,66753,1,8,0:0:0:0:
256,192,67029,1,0,0:0:0:0:
256,192,67306,1,0,0:0:0:0:
256,192,67582,1,8,0:0:0:0:
256,192,67720,1,8,0:0:0:0:
256,192,67859,1,8,0:0:0:0:
256,192,68135,1,0,0:0:0:0:
256,192,68269,1,0,0:0:0:0:
256,192,68540,1,8,0:0:0:0:
256,192,68811,1,8,0:0:0:0:
256,192,69083,1,0,0:0:0:0:
256,192,69219,1,0,0:0:0:0:
256,192,69490,1,0,0:0:0:0:
256,192,69762,1,8,0:0:0:0:
256,192,69897,1,8,0:0:0:0:
256,192,70169,1,0,0:0:0:0:
256,192,70440,1,8,0:0:0:0:
256,192,70707,1,8,0:0:0:0:
256,192,70975,1,0,0:0:0:0:
256,192,71243,1,12,0:0:0:0:
256,192,72411,1,0,0:0:0:0:
256,192,72703,1,8,0:0:0:0:
256,192,72982,1,0,0:0:0:0:
256,192,73122,1,0,0:0:0:0:
256,192,73402,1,8,0:0:0:0:
256,192,73682,1,8,0:0:0:0:
256,192,73961,1,0,0:0:0:0:
256,192,74241,1,0,0:0:0:0:
256,192,74521,1,8,0:0:0:0:
256,192,74800,1,0,0:0:0:0:
256,192,74940,1,0,0:0:0:0:
256,192,75215,1,8,0:0:0:0:
256,192,75352,1,8,0:0:0:0:
256,192,75628,1,8,0:0:0:0:
256,192,75903,1,0,0:0:0:0:
256,192,76316,1,8,0:0:0:0:
256,192,76453,1,8,0:0:0:0:
256,192,76591,1,8,0:0:0:0:
256,192,76866,1,0,0:0:0:0:
256,192,77414,1,8,0:0:0:0:
256,192,77687,1,8,0:0:0:0:
256,192,77961,1,0,0:0:0:0:
256,192,78234,1,8,0:0:0:0:
256,192,78371,1,8,0:0:0:0:
256,192,78644,1,0,0:0:0:0:
256,192,78917,1,0,0:0:0:0:
256,192,79191,1,8,0:0:0:0:
256,192,79327,1,8,0:0:0:0:
256,192,79603,1,8,0:0:0:0:
256,192,79879,1,0,0:0:0:0:
256,192,80156,1,8,0:0:0:0:
256,192,80709,1,0,0:0:0:0:
256,192,80847,1,0,0:0:0:0:
256,192,81124,1,8,0:0:0:0:
256,192,81400,1,0,0:0:0:0:
256,192,81538,1,0,0:0:0:0:
256,192,81815,1,0,0:0:0:0:
256,192,82091,1,8,0:0:0:0:
256,192,82230,1,8,0:0:0:0:
256,192,82506,1,0,0:0:0:0:
256,192,82783,1,8,0:0:0:0:
256,192,83059,1,0,0:0:0:0:
256,192,83336,1,0,0:0:0:0:
256,192,83612,1,8,0:0:0:0:
256,192,83749,1,8,0:0:0:0:
256,192,84023,1,8,0:0:0:0:
256,192,84297,1,8,0:0:0:0:
256,192,84571,1,0,0:0:0:0:
256,192,85120,1,0,0:0:0:0:
256,192,85257,1,0,0:0:0:0:
256,192,85394,1,0,0:0:0:0:
256,192,85668,1,8,0:0:0:0:
256,192,85942,1,0,0:0:0:0:
256,192,86217,1,8,0:0:0:0:
256,192,86354,1,8,0:0:0:0:
256,192,86628,1,8,0:0:0:0:
256,192,86902,1,0,0:0:0:0:
256,192,87451,1,0,0:0:0:0:
256,192,87588,1,8,0:0:0:0:
256,192,87862,1,8,0:0:0:0:
256,192,88136,1,0,0:0:0:0:
256,192,88416,1,0,0:0:0:0:
256,192,88696,1,8,0:0:0:0:
256,192,88977,1,4,0:0:0:0:
256,192,89691,1,0,0:0:0:0:
256,192,89832,1,0,0:0:0:0:
256,192,89974,1,0,0:0:0:0:
256,192,90115,1,0,0:0:0:0:
256,192,90436,1,12,0:0:0:0:
256,192,90710,1,0,0:0:0:0:
256,192,90984,1,0,0:0:0:0:
256,192,91121,1,8,0:0:0:0:
256,192,91395,1,0,0:0:0:0:
256,192,91669,1,8,0:0:0:0:
256,192,91943,1,8,0:0:0:0:
256,192,92217,1,8,0:0:0:0:
256,192,92491,1,0,0:0:0:0:
256,192,92904,1,8,0:0:0:0:
256,192,93042,1,0,0:0:0:0:
256,192,93318,1,8,0:0:0:0:
256,192,93594,1,0,0:0:0:0:
256,192,93870,1,0,0:0:0:0:
256,192,94146,1,0,0:0:0:0:
256,192,94284,1,8,0:0:0:0:
256,192,94560,1,8,0:0:0:0:
256,192,95112,1,8,0:0:0:0:
256,192,95388,1,0,0:0:0:0:
256,192,95526,1,8,0:0:0:0:
256,192,95802,1,0,0:0:0:0:
256,192,96078,1,0,0:0:0:0:
256,192,96354,1,8,0:0:0:0:
256,192,96492,1,8,0:0:0:0:
256,192,96768,1,8,0:0:0:0:
256,192,97042,1,0,0:0:0:0:
256,192,97179,1,0,0:0:0:0:
256,192,97316,1,0,0:0:0:0:
256,192,97591,1,8,0:0:0:0:
256,192,97728,1,0,0:0:0:0:
256,192,98003,1,8,0:0:0:0:
256,192,98277,1,0,0:0:0:0:
256,192,98552,1,8,0:0:0:0:
256,192,98689,1,8,0:0:0:0:
256,192,98826,1,8,0:0:0:0:
256,192,99101,1,0,0:0:0:0:
256,192,99238,1,0,0:0:0:0:
256,192,99513,1,8,0:0:0:0:
256,192,99787,1,0,0:0:0:0:
256,192,100062,1,8,0:0:0:0:
256,192,100199,1,8,0:0:0:0:
256,192,100474,1,8,0:0:0:0:
256,192,100749,1,0,0:0:0:0:
256,192,100886,1,0,0:0:0:0:
256,192,101160,1,8,0:0:0:0:
256,192,101435,1,0,0:0:0:0:
256,192,101707,1,0,0:0:0:0:
256,192,101980,1,8,0:0:0:0:
256,192,102253,1,4,0:0:0:0:
256,192,103416,1,0,0:0:0:0:
256,192,103714,1,8,0:0:0:0:
256,192,103992,1,0,0:0:0:0:
256,192,104271,1,8,0:0:0:0:
256,192,104410,1,8,0:0:0:0:
256,192,104689,1,0,0:0:0:0:
256,192,104968,1,0,0:0:0:0:
256,192,105247,1,8,0:0:0:0:
256,192,105386,1,8,0:0:0:0:
256,192,105665,1,8,0:0:0:0:
256,192,105943,1,0,0:0:0:0:
256,192,106220,1,8,0:0:0:0:
256,192,106498,1,0,0:0:0:0:
256,192,106637,1,0,0:0:0:0:
256,192,106915,1,8,0:0:0:0:
256,192,107470,1,0,0:0:0:0:
256,192,107748,1,0,0:0:0:0:
256,192,108026,1,8,0:0:0:0:
256,192,108165,1,8,0:0:0:0:
256,192,108443,1,0,0:0:0:0:
256,192,108581,1,0,0:0:0:0:
256,192,108720,1,0,0:0:0:0:
256,192,108998,1,8,0:0:0:0:
256,192,109276,1,0,0:0:0:0:
256,192,109415,1,0,0:0:0:0:
256,192,109831,1,8,0:0:0:0:
256,192,109970,1,8,0:0:0:0:
256,192,110248,1,0,0:0:0:0:
256,192,110387,1,0,0:0:0:0:
256,192,110661,1,8,0:0:0:0:
256,192,110936,1,8,0:0:0:0:
256,192,111210,1,0,0:0:0:0:
256,192,111759,1,0,0:0:0:0:
256,192,111897,1,0,0:0:0:0:
256,192,112034,1,0,0:0:0:0:
256,192,112309,1,8,0:0:0:0:
256,192,112583,1,0,0:0:0:0:
256,192,112860,1,8,0:0:0:0:
256,192,113138,1,0,0:0:0:0:
256,192,113277,1,0,0:0:0:0:
256,192,113555,1,8,0:0:0:0:
256,192,113833,1,8,0:0:0:0:
256,192,114110,1,0,0:0:0:0:
256,192,114249,1,0,0:0:0:0:
256,192,114666,1,8,0:0:0:0:
256,192,114805,1,8,0:0:0:0:
256,192,115083,1,8,0:0:0:0:
256,192,115360,1,0,0:0:0:0:
256,192,115499,1,0,0:0:0:0:
256,192,115777,1,8,0:0:0:0:
256,192,116055,1,8,0:0:0:0:
256,192,116333,1,0,0:0:0:0:
256,192,116471,1,0,0:0:0:0:
256,192,116749,1,0,0:0:0:0:
256,192,117027,1,8,0:0:0:0:
256,192,117299,1,0,0:0:0:0:
256,192,117436,1,0,0:0:0:0:
256,192,117708,1,8,0:0:0:0:
256,192,117981,1,0,0:0:0:0:
256,192,118527,1,0,0:0:0:0:
256,192,118663,1,8,0:0:0:0:
256,192,118936,1,0,0:0:0:0:
256,192,119214,1,8,0:0:0:0:
256,192,119490,1,8,0:0:0:0:
256,192,119767,1,0,0:0:0:0:
256,192,120044,1,12,0:0:0:0:
256,192,121151,1,8,0:0:0:0:
256,192,121430,1,0,0:0:0:0:
256,192,121706,1,8,0:0:0:0:
256,192,121845,1,8,0:0:0:0:
256,192,122122,1,8,0:0:0:0:
256,192,122398,1,0,0:0:0:0:
256,192,122675,1,0,0:0:0:0:
256,192,122952,1,8,0:0:0:0:
256,192,123090,1,8,0:0:0:0:
256,192,123367,1,0,0:0:0:0:
256,192,123645,1,8,0:0:0:0:
256,192,123918,1,0,0:0:0:0:
256,192,124055,1,0,0:0:0:0:
256,192,124329,1,0,0:0:0:0:
256,192,124603,1,8,0:0:0:0:
256,192,125151,1,0,0:0:0:0:
256,192,125288,1,0,0:0:0:0:
256,192,125562,1,8,0:0:0:0:
256,192,125836,1,8,0:0:0:0:
256,192,126111,1,0,0:0:0:0:
256,192,126248,1,0,0:0:0:0:
256,192,126524,1,8,0:0:0:0:
256,192,126799,1,0,0:0:0:0:
256,192,127074,1,0,0:0:0:0:
256,192,127487,1,8,0:0:0:0:
256,192,127624,1,8,0:0:0:0:
256,192,127900,1,0,0:0:0:0:
256,192,128037,1,8,0:0:0:0:
256,192,128309,1,0,0:0:0:0:
256,192,128582,1,8,0:0:0:0:
256,192,128855,1,4,0:0:0:0:
256,192,129986,1,0,0:0:0:0:
256,192,130270,1,12,0:0:0:0:
256,192,130545,1,0,0:0:0:0:
256,192,130820,1,8,0:0:0:0:
256,192,131095,1,8,0:0:0:0:
256,192,131233,1,8,0:0:0:0:
256,192,131508,1,0,0:0:0:0:
256,192,131783,1,8,0:0:0:0:
256,192,132058,1,8,0:0:0:0:
256,192,132334,1,0,0:0:0:0:
256,192,132471,1,0,0:0:0:0:
256,192,132747,1,8,0:0:0:0:
256,192,133022,1,0,0:0:0:0:
256,192,133297,1,0,0:0:0:0:
256,192,133435,1,0,0:0:0:0:
256,192,133710,1,8,0:0:0:0:
256,192,134260,1,8,0:0:0:0:
256,192,134536,1,0,0:0:0:0:
256,192,134673,1,0,0:0:0:0:
256,192,134948,1,0,0:0:0:0:
256,192,135224,1,8,0:0:0:0:
256,192,135499,1,8,0:0:0:0:
256,192,135636,1,0,0:0:0:0:
256,192,136187,1,8,0:0:0:0:
256,192,136325,1,8,0:0:0:0:
256,192,136737,1,0,0:0:0:0:
256,192,136875,1,0,0:0:0:0:
256,192,137288,1,8,0:0:0:0:
256,192,137425,1,8,0:0:0:0:
256,192,137701,1,0,0:0:0:0:
256,192,138384,1,8,0:0:0:0:
256,192,138520,1,8,0:0:0:0:
256,192,138928,1,0,0:0:0:0:
256,192,139064,1,0,0:0:0:0:
256,192,139472,1,8,0:0:0:0:
256,192,139608,1,8,0:0:0:0:
256,192,139880,1,0,0:0:0:0:
256,192,140560,1,8,0:0:0:0:
256,192,140696,1,8,0:0:0:0:
256,192,141104,1,0,0:0:0:0:
256,192,141240,1,0,0:0:0:0:
256,192,141649,1,8,0:0:0:0:
256,192,141785,1,8,0:0:0:0:
256,192,142057,1,4,0:0:0:0:
