osu file format v14

[General]
AudioFilename: audio.mp3
AudioLeadIn: 0
PreviewTime: 589
Countdown: 0
SampleSet: Normal
StackLeniency: 0.7
Mode: 1
LetterboxInBreaks: 0
WidescreenStoryboard: 0

[Editor]
DistanceSpacing: 1
BeatDivisor: 4
GridSize: 32
TimelineZoom: 3.000005

[Metadata]
Title:Mas alla (TV Size)
TitleUnicode:Más allá (TV Size)
Artist:Sergio Garcia
ArtistUnicode:Sergio García
Creator:_MMMMMM_MMMMMM_
Version:Oni
Source:ドラゴンボール超
Tags:dragon ball super lacco tower haruka latino ending anime midnaait anpu español spanish 遥 un-plugged
BeatmapID:1930484
BeatmapSetID:895745

[Difficulty]
HPDrainRate:7
CircleSize:2
OverallDifficulty:5
ApproachRate:5
SliderMultiplier:1.4
SliderTickRate:3

[Events]
//Background and Video events
0,0,"bg3.jpg",0,0
Video,370,"mas alla.avi"
//Break Periods
//Storyboard Layer 0 (Background)
//Storyboard Layer 1 (Fail)
//Storyboard Layer 2 (Pass)
//Storyboard Layer 3 (Foreground)
//Storyboard Sound Samples

[TimingPoints]
788,555.555555555556,4,1,0,60,1,0
9676,-99.009900990099,4,1,0,60,0,0
10232,-98.0392156862745,4,1,0,60,0,0
10788,-97.0873786407767,4,1,0,60,0,0
11343,-96.1538461538461,4,1,0,60,0,0
11899,-95.2380952380952,4,1,0,60,0,0
12454,-94.3396226415094,4,1,0,60,0,0
13010,-93.4579439252336,4,1,0,60,0,0
13565,-92.5925925925926,4,1,0,60,0,0
14121,-91.743119266055,4,1,0,60,0,0
14676,-90.0900900900901,4,1,0,60,0,0
15232,-89.2857142857143,4,1,0,60,0,0
15788,-88.4955752212389,4,1,0,60,0,0
16343,-87.719298245614,4,1,0,60,0,0
16899,-86.9565217391304,4,1,0,60,0,0
17176,-86.2068965517241,4,1,0,60,0,0
17454,-85.4700854700855,4,1,0,60,0,0
17732,-84.7457627118644,4,1,0,60,0,0
18010,-84.0336134453781,4,1,0,60,0,0
18288,-83.3333333333333,4,1,0,60,0,0
18565,-82.6446280991736,4,1,0,60,0,0
18843,-81.9672131147541,4,1,0,60,0,0
19121,-81.3008130081301,4,1,0,60,0,0
19399,-80.6451612903226,4,1,0,60,0,0
19676,-80,4,1,0,60,0,0
19954,-79.3650793650794,4,1,0,60,0,0
20232,-78.7401574803149,4,1,0,60,0,0
20371,-78.125,4,1,0,60,0,0
20510,-77.5193798449612,4,1,0,60,0,0
20788,-76.9230769230769,4,1,0,60,0,0
21343,-100,4,1,0,60,0,0
34121,-99.009900990099,4,1,0,60,0,0
34399,-98.0392156862745,4,1,0,60,0,0
34676,-97.0873786407767,4,1,0,60,0,0
34954,-96.1538461538461,4,1,0,60,0,0
35232,-95.2380952380952,4,1,0,60,0,0
35510,-94.3396226415094,4,1,0,60,0,0
35649,-93.4579439252336,4,1,0,60,0,0
35788,-92.5925925925926,4,1,0,60,0,0
36065,-91.743119266055,4,1,0,60,0,0
36343,-90.9090909090909,4,1,0,60,0,0
36621,-90.0900900900901,4,1,0,60,0,0
36899,-89.2857142857143,4,1,0,60,0,0
37038,-88.4955752212389,4,1,0,60,0,0
37454,-87.719298245614,4,1,0,60,0,0
37732,-86.9565217391304,4,1,0,60,0,0
38010,-86.2068965517241,4,1,0,60,0,0
38149,-85.4700854700855,4,1,0,60,0,0
38288,-84.7457627118644,4,1,0,60,0,0
38426,-84.0336134453781,4,1,0,60,0,0
38565,-83.3333333333333,4,1,0,75,0,1
56343,-83.3333333333333,4,1,0,75,0,0

[HitObjects]
128,96,788,5,0,0:0:0:0:
384,96,1343,1,8,0:0:0:0:
128,96,1621,1,0,0:0:0:0:
384,96,1899,1,8,0:0:0:0:
384,96,2176,1,8,0:0:0:0:
384,96,2454,1,8,0:0:0:0:
128,96,2732,1,0,0:0:0:0:
128,96,3010,1,0,0:0:0:0:
384,96,3565,1,8,0:0:0:0:
128,96,3843,1,0,0:0:0:0:
384,96,4121,1,8,0:0:0:0:
128,96,4399,1,0,0:0:0:0:
384,96,4676,1,8,0:0:0:0:
384,96,4954,1,8,0:0:0:0:
128,96,5232,1,0,0:0:0:0:
384,96,5788,1,8,0:0:0:0:
128,96,6065,1,0,0:0:0:0:
384,96,6343,1,8,0:0:0:0:
128,96,6621,1,8,0:0:0:0:
384,96,6899,1,8,0:0:0:0:
128,96,7176,1,0,0:0:0:0:
128,96,7454,1,0,0:0:0:0:
384,96,8010,1,8,0:0:0:0:
128,96,8288,1,0,0:0:0:0:
384,96,8565,1,8,0:0:0:0:
128,96,8843,1,0,0:0:0:0:
384,96,9121,1,8,0:0:0:0:
384,96,9399,1,8,0:0:0:0:
128,96,9676,1,0,0:0:0:0:
128,96,10232,1,0,0:0:0:0:
384,96,10510,1,8,0:0:0:0:
384,96,10788,1,8,0:0:0:0:
128,96,11065,1,0,0:0:0:0:
384,96,11343,1,8,0:0:0:0:
384,96,11621,1,8,0:0:0:0:
128,96,11899,1,0,0:0:0:0:
128,96,12454,1,0,0:0:0:0:
384,96,12732,1,8,0:0:0:0:
384,96,13010,1,8,0:0:0:0:
128,96,13288,1,0,0:0:0:0:
128,96,13565,1,0,0:0:0:0:
384,96,13843,1,8,0:0:0:0:
128,96,14121,1,0,0:0:0:0:
128,96,14676,1,0,0:0:0:0:
384,96,15232,1,8,0:0:0:0:
384,96,15510,1,8,0:0:0:0:
384,96,15788,1,8,0:0:0:0:
128,96,16065,1,0,0:0:0:0:
384,288,16343,1,12,0:0:0:0:
384,96,16899,1,8,0:0:0:0:
128,96,17176,1,0,0:0:0:0:
128,96,17454,1,0,0:0:0:0:
384,96,17732,1,8,0:0:0:0:
384,96,18010,1,8,0:0:0:0:
128,96,18288,1,0,0:0:0:0:
384,96,18565,1,12,0:0:0:0:
128,96,18843,1,0,0:0:0:0:
384,96,19121,1,12,0:0:0:0:
128,96,19399,1,0,0:0:0:0:
384,96,19676,1,12,0:0:0:0:
384,96,19954,1,12,0:0:0:0:
352,96,20232,1,8,0:0:0:0:
352,96,20371,1,8,0:0:0:0:
128,96,20510,1,0,0:0:0:0:
128,288,20788,1,4,0:0:0:0:
128,96,21343,1,0,0:0:0:0:
384,96,21621,1,8,0:0:0:0:
128,96,21899,1,0,0:0:0:0:
384,96,22176,1,8,0:0:0:0:
128,96,22315,1,0,0:0:0:0:
384,96,22454,1,8,0:0:0:0:
384,96,22732,1,8,0:0:0:0:
128,96,23010,1,0,0:0:0:0:
128,96,23565,1,0,0:0:0:0:
384,96,23843,1,8,0:0:0:0:
128,96,24121,1,0,0:0:0:0:
384,96,24399,1,8,0:0:0:0:
128,96,24538,1,0,0:0:0:0:
384,96,24676,1,8,0:0:0:0:
384,96,24954,1,8,0:0:0:0:
128,96,25232,1,0,0:0:0:0:
128,96,25788,1,0,0:0:0:0:
384,96,26065,1,8,0:0:0:0:
128,96,26343,1,0,0:0:0:0:
128,96,26621,1,0,0:0:0:0:
128,96,26760,1,0,0:0:0:0:
384,96,26899,1,8,0:0:0:0:
384,96,27176,1,8,0:0:0:0:
128,96,27454,1,0,0:0:0:0:
128,96,28010,1,0,0:0:0:0:
384,96,28288,1,8,0:0:0:0:
384,96,28565,1,8,0:0:0:0:
128,96,28843,1,0,0:0:0:0:
128,96,28982,1,0,0:0:0:0:
384,96,29121,1,8,0:0:0:0:
128,96,29399,1,0,0:0:0:0:
384,96,29676,1,8,0:0:0:0:
128,96,29954,1,0,0:0:0:0:
128,96,30232,1,0,0:0:0:0:
384,96,30510,1,8,0:0:0:0:
128,96,30788,1,0,0:0:0:0:
384,96,31065,1,8,0:0:0:0:
128,96,31204,1,0,0:0:0:0:
384,96,31343,1,8,0:0:0:0:
128,96,31621,1,0,0:0:0:0:
384,96,31899,1,8,0:0:0:0:
384,96,32176,1,8,0:0:0:0:
128,96,32454,1,0,0:0:0:0:
384,96,32732,1,8,0:0:0:0:
128,96,33010,1,0,0:0:0:0:
384,96,33288,1,8,0:0:0:0:
128,96,33426,1,0,0:0:0:0:
384,96,33565,1,8,0:0:0:0:
128,96,33843,1,0,0:0:0:0:
384,96,33982,1,8,0:0:0:0:
128,96,34121,1,0,0:0:0:0:
128,96,34399,1,0,0:0:0:0:
384,96,34676,1,8,0:0:0:0:
384,96,34954,1,8,0:0:0:0:
128,96,35232,1,0,0:0:0:0:
128,96,35510,1,0,0:0:0:0:
128,96,35649,1,0,0:0:0:0:
384,96,35788,1,8,0:0:0:0:
128,96,36065,1,0,0:0:0:0:
128,96,36343,1,4,0:0:0:0:
384,96,36621,1,12,0:0:0:0:
128,96,36899,1,0,0:0:0:0:
384,96,37038,1,8,0:0:0:0:
384,96,37454,1,8,0:0:0:0:
384,96,37732,1,8,0:0:0:0:
384,96,38010,1,8,0:0:0:0:
384,96,38149,1,8,0:0:0:0:
384,96,38288,1,8,0:0:0:0:
384,96,38426,1,8,0:0:0:0:
128,96,38565,1,4,0:0:0:0:
384,96,39121,1,8,0:0:0:0:
128,96,39399,1,0,0:0:0:0:
128,96,39676,1,0,0:0:0:0:
384,96,39954,1,8,0:0:0:0:
384,96,40232,1,8,0:0:0:0:
128,96,40510,1,0,0:0:0:0:
128,96,40788,1,0,0:0:0:0:
384,96,41343,1,8,0:0:0:0:
128,96,41621,1,0,0:0:0:0:
384,96,41899,1,8,0:0:0:0:
384,96,42454,1,8,0:0:0:0:
128,96,42732,1,0,0:0:0:0:
128,96,43010,1,0,0:0:0:0:
384,96,43565,1,8,0:0:0:0:
128,96,43843,1,0,0:0:0:0:
128,96,44121,1,0,0:0:0:0:
384,96,44399,1,8,0:0:0:0:
384,96,44676,1,8,0:0:0:0:
128,96,44954,1,0,0:0:0:0:
384,96,45232,1,8,0:0:0:0:
384,96,45788,1,8,0:0:0:0:
128,96,46065,1,0,0:0:0:0:
128,96,46343,1,0,0:0:0:0:
128,96,46621,1,0,0:0:0:0:
384,96,46899,1,8,0:0:0:0:
128,96,47176,1,0,0:0:0:0:
384,288,47454,1,12,0:0:0:0:
384,96,48010,1,8,0:0:0:0:
128,96,48288,1,0,0:0:0:0:
128,96,48565,1,0,0:0:0:0:
384,96,48843,1,8,0:0:0:0:
384,96,49121,1,8,0:0:0:0:
128,96,49399,1,0,0:0:0:0:
384,96,49676,1,8,0:0:0:0:
384,96,50232,1,8,0:0:0:0:
128,96,50510,1,0,0:0:0:0:
128,96,50788,1,8,0:0:0:0:
384,96,51065,1,8,0:0:0:0:
384,96,51343,1,0,0:0:0:0:
128,96,51621,1,0,0:0:0:0:
384,288,51899,1,12,0:0:0:0:
384,96,52454,1,8,0:0:0:0:
128,96,52732,1,0,0:0:0:0:
128,96,53010,1,0,0:0:0:0:
384,96,53288,1,8,0:0:0:0:
128,96,53565,1,8,0:0:0:0:
128,96,53843,1,0,0:0:0:0:
384,96,54121,1,8,0:0:0:0:
384,96,54399,1,12,0:0:0:0:
128,96,54676,1,0,0:0:0:0:
384,96,54815,1,8,0:0:0:0:
128,96,54954,1,0,0:0:0:0:
384,96,55232,1,12,0:0:0:0:
384,96,55510,1,12,0:0:0:0:
384,96,55788,1,8,0:0:0:0:
384,96,55926,1,8,0:0:0:0:
384,96,56065,1,8,0:0:0:0:
384,96,56204,1,8,0:0:0:0:
256,192,56343,12,8,59121,0:0:0:0:
