osu file format v14

[General]
AudioFilename: audio.mp3
AudioLeadIn: 0
PreviewTime: 589
Countdown: 0
SampleSet: Normal
StackLeniency: 0.7
Mode: 1
LetterboxInBreaks: 0
WidescreenStoryboard: 1

[Editor]
DistanceSpacing: 1
BeatDivisor: 4
GridSize: 32
TimelineZoom: 3.000005

[Metadata]
Title:Mas alla (TV Size)
TitleUnicode:Más allá (TV Size)
Artist:Sergio Garcia
ArtistUnicode:Sergio García
Creator:_MMMMMM_MMMMMM_
Version:Futsuu
Source:ドラゴンボール超
Tags:dragon ball super lacco tower haruka latino ending anime midnaait anpu español spanish 遥 un-plugged
BeatmapID:1930483
BeatmapSetID:895745

[Difficulty]
HPDrainRate:8.5
CircleSize:2
OverallDifficulty:3
ApproachRate:4
SliderMultiplier:1.4
SliderTickRate:3

[Events]
//Background and Video events
0,0,"bg3.jpg",0,0
Video,370,"mas alla.avi"
//Break Periods
//Storyboard Layer 0 (Background)
//Storyboard Layer 1 (Fail)
//Storyboard Layer 2 (Pass)
//Storyboard Layer 3 (Foreground)
//Storyboard Sound Samples

[TimingPoints]
788,555.555555555556,4,1,0,60,1,0
38565,-100,4,1,0,75,0,1
56343,-100,4,1,0,75,0,0

[HitObjects]
128,96,788,5,0,0:0:0:0:
384,96,1899,1,8,0:0:0:0:
384,96,2454,1,8,0:0:0:0:
128,96,2732,1,0,0:0:0:0:
128,96,3010,1,0,0:0:0:0:
384,96,4121,1,8,0:0:0:0:
384,96,4676,1,8,0:0:0:0:
128,96,5232,1,0,0:0:0:0:
384,96,6343,1,8,0:0:0:0:
384,96,6899,1,8,0:0:0:0:
128,96,7176,1,0,0:0:0:0:
128,96,7454,1,0,0:0:0:0:
384,96,8565,1,8,0:0:0:0:
128,96,9121,1,0,0:0:0:0:
128,96,9676,1,0,0:0:0:0:
128,96,10232,1,0,0:0:0:0:
128,96,10788,1,8,0:0:0:0:
128,96,11343,1,0,0:0:0:0:
128,96,11621,1,0,0:0:0:0:
384,96,11899,1,8,0:0:0:0:
384,96,13010,1,8,0:0:0:0:
128,96,13565,1,0,0:0:0:0:
384,96,13843,1,8,0:0:0:0:
128,96,14121,1,0,0:0:0:0:
128,96,14676,1,0,0:0:0:0:
384,96,15232,1,8,0:0:0:0:
384,288,16343,1,12,0:0:0:0:
384,96,16899,1,8,0:0:0:0:
128,96,17454,1,0,0:0:0:0:
384,96,18010,1,0,0:0:0:0:
384,96,18565,1,8,0:0:0:0:
384,96,19121,1,8,0:0:0:0:
384,96,19676,1,8,0:0:0:0:
384,96,19954,1,8,0:0:0:0:
352,96,20232,1,8,0:0:0:0:
384,96,20510,1,8,0:0:0:0:
128,288,20788,1,4,0:0:0:0:
128,96,21899,1,0,0:0:0:0:
384,96,22454,1,8,0:0:0:0:
128,96,23010,1,0,0:0:0:0:
384,96,23288,1,8,0:0:0:0:
128,96,24121,1,0,0:0:0:0:
384,96,24676,1,8,0:0:0:0:
128,96,25232,1,0,0:0:0:0:
128,96,26343,1,0,0:0:0:0:
384,96,26899,1,8,0:0:0:0:
384,96,27176,1,8,0:0:0:0:
128,96,27454,1,0,0:0:0:0:
128,96,28010,1,0,0:0:0:0:
384,96,29121,1,8,0:0:0:0:
384,96,29676,1,8,0:0:0:0:
128,96,30232,1,0,0:0:0:0:
128,96,30788,1,0,0:0:0:0:
128,96,31065,1,0,0:0:0:0:
384,96,31343,1,8,0:0:0:0:
128,96,31899,1,0,0:0:0:0:
128,96,32454,1,0,0:0:0:0:
128,96,33010,1,0,0:0:0:0:
384,96,33288,1,8,0:0:0:0:
384,96,33565,1,8,0:0:0:0:
128,96,34121,1,0,0:0:0:0:
384,96,34676,1,8,0:0:0:0:
128,96,34954,1,0,0:0:0:0:
128,96,35510,1,0,0:0:0:0:
384,96,35788,1,8,0:0:0:0:
128,96,36343,1,0,0:0:0:0:
128,96,36899,1,0,0:0:0:0:
384,96,37454,1,8,0:0:0:0:
384,96,38010,1,8,0:0:0:0:
384,96,38288,1,8,0:0:0:0:
128,288,38565,1,4,0:0:0:0:
384,96,39121,1,8,0:0:0:0:
128,96,39676,1,0,0:0:0:0:
384,96,40232,1,8,0:0:0:0:
128,96,40788,1,0,0:0:0:0:
384,96,41343,1,8,0:0:0:0:
128,96,41621,1,0,0:0:0:0:
128,96,41899,1,0,0:0:0:0:
384,96,42454,1,8,0:0:0:0:
384,96,43010,1,8,0:0:0:0:
384,96,43565,1,8,0:0:0:0:
128,96,44121,1,0,0:0:0:0:
384,96,44676,1,8,0:0:0:0:
128,96,44954,1,0,0:0:0:0:
384,96,45232,1,8,0:0:0:0:
384,96,45788,1,8,0:0:0:0:
128,96,46343,1,0,0:0:0:0:
128,96,46621,1,0,0:0:0:0:
384,96,46899,1,8,0:0:0:0:
384,288,47454,1,12,0:0:0:0:
128,96,48565,1,0,0:0:0:0:
384,96,49121,1,8,0:0:0:0:
384,96,49676,1,8,0:0:0:0:
128,96,50788,1,0,0:0:0:0:
128,96,51065,1,0,0:0:0:0:
384,96,51343,1,8,0:0:0:0:
384,288,51899,1,12,0:0:0:0:
384,96,52454,1,8,0:0:0:0:
128,96,53010,1,0,0:0:0:0:
128,96,53565,1,0,0:0:0:0:
384,96,54121,1,8,0:0:0:0:
128,96,54676,1,0,0:0:0:0:
384,96,55232,1,8,0:0:0:0:
384,96,55510,1,8,0:0:0:0:
384,96,55788,1,8,0:0:0:0:
384,96,56065,1,8,0:0:0:0:
256,192,56343,12,8,59121,0:0:0:0:
