osu file format v14

[General]
AudioFilename: audio.mp3
AudioLeadIn: 0
PreviewTime: 120745
Countdown: 0
SampleSet: Normal
StackLeniency: 0.7
Mode: 1
LetterboxInBreaks: 0
EpilepsyWarning: 1
WidescreenStoryboard: 1

[Editor]
DistanceSpacing: 1.3
BeatDivisor: 6
GridSize: 32
TimelineZoom: 3.1

[Metadata]
Title:You Are The Only One
TitleUnicode:You Are The Only One
Artist:Sergey Lazarev
ArtistUnicode:Сергей Лазарев
Creator:Shmiklak
Version:Nwolf's Oni
Source:Eurovision Song Contest 2016
Tags:russia russian bakari wajinshu fcl slayed Филипп Киркоров nwolf collab collaboration
BeatmapID:975601
BeatmapSetID:452901

[Difficulty]
HPDrainRate:6
CircleSize:2
OverallDifficulty:5.5
ApproachRate:9
SliderMultiplier:1.4
SliderTickRate:1

[Events]
//Background and Video events
0,0,"bg.jpg",0,0
//Break Periods
//Storyboard Layer 0 (Background)
//Storyboard Layer 1 (Fail)
//Storyboard Layer 2 (Pass)
//Storyboard Layer 3 (Foreground)
//Storyboard Sound Samples

[TimingPoints]
10296,468.75,4,1,0,40,1,0
41546,-96.1538461538461,4,1,0,59,0,0
41702,-92.5925925925926,4,1,0,63,0,0
41858,-89.2857142857143,4,1,0,67,0,0
42014,-86.2068965517241,4,1,0,71,0,0
42171,-83.3333333333333,4,1,0,75,0,0
56702,-81.3008130081301,4,1,0,75,0,0
56858,-79.3650793650794,4,1,0,75,0,0
57014,-77.5193798449612,4,1,0,75,0,0
57171,-75.187969924812,4,1,0,90,0,1
87171,-86.9565217391304,4,1,0,60,0,0
90764,-100,4,1,0,60,0,0
105296,-96.1538461538461,4,1,0,60,0,0
105452,-92.5925925925926,4,1,0,63,0,0
105608,-89.2857142857143,4,1,0,67,0,0
105764,-86.2068965517241,4,1,0,71,0,0
105921,-83.3333333333333,4,1,0,75,0,0
120452,-81.3008130081301,4,1,0,75,0,0
120608,-79.3650793650794,4,1,0,75,0,0
120764,-77.5193798449612,4,1,0,75,0,0
120921,-75.187969924812,4,1,0,90,0,1
150921,-75.187969924812,4,1,0,75,0,0
151077,-111.111111111111,4,1,0,40,0,0
163421,-90.9090909090909,4,1,0,55,0,0
163577,-85.4700854700855,4,1,0,70,0,0
163733,-80,4,1,0,80,0,0
163889,-75.187969924812,4,1,0,90,0,0
164046,-71.4285714285714,4,1,0,100,0,1
173108,-72.992700729927,4,1,0,100,0,1
173264,-75.187969924812,4,1,0,100,0,1
173421,-76.9230769230769,4,1,0,100,0,0
175296,-71.4285714285714,4,1,0,100,0,1
186546,-100,4,1,0,40,0,0
187796,-96.1538461538461,4,1,0,45,0,0
187952,-92.5925925925926,4,1,0,50,0,0
188108,-89.2857142857143,4,1,0,55,0,0
188264,-86.2068965517241,4,1,0,60,0,0
188421,-83.3333333333333,4,1,0,70,0,0

[Colours]
Combo1 : 201,65,54
Combo2 : 192,192,192
Combo3 : 67,71,148
SliderTrackOverride : 100,100,100
SliderBorder : 155,155,100

[HitObjects]
224,160,9827,5,0,0:0:0:0:
224,160,10139,1,0,0:0:0:0:
288,160,10296,1,8,0:0:0:0:
224,160,10608,1,0,0:0:0:0:
224,160,10921,1,0,0:0:0:0:
288,160,11233,1,8,0:0:0:0:
224,160,11546,1,0,0:0:0:0:
224,160,11858,1,0,0:0:0:0:
288,160,12171,1,8,0:0:0:0:
224,160,12483,1,0,0:0:0:0:
224,160,12796,1,0,0:0:0:0:
288,160,13108,1,8,0:0:0:0:
224,160,13421,1,0,0:0:0:0:
224,160,13733,1,0,0:0:0:0:
224,160,13889,1,0,0:0:0:0:
288,160,14046,1,8,0:0:0:0:
288,160,14358,1,8,0:0:0:0:
224,160,14671,1,0,0:0:0:0:
288,160,14983,1,8,0:0:0:0:
224,160,15296,1,0,0:0:0:0:
224,160,15608,1,0,0:0:0:0:
288,160,15921,1,8,0:0:0:0:
288,160,16233,1,8,0:0:0:0:
224,160,16546,1,0,0:0:0:0:
288,160,16858,1,8,0:0:0:0:
224,160,17171,1,0,0:0:0:0:
224,160,17483,1,0,0:0:0:0:
224,160,17639,1,0,0:0:0:0:
288,160,17796,1,8,0:0:0:0:
288,160,18108,1,8,0:0:0:0:
224,160,18421,1,0,0:0:0:0:
288,160,18733,1,8,0:0:0:0:
224,160,18889,1,0,0:0:0:0:
288,160,19046,1,8,0:0:0:0:
224,160,19202,1,0,0:0:0:0:
288,160,19358,1,8,0:0:0:0:
288,160,19514,1,8,0:0:0:0:
288,160,19671,1,8,0:0:0:0:
224,160,19983,1,0,0:0:0:0:
288,160,20139,1,8,0:0:0:0:
224,160,20296,1,0,0:0:0:0:
288,160,20608,1,8,0:0:0:0:
224,160,20921,1,0,0:0:0:0:
224,160,21233,1,0,0:0:0:0:
224,160,21389,1,0,0:0:0:0:
288,160,21546,1,8,0:0:0:0:
224,160,21858,1,0,0:0:0:0:
224,160,22171,1,0,0:0:0:0:
288,160,22483,1,8,0:0:0:0:
224,160,22639,1,0,0:0:0:0:
288,160,22796,1,8,0:0:0:0:
224,160,22952,1,0,0:0:0:0:
288,160,23108,1,8,0:0:0:0:
288,160,23264,1,8,0:0:0:0:
288,160,23421,1,8,0:0:0:0:
288,160,23733,1,8,0:0:0:0:
288,160,23889,1,8,0:0:0:0:
224,160,24046,1,0,0:0:0:0:
288,160,24358,1,8,0:0:0:0:
288,160,24671,1,8,0:0:0:0:
288,160,24983,1,8,0:0:0:0:
224,160,25139,1,0,0:0:0:0:
224,160,25296,1,0,0:0:0:0:
224,160,25608,1,0,0:0:0:0:
224,160,25921,1,0,0:0:0:0:
288,160,26233,1,8,0:0:0:0:
224,160,26389,1,0,0:0:0:0:
288,160,26546,1,8,0:0:0:0:
224,160,26702,1,0,0:0:0:0:
288,160,26858,1,8,0:0:0:0:
288,160,27014,1,8,0:0:0:0:
288,160,27171,1,8,0:0:0:0:
224,160,27483,1,0,0:0:0:0:
288,160,27639,1,8,0:0:0:0:
224,160,27796,1,0,0:0:0:0:
288,160,28108,1,8,0:0:0:0:
288,160,28421,1,8,0:0:0:0:
224,160,28733,1,0,0:0:0:0:
224,160,28889,1,0,0:0:0:0:
288,160,29046,1,8,0:0:0:0:
224,160,29358,1,0,0:0:0:0:
224,160,29671,1,0,0:0:0:0:
288,160,29983,1,8,0:0:0:0:
224,160,30139,1,0,0:0:0:0:
288,160,30296,1,8,0:0:0:0:
224,160,30452,1,0,0:0:0:0:
288,160,30608,1,8,0:0:0:0:
288,160,30764,1,8,0:0:0:0:
288,160,30921,1,8,0:0:0:0:
224,160,31233,1,0,0:0:0:0:
288,160,31546,1,8,0:0:0:0:
224,160,31858,1,0,0:0:0:0:
224,160,32171,1,0,0:0:0:0:
224,160,32483,1,0,0:0:0:0:
224,160,32639,1,0,0:0:0:0:
288,160,32796,1,8,0:0:0:0:
224,160,33108,1,0,0:0:0:0:
224,160,33421,1,0,0:0:0:0:
288,160,33733,1,8,0:0:0:0:
224,160,34046,1,0,0:0:0:0:
224,160,34358,1,0,0:0:0:0:
288,160,34671,1,8,0:0:0:0:
224,160,34983,1,0,0:0:0:0:
224,160,35296,1,0,0:0:0:0:
288,160,35608,1,8,0:0:0:0:
288,160,35921,1,8,0:0:0:0:
288,160,36077,1,8,0:0:0:0:
224,160,36233,1,0,0:0:0:0:
288,160,36546,1,8,0:0:0:0:
288,160,36858,1,8,0:0:0:0:
288,160,37171,1,8,0:0:0:0:
224,160,37483,1,0,0:0:0:0:
224,160,37796,1,0,0:0:0:0:
224,160,38108,1,0,0:0:0:0:
288,160,38421,1,8,0:0:0:0:
224,160,38733,1,0,0:0:0:0:
224,160,39046,1,0,0:0:0:0:
288,160,39358,1,8,0:0:0:0:
224,160,39671,1,0,0:0:0:0:
224,160,39983,1,0,0:0:0:0:
224,160,40139,1,0,0:0:0:0:
224,160,40296,1,0,0:0:0:0:
224,224,41546,1,4,0:0:0:0:
224,224,41702,1,4,0:0:0:0:
224,224,41858,1,4,0:0:0:0:
224,224,42014,1,4,0:0:0:0:
224,224,42171,5,4,0:0:0:0:
224,160,42483,1,0,0:0:0:0:
288,160,42639,1,8,0:0:0:0:
288,160,42796,1,8,0:0:0:0:
288,160,42952,1,8,0:0:0:0:
224,160,43108,1,0,0:0:0:0:
224,160,43421,1,0,0:0:0:0:
288,160,43577,1,8,0:0:0:0:
224,160,43733,1,0,0:0:0:0:
288,160,44046,1,8,0:0:0:0:
224,160,44358,1,0,0:0:0:0:
288,160,44514,1,8,0:0:0:0:
288,160,44671,1,8,0:0:0:0:
224,160,44983,1,0,0:0:0:0:
224,160,45296,1,0,0:0:0:0:
288,160,45452,1,8,0:0:0:0:
224,160,45608,1,0,0:0:0:0:
288,160,45764,1,8,0:0:0:0:
224,160,45921,1,0,0:0:0:0:
224,160,46233,1,0,0:0:0:0:
288,160,46389,1,8,0:0:0:0:
288,160,46546,1,8,0:0:0:0:
288,160,46702,1,8,0:0:0:0:
224,160,46858,1,0,0:0:0:0:
224,160,47171,1,0,0:0:0:0:
288,160,47327,1,8,0:0:0:0:
224,160,47483,1,0,0:0:0:0:
288,160,47639,1,8,0:0:0:0:
288,160,47796,1,8,0:0:0:0:
224,160,48108,1,0,0:0:0:0:
288,160,48264,1,8,0:0:0:0:
288,160,48421,1,8,0:0:0:0:
224,160,48733,1,0,0:0:0:0:
224,160,49046,1,0,0:0:0:0:
288,224,49202,1,12,0:0:0:0:
288,224,49358,1,12,0:0:0:0:
288,224,49514,1,12,0:0:0:0:
224,224,49671,1,4,0:0:0:0:
224,160,49827,1,0,0:0:0:0:
224,160,49983,1,0,0:0:0:0:
288,160,50139,1,8,0:0:0:0:
288,160,50296,1,8,0:0:0:0:
288,160,50452,1,8,0:0:0:0:
224,160,50608,1,0,0:0:0:0:
224,160,50921,1,0,0:0:0:0:
288,160,51077,1,8,0:0:0:0:
224,160,51233,1,0,0:0:0:0:
288,160,51546,1,8,0:0:0:0:
224,160,51858,1,0,0:0:0:0:
288,160,52014,1,8,0:0:0:0:
288,160,52171,1,8,0:0:0:0:
224,160,52483,1,0,0:0:0:0:
224,160,52796,1,0,0:0:0:0:
288,160,52952,1,8,0:0:0:0:
288,160,53108,1,8,0:0:0:0:
224,160,53264,1,0,0:0:0:0:
288,160,53421,1,8,0:0:0:0:
224,160,53733,1,0,0:0:0:0:
288,160,53889,1,8,0:0:0:0:
224,160,54046,1,0,0:0:0:0:
288,160,54358,1,8,0:0:0:0:
224,160,54671,1,0,0:0:0:0:
288,160,54827,1,8,0:0:0:0:
224,160,54983,1,0,0:0:0:0:
224,160,55296,1,0,0:0:0:0:
288,224,56233,1,12,0:0:0:0:
224,224,56546,1,4,0:0:0:0:
288,224,56702,1,12,0:0:0:0:
288,224,56858,1,12,0:0:0:0:
288,224,57014,1,12,0:0:0:0:
224,224,57171,5,4,0:0:0:0:
224,160,57483,1,0,0:0:0:0:
288,160,57639,1,8,0:0:0:0:
224,160,57796,1,0,0:0:0:0:
224,160,58108,1,0,0:0:0:0:
224,160,58421,1,0,0:0:0:0:
288,160,58577,1,8,0:0:0:0:
224,160,58733,1,0,0:0:0:0:
288,160,59046,1,8,0:0:0:0:
288,160,59358,1,8,0:0:0:0:
224,160,59514,1,0,0:0:0:0:
288,160,59671,1,8,0:0:0:0:
288,160,59983,1,8,0:0:0:0:
288,160,60296,1,8,0:0:0:0:
224,160,60452,1,0,0:0:0:0:
224,160,60608,1,0,0:0:0:0:
288,160,60764,1,8,0:0:0:0:
224,160,60921,1,0,0:0:0:0:
224,160,61233,1,0,0:0:0:0:
288,160,61389,1,8,0:0:0:0:
224,160,61546,1,0,0:0:0:0:
288,160,61858,1,8,0:0:0:0:
288,160,62171,1,8,0:0:0:0:
224,160,62327,1,0,0:0:0:0:
288,160,62483,1,8,0:0:0:0:
288,160,62639,1,8,0:0:0:0:
224,160,62796,1,0,0:0:0:0:
224,160,63108,1,0,0:0:0:0:
288,160,63264,1,8,0:0:0:0:
224,160,63421,1,0,0:0:0:0:
224,160,63499,1,0,0:0:0:0:
288,160,63577,1,8,0:0:0:0:
224,160,63733,1,0,0:0:0:0:
224,160,64046,1,0,0:0:0:0:
288,160,64202,1,8,0:0:0:0:
224,160,64358,1,0,0:0:0:0:
224,160,64514,1,0,0:0:0:0:
288,224,64671,1,12,0:0:0:0:
288,160,64983,1,8,0:0:0:0:
224,160,65139,1,0,0:0:0:0:
288,160,65296,1,8,0:0:0:0:
288,160,65608,1,8,0:0:0:0:
288,160,65921,1,8,0:0:0:0:
224,160,66077,1,0,0:0:0:0:
288,160,66233,1,8,0:0:0:0:
224,160,66546,1,0,0:0:0:0:
224,160,66858,1,0,0:0:0:0:
288,160,67014,1,8,0:0:0:0:
224,160,67171,1,0,0:0:0:0:
224,160,67483,1,0,0:0:0:0:
224,160,67796,1,0,0:0:0:0:
288,160,67952,1,8,0:0:0:0:
288,160,68108,1,8,0:0:0:0:
224,160,68264,1,0,0:0:0:0:
288,160,68421,1,8,0:0:0:0:
224,160,68733,1,0,0:0:0:0:
288,160,68889,1,8,0:0:0:0:
288,160,69046,1,8,0:0:0:0:
224,160,69358,1,0,0:0:0:0:
288,160,69671,1,8,0:0:0:0:
288,160,69827,1,8,0:0:0:0:
224,160,69983,1,0,0:0:0:0:
224,160,70139,1,0,0:0:0:0:
288,160,70296,1,8,0:0:0:0:
288,160,70608,1,8,0:0:0:0:
224,160,70764,1,0,0:0:0:0:
288,160,70921,1,8,0:0:0:0:
288,160,70999,1,8,0:0:0:0:
224,160,71077,1,0,0:0:0:0:
288,160,71233,1,8,0:0:0:0:
288,160,71546,1,8,0:0:0:0:
224,160,71702,1,0,0:0:0:0:
224,160,71858,1,0,0:0:0:0:
288,160,72014,1,8,0:0:0:0:
224,224,72171,1,4,0:0:0:0:
288,160,72483,1,8,0:0:0:0:
224,160,72639,1,0,0:0:0:0:
288,160,72796,1,8,0:0:0:0:
224,160,72952,1,0,0:0:0:0:
288,160,73108,1,8,0:0:0:0:
224,160,73264,1,0,0:0:0:0:
288,160,73421,1,8,0:0:0:0:
288,160,73499,1,8,0:0:0:0:
224,160,73577,1,0,0:0:0:0:
288,160,73733,1,8,0:0:0:0:
224,224,74046,1,4,0:0:0:0:
288,160,74358,1,8,0:0:0:0:
288,160,74514,1,8,0:0:0:0:
288,160,74671,1,8,0:0:0:0:
224,160,74827,1,0,0:0:0:0:
288,160,74983,1,8,0:0:0:0:
224,160,75139,1,0,0:0:0:0:
288,160,75296,1,8,0:0:0:0:
288,160,75452,1,8,0:0:0:0:
288,160,75608,1,8,0:0:0:0:
224,224,75921,1,4,0:0:0:0:
288,160,76233,1,8,0:0:0:0:
224,160,76389,1,0,0:0:0:0:
288,160,76546,1,8,0:0:0:0:
224,160,76702,1,0,0:0:0:0:
288,160,76858,1,8,0:0:0:0:
224,160,77014,1,0,0:0:0:0:
288,160,77171,1,8,0:0:0:0:
288,160,77249,1,8,0:0:0:0:
224,160,77327,1,0,0:0:0:0:
288,160,77483,1,8,0:0:0:0:
224,224,77796,1,4,0:0:0:0:
224,160,77952,1,0,0:0:0:0:
288,160,78108,1,8,0:0:0:0:
224,160,78264,1,0,0:0:0:0:
288,160,78421,1,8,0:0:0:0:
224,160,78577,1,0,0:0:0:0:
288,160,78733,1,8,0:0:0:0:
224,160,79046,1,0,0:0:0:0:
288,160,79202,1,8,0:0:0:0:
288,160,79358,1,8,0:0:0:0:
224,160,79514,1,0,0:0:0:0:
288,224,79671,1,12,0:0:0:0:
224,160,79983,1,0,0:0:0:0:
288,160,80139,1,8,0:0:0:0:
288,160,80296,1,8,0:0:0:0:
288,160,80452,1,8,0:0:0:0:
288,160,80608,1,8,0:0:0:0:
224,160,80764,1,0,0:0:0:0:
288,160,80921,1,8,0:0:0:0:
224,160,81077,1,0,0:0:0:0:
288,160,81233,1,8,0:0:0:0:
288,160,81546,1,8,0:0:0:0:
224,160,81702,1,0,0:0:0:0:
288,160,81858,1,8,0:0:0:0:
224,160,82014,1,0,0:0:0:0:
288,160,82171,1,8,0:0:0:0:
288,160,82327,1,8,0:0:0:0:
288,160,82483,1,8,0:0:0:0:
224,160,82639,1,0,0:0:0:0:
288,160,82796,1,8,0:0:0:0:
224,160,82952,1,0,0:0:0:0:
288,160,83108,1,8,0:0:0:0:
224,224,83421,1,4,0:0:0:0:
288,160,83733,1,8,0:0:0:0:
288,160,83889,1,8,0:0:0:0:
288,160,84046,1,8,0:0:0:0:
224,160,84202,1,0,0:0:0:0:
288,224,84358,1,12,0:0:0:0:
224,160,84514,1,0,0:0:0:0:
288,160,84671,1,8,0:0:0:0:
224,160,84827,1,0,0:0:0:0:
288,160,84983,1,8,0:0:0:0:
288,160,85139,1,8,0:0:0:0:
224,224,85296,1,4,0:0:0:0:
288,160,85608,1,8,0:0:0:0:
224,160,85764,1,0,0:0:0:0:
288,160,85921,1,8,0:0:0:0:
288,160,86233,1,8,0:0:0:0:
224,224,87171,5,4,0:0:0:0:
288,160,87639,1,8,0:0:0:0:
224,160,88108,1,0,0:0:0:0:
224,160,88421,1,0,0:0:0:0:
288,160,88577,1,8,0:0:0:0:
224,160,88733,1,0,0:0:0:0:
224,160,89046,1,0,0:0:0:0:
224,160,89358,1,0,0:0:0:0:
288,160,89514,1,8,0:0:0:0:
224,160,89671,1,0,0:0:0:0:
288,224,89983,1,12,0:0:0:0:
288,224,90452,1,12,0:0:0:0:
224,224,90921,1,4,0:0:0:0:
224,160,91389,1,0,0:0:0:0:
224,160,91546,1,0,0:0:0:0:
224,160,91702,1,0,0:0:0:0:
224,160,91858,1,0,0:0:0:0:
224,160,92171,1,0,0:0:0:0:
224,160,92327,1,0,0:0:0:0:
224,160,92483,1,0,0:0:0:0:
224,160,92796,1,0,0:0:0:0:
224,160,93108,1,0,0:0:0:0:
224,160,93264,1,0,0:0:0:0:
224,160,93421,1,0,0:0:0:0:
224,160,93733,1,0,0:0:0:0:
224,160,94046,1,0,0:0:0:0:
224,160,94671,1,0,0:0:0:0:
224,160,95139,1,0,0:0:0:0:
224,160,95296,1,0,0:0:0:0:
224,160,95452,1,0,0:0:0:0:
224,160,95608,1,0,0:0:0:0:
224,160,95921,1,0,0:0:0:0:
224,160,96077,1,0,0:0:0:0:
224,160,96233,1,0,0:0:0:0:
224,160,96546,1,0,0:0:0:0:
224,160,96858,1,0,0:0:0:0:
224,160,97171,1,0,0:0:0:0:
224,160,97327,1,0,0:0:0:0:
288,160,97483,1,8,0:0:0:0:
288,160,97796,1,8,0:0:0:0:
224,160,97952,1,0,0:0:0:0:
288,160,98108,1,8,0:0:0:0:
288,160,98264,1,8,0:0:0:0:
224,160,98421,1,0,0:0:0:0:
224,160,98889,1,0,0:0:0:0:
224,160,99046,1,0,0:0:0:0:
224,160,99202,1,0,0:0:0:0:
224,160,99358,1,0,0:0:0:0:
224,160,99671,1,0,0:0:0:0:
224,160,99827,1,0,0:0:0:0:
224,160,99983,1,0,0:0:0:0:
224,160,100296,1,0,0:0:0:0:
224,160,100608,1,0,0:0:0:0:
224,160,100764,1,0,0:0:0:0:
224,160,100921,1,0,0:0:0:0:
288,160,101233,1,8,0:0:0:0:
288,160,101546,1,8,0:0:0:0:
224,160,101702,1,0,0:0:0:0:
224,160,101858,1,0,0:0:0:0:
224,160,102171,1,0,0:0:0:0:
224,160,102639,1,0,0:0:0:0:
224,160,102796,1,0,0:0:0:0:
224,160,102952,1,0,0:0:0:0:
224,160,103108,1,0,0:0:0:0:
224,160,103421,1,0,0:0:0:0:
224,160,103577,1,0,0:0:0:0:
288,160,103733,1,8,0:0:0:0:
224,160,103889,1,0,0:0:0:0:
288,160,104046,1,8,0:0:0:0:
288,160,104358,1,8,0:0:0:0:
224,160,104514,1,0,0:0:0:0:
288,160,104671,1,8,0:0:0:0:
224,160,104983,1,0,0:0:0:0:
224,224,105296,1,4,0:0:0:0:
224,224,105452,1,4,0:0:0:0:
224,224,105608,1,4,0:0:0:0:
224,224,105764,1,4,0:0:0:0:
224,224,105921,5,4,0:0:0:0:
224,224,106233,1,4,0:0:0:0:
288,160,106389,1,8,0:0:0:0:
288,160,106546,1,8,0:0:0:0:
288,160,106702,1,8,0:0:0:0:
224,160,106858,1,0,0:0:0:0:
224,160,107171,1,0,0:0:0:0:
288,160,107327,1,8,0:0:0:0:
224,160,107483,1,0,0:0:0:0:
288,160,107796,1,8,0:0:0:0:
224,160,108108,1,0,0:0:0:0:
288,160,108264,1,8,0:0:0:0:
288,160,108421,1,8,0:0:0:0:
224,160,108733,1,0,0:0:0:0:
224,160,109046,1,0,0:0:0:0:
288,160,109202,1,8,0:0:0:0:
288,160,109358,1,8,0:0:0:0:
224,160,109514,1,0,0:0:0:0:
224,224,109671,1,4,0:0:0:0:
224,160,109983,1,0,0:0:0:0:
288,160,110139,1,8,0:0:0:0:
288,160,110296,1,8,0:0:0:0:
288,160,110452,1,8,0:0:0:0:
224,160,110608,1,0,0:0:0:0:
224,160,110921,1,0,0:0:0:0:
288,160,111077,1,8,0:0:0:0:
224,160,111233,1,0,0:0:0:0:
288,160,111389,1,8,0:0:0:0:
288,160,111546,1,8,0:0:0:0:
224,160,111858,1,0,0:0:0:0:
288,160,112014,1,8,0:0:0:0:
288,160,112171,1,8,0:0:0:0:
224,160,112483,1,0,0:0:0:0:
224,160,112796,1,0,0:0:0:0:
288,224,112952,1,12,0:0:0:0:
288,224,113108,1,12,0:0:0:0:
288,224,113264,1,12,0:0:0:0:
224,224,113421,1,4,0:0:0:0:
224,224,113577,1,4,0:0:0:0:
224,224,113733,1,4,0:0:0:0:
288,160,113889,1,8,0:0:0:0:
288,160,114046,1,8,0:0:0:0:
288,160,114202,1,8,0:0:0:0:
224,160,114358,1,0,0:0:0:0:
224,160,114671,1,0,0:0:0:0:
288,160,114827,1,8,0:0:0:0:
224,160,114983,1,0,0:0:0:0:
288,160,115296,1,8,0:0:0:0:
224,160,115608,1,0,0:0:0:0:
288,160,115764,1,8,0:0:0:0:
288,160,115921,1,8,0:0:0:0:
224,160,116233,1,0,0:0:0:0:
224,160,116546,1,0,0:0:0:0:
288,224,116702,1,12,0:0:0:0:
224,160,116858,1,0,0:0:0:0:
288,160,117014,1,8,0:0:0:0:
224,224,117171,1,4,0:0:0:0:
224,160,117483,1,0,0:0:0:0:
288,160,117639,1,8,0:0:0:0:
288,160,117796,1,8,0:0:0:0:
224,160,118108,1,0,0:0:0:0:
224,160,118421,1,0,0:0:0:0:
288,160,118577,1,8,0:0:0:0:
224,160,118733,1,0,0:0:0:0:
224,224,119046,1,4,0:0:0:0:
224,160,119983,1,0,0:0:0:0:
288,224,120296,1,12,0:0:0:0:
288,224,120452,1,12,0:0:0:0:
288,224,120608,1,12,0:0:0:0:
288,224,120764,1,12,0:0:0:0:
224,224,120921,5,4,0:0:0:0:
224,160,121233,1,0,0:0:0:0:
288,160,121389,1,8,0:0:0:0:
288,160,121546,1,8,0:0:0:0:
224,160,121702,1,0,0:0:0:0:
288,160,121858,1,8,0:0:0:0:
224,160,122171,1,0,0:0:0:0:
288,160,122327,1,8,0:0:0:0:
224,160,122483,1,0,0:0:0:0:
288,160,122639,1,8,0:0:0:0:
224,160,122796,1,0,0:0:0:0:
224,160,123108,1,0,0:0:0:0:
288,160,123264,1,8,0:0:0:0:
224,160,123421,1,0,0:0:0:0:
224,160,123577,1,0,0:0:0:0:
288,160,123733,1,8,0:0:0:0:
288,160,124046,1,8,0:0:0:0:
224,160,124202,1,0,0:0:0:0:
288,160,124358,1,8,0:0:0:0:
224,160,124514,1,0,0:0:0:0:
288,160,124671,1,8,0:0:0:0:
288,160,124983,1,8,0:0:0:0:
288,160,125139,1,8,0:0:0:0:
288,160,125296,1,8,0:0:0:0:
224,160,125452,1,0,0:0:0:0:
288,160,125608,1,8,0:0:0:0:
224,160,125921,1,0,0:0:0:0:
288,160,126077,1,8,0:0:0:0:
224,160,126233,1,0,0:0:0:0:
224,160,126389,1,0,0:0:0:0:
224,160,126546,1,0,0:0:0:0:
224,160,126858,1,0,0:0:0:0:
288,160,127014,1,8,0:0:0:0:
224,160,127171,1,0,0:0:0:0:
224,160,127249,1,0,0:0:0:0:
288,160,127327,1,8,0:0:0:0:
224,160,127483,1,0,0:0:0:0:
224,160,127796,1,0,0:0:0:0:
288,160,127952,1,8,0:0:0:0:
224,160,128108,1,0,0:0:0:0:
224,160,128264,1,0,0:0:0:0:
288,224,128421,1,12,0:0:0:0:
224,160,128733,1,0,0:0:0:0:
288,160,128889,1,8,0:0:0:0:
288,160,129046,1,8,0:0:0:0:
224,160,129202,1,0,0:0:0:0:
288,160,129358,1,8,0:0:0:0:
224,160,129671,1,0,0:0:0:0:
288,160,129827,1,8,0:0:0:0:
288,160,129983,1,8,0:0:0:0:
224,160,130139,1,0,0:0:0:0:
224,160,130296,1,0,0:0:0:0:
224,160,130608,1,0,0:0:0:0:
288,160,130764,1,8,0:0:0:0:
224,160,130921,1,0,0:0:0:0:
224,160,131077,1,0,0:0:0:0:
288,160,131233,1,8,0:0:0:0:
288,160,131546,1,8,0:0:0:0:
224,160,131702,1,0,0:0:0:0:
224,160,131858,1,0,0:0:0:0:
288,160,132014,1,8,0:0:0:0:
288,160,132171,1,8,0:0:0:0:
224,160,132483,1,0,0:0:0:0:
288,160,132639,1,8,0:0:0:0:
224,160,132796,1,0,0:0:0:0:
288,160,132952,1,8,0:0:0:0:
288,160,133108,1,8,0:0:0:0:
224,160,133421,1,0,0:0:0:0:
288,160,133577,1,8,0:0:0:0:
288,160,133733,1,8,0:0:0:0:
288,160,133889,1,8,0:0:0:0:
224,160,134046,1,0,0:0:0:0:
288,160,134358,1,8,0:0:0:0:
224,160,134514,1,0,0:0:0:0:
288,160,134671,1,8,0:0:0:0:
288,160,134749,1,8,0:0:0:0:
288,160,134827,1,8,0:0:0:0:
224,224,134983,1,4,0:0:0:0:
288,160,135296,1,8,0:0:0:0:
224,224,135452,1,4,0:0:0:0:
288,160,135608,1,8,0:0:0:0:
288,160,135764,1,8,0:0:0:0:
224,224,135921,1,4,0:0:0:0:
288,160,136233,1,8,0:0:0:0:
224,160,136389,1,0,0:0:0:0:
288,160,136546,1,8,0:0:0:0:
224,160,136702,1,0,0:0:0:0:
288,160,136858,1,8,0:0:0:0:
224,160,137014,1,0,0:0:0:0:
288,160,137171,1,8,0:0:0:0:
288,160,137249,1,8,0:0:0:0:
224,160,137327,1,0,0:0:0:0:
288,160,137483,1,8,0:0:0:0:
224,160,137639,1,0,0:0:0:0:
288,224,137796,1,12,0:0:0:0:
288,160,138108,1,8,0:0:0:0:
288,160,138264,1,8,0:0:0:0:
288,160,138421,1,8,0:0:0:0:
224,160,138577,1,0,0:0:0:0:
288,160,138733,1,8,0:0:0:0:
224,160,138889,1,0,0:0:0:0:
288,160,139046,1,8,0:0:0:0:
288,160,139202,1,8,0:0:0:0:
288,160,139358,1,8,0:0:0:0:
224,160,139514,1,0,0:0:0:0:
288,224,139671,1,12,0:0:0:0:
288,160,139983,1,8,0:0:0:0:
224,160,140139,1,0,0:0:0:0:
288,160,140296,1,8,0:0:0:0:
224,160,140452,1,0,0:0:0:0:
288,160,140608,1,8,0:0:0:0:
224,160,140764,1,0,0:0:0:0:
288,160,140921,1,8,0:0:0:0:
288,160,140999,1,8,0:0:0:0:
224,160,141077,1,0,0:0:0:0:
288,160,141233,1,8,0:0:0:0:
224,160,141389,1,0,0:0:0:0:
288,224,141546,1,12,0:0:0:0:
224,160,141702,1,0,0:0:0:0:
288,160,141858,1,8,0:0:0:0:
288,160,142014,1,8,0:0:0:0:
288,160,142171,1,8,0:0:0:0:
224,160,142327,1,0,0:0:0:0:
288,160,142483,1,8,0:0:0:0:
288,160,142796,1,8,0:0:0:0:
224,224,142952,1,4,0:0:0:0:
224,224,143108,1,4,0:0:0:0:
224,224,143264,1,4,0:0:0:0:
288,224,143421,1,12,0:0:0:0:
224,160,143733,1,0,0:0:0:0:
288,160,143889,1,8,0:0:0:0:
288,160,144046,1,8,0:0:0:0:
288,160,144202,1,8,0:0:0:0:
288,160,144358,1,8,0:0:0:0:
224,160,144514,1,0,0:0:0:0:
288,160,144671,1,8,0:0:0:0:
224,160,144827,1,0,0:0:0:0:
288,160,144983,1,8,0:0:0:0:
288,160,145139,1,8,0:0:0:0:
288,160,145296,1,8,0:0:0:0:
224,160,145452,1,0,0:0:0:0:
288,160,145608,1,8,0:0:0:0:
224,160,145764,1,0,0:0:0:0:
288,160,145921,1,8,0:0:0:0:
288,160,146077,1,8,0:0:0:0:
288,160,146233,1,8,0:0:0:0:
224,160,146389,1,0,0:0:0:0:
288,160,146546,1,8,0:0:0:0:
224,160,146702,1,0,0:0:0:0:
288,160,146858,1,8,0:0:0:0:
224,224,147171,1,4,0:0:0:0:
288,160,147483,1,8,0:0:0:0:
224,160,147639,1,0,0:0:0:0:
288,160,147796,1,8,0:0:0:0:
288,160,147952,1,8,0:0:0:0:
224,224,148108,1,4,0:0:0:0:
288,160,148264,1,8,0:0:0:0:
224,160,148421,1,0,0:0:0:0:
288,160,148577,1,8,0:0:0:0:
224,160,148733,1,0,0:0:0:0:
224,160,148889,1,0,0:0:0:0:
288,224,149046,1,12,0:0:0:0:
288,160,149358,1,8,0:0:0:0:
224,160,149514,1,0,0:0:0:0:
288,160,149671,1,8,0:0:0:0:
288,160,149983,1,8,0:0:0:0:
224,160,150296,1,0,0:0:0:0:
288,160,150452,1,8,0:0:0:0:
288,160,150608,1,8,0:0:0:0:
288,160,150764,1,8,0:0:0:0:
224,224,150921,5,4,0:0:0:0:
224,160,152796,1,0,0:0:0:0:
224,160,154671,1,0,0:0:0:0:
224,160,156546,1,0,0:0:0:0:
288,160,157249,1,8,0:0:0:0:
288,160,157639,1,8,0:0:0:0:
288,160,157952,1,8,0:0:0:0:
288,160,158264,1,8,0:0:0:0:
288,160,158733,1,8,0:0:0:0:
224,160,160296,1,0,0:0:0:0:
224,160,162171,1,0,0:0:0:0:
288,160,163108,1,8,0:0:0:0:
288,224,163421,1,12,0:0:0:0:
288,224,163577,1,12,0:0:0:0:
288,224,163733,1,12,0:0:0:0:
288,224,163889,1,12,0:0:0:0:
224,224,164046,1,4,0:0:0:0:
224,160,164358,1,0,0:0:0:0:
288,160,164514,1,8,0:0:0:0:
288,160,164671,1,8,0:0:0:0:
224,160,164827,1,0,0:0:0:0:
288,160,164983,1,8,0:0:0:0:
224,160,165296,1,0,0:0:0:0:
288,160,165452,1,8,0:0:0:0:
224,160,165608,1,0,0:0:0:0:
224,160,165764,1,0,0:0:0:0:
288,160,165921,1,8,0:0:0:0:
288,160,166233,1,8,0:0:0:0:
224,160,166389,1,0,0:0:0:0:
288,160,166546,1,8,0:0:0:0:
288,160,166702,1,8,0:0:0:0:
224,160,166858,1,0,0:0:0:0:
288,160,167171,1,8,0:0:0:0:
224,160,167327,1,0,0:0:0:0:
224,160,167483,1,0,0:0:0:0:
288,160,167639,1,8,0:0:0:0:
224,160,167796,1,0,0:0:0:0:
224,160,168108,1,0,0:0:0:0:
288,160,168264,1,8,0:0:0:0:
224,160,168421,1,0,0:0:0:0:
288,160,168577,1,8,0:0:0:0:
288,160,168733,1,8,0:0:0:0:
224,160,169046,1,0,0:0:0:0:
288,160,169202,1,8,0:0:0:0:
288,160,169358,1,8,0:0:0:0:
288,160,169514,1,8,0:0:0:0:
224,160,169671,1,0,0:0:0:0:
288,160,169827,1,8,0:0:0:0:
224,160,169983,1,0,0:0:0:0:
288,160,170139,1,8,0:0:0:0:
224,160,170296,1,0,0:0:0:0:
224,160,170374,1,0,0:0:0:0:
288,160,170452,1,8,0:0:0:0:
224,160,170608,1,0,0:0:0:0:
224,160,170921,1,0,0:0:0:0:
288,160,171077,1,8,0:0:0:0:
224,160,171233,1,0,0:0:0:0:
288,160,171389,1,8,0:0:0:0:
288,160,171546,1,8,0:0:0:0:
288,160,171858,1,8,0:0:0:0:
224,160,172014,1,0,0:0:0:0:
288,160,172171,1,8,0:0:0:0:
224,160,172327,1,0,0:0:0:0:
288,160,172483,1,8,0:0:0:0:
224,160,172639,1,0,0:0:0:0:
288,160,172796,1,8,0:0:0:0:
224,160,172952,1,0,0:0:0:0:
288,224,173108,1,12,0:0:0:0:
224,224,173264,1,4,0:0:0:0:
224,224,173421,1,4,0:0:0:0:
224,160,173733,1,0,0:0:0:0:
224,160,174046,1,0,0:0:0:0:
224,160,174358,1,0,0:0:0:0:
224,160,174671,1,0,0:0:0:0:
224,160,174983,1,0,0:0:0:0:
224,160,175139,1,0,0:0:0:0:
288,224,175296,1,12,0:0:0:0:
224,160,175608,1,0,0:0:0:0:
288,160,175764,1,8,0:0:0:0:
224,160,175921,1,0,0:0:0:0:
288,160,176077,1,8,0:0:0:0:
288,160,176233,1,8,0:0:0:0:
224,160,176389,1,0,0:0:0:0:
288,160,176546,1,8,0:0:0:0:
288,160,176624,1,8,0:0:0:0:
224,160,176702,1,0,0:0:0:0:
288,160,176858,1,8,0:0:0:0:
288,160,177014,1,8,0:0:0:0:
224,224,177171,1,4,0:0:0:0:
224,160,177327,1,0,0:0:0:0:
288,160,177483,1,8,0:0:0:0:
288,160,177639,1,8,0:0:0:0:
288,160,177796,1,8,0:0:0:0:
224,160,177952,1,0,0:0:0:0:
288,160,178108,1,8,0:0:0:0:
224,160,178264,1,0,0:0:0:0:
224,160,178421,1,0,0:0:0:0:
288,160,178577,1,8,0:0:0:0:
224,160,178733,1,0,0:0:0:0:
224,160,178889,1,0,0:0:0:0:
288,224,179046,1,12,0:0:0:0:
224,160,179358,1,0,0:0:0:0:
288,160,179514,1,8,0:0:0:0:
288,160,179671,1,8,0:0:0:0:
288,160,179827,1,8,0:0:0:0:
288,160,179983,1,8,0:0:0:0:
224,160,180139,1,0,0:0:0:0:
288,160,180296,1,8,0:0:0:0:
224,160,180452,1,0,0:0:0:0:
288,160,180608,1,8,0:0:0:0:
288,160,180764,1,8,0:0:0:0:
288,160,180921,1,8,0:0:0:0:
224,160,181077,1,0,0:0:0:0:
288,160,181233,1,8,0:0:0:0:
224,160,181389,1,0,0:0:0:0:
288,160,181546,1,8,0:0:0:0:
288,160,181702,1,8,0:0:0:0:
288,160,181858,1,8,0:0:0:0:
224,160,182014,1,0,0:0:0:0:
288,160,182171,1,8,0:0:0:0:
224,160,182327,1,0,0:0:0:0:
288,160,182483,1,8,0:0:0:0:
288,160,182639,1,8,0:0:0:0:
224,224,182796,1,4,0:0:0:0:
288,160,183108,1,8,0:0:0:0:
224,160,183264,1,0,0:0:0:0:
288,160,183421,1,8,0:0:0:0:
288,160,183577,1,8,0:0:0:0:
288,160,183733,1,8,0:0:0:0:
224,160,183889,1,0,0:0:0:0:
288,160,184046,1,8,0:0:0:0:
224,160,184202,1,0,0:0:0:0:
288,160,184358,1,8,0:0:0:0:
224,160,184514,1,0,0:0:0:0:
288,224,184671,1,12,0:0:0:0:
224,160,184827,1,0,0:0:0:0:
288,224,184983,1,12,0:0:0:0:
224,160,185139,1,0,0:0:0:0:
288,224,185296,1,12,0:0:0:0:
224,160,185452,1,0,0:0:0:0:
288,224,185608,1,12,0:0:0:0:
224,160,186546,5,0,0:0:0:0:
224,160,186858,1,0,0:0:0:0:
224,160,187171,1,0,0:0:0:0:
224,160,187483,1,0,0:0:0:0:
224,224,187796,1,4,0:0:0:0:
224,224,187952,1,4,0:0:0:0:
224,224,188108,1,4,0:0:0:0:
224,224,188264,1,4,0:0:0:0:
288,224,188421,1,12,0:0:0:0:
