osu file format v14

[General]
AudioFilename: audio.mp3
AudioLeadIn: 0
PreviewTime: 52415
Countdown: 1
SampleSet: Normal
StackLeniency: 0.7
Mode: 0
LetterboxInBreaks: 0
WidescreenStoryboard: 0

[Editor]
Bookmarks: 39408,52533,114408,127533,159388,172513
DistanceSpacing: 1
BeatDivisor: 4
GridSize: 4
TimelineZoom: 1

[Metadata]
Title:Eto vse ona
TitleUnicode:Eto vse ona
Artist:Sergey Lazarev (Dj Borislav Taran-Off dance remix 2016)
ArtistUnicode:Sergey Lazarev (Dj Borislav Taran-Off dance remix 2016)
Creator:buhaha
Version:Hard
Source:
Tags:russian pop club house dance male vocalists
BeatmapID:1114714
BeatmapSetID:525239

[Difficulty]
HPDrainRate:6
CircleSize:4.4
OverallDifficulty:6
ApproachRate:7.6
SliderMultiplier:1.4
SliderTickRate:1

[Events]
//Background and Video events
0,0,"фон.jpg",0,0
//Break Periods
2,69588,82874
2,144588,158578
//Storyboard Layer 0 (Background)
//Storyboard Layer 1 (Fail)
//Storyboard Layer 2 (Pass)
//Storyboard Layer 3 (Foreground)
//Storyboard Sound Samples

[TimingPoints]
1888,468.75,5,1,0,100,1,0
3528,-133.333333333333,5,1,0,100,0,0
3997,-100,5,1,0,100,0,0
5403,-133.333333333333,5,1,0,100,0,0
5872,-100,5,1,0,100,0,0

[HitObjects]
64,156,1888,6,0,L|148:96,1,70
144,184,2356,1,0,0:0:0:0:
92,228,2591,1,0,0:0:0:0:
112,296,2825,1,0,0:0:0:0:
204,168,3528,2,0,P|176:124|112:116,1,105.000004005432
132,184,4231,1,0,0:0:0:0:
88,236,4466,1,0,0:0:0:0:
116,300,4700,1,0,0:0:0:0:
50,167,5403,6,0,P|78:123|142:115,1,105.000004005432
196,116,6106,1,0,0:0:0:0:
216,184,6341,1,0,0:0:0:0:
160,224,6575,2,0,P|104:248|72:248,1,70
80,184,7044,2,0,L|40:248,1,70
96,296,7513,1,0,0:0:0:0:
152,336,7747,1,0,0:0:0:0:
216,304,7981,1,0,0:0:0:0:
272,264,8216,1,0,0:0:0:0:
328,304,8450,1,0,0:0:0:0:
360,240,8684,5,0,0:0:0:0:
392,176,8919,2,0,P|424:144|440:104,1,70
456,56,9388,1,0,0:0:0:0:
320,96,9856,1,0,0:0:0:0:
184,104,10325,1,0,0:0:0:0:
56,168,10794,1,0,0:0:0:0:
144,280,11263,2,0,L|208:232,2,70
352,296,12434,5,0,0:0:0:0:
280,296,12669,1,0,0:0:0:0:
212,288,12903,1,0,0:0:0:0:
144,280,13138,2,0,P|92:324|32:276,1,140
132,104,14309,1,0,0:0:0:0:
92,160,14544,1,0,0:0:0:0:
60,224,14778,1,0,0:0:0:0:
37,292,15013,2,0,P|94:323|144:280,1,140
272,224,15950,1,0,0:0:0:0:
320,168,16184,5,0,0:0:0:0:
364,112,16419,1,0,0:0:0:0:
408,60,16653,1,0,0:0:0:0:
408,60,16888,2,0,L|328:44,1,70
268,56,17356,2,0,L|176:92,1,70
192,152,17825,2,0,L|152:228,1,70
144,279,18294,1,0,0:0:0:0:
40,180,18763,2,0,P|72:236|104:240,2,70
40,180,19934,5,0,0:0:0:0:
84,124,20169,1,0,0:0:0:0:
132,76,20403,1,0,0:0:0:0:
188,120,20638,2,0,P|220:88|232:52,1,70
288,104,21106,2,0,P|272:135|244:164,1,70
304,200,21575,1,0,0:0:0:0:
360,240,21809,5,0,0:0:0:0:
420,276,22044,1,0,0:0:0:0:
460,220,22278,1,0,0:0:0:0:
404,176,22513,2,0,P|372:148|328:132,1,70
284,108,22981,1,0,0:0:0:0:
229,65,23216,5,0,0:0:0:0:
229,65,23450,2,0,P|192:64|136:80,1,70
96,100,23919,1,0,0:0:0:0:
96,100,24153,2,0,P|80:184|92:244,1,140
152,268,24856,1,0,0:0:0:0:
220,288,25091,5,0,0:0:0:0:
252,224,25325,1,0,0:0:0:0:
284,164,25559,1,0,0:0:0:0:
316,100,25794,1,0,0:0:0:0:
316,100,26028,2,0,P|252:72|180:112,1,140
140,148,26731,1,0,0:0:0:0:
92,200,26966,5,0,0:0:0:0:
48,256,27200,2,0,P|68:288|104:316,1,70
156,336,27669,1,0,0:0:0:0:
156,336,27903,2,0,P|232:312|264:248,1,140
136,196,28841,1,0,0:0:0:0:
184,144,29075,2,0,L|240:80,1,70
184,40,29544,2,0,L|128:100,1,70
84,140,30013,1,0,0:0:0:0:
36,192,30247,1,0,0:0:0:0:
56,260,30481,1,0,0:0:0:0:
88,320,30716,1,0,0:0:0:0:
156,336,30950,6,0,P|212:312|232:300,1,70
280,272,31419,1,0,0:0:0:0:
280,272,31653,2,0,P|356:256|360:200,1,140
384,136,32356,1,0,0:0:0:0:
384,136,32591,1,0,0:0:0:0:
428,80,32825,1,0,0:0:0:0:
428,80,33059,1,0,0:0:0:0:
364,52,33294,1,0,0:0:0:0:
364,52,33528,2,0,P|288:68|284:124,1,140
260,188,34231,1,0,0:0:0:0:
260,188,34466,5,0,0:0:0:0:
220,244,34700,2,0,L|128:256,1,70
128,328,35169,1,0,0:0:0:0:
128,328,35403,2,0,P|120:256|136:176,1,140
204,68,36341,1,0,0:0:0:0:
164,128,36575,1,0,0:0:0:0:
131,189,36809,2,0,P|124:268|140:332,1,140
208,324,37513,6,0,L|268:304,2,35
204,256,37981,2,0,L|264:236,2,35
200,184,38450,2,0,L|260:164,2,35
192,116,38919,2,0,L|252:96,2,35
132,152,39388,1,0,0:0:0:0:
112,180,39505,1,0,0:0:0:0:
92,208,39622,1,0,0:0:0:0:
60,272,39856,2,0,P|64:316|92:344,1,70
152,336,40325,1,0,0:0:0:0:
220,320,40559,1,0,0:0:0:0:
284,292,40794,2,0,P|324:280|348:248,1,70
384,204,41263,5,0,0:0:0:0:
404,176,41380,1,0,0:0:0:0:
424,148,41497,1,0,0:0:0:0:
452,88,41731,2,0,P|436:56|408:32,1,70
348,64,42200,2,0,L|320:144,1,70
256,112,42669,2,0,L|204:180,1,70
144,148,43138,5,0,0:0:0:0:
120,172,43255,1,0,0:0:0:0:
100,200,43372,1,0,0:0:0:0:
60,260,43606,6,0,P|56:308|76:344,1,70
132,328,44075,2,0,L|196:280,1,70
252,316,44544,2,0,L|328:296,1,70
384,328,45013,1,0,0:0:0:0:
404,300,45130,1,0,0:0:0:0:
420,268,45247,1,0,0:0:0:0:
456,208,45481,2,0,P|460:168|444:140,1,70
404,88,45950,2,0,L|344:156,1,70
308,92,46419,2,0,L|220:132,1,70
176,84,46888,5,0,0:0:0:0:
148,112,47005,1,0,0:0:0:0:
120,140,47122,1,0,0:0:0:0:
92,164,47239,1,0,0:0:0:0:
72,196,47356,2,0,L|40:268,1,70
92,320,47825,1,0,0:0:0:0:
160,284,48059,1,0,0:0:0:0:
232,284,48294,2,0,L|320:280,1,70
368,256,48763,5,0,0:0:0:0:
392,232,48880,1,0,0:0:0:0:
416,204,48997,1,0,0:0:0:0:
436,176,49114,1,0,0:0:0:0:
444,144,49231,2,0,P|436:92|416:64,1,70
368,40,49700,1,0,0:0:0:0:
300,60,49934,1,0,0:0:0:0:
232,80,50169,2,0,L|156:64,1,70
76,80,50638,5,0,0:0:0:0:
76,108,50755,1,0,0:0:0:0:
76,136,50872,1,0,0:0:0:0:
76,164,50989,1,0,0:0:0:0:
76,192,51106,1,0,0:0:0:0:
76,220,51223,1,0,0:0:0:0:
80,248,51341,1,0,0:0:0:0:
88,276,51458,1,0,0:0:0:0:
104,300,51575,1,0,0:0:0:0:
124,316,51692,1,0,0:0:0:0:
148,332,51809,1,0,0:0:0:0:
176,336,51927,1,0,0:0:0:0:
204,340,52044,1,0,0:0:0:0:
232,344,52161,1,0,0:0:0:0:
260,344,52278,1,0,0:0:0:0:
324,292,52513,5,0,0:0:0:0:
340,124,52981,1,0,0:0:0:0:
200,248,53450,1,0,0:0:0:0:
452,164,53919,1,0,0:0:0:0:
306,76,54388,2,0,P|344:64|394:64,1,70
416,172,54856,1,0,0:0:0:0:
416,172,55091,1,0,0:0:0:0:
364,220,55325,2,0,P|296:228|220:220,1,140
200,288,56028,6,0,P|188:216|204:140,1,140
252,84,56731,1,0,0:0:0:0:
252,84,56966,1,0,0:0:0:0:
168,84,57200,2,0,P|128:104|100:128,1,70
72,196,57669,1,0,0:0:0:0:
72,196,57903,6,0,P|56:264|76:340,1,140
156,348,58606,1,0,0:0:0:0:
156,348,58841,1,0,0:0:0:0:
224,296,59075,2,0,P|288:296|268:296,1,70
356,256,59544,1,0,0:0:0:0:
416,196,59778,1,0,0:0:0:0:
468,136,60013,5,0,0:0:0:0:
268,76,60481,1,0,0:0:0:0:
356,256,60950,1,0,0:0:0:0:
468,136,61419,1,0,0:0:0:0:
260,96,61888,2,0,P|296:80|336:76,1,70
408,76,62356,1,0,0:0:0:0:
468,136,62591,1,0,0:0:0:0:
464,220,62825,2,0,P|448:264|424:296,1,70
364,324,63294,1,0,0:0:0:0:
364,324,63528,6,0,P|264:332|224:324,1,140
140,316,64231,1,0,0:0:0:0:
92,248,64466,1,0,0:0:0:0:
92,164,64700,2,0,P|112:104|120:88,1,70
184,52,65169,1,0,0:0:0:0:
184,52,65403,2,0,P|208:112|192:192,1,140
168,264,66106,1,0,0:0:0:0:
168,264,66341,1,0,0:0:0:0:
225,324,66575,1,0,0:0:0:0:
225,324,66809,1,0,0:0:0:0:
308,340,67044,2,0,L|352:284,1,70
380,204,67513,5,0,0:0:0:0:
196,108,67981,1,0,0:0:0:0:
332,56,68450,1,0,0:0:0:0:
268,196,68919,1,0,0:0:0:0:
92,108,69388,1,0,0:0:0:0:
152,160,83684,5,0,0:0:0:0:
152,160,83919,6,0,P|200:128|228:116,1,70
284,80,84388,1,0,0:0:0:0:
416,216,84856,1,0,0:0:0:0:
440,48,85325,1,0,0:0:0:0:
348,148,85794,1,0,0:0:0:0:
212,260,86263,2,0,P|280:260|300:256,2,70
212,260,87434,1,0,0:0:0:0:
152,204,87669,1,0,0:0:0:0:
92,144,87903,1,0,0:0:0:0:
36,80,88138,2,0,L|116:52,1,70
96,140,88606,2,0,L|184:108,1,70
156,200,89075,1,0,0:0:0:0:
156,200,89309,5,0,0:0:0:0:
216,260,89544,1,0,0:0:0:0:
276,320,89778,1,0,0:0:0:0:
356,296,90013,2,0,P|328:252|296:240,1,70
248,196,90481,1,0,0:0:0:0:
248,196,90716,1,0,0:0:0:0:
248,196,90950,2,0,P|288:160|308:152,1,70
376,116,91419,5,0,0:0:0:0:
452,80,91653,1,0,0:0:0:0:
392,24,91888,1,0,0:0:0:0:
172,112,92356,1,0,0:0:0:0:
304,244,92825,1,0,0:0:0:0:
272,72,93294,1,0,0:0:0:0:
160,248,93763,2,0,P|208:236|236:248,2,70
160,248,94934,5,0,0:0:0:0:
104,184,95169,1,0,0:0:0:0:
48,120,95403,1,0,0:0:0:0:
48,120,95638,2,0,P|80:92|124:80,1,70
184,52,96106,1,0,0:0:0:0:
268,40,96341,1,0,0:0:0:0:
348,60,96575,1,0,0:0:0:0:
412,108,96809,5,0,0:0:0:0:
324,126,97044,2,0,L|348:58,1,70
268,40,97513,2,0,L|244:106,1,70
184,52,97981,1,0,0:0:0:0:
184,52,98216,5,0,0:0:0:0:
105,82,98450,2,0,P|73:150|73:158,1,70
80,232,98919,1,0,0:0:0:0:
80,232,99153,2,0,P|104:292|172:332,1,140
316,252,100091,1,0,0:0:0:0:
248,304,100325,1,0,0:0:0:0:
248,304,100559,1,0,0:0:0:0:
165,330,100794,1,0,0:0:0:0:
165,330,101028,2,0,P|106:295|80:232,1,140
184,100,101966,5,0,0:0:0:0:
132,168,102200,1,0,0:0:0:0:
132,168,102434,1,0,0:0:0:0:
79,231,102669,1,0,0:0:0:0:
79,231,102903,2,0,P|96:280|176:328,1,140
320,252,103841,1,0,0:0:0:0:
384,200,104075,2,0,P|348:172|312:168,1,70
320,252,104544,2,0,P|356:280|392:284,1,70
452,244,105013,1,0,0:0:0:0:
384,200,105247,1,0,0:0:0:0:
320,252,105481,1,0,0:0:0:0:
240,276,105716,5,0,0:0:0:0:
240,276,105950,2,0,P|192:264|164:252,1,70
100,216,106419,1,0,0:0:0:0:
100,216,106653,2,0,B|124:168|64:120|112:72,1,140
176,40,107356,1,0,0:0:0:0:
248,80,107591,1,0,0:0:0:0:
316,128,107825,1,0,0:0:0:0:
384,180,108059,1,0,0:0:0:0:
312,220,108294,1,0,0:0:0:0:
312,220,108528,2,0,B|260:200|208:252|168:232,1,140
92,216,109231,1,0,0:0:0:0:
92,216,109466,5,0,0:0:0:0:
92,216,109700,2,0,L|72:148,2,70
176,236,110403,2,0,B|208:253|260:201|312:221,1,140
384,68,111341,1,0,0:0:0:0:
348,144,111575,1,0,0:0:0:0:
312,221,111809,2,0,B|260:201|208:253|176:236,1,140
120,184,112513,6,0,L|88:172,4,35
180,136,113216,6,0,L|228:112,1,35
324,92,113684,6,0,L|276:120,1,35
380,152,114388,1,0,0:0:0:0:
400,180,114505,1,0,0:0:0:0:
420,208,114622,1,0,0:0:0:0:
452,272,114856,2,0,P|448:316|420:344,1,70
360,336,115325,1,0,0:0:0:0:
292,320,115559,1,0,0:0:0:0:
228,292,115794,2,0,P|188:280|164:248,1,70
128,204,116263,5,0,0:0:0:0:
108,176,116380,1,0,0:0:0:0:
88,148,116497,1,0,0:0:0:0:
60,88,116731,2,0,P|76:56|104:32,1,70
164,64,117200,2,0,L|192:144,1,70
256,112,117669,2,0,L|308:180,1,70
368,148,118138,5,0,0:0:0:0:
392,172,118255,1,0,0:0:0:0:
412,200,118372,1,0,0:0:0:0:
452,260,118606,6,0,P|456:308|436:344,1,70
380,328,119075,2,0,L|316:280,1,70
260,316,119544,2,0,L|184:296,1,70
128,328,120013,1,0,0:0:0:0:
108,300,120130,1,0,0:0:0:0:
92,268,120247,1,0,0:0:0:0:
56,208,120481,2,0,P|52:168|68:140,1,70
108,88,120950,2,0,L|168:156,1,70
204,92,121419,2,0,L|292:132,1,70
336,84,121888,5,0,0:0:0:0:
364,112,122005,1,0,0:0:0:0:
392,140,122122,1,0,0:0:0:0:
420,164,122239,1,0,0:0:0:0:
440,196,122356,2,0,L|472:268,1,70
420,320,122825,1,0,0:0:0:0:
352,284,123059,1,0,0:0:0:0:
284,276,123294,2,0,L|204:264,1,70
128,256,123763,5,0,0:0:0:0:
108,224,123880,1,0,0:0:0:0:
88,192,123997,1,0,0:0:0:0:
64,160,124114,1,0,0:0:0:0:
52,124,124231,2,0,P|60:72|88:60,1,70
144,40,124700,1,0,0:0:0:0:
216,68,124934,1,0,0:0:0:0:
284,56,125169,2,0,L|368:72,1,70
436,80,125638,5,0,0:0:0:0:
440,108,125755,1,0,0:0:0:0:
444,136,125872,1,0,0:0:0:0:
444,164,125989,1,0,0:0:0:0:
444,192,126106,1,0,0:0:0:0:
444,220,126223,1,0,0:0:0:0:
440,248,126341,1,0,0:0:0:0:
428,272,126458,1,0,0:0:0:0:
408,292,126575,1,0,0:0:0:0:
384,308,126692,1,0,0:0:0:0:
356,316,126809,1,0,0:0:0:0:
328,324,126927,1,0,0:0:0:0:
300,328,127044,1,0,0:0:0:0:
272,332,127161,1,0,0:0:0:0:
244,328,127278,1,0,0:0:0:0:
168,304,127513,5,0,0:0:0:0:
148,164,127981,1,0,0:0:0:0:
280,88,128450,1,0,0:0:0:0:
88,68,128919,1,0,0:0:0:0:
108,228,129388,2,0,P|148:232|180:228,1,70
248,204,129856,1,0,0:0:0:0:
320,176,130091,1,0,0:0:0:0:
392,148,130325,2,0,P|396:184|388:224,1,70
344,280,130794,1,0,0:0:0:0:
344,280,131028,6,0,P|284:312|220:276,1,140
172,228,131731,1,0,0:0:0:0:
112,176,131966,1,0,0:0:0:0:
56,124,132200,2,0,P|84:92|120:80,1,70
184,88,132669,1,0,0:0:0:0:
184,88,132903,2,0,P|188:152|172:228,1,140
140,296,133606,1,0,0:0:0:0:
80,248,133841,1,0,0:0:0:0:
112,176,134075,2,0,P|108:112|124:88,1,70
180,76,134544,1,0,0:0:0:0:
252,48,134778,1,0,0:0:0:0:
252,48,135013,5,0,0:0:0:0:
432,128,135481,1,0,0:0:0:0:
264,228,135950,1,0,0:0:0:0:
352,176,136419,1,0,0:0:0:0:
180,76,136888,2,0,P|186:109|177:143,1,70
112,176,137356,2,0,P|100:220|112:256,2,70
176,136,138059,1,0,0:0:0:0:
244,100,138294,1,0,0:0:0:0:
312,60,138528,6,0,P|324:132|312:200,1,140
260,252,139231,1,0,0:0:0:0:
260,252,139466,1,0,0:0:0:0:
184,248,139700,2,0,P|136:248|96:248,1,70
68,308,140169,1,0,0:0:0:0:
68,308,140403,2,0,P|36:244|72:184,1,140
108,124,141106,1,0,0:0:0:0:
168,76,141341,1,0,0:0:0:0:
243,62,141575,2,0,P|283:54|319:62,1,70
376,100,142044,1,0,0:0:0:0:
376,100,142278,1,0,0:0:0:0:
420,164,142513,6,0,L|420:236,1,70
348,204,142981,2,0,L|348:284,1,70
276,248,143450,2,0,L|276:324,1,70
200,336,143919,1,0,0:0:0:0:
200,336,144388,1,0,0:0:0:0:
80,188,159388,6,0,L|68:144,2,35
140,140,159856,2,0,P|176:104|184:80,1,70
260,80,160325,1,0,0:0:0:0:
336,68,160559,1,0,0:0:0:0:
412,56,160794,1,0,0:0:0:0:
384,128,161028,1,0,0:0:0:0:
368,204,161263,6,0,L|424:196,2,35
396,276,161731,2,0,P|356:280|323:269,1,70
252,300,162200,1,0,0:0:0:0:
176,316,162434,1,0,0:0:0:0:
100,328,162669,1,0,0:0:0:0:
120,252,162903,1,0,0:0:0:0:
136,176,163138,6,0,L|84:184,2,35
104,108,163606,2,0,P|148:104|188:112,1,70
248,84,164075,1,0,0:0:0:0:
324,72,164309,1,0,0:0:0:0:
400,60,164544,1,0,0:0:0:0:
400,60,164778,1,0,0:0:0:0:
384,136,165013,2,0,P|372:176|352:208,1,70
280,192,165481,2,0,P|248:228|208:248,1,70
160,272,165950,1,0,0:0:0:0:
88,244,166184,1,0,0:0:0:0:
44,180,166419,2,0,P|80:160|120:152,1,70
180,128,166888,6,0,L|196:160,2,35
160,52,167356,2,0,P|208:52|260:60,1,70
296,96,167825,1,0,0:0:0:0:
360,140,168059,1,0,0:0:0:0:
424,184,168294,1,0,0:0:0:0:
424,184,168528,1,0,0:0:0:0:
384,252,168763,2,0,L|428:260,2,35
440,288,169231,2,0,P|396:328|372:344,1,70
312,336,169700,2,0,P|248:316|232:304,1,70
168,320,170169,2,0,P|124:296|104:260,1,70
80,212,170638,5,0,0:0:0:0:
80,184,170755,1,0,0:0:0:0:
80,156,170872,1,0,0:0:0:0:
80,128,170989,1,0,0:0:0:0:
80,100,171106,1,0,0:0:0:0:
84,72,171223,1,0,0:0:0:0:
104,52,171341,1,0,0:0:0:0:
132,48,171458,1,0,0:0:0:0:
160,44,171575,1,0,0:0:0:0:
184,40,171692,1,0,0:0:0:0:
208,44,171809,1,0,0:0:0:0:
232,44,171927,1,0,0:0:0:0:
256,44,172044,1,0,0:0:0:0:
280,48,172161,1,0,0:0:0:0:
304,52,172278,1,0,0:0:0:0:
344,128,172513,5,0,0:0:0:0:
256,296,172981,1,0,0:0:0:0:
216,112,173450,1,0,0:0:0:0:
364,256,173919,1,0,0:0:0:0:
120,220,174388,2,0,P|160:212|192:220,1,70
264,208,174856,1,0,0:0:0:0:
328,164,175091,1,0,0:0:0:0:
392,120,175325,2,0,P|428:96|440:64,1,70
364,48,175794,1,0,0:0:0:0:
364,48,176028,6,0,P|304:72|252:148,1,140
264,208,176731,1,0,0:0:0:0:
304,272,176966,1,0,0:0:0:0:
352,332,177200,2,0,P|392:332|420:312,1,70
452,248,177669,1,0,0:0:0:0:
432,172,177903,2,0,P|400:96|360:44,1,140
288,44,178606,1,0,0:0:0:0:
288,44,178841,1,0,0:0:0:0:
288,44,179075,2,0,P|240:60|220:88,1,70
288,120,179544,2,0,P|260:156|220:160,1,70
168,128,180013,5,0,0:0:0:0:
64,312,180481,1,0,0:0:0:0:
244,288,180950,1,0,0:0:0:0:
432,260,181419,1,0,0:0:0:0:
336,140,181888,2,0,P|328:104|312:72,1,70
244,112,182356,2,0,P|252:152|272:188,2,70
216,40,183059,1,0,0:0:0:0:
216,40,183294,1,0,0:0:0:0:
216,40,183528,2,0,P|144:60|88:108,1,140
68,172,184231,5,0,0:0:0:0:
100,244,184466,1,0,0:0:0:0:
148,304,184700,2,0,P|176:328|216:344,1,70
276,308,185169,1,0,0:0:0:0:
276,308,185403,2,0,P|284:240|276:168,1,140
228,108,186106,2,0,P|204:136|200:172,1,70
188,244,186575,2,0,P|148:228|136:200,1,70
120,132,187044,2,0,L|164:56,1,70
224,40,187513,5,0,0:0:0:0:
436,108,187981,1,0,0:0:0:0:
304,188,188450,1,0,0:0:0:0:
120,132,188919,1,0,0:0:0:0:
293,47,189388,2,0,P|241:43|209:35,1,70
151,72,189856,2,0,P|127:100|119:136,1,70
148,204,190325,2,0,L|224:164,1,70
284,156,190794,1,0,0:0:0:0:
284,156,191028,2,0,P|296:200|276:300,1,140
208,320,191731,2,0,P|168:328|128:320,2,70
280,291,192434,1,0,0:0:0:0:
348,256,192669,1,0,0:0:0:0:
348,256,192903,6,0,P|416:228|456:172,1,140
416,108,193606,1,0,0:0:0:0:
416,108,193841,1,0,0:0:0:0:
416,108,194075,2,0,L|400:36,1,70
336,84,194544,2,0,L|352:156,1,70
348,256,195013,1,0,0:0:0:0:
180,148,195481,1,0,0:0:0:0:
204,320,195950,1,0,0:0:0:0:
320,144,196419,1,0,0:0:0:0:
172,184,196888,6,0,P|200:160|236:124,1,70
276,80,197356,1,0,0:0:0:0:
200,60,197591,1,0,0:0:0:0:
124,80,197825,6,0,P|98:104|72:127,1,70
68,204,198294,1,0,0:0:0:0:
104,272,198528,2,0,P|152:328|224:324,1,140
292,332,199231,1,0,0:0:0:0:
292,332,199466,1,0,0:0:0:0:
368,316,199700,2,0,P|392:284|392:244,1,70
392,176,200169,1,0,0:0:0:0:
392,176,200403,2,0,P|380:100|312:76,1,140
256,52,201106,1,0,0:0:0:0:
256,52,201341,1,0,0:0:0:0:
184,80,201575,2,0,L|228:144,1,70
148,160,202044,2,0,L|192:224,1,70
168,292,202513,5,0,0:0:0:0:
284,192,202981,1,0,0:0:0:0:
116,80,203450,1,0,0:0:0:0:
68,260,203919,2,0,P|128:312|216:324,1,140
264,320,204622,1,0,0:0:0:0:
340,304,204856,1,0,0:0:0:0:
340,304,205091,1,0,0:0:0:0:
340,304,205325,1,0,0:0:0:0:
404,264,205559,1,0,0:0:0:0:
456,208,205794,1,0,0:0:0:0:
456,208,206028,6,0,P|460:128|420:80,1,140
352,108,206731,2,0,L|328:180,2,70
372,32,207434,1,0,0:0:0:0:
296,44,207669,1,0,0:0:0:0:
220,60,207903,2,0,P|181:116|189:184,1,140
152,252,208606,2,0,P|116:284|88:296,1,70
52,228,209075,2,0,P|88:196|116:184,1,70
189,184,209544,1,0,0:0:0:0:
228,120,209778,1,0,0:0:0:0:
264,52,210013,5,0,0:0:0:0:
352,232,210481,1,0,0:0:0:0:
424,52,210950,1,0,0:0:0:0:
288,128,211419,1,0,0:0:0:0:
288,128,211888,6,0,P|240:128|216:144,1,70
144,144,212356,2,0,P|116:112|112:80,2,70
324,288,213528,2,0,P|260:316|176:308,1,140
116,292,214231,2,0,P|88:260|84:228,2,70
328,196,215403,2,0,P|396:156|396:80,1,140
324,116,216106,2,0,P|296:84|292:52,2,70
60,276,217513,1,0,0:0:0:0:
184,84,217981,1,0,0:0:0:0:
232,232,218450,1,0,0:0:0:0:
384,208,218919,1,0,0:0:0:0:
256,192,219388,12,0,222200,0:0:0:0:
