osu file format v14

[General]
AudioFilename: audio.mp3
AudioLeadIn: 0
PreviewTime: 17447
Countdown: 0
SampleSet: Normal
StackLeniency: 0.7
Mode: 0
LetterboxInBreaks: 0
WidescreenStoryboard: 0

[Editor]
DistanceSpacing: 1.5
BeatDivisor: 8
GridSize: 8
TimelineZoom: 1

[Metadata]
Title:Everlasting Summer
TitleUnicode:Everlasting Summer
Artist:Sergey Eybog
ArtistUnicode:Sergey Eybog
Creator:FadingAway
Version:Play & Cry
Source:ES
Tags:
BeatmapID:1027171
BeatmapSetID:481274

[Difficulty]
HPDrainRate:6
CircleSize:4
OverallDifficulty:7
ApproachRate:8
SliderMultiplier:1.2
SliderTickRate:1

[Events]
//Background and Video events
0,0,"403946110.jpg",0,0
//Break Periods
//Storyboard Layer 0 (Background)
//Storyboard Layer 1 (Fail)
//Storyboard Layer 2 (Pass)
//Storyboard Layer 3 (Foreground)
//Storyboard Sound Samples

[TimingPoints]
955,428.571428571429,4,1,1,100,1,0
16398,428.571428571429,4,1,1,100,1,1
30117,428.571428571429,4,1,1,100,1,0
72956,428.571428571429,4,1,1,100,1,1
84968,428.571428571429,4,1,1,100,1,0
144966,428.571428571429,4,1,1,100,1,1
152680,428.571428571429,4,1,1,100,1,0

[HitObjects]
288,160,955,6,4,L|328:112,3,60
192,232,4383,6,4,L|128:288,3,60
320,272,7382,1,4,0:0:0:0:
416,192,7812,6,4,P|440:168|432:120,3,60
192,160,9525,1,4,0:0:0:0:
320,288,10382,5,2,0:0:0:0:
240,152,10811,1,8,0:0:0:0:
160,288,11346,1,4,0:0:0:0:
256,192,11668,12,0,14668,0:0:0:0:
104,112,17469,5,4,0:0:0:0:
104,112,17683,1,4,0:0:0:0:
160,160,17897,1,4,0:0:0:0:
224,104,18111,1,4,0:0:0:0:
280,160,18326,1,4,0:0:0:0:
336,104,18540,1,8,0:0:0:0:
360,160,20897,5,4,0:0:0:0:
336,240,21111,1,4,0:0:0:0:
272,288,21326,1,4,0:0:0:0:
192,296,21540,1,4,0:0:0:0:
144,232,21754,1,4,0:0:0:0:
192,296,21969,1,8,0:0:0:0:
352,296,24326,5,4,0:0:0:0:
352,296,24540,1,4,0:0:0:0:
304,240,24754,1,4,0:0:0:0:
352,184,24969,1,4,0:0:0:0:
304,128,25183,1,4,0:0:0:0:
352,72,25397,1,8,0:0:0:0:
120,128,27754,5,4,0:0:0:0:
168,184,27969,1,4,0:0:0:0:
232,216,28183,1,4,0:0:0:0:
304,232,28397,1,4,0:0:0:0:
160,248,31188,5,4,0:0:0:0:
200,176,31402,1,4,0:0:0:0:
160,248,31616,1,4,0:0:0:0:
232,296,31831,1,4,0:0:0:0:
312,264,32045,1,4,0:0:0:0:
392,296,32259,2,0,B|424:288|424:288|448:256,1,60,4|8,0:0|0:0,0:0:0:0:
376,144,33974,2,0,B|392:112|392:112|368:88,1,60,4|8,0:0|0:0,0:0:0:0:
128,168,34616,5,4,0:0:0:0:
176,240,34831,1,4,0:0:0:0:
256,272,35045,1,4,0:0:0:0:
336,256,35259,1,4,0:0:0:0:
384,184,35474,1,4,0:0:0:0:
336,256,35688,2,0,B|328:288|328:288|296:312|296:312,1,60,4|8,0:0|0:0,0:0:0:0:
176,288,37402,2,4,B|144:272|144:272|128:240,1,60,4|12,0:0|0:0,0:0:0:0:
208,96,38045,5,4,0:0:0:0:
208,96,38259,1,4,0:0:0:0:
208,96,38474,1,4,0:0:0:0:
264,144,38688,1,4,0:0:0:0:
320,96,38902,1,4,0:0:0:0:
376,144,39116,2,0,B|400:168|400:168|392:200,1,60,4|8,0:0|0:0,0:0:0:0:
296,264,40402,1,4,0:0:0:0:
168,240,40831,2,0,B|144:224|144:224|152:184,1,60,4|8,0:0|0:0,0:0:0:0:
328,208,41474,5,4,0:0:0:0:
288,144,41688,1,4,0:0:0:0:
328,208,41902,1,4,0:0:0:0:
280,264,42116,1,4,0:0:0:0:
160,160,42545,2,0,B|152:128|152:128|176:96,1,60,4|8,0:0|0:0,0:0:0:0:
336,96,43831,5,4,0:0:0:0:
336,96,44045,1,4,0:0:0:0:
360,224,44474,1,4,0:0:0:0:
344,232,44581,1,4,0:0:0:0:
328,240,44688,1,4,0:0:0:0:
312,248,44795,1,4,0:0:0:0:
296,256,44902,1,4,0:0:0:0:
200,240,45116,5,4,0:0:0:0:
192,224,45224,1,4,0:0:0:0:
184,208,45331,1,4,0:0:0:0:
224,64,45545,6,4,P|320:64|384:128,1,180,4|8,0:0|0:0,0:0:0:0:
352,264,46831,1,4,0:0:0:0:
208,312,47474,1,8,0:0:0:0:
128,176,48116,2,0,B|144:120|144:120|200:96,1,120,4|0,0:0|0:0,0:0:0:0:
360,152,48974,5,4,0:0:0:0:
296,320,49616,1,8,0:0:0:0:
360,152,50259,1,4,0:0:0:0:
296,320,50902,1,8,0:0:0:0:
240,72,51545,1,4,0:0:0:0:
104,192,51974,1,4,0:0:0:0:
176,288,52402,6,0,P|248:320|352:296,1,180,4|8,0:0|0:0,0:0:0:0:
280,104,53688,1,4,0:0:0:0:
344,304,54331,1,8,0:0:0:0:
168,256,54974,1,4,0:0:0:0:
272,192,55402,1,4,0:0:0:0:
440,160,55831,5,4,0:0:0:0:
184,232,56474,1,4,0:0:0:0:
424,96,57116,1,4,0:0:0:0:
176,64,57759,1,4,0:0:0:0:
416,40,58402,1,4,0:0:0:0:
344,184,58831,1,4,0:0:0:0:
272,296,59259,6,4,B|176:288|176:288|136:200,1,180,4|8,0:0|0:0,0:0:0:0:
224,88,60545,1,4,0:0:0:0:
344,200,61188,1,8,0:0:0:0:
224,280,61831,2,4,L|120:216,1,120,0|0,0:0|0:0,0:0:0:0:
160,120,62688,5,4,0:0:0:0:
392,120,63331,1,8,0:0:0:0:
256,336,63974,1,4,0:0:0:0:
256,336,64616,1,8,0:0:0:0:
96,152,65259,1,4,0:0:0:0:
344,208,65688,1,4,0:0:0:0:
200,304,66116,6,4,P|112:288|104:208,1,180,4|8,0:0|0:0,0:0:0:0:
312,79,67402,2,4,P|395:91|409:173,1,180,4|12,0:0|0:0,0:0:0:0:
256,272,68688,1,4,0:0:0:0:
152,336,69116,1,4,0:0:0:0:
88,152,69545,5,4,0:0:0:0:
312,272,70188,1,8,0:0:0:0:
88,152,70831,1,4,0:0:0:0:
328,72,71474,1,8,0:0:0:0:
400,184,72116,1,4,0:0:0:0:
352,256,72330,1,4,0:0:0:0:
280,296,72544,5,8,0:0:0:0:
280,296,72759,1,8,0:0:0:0:
280,296,72957,1,8,0:0:0:0:
216,336,73169,1,8,0:0:0:0:
168,280,73384,1,8,0:0:0:0:
112,328,73598,1,8,0:0:0:0:
104,64,74026,5,8,0:0:0:0:
144,88,74241,1,4,0:0:0:0:
184,112,74455,1,4,0:0:0:0:
408,64,74884,5,8,0:0:0:0:
368,88,75098,1,4,0:0:0:0:
328,112,75312,1,4,0:0:0:0:
104,152,75741,5,8,0:0:0:0:
152,208,75955,1,4,0:0:0:0:
216,248,76169,1,4,0:0:0:0:
288,264,76384,1,4,0:0:0:0:
352,232,76598,1,8,0:0:0:0:
352,232,76812,1,4,0:0:0:0:
352,232,77026,1,4,0:0:0:0:
104,320,77455,5,8,0:0:0:0:
144,296,77669,1,4,0:0:0:0:
184,272,77884,1,4,0:0:0:0:
408,320,78312,5,8,0:0:0:0:
368,296,78526,1,4,0:0:0:0:
328,272,78741,1,4,0:0:0:0:
128,208,79169,5,4,0:0:0:0:
176,152,79384,1,8,0:0:0:0:
224,208,79598,1,4,0:0:0:0:
224,208,79812,1,4,0:0:0:0:
272,152,80026,1,8,0:0:0:0:
320,208,80241,1,4,0:0:0:0:
368,152,80455,1,4,0:0:0:0:
168,120,80884,6,4,L|120:80,2,60
344,264,81741,2,4,L|390:302,2,60
96,144,82598,5,8,0:0:0:0:
136,216,82812,1,4,0:0:0:0:
200,272,83026,1,4,0:0:0:0:
280,304,83241,2,4,B|368:296|368:296|400:208,1,180,4|12,0:0|0:0,0:0:0:0:
288,88,84312,5,8,0:0:0:0:
232,152,84526,1,4,0:0:0:0:
176,216,84741,1,4,0:0:0:0:
120,280,84969,1,4,0:0:0:0:
352,304,86039,5,4,0:0:0:0:
296,248,86253,1,8,0:0:0:0:
240,304,86467,1,4,0:0:0:0:
240,304,86682,1,4,0:0:0:0:
176,248,86896,1,8,0:0:0:0:
112,304,87110,1,4,0:0:0:0:
48,248,87325,1,4,0:0:0:0:
120,96,87753,5,8,0:0:0:0:
192,56,87967,1,4,0:0:0:0:
264,96,88182,1,4,0:0:0:0:
368,224,88610,5,8,0:0:0:0:
320,296,88825,1,4,0:0:0:0:
240,328,89039,1,4,0:0:0:0:
88,160,89467,5,8,0:0:0:0:
136,232,89682,1,4,0:0:0:0:
208,272,89896,1,4,0:0:0:0:
288,296,90110,1,4,0:0:0:0:
368,272,90325,1,8,0:0:0:0:
400,192,90539,1,4,0:0:0:0:
368,272,90753,1,4,0:0:0:0:
112,272,91182,5,8,0:0:0:0:
112,272,91396,1,4,0:0:0:0:
112,272,91610,1,4,0:0:0:0:
224,88,92039,5,8,0:0:0:0:
224,88,92253,1,4,0:0:0:0:
224,88,92467,1,4,0:0:0:0:
368,168,92896,5,4,0:0:0:0:
408,240,93110,1,8,0:0:0:0:
368,312,93325,1,4,0:0:0:0:
368,312,93539,1,4,0:0:0:0:
296,264,93753,1,8,0:0:0:0:
232,312,93967,1,4,0:0:0:0:
160,264,94182,1,4,0:0:0:0:
160,152,94610,6,4,L|216:112,1,60,12|4,0:0|0:0,0:0:0:0:
208,117,95039,1,4,0:0:0:0:
352,152,95467,6,4,L|303:117,1,60,12|4,0:0|0:0,0:0:0:0:
304,117,95896,1,8,0:0:0:0:
120,192,96325,5,8,0:0:0:0:
240,312,96539,1,4,0:0:0:0:
288,88,96753,1,8,0:0:0:0:
120,192,96968,2,4,B|144:280|144:280|232:288,1,180,4|12,0:0|0:0,0:0:0:0:
360,136,98682,1,2,0:0:0:0:
336,312,100396,5,0,0:0:0:0:
120,136,101038,1,0,0:0:0:0:
416,192,101681,1,0,0:0:0:0:
144,208,102324,1,0,0:0:0:0:
272,272,102967,1,0,0:0:0:0:
360,312,103396,1,0,0:0:0:0:
400,184,103824,5,0,0:0:0:0:
112,152,104467,1,0,0:0:0:0:
424,88,105110,1,0,0:0:0:0:
128,40,105753,1,0,0:0:0:0:
160,216,106396,1,0,0:0:0:0:
384,272,107253,5,0,0:0:0:0:
128,224,107896,1,0,0:0:0:0:
408,168,108538,1,0,0:0:0:0:
120,112,109181,1,0,0:0:0:0:
400,64,109824,1,0,0:0:0:0:
272,184,110253,1,0,0:0:0:0:
88,224,110681,6,0,B|176:344|176:344|248:288|248:288|320:344|320:344|368:288|368:288|416:224,1,480
328,128,113896,2,0,L|272:88,1,60
160,232,117324,6,0,L|208:272,1,60
120,232,120967,5,0,0:0:0:0:
400,200,121610,1,0,0:0:0:0:
120,232,122253,1,0,0:0:0:0:
400,200,122896,1,0,0:0:0:0:
120,232,123538,1,0,0:0:0:0:
256,304,123967,1,0,0:0:0:0:
392,232,124396,5,0,0:0:0:0:
112,200,125038,1,0,0:0:0:0:
392,232,125681,1,0,0:0:0:0:
112,200,126324,1,0,0:0:0:0:
256,96,126967,1,0,0:0:0:0:
360,160,127396,1,0,0:0:0:0:
224,320,127825,6,0,P|128:272|120:208,1,180
288,64,129110,2,0,P|384:112|392:176,1,180
112,200,130396,1,0,0:0:0:0:
256,304,130824,1,0,0:0:0:0:
408,152,131253,5,0,0:0:0:0:
128,216,131896,1,0,0:0:0:0:
408,120,132538,1,0,0:0:0:0:
128,80,133181,1,0,0:0:0:0:
408,48,133824,1,0,0:0:0:0:
376,200,134253,1,0,0:0:0:0:
256,304,134682,6,0,P|160:296|136:216,2,180
376,192,136610,1,0,0:0:0:0:
128,136,137253,1,0,0:0:0:0:
168,272,137681,1,0,0:0:0:0:
288,320,138110,6,0,P|368:296|392:208,1,180
128,168,139396,1,0,0:0:0:0:
384,120,140038,1,0,0:0:0:0:
160,232,140681,1,0,0:0:0:0:
216,144,140896,1,0,0:0:0:0:
160,232,141110,1,0,0:0:0:0:
216,144,141324,1,0,0:0:0:0:
328,144,141538,6,0,P|408:200|400:288,1,195
144,288,142824,1,0,0:0:0:0:
144,128,143467,1,0,0:0:0:0:
344,128,144110,1,0,0:0:0:0:
344,128,144538,1,0,0:0:0:0:
112,144,144966,5,0,0:0:0:0:
240,320,145608,1,0,0:0:0:0:
368,240,146251,1,0,0:0:0:0:
416,88,146894,1,0,0:0:0:0:
112,128,147536,5,0,0:0:0:0:
184,184,147751,1,0,0:0:0:0:
256,240,147965,1,0,0:0:0:0:
328,296,148179,1,0,0:0:0:0:
392,232,148394,1,0,0:0:0:0:
256,192,148608,12,0,152679,0:0:0:0:
