osu file format v14

[General]
AudioFilename: audio.mp3
AudioLeadIn: 0
PreviewTime: 74104
Countdown: 0
SampleSet: Soft
StackLeniency: 0.5
Mode: 0
LetterboxInBreaks: 0
WidescreenStoryboard: 1

[Editor]
Bookmarks: 37943,74904,121064,162599,208738
DistanceSpacing: 0.4
BeatDivisor: 4
GridSize: 32
TimelineZoom: 1.4

[Metadata]
Title:Requiem
TitleUnicode:Requiem
Artist:Serge Liberovsky
ArtistUnicode:Serge Liberovsky
Creator:Shurelia
Version:Hard
Source:明日方舟
Tags:Arknights アークナイツ Russian Video Game gacha Yostar Hypergryph Anna Akhmatova Obadiah Brown-Beach Poem Реквием Ahmatova Ахматова Анна Frostnova Patriot folk LMT Icekalt BlastTheKidd collab
BeatmapID:2697610
BeatmapSetID:1264703

[Difficulty]
HPDrainRate:6
CircleSize:4
OverallDifficulty:6
ApproachRate:7
SliderMultiplier:1
SliderTickRate:1

[Events]
//Background and Video events
0,0,"reqioembg.jpg",0,0
//Break Periods
//Storyboard Layer 0 (Background)
//Storyboard Layer 1 (Fail)
//Storyboard Layer 2 (Pass)
//Storyboard Layer 3 (Foreground)
//Storyboard Layer 4 (Overlay)
//Storyboard Sound Samples

[TimingPoints]
997,408.163265306122,3,2,1,23,1,0
2221,382.165605095541,3,2,1,23,1,0
5660,384.615384615385,3,2,1,23,1,0
9121,389.61038961039,3,2,1,23,1,0
10289,-100,3,2,1,29,0,0
11458,375,3,2,1,29,1,0
13708,405.405405405405,3,2,1,29,1,0
14924,377.358490566038,3,2,1,29,1,0
17188,389.61038961039,3,2,1,29,1,0
19525,350.877192982456,3,2,1,30,1,0
19875,413.793103448276,3,2,1,30,1,0
20081,346.820809248555,3,2,1,30,1,0
20254,422.535211267606,3,2,1,30,1,0
20676,368.098159509202,3,2,1,30,1,0
21412,394.736842105263,3,2,1,30,1,0
22201,379.746835443038,3,2,1,30,1,0
22580,384.615384615385,3,2,1,30,1,0
23349,375,3,2,1,30,1,0
24096,392.156862745098,3,2,1,30,1,0
25272,382.165605095541,3,2,1,30,1,0
26418,397.350993377483,3,2,1,30,1,0
28802,375,3,2,1,30,1,0
31052,410.958904109589,3,2,1,30,1,0
31462,357.142857142857,3,2,1,30,1,0
32177,387.096774193548,3,2,1,30,1,0
34499,379.746835443038,3,2,1,30,1,0
34499,-125,3,2,1,30,0,0
35638,-100,3,2,1,30,0,0
36775,389.61038961039,3,2,1,30,1,0
37164,-125,3,2,1,30,0,0
37943,425.531914893617,3,2,1,30,1,0
37943,-100,3,2,1,35,0,0
38581,424.028268551237,3,2,1,30,1,0
39112,384.615384615385,3,2,1,35,1,0
47188,387.096774193548,3,2,1,35,1,0
49510,392.156862745098,3,2,1,35,1,0
51862,370.37037037037,3,2,1,35,1,0
52973,382.165605095541,3,2,1,35,1,0
57558,400,3,2,1,35,1,0
58758,363.636363636364,3,2,1,35,1,0
59848,382.165605095541,3,2,1,35,1,0
60994,400,3,2,1,35,1,0
63394,375,3,2,1,35,1,0
65644,408.163265306122,3,2,1,35,1,0
66460,357.142857142857,3,2,1,35,1,0
66817,377.358490566038,3,2,1,35,1,0
67949,413.793103448276,3,2,1,35,1,0
68362,363.636363636364,3,2,1,35,1,0
69094,400,3,2,1,35,1,0
70294,372.670807453416,3,2,1,35,1,0
70666,425.531914893617,3,2,1,35,1,0
71412,382.165605095541,3,2,1,35,1,0
73704,400,3,2,1,35,1,0
74904,375,3,2,1,45,1,0
74904,-83.3333333333333,3,2,1,45,0,0
76029,387.096774193548,3,2,1,45,1,0
76029,-83.3333333333333,3,2,1,45,0,0
79512,382.165605095541,3,2,1,45,1,0
79512,-83.3333333333333,3,2,1,45,0,0
84097,387.096774193548,3,2,1,45,1,0
84097,-76.9230769230769,3,2,1,45,0,0
88742,382.165605095541,3,2,1,45,1,0
88742,-83.3333333333333,3,2,1,45,0,0
93327,384.615384615385,3,2,1,45,1,0
93327,-83.3333333333333,3,2,1,45,0,0
102557,387.096774193548,3,2,1,45,1,0
102557,-76.9230769230769,3,2,1,45,0,0
107202,372.670807453416,3,2,1,45,1,0
107202,-83.3333333333333,3,2,1,45,0,0
108320,392.156862745098,3,2,1,45,1,0
109496,392.156862745098,3,2,1,45,1,0
111848,375,3,2,1,45,1,0
114098,387.096774193548,3,2,1,45,1,0
116420,382.165605095541,3,2,1,45,1,0
118712,392.156862745098,3,2,1,50,1,0
119104,-100,3,2,1,55,0,0
119496,-100,3,2,1,60,0,0
119888,-100,3,2,1,35,0,0
121064,375,3,2,1,40,1,0
123314,389.61038961039,3,2,1,40,1,0
128768,342.857142857143,3,2,1,40,1,0
129110,387.096774193548,3,2,1,40,1,0
132593,375,3,2,1,40,1,0
133718,389.61038961039,3,2,1,40,1,0
134886,372.670807453416,3,2,1,40,1,0
136004,387.096774193548,3,2,1,40,1,0
136778,446.096654275093,3,2,1,40,1,0
137224,357.142857142857,3,2,1,40,1,0
137938,379.746835443038,3,2,1,40,1,0
138317,391.26181936746,3,2,1,40,1,0
139099,417.391304347826,3,2,1,40,1,0
139516,379.746835443038,3,2,1,40,1,0
141794,-101.83299389002,3,2,1,40,0,0
142174,394.736842105263,3,2,1,40,1,0
142963,379.746835443038,3,2,1,40,1,0
144102,379.746835443038,3,2,1,40,1,0
145241,408.163265306122,3,2,1,40,1,0
146465,368.098159509202,3,2,1,40,1,0
147569,384.615384615385,3,2,1,40,1,0
161415,394.736842105263,3,2,1,40,1,0
162599,379.746835443038,3,2,1,40,1,0
164877,384.615384615385,3,2,1,40,1,0
165261,322.58064516129,3,2,1,40,1,0
165422,508.474576271186,3,2,1,40,1,0
165676,384.615384615385,3,2,1,40,1,0
166030,384.615384615385,3,2,1,40,1,0
166030,-100,3,2,1,43,0,0
167184,-100,3,2,1,45,0,0
168338,-100,3,2,1,50,0,0
169492,-100,3,2,1,48,0,0
170646,-100,3,2,1,46,0,0
171800,-100,3,2,1,44,0,0
174107,-100,3,2,1,47,0,0
175261,-100,3,2,1,50,0,0
176415,-100,3,2,1,54,0,0
177569,-100,3,2,1,50,0,0
179877,-166.666666666667,3,2,1,53,0,0
181030,-100,3,2,1,48,0,0
181991,322.58064516129,3,2,1,48,1,0
182152,387.096774193548,3,2,1,40,1,0
182152,-100,3,2,1,46,0,0
183316,370.37037037037,3,2,1,40,1,0
183316,-100,3,2,1,44,0,0
184056,444.444444444444,3,2,1,44,1,0
184500,384.615384615385,3,2,1,40,1,0
184500,-100,3,2,1,42,0,0
185269,375,3,2,1,42,1,0
185643,384.615384615385,3,2,1,40,1,0
185643,-100,3,2,1,44,0,0
186796,413.793103448276,3,2,1,40,1,0
186796,-100,3,2,1,45,0,0
187416,352.941176470588,3,2,1,40,1,0
187945,387.471746851792,3,2,1,40,1,0
187945,-100,3,2,1,40,0,0
189107,370.37037037037,3,2,1,40,1,0
189847,400,3,2,1,45,1,0
190247,387.096774193548,3,2,1,47,1,0
190247,-166.666666666667,3,2,1,47,0,0
191408,-100,3,2,1,45,0,0
192569,-100,3,2,1,48,0,0
193730,379.746835443038,3,2,1,45,1,0
194869,385.852090032154,3,2,1,43,1,0
196026,-100,3,2,1,40,0,0
197184,-100,3,2,1,46,0,0
198341,-100,3,2,1,40,0,0
198727,-100,3,2,1,45,0,0
199113,-100,3,2,1,50,0,0
199499,-100,3,2,1,50,0,0
201814,379.746835443038,3,2,1,50,1,0
202953,394.736842105263,3,2,1,50,1,0
204926,342.857142857143,3,2,1,50,1,0
205268,373.250388802488,3,2,1,50,1,0
206387,384.615384615385,3,2,1,50,1,0
207156,-100,3,2,1,45,0,0
207540,425.531914893617,3,2,1,40,1,0
207540,-100,3,2,1,40,0,0
207965,346.820809248555,3,2,1,40,1,0
208310,451.127819548872,3,2,1,50,1,0
208738,379.746835443038,3,2,1,65,1,0
208738,-83.3333333333333,3,2,1,65,0,0
209877,375,3,2,1,65,1,0
209877,-83.3333333333333,3,2,1,65,0,0
211002,387.096774193548,3,2,1,65,1,0
211002,-83.3333333333333,3,2,1,65,0,0
212163,-83.3333333333333,3,2,1,50,0,0
212550,-83.3333333333333,3,2,1,55,0,0
212937,-83.3333333333333,3,2,1,60,0,0
213324,384.615384615385,3,2,1,65,1,0
213324,-83.3333333333333,3,2,1,65,0,0
219092,375,3,2,1,65,1,0
219092,-83.3333333333333,3,2,1,65,0,0
220217,428.571428571429,3,2,1,65,1,0
220217,-83.3333333333333,3,2,1,65,0,0
220645,370.37037037037,3,2,1,65,1,0
221385,389.61038961039,3,2,1,65,1,0
221385,-83.3333333333333,3,2,1,65,0,0
222554,384.615384615385,3,2,1,65,1,0
222554,-83.3333333333333,3,2,1,65,0,0
224861,384.615384615385,3,2,1,65,1,0
224861,-83.3333333333333,3,2,1,65,0,0
234091,389.61038961039,3,2,1,65,1,0
234091,-83.3333333333333,3,2,1,65,0,0
236428,382.165605095541,3,2,1,65,1,0
236428,-83.3333333333333,3,2,1,65,0,0
239867,384.615384615385,3,2,1,65,1,0
239867,-83.3333333333333,3,2,1,65,0,0
245636,394.736842105263,3,2,1,60,1,0

[Colours]
Combo1 : 128,121,166
Combo2 : 169,120,120
Combo3 : 192,192,192

[HitObjects]
314,132,997,6,0,P|363:128|413:126,1,100,2|0,3:2|0:0,0:0:0:0:
476,205,1609,2,0,P|484:228|490:252,2,50,2|0|0,0:2|3:0|0:0,0:0:0:0:
392,315,2221,2,0,P|382:265|371:217,1,100,2|0,0:2|0:0,0:0:0:0:
347,237,3367,6,0,P|297:236|247:231,1,100,2|2,0:2|0:2,0:0:0:0:
156,231,4131,1,0,0:0:0:0:
17,344,4513,1,2,0:2:0:0:
54,255,4896,2,0,P|44:205|38:156,1,100,2|0,0:2|0:0,0:0:0:0:
11,23,5660,5,2,3:2:0:0:
10,22,6044,2,0,P|34:32|58:38,1,50,2|0,0:2|0:0,0:0:0:0:
130,25,6429,1,2,0:2:0:0:
261,112,6813,2,0,P|308:97|357:89,1,100,2|0,0:2|0:0,0:0:0:0:
369,96,7967,5,2,0:2:0:0:
328,182,8352,1,2,0:2:0:0:
454,268,8736,1,2,0:2:0:0:
425,349,9121,1,2,0:2:0:0:
400,347,9900,5,2,0:2:0:0:
285,280,10289,1,2,3:2:0:0:
171,342,10679,1,0,0:0:0:0:
93,297,10874,2,0,P|69:303|45:309,1,50
110,214,11263,1,2,0:2:0:0:
53,146,11458,6,0,P|102:134|149:115,1,100,2|0,3:2|0:0,0:0:0:0:
217,35,12208,1,0,0:0:0:0:
320,185,12583,1,2,0:2:0:0:
232,136,12958,1,2,0:2:0:0:
324,98,13333,1,2,0:2:0:0:
408,150,13708,1,2,0:2:0:0:
338,317,14113,2,0,P|289:329|240:340,1,100,2|0,0:2|0:0,0:0:0:0:
110,351,14924,5,2,3:2:0:0:
180,253,15301,1,0,0:0:0:0:
237,202,15490,2,0,P|231:178|226:154,2,50,2|2|2,0:2|0:2|0:2,0:0:0:0:
296,104,16056,2,0,P|305:153|316:201,1,100,2|0,0:2|0:0,0:0:0:0:
486,377,17188,5,2,0:1:0:0:
404,280,17577,1,0,0:0:0:0:
502,138,17967,1,2,0:2:0:0:
400,20,18356,1,2,0:2:0:0:
400,20,19525,6,0,P|350:20|300:23,1,100,0|2,3:2|0:2,0:0:0:0:
234,79,20081,2,0,P|237:103|244:127,1,50,0|2,0:0|0:2,0:0:0:0:
158,39,20465,1,0,0:0:0:0:
158,38,20676,2,0,P|108:48|58:48,1,100,2|0,0:2|0:0,0:0:0:0:
41,266,21609,1,0,0:0:0:0:
41,266,21806,5,2,0:0:0:0:
172,218,22201,2,0,P|170:171|129:146,1,100,2|0,0:2|0:0,0:0:0:0:
40,178,22964,1,2,0:2:0:0:
158,327,23349,2,0,P|196:296|245:298,1,100,2|2,0:2|0:2,0:0:0:0:
330,363,23911,1,0,0:0:0:0:
330,362,24096,2,0,P|379:369|429:375,2,100,2|0|0,3:2|0:0|0:0,0:0:0:0:
392,276,25272,2,0,P|441:267|489:254,2,100,2|0|2,0:2|0:0|0:2,0:0:0:0:
416,161,26418,2,0,P|449:124|480:84,2,100,2|0|2,0:2|0:0|0:2,0:0:0:0:
307,23,27610,6,0,P|344:42|366:78,1,75,2|0,0:2|0:0,0:0:0:0:
358,89,28007,1,2,0:2:0:0:
227,93,28404,1,2,0:2:0:0:
285,213,28802,2,0,P|283:264|282:312,1,100,2|0,3:2|0:0,0:0:0:0:
178,344,29364,1,0,0:0:0:0:
178,343,29552,2,0,P|187:320|192:296,1,50,2|0,0:2|0:0,0:0:0:0:
98,251,29927,2,0,P|134:216|182:204,2,100,2|0|2,0:2|0:0|0:2,0:0:0:0:
91,141,31052,6,0,P|55:129|18:120,1,75,2|0,0:2|0:0,0:0:0:0:
7,133,31462,1,2,0:0:0:0:
25,226,31819,1,0,0:2:0:0:
159,75,32177,6,0,P|206:71|226:27,2,100,2|0|0,0:2|0:0|0:0,0:0:0:0:
306,49,33144,1,2,0:2:0:0:
306,48,33338,6,0,P|396:30|429:116,1,200,2|2,3:2|0:2,0:0:0:0:
294,214,34499,2,0,P|362:199|334:135,1,160,2|0,0:2|0:0,0:0:0:0:
200,265,35638,2,0,P|294:247|361:315,1,200,2|0,0:2|0:0,0:0:0:0:
126,356,36775,1,2,0:1:0:0:
50,176,37164,2,0,B|102:170|168:159,1,120,2|0,0:2|0:0,0:0:0:0:
326,140,37943,1,2,3:2:0:0:
172,4,38581,5,0,0:0:0:0:
172,4,38793,2,0,P|191:17|230:27,1,50,2|0,0:2|0:0,0:0:0:0:
234,34,39112,1,2,0:2:0:0:
173,167,39496,1,2,0:2:0:0:
85,255,39881,1,2,0:2:0:0:
148,320,40265,2,0,P|187:325|243:365,2,100,2|0|0,0:2|0:0|0:0,0:0:0:0:
85,255,41419,1,2,0:1:0:0:
173,167,41804,1,2,0:2:0:0:
94,57,42188,1,2,0:2:0:0:
94,57,42573,6,0,P|118:38|139:28,1,50,2|0,3:2|0:0,0:0:0:0:
209,86,42958,2,0,P|239:80|262:81,1,50,2|0,0:2|0:0,0:0:0:0:
326,146,43342,1,0,0:0:0:0:
489,72,43727,1,2,0:2:0:0:
430,184,44112,1,2,0:2:0:0:
505,267,44496,1,2,0:2:0:0:
457,349,44881,1,0,0:0:0:0:
457,349,45265,1,0,0:0:0:0:
276,282,45650,5,2,0:2:0:0:
276,282,46035,2,0,P|269:230|363:272,1,200,2|2,0:2|0:2,0:0:0:0:
183,172,47188,6,0,P|102:166|74:161,1,100,2|0,3:2|0:0,0:0:0:0:
30,93,47768,1,0,0:0:0:0:
28,73,47962,1,2,0:2:0:0:
39,43,48155,1,0,0:0:0:0:
79,20,48349,1,2,0:2:0:0:
176,87,48736,1,0,0:0:0:0:
293,17,49123,1,2,0:2:0:0:
425,130,49510,5,2,0:1:0:0:
425,130,49902,2,0,P|434:88|479:46,1,100,2|2,0:2|0:2,0:0:0:0:
445,229,50686,6,0,B|368:242|372:193|292:208,1,150,2|0,0:1|0:0,0:0:0:0:
431,194,51470,2,0,P|454:209|468:233,1,50,2|0,0:2|0:0,0:0:0:0:
314,288,51862,2,0,P|263:282|240:152,1,200,2|0,0:2|0:0,0:0:0:0:
63,89,52973,5,2,0:2:0:0:
211,64,53355,2,0,P|209:37|203:10,1,50,2|0,1:2|0:0,0:0:0:0:
308,48,53737,1,2,0:2:0:0:
308,48,54119,2,0,P|319:87|298:152,2,100,2|0|2,0:2|0:0|0:2,0:0:0:0:
406,217,55265,2,0,P|427:214|453:193,1,50,2|0,0:2|0:0,0:2:0:0:
416,332,55648,2,0,L|394:223,1,100,2|0,0:2|0:0,0:0:0:0:
314,335,56412,5,2,0:2:0:0:
166,257,56794,1,0,0:0:0:0:
72,340,57176,1,0,0:0:0:0:
72,340,57558,2,0,P|82:271|41:197,1,150,2|0,0:2|0:0,0:0:0:0:
84,122,58358,1,0,1:0:0:0:
246,201,58758,5,2,3:2:0:0:
426,142,59121,1,0,0:0:0:0:
403,331,59485,1,2,0:2:0:0:
403,331,59848,1,2,3:2:0:0:
341,228,60230,1,0,0:0:0:0:
460,224,60612,1,2,0:2:0:0:
370,76,60994,6,0,P|341:41|294:138,1,200,2|0,1:2|0:0,0:0:0:0:
124,256,62194,2,0,P|124:228|139:202,1,50,2|0,0:2|0:0,0:0:0:0:
227,198,62594,2,0,L|114:187,1,100,2|0,0:2|0:0,0:0:0:0:
59,129,63194,1,2,0:2:0:0:
59,129,63394,2,0,P|59:101|45:78,2,50,2|0|0,3:2|0:0|0:0,0:0:0:0:
263,26,64519,5,2,3:2:0:0:
258,51,64706,1,0,0:0:0:0:
262,83,64894,1,2,3:2:0:0:
280,119,65081,1,0,0:0:0:0:
318,151,65269,2,0,P|349:150|378:137,1,50,2|2,3:2|0:2,0:0:0:0:
421,47,65644,6,0,P|386:82|383:142,1,100,2|0,3:2|0:0,0:0:0:0:
450,190,66256,1,0,0:0:0:0:
450,190,66460,2,0,L|463:256,1,50
396,324,66817,1,2,3:2:0:0:
256,211,67194,1,2,0:2:0:0:
84,256,67571,1,0,0:0:0:0:
84,256,67949,2,0,P|70:215|89:157,1,100,2|0,0:2|0:0,0:0:0:0:
166,207,68725,1,0,0:0:0:0:
168,339,69094,5,2,1:1:0:0:
297,214,69494,1,0,0:0:0:0:
270,36,69894,1,2,3:2:0:0:
270,36,70294,1,2,3:2:0:0:
120,206,70878,1,2,0:2:0:0:
186,258,71091,1,2,0:2:0:0:
186,258,71412,2,0,B|323:252|242:189|378:186,1,200,2|0,1:2|0:0,0:0:0:0:
417,78,72558,5,2,0:2:0:0:
500,203,72940,1,2,0:2:0:0:
432,294,73322,1,2,0:2:0:0:
493,361,73704,1,2,0:2:0:0:
493,361,74504,1,2,3:2:0:0:
352,335,74904,6,0,P|297:322|255:361,1,119.999996337891,2|0,0:0|0:0,0:0:0:0:
164,312,75466,1,0,0:0:0:0:
164,312,75654,2,0,P|156:283|147:254,1,59.9999981689454,2|0,3:2|0:0,0:0:0:0:
55,229,76029,2,0,P|81:176|137:161,1,119.999996337891,10|0,0:2|0:0,0:0:0:0:
235,53,76609,2,0,P|232:82|223:111,1,59.9999981689454,0|0,3:0|0:0,0:0:0:0:
309,161,76996,1,2,0:2:0:0:
308,160,77190,2,0,P|367:169|426:178,2,119.999996337891,2|0|0,3:2|0:0|0:0,0:0:0:0:
312,113,78158,1,0,3:2:0:0:
319,65,78351,1,2,0:1:0:0:
339,60,78932,5,2,0:2:0:0:
327,55,79125,1,2,3:2:0:0:
315,51,79319,1,0,0:0:0:0:
186,80,79512,6,0,P|127:82|77:52,1,119.999996337891,2|0,3:2|0:0,0:0:0:0:
50,163,80085,1,0,3:0:0:0:
49,163,80276,2,0,P|38:190|37:220,1,59.9999981689454,2|0,0:2|0:0,0:0:0:0:
150,289,80658,2,0,P|151:229|136:171,2,119.999996337891,10|0|2,3:2|0:0|1:2,0:0:0:0:
98,360,81613,1,0,0:0:0:0:
185,375,81804,2,0,P|213:364|243:361,1,59.9999981689454,2|0,3:2|0:0,0:0:0:0:
306,308,82187,2,0,P|333:318|363:321,1,59.9999981689454
440,362,82569,1,0,0:0:0:0:
440,362,82951,2,0,P|468:364|499:366,2,59.9999981689454,2|0|0,3:2|0:0|0:0,0:0:0:0:
437,285,83524,5,0,3:0:0:0:
439,273,83715,1,2,1:2:0:0:
442,261,83906,1,0,1:0:0:0:
484,187,84097,6,0,P|428:157|418:95,1,129.999994049073,2|0,3:2|0:0,0:0:0:0:
298,78,84677,1,0,3:0:0:0:
297,77,84871,2,0,P|318:101|328:131,1,64.9999970245363,2|0,0:2|3:0,0:0:0:0:
374,214,85258,2,0,P|310:219|256:185,1,129.999994049073,10|0,3:2|0:0,0:0:0:0:
211,101,85838,1,2,1:2:0:0:
210,100,86032,2,0,P|177:96|145:90,1,64.9999970245363,0|2,0:0|0:2,0:0:0:0:
37,86,86419,2,0,P|95:108|112:169,2,129.999994049073,2|0|0,3:2|0:0|0:0,0:0:0:0:
32,131,87387,1,2,0:2:0:0:
15,205,87580,1,2,3:2:0:0:
15,205,88161,5,0,3:0:0:0:
79,244,88355,1,2,0:2:0:0:
22,292,88548,1,0,3:0:0:0:
79,345,88742,6,0,P|136:329|196:324,1,119.999996337891,2|0,3:2|0:0,0:0:0:0:
51,151,89506,1,2,0:2:0:0:
64,81,89697,1,0,0:2:0:0:
121,128,89888,2,0,P|180:131|235:108,1,119.999996337891,2|2,3:1|3:2,0:0:0:0:
379,11,90652,1,2,0:2:0:0:
409,132,91034,2,0,P|461:151|460:208,1,119.999996337891,2|0,3:2|0:0,0:0:0:0:
301,361,91799,1,0,0:0:0:0:
236,328,91990,1,0,3:2:0:0:
171,363,92181,2,0,L|111:356,2,59.9999981689454,2|0|0,0:2|0:0|3:0,0:0:0:0:
167,288,92754,5,2,0:2:0:0:
166,276,92945,1,2,3:2:0:0:
166,264,93136,1,0,3:0:0:0:
121,172,93327,6,0,P|85:123|49:75,1,119.999996337891,2|0,3:2|0:0,0:0:0:0:
184,117,93903,2,0,P|219:68|255:20,1,119.999996337891,0|0,0:0|3:2,0:0:0:0:
364,88,94480,2,0,P|334:93|304:98,1,59.9999981689454,10|0,3:2|0:0,0:0:0:0:
256,174,94865,2,0,P|314:186|372:202,1,119.999996337891,2|0,0:2|0:0,0:0:0:0:
442,242,95442,1,2,0:0:0:0:
419,336,95634,2,0,P|366:336|368:282,1,119.999996337891,2|0,3:2|0:0,0:0:0:0:
295,255,96211,5,0,3:0:0:0:
283,258,96403,1,2,0:2:0:0:
274,266,96596,1,0,3:2:0:0:
235,342,96788,6,0,P|175:348|116:354,1,119.999996337891,2|0,3:1|0:0,0:0:0:0:
167,261,97365,2,0,P|142:206|118:151,1,119.999996337891,2|2,0:2|3:2,0:0:0:0:
249,178,97942,6,0,P|304:179|312:234,1,119.999996337891,2|0,3:2|0:0,0:0:0:0:
470,356,98711,1,2,0:2:0:0:
509,295,98903,1,0,0:2:0:0:
470,235,99096,2,0,P|444:184|465:130,2,119.999996337891,2|0|2,3:2|0:0|3:2,0:0:0:0:
366,100,100250,2,0,P|307:102|250:84,1,119.999996337891,2|0,3:2|0:0,0:0:0:0:
187,24,100827,2,0,P|158:32|128:32,1,59.9999981689454,0|0,3:0|0:2,0:0:0:0:
46,21,101211,1,2,3:2:0:0:
15,93,101403,2,0,P|26:119|7:140,2,59.9999981689454,10|0|0,0:2|0:0|0:0,0:0:0:0:
98,101,101980,5,0,3:0:0:0:
107,107,102173,1,2,0:2:0:0:
110,118,102365,1,0,3:0:0:0:
77,202,102557,6,0,P|141:193|206:190,1,129.999994049073,2|0,3:1|0:0,0:0:0:0:
248,271,103137,1,0,0:2:0:0:
248,270,103331,2,0,P|275:253|305:242,1,64.9999970245363,2|0,3:2|0:0,0:0:0:0:
396,223,103718,2,0,P|344:259|336:321,1,129.999994049073,2|0,3:2|0:0,0:0:0:0:
478,321,104298,1,0,0:0:0:0:
477,321,104492,2,0,P|446:313|416:301,1,64.9999970245363,2|2,3:2|1:2,0:0:0:0:
336,321,104879,2,0,P|273:312|222:351,2,129.999994049073,2|0|0,3:2|0:0|0:2,0:0:0:0:
416,301,105847,1,2,0:2:0:0:
471,229,106040,1,0,3:2:0:0:
471,228,106815,2,0,P|459:199|429:188,1,64.9999970245363,2|0,0:1|3:0,0:0:0:0:
469,105,107202,5,2,3:2:0:0:
424,13,107574,1,2,3:2:0:0:
357,183,107947,1,2,3:2:0:0:
318,42,108320,2,0,P|273:60|263:107,1,100,2|2,3:1|3:2,0:0:0:0:
285,235,109104,1,2,3:2:0:0:
167,360,109496,1,2,3:2:0:0:
71,247,109888,1,0,0:0:0:0:
70,246,110280,2,0,P|57:225|45:204,1,50
26,131,110672,6,0,P|64:103|55:56,1,100,2|0,3:2|0:0,0:0:0:0:
122,20,111260,1,2,0:2:0:0:
182,66,111456,2,0,P|205:57|229:51,1,50,0|2,3:0|0:2,0:0:0:0:
309,31,111848,1,2,3:2:0:0:
309,31,112410,5,0,0:0:0:0:
307,40,112598,1,0,0:0:0:0:
308,49,112785,1,2,0:2:0:0:
377,99,112973,2,0,P|411:63|456:41,1,100,10|0,3:2|0:0,0:0:0:0:
456,41,113723,1,0,0:0:0:0:
468,138,114098,6,0,P|473:187|478:237,2,100,2|2|2,0:2|3:2|0:2,0:0:0:0:
406,284,115259,1,2,3:1:0:0:
296,237,115646,1,2,3:1:0:0:
221,285,116033,1,2,0:2:0:0:
119,235,116420,6,0,P|71:246|39:282,1,100,2|0,3:1|0:0,0:0:0:0:
10,374,116993,2,0,P|58:357|107:351,1,100,2|0,0:1|0:0,0:0:0:0:
217,364,117566,1,2,3:2:0:0:
217,364,118712,6,0,L|213:314,1,50,2|2,3:2|3:2,0:0:0:0:
297,297,119104,2,0,L|300:247,1,50,2|0,3:2|0:0,0:0:0:0:
209,203,119496,1,2,3:1:0:0:
217,159,119692,1,0,0:0:0:0:
236,84,119888,1,6,0:2:0:0:
236,84,121064,5,2,3:2:0:0:
236,84,121439,2,0,P|268:57|288:54,1,50,0|0,0:0|0:2,0:0:0:0:
351,82,121814,1,2,0:2:0:0:
396,50,122001,1,0,0:0:0:0:
434,64,122189,1,2,3:2:0:0:
510,163,122564,1,0,0:0:0:0:
382,235,122939,1,2,3:2:0:0:
493,384,123314,5,2,0:2:0:0:
493,384,123703,2,0,P|457:343|405:343,1,100,2|0,0:2|0:0,0:0:0:0:
276,373,124482,2,0,B|311:267|241:302|263:192,1,175,2|2,0:1|0:0,0:0:0:0:
270,196,125262,1,2,0:2:0:0:
169,342,125651,1,0,3:2:0:0:
20,279,126041,1,0,0:0:0:0:
43,130,126430,1,0,0:0:0:0:
43,130,126820,6,0,P|43:80|-5:44,2,100,2|0|0,0:2|0:0|0:0,0:0:0:0:
140,185,127989,2,0,P|172:146|158:88,2,100,2|0|0,0:2|0:0|0:0,0:0:0:0:
165,291,129110,2,0,P|199:303|220:340,1,50,2|0,3:2|0:0,0:0:0:0:
284,264,129497,2,0,P|239:295|238:350,1,100,2|0,1:2|0:0,0:0:0:0:
247,346,130077,1,2,0:2:0:0:
322,381,130271,2,0,L|436:358,1,100,2|0,3:2|0:0,0:0:0:0:
478,275,131045,5,2,0:2:0:0:
460,255,131239,1,0,0:0:0:0:
473,230,131432,1,2,3:2:0:0:
512,109,131819,1,2,3:2:0:0:
456,17,132206,1,2,0:2:0:0:
456,17,132593,2,0,B|397:23|378:70|378:70|337:37|276:48,1,200,2|0,0:2|0:0,0:0:0:0:
186,120,133718,6,0,P|177:146|180:178,1,50,2|0,3:2|0:0,0:0:0:0:
225,254,134107,2,0,P|176:222|167:158,1,100,2|0,0:2|0:0,0:0:0:0:
51,359,134886,1,2,3:2:0:0:
21,263,135258,1,0,0:0:0:0:
40,248,135445,1,0,0:0:0:0:
61,259,135631,1,0,0:0:0:0:
154,347,136004,2,0,P|208:357|250:318,2,100,2|2|0,0:2|0:2|0:0,0:0:0:0:
199,177,137224,5,2,3:2:0:0:
286,91,137581,1,0,0:0:0:0:
400,143,137938,1,2,0:2:0:0:
215,186,138317,5,0,3:0:0:0:
205,64,138708,1,0,0:0:0:0:
318,10,139099,1,0,0:0:0:0:
235,197,139516,5,2,3:1:0:0:
394,287,140085,1,0,0:0:0:0:
317,301,140275,1,2,0:2:0:0:
317,301,140655,2,0,P|262:310|231:349,2,100,2|0|2,0:2|3:0|0:2,0:0:0:0:
130,243,141794,6,0,B|70:227|84:125|174:158|143:42,1,200,2|2,0:1|0:2,0:0:0:0:
228,174,142963,1,2,0:2:0:0:
228,174,143342,2,0,P|262:215|307:193,1,100,0|2,0:0|0:2,0:0:0:0:
460,104,144102,2,0,B|429:115|404:141|431:246,1,150,2|0,3:2|0:0,0:0:0:0:
446,247,144861,1,2,0:2:0:0:
410,347,145241,2,0,P|469:342|515:368,2,100,2|0|2,0:1|0:0|0:2,0:0:0:0:
318,294,146465,2,0,P|320:237|364:234,1,100,0|0,3:0|0:0,0:0:0:0:
151,347,147569,5,2,0:1:0:0:
96,270,147953,1,0,3:0:0:0:
165,179,148338,1,2,0:0:0:0:
111,75,148722,1,2,3:2:0:0:
268,9,149107,1,0,0:0:0:0:
254,23,149299,1,0,3:0:0:0:
248,48,149492,1,2,0:2:0:0:
256,87,149684,1,2,3:2:0:0:
293,113,149876,6,0,P|342:109|406:76,2,100,2|0|2,3:2|0:0|0:2,0:0:0:0:
445,218,151030,2,0,P|463:172|515:121,2,100,2|0|0,0:1|0:0|0:0,0:0:0:0:
368,326,152184,2,0,P|303:339|291:228,1,200,2|2,3:2|0:1,0:0:0:0:
459,324,153338,1,2,0:2:0:0:
459,324,154492,5,2,0:2:0:0:
508,186,154876,2,0,P|489:166|448:147,1,50,2|2,3:2|0:2,0:0:0:0:
399,200,155261,1,2,3:2:0:0:
296,64,155645,2,0,P|319:102|316:168,2,100,2|2|2,0:2|0:2|0:2,0:0:0:0:
149,145,156799,2,0,P|173:141|209:114,1,50,2|0,0:2|0:0,0:0:0:0:
163,26,157184,2,0,P|139:90|126:182,1,150,2|2,0:2|0:2,0:0:0:0:
178,239,157953,5,2,3:2:0:0:
325,186,158338,1,0,0:0:0:0:
427,303,158722,2,0,L|419:334,8,25,2|0|2|0|2|0|2|0|2,3:2|0:0|0:2|0:0|0:2|0:0|0:2|0:0|3:2,0:0:0:0:
263,327,159876,2,0,L|325:335,1,50,2|0,0:1|0:0,0:0:0:0:
269,303,160261,5,2,0:2:0:0:
104,328,160645,1,0,0:0:0:0:
173,237,161030,1,2,0:2:0:0:
13,167,161415,5,2,0:2:0:0:
73,12,161809,1,0,0:0:0:0:
118,116,162204,1,2,0:2:0:0:
49,38,162599,5,2,3:2:0:0:
49,38,163168,2,0,P|25:43|2:49,2,50,2|0|2,0:2|3:0|0:2,0:0:0:0:
117,86,163738,2,0,P|167:96|214:107,2,100,2|0|0,0:1|0:0|0:0,0:0:0:0:
24,251,164877,6,0,P|46:241|70:233,1,50,2|0,3:1|0:0,0:0:0:0:
76,315,165261,2,0,P|99:323|122:333,1,50,2|0,0:2|0:0,0:0:0:0:
212,271,165676,5,2,0:2:0:0:
212,271,165868,1,0,0:0:0:0:
259,330,166030,6,0,P|271:226|357:285,1,250,2|0,3:1|0:0,0:0:0:0:
383,372,167184,2,0,P|357:290|442:296,1,200,2|2,3:2|0:2,0:0:0:0:
480,221,168146,1,0,0:0:0:0:
479,220,168338,6,0,P|484:171|486:121,2,100,2|0|2,3:1|0:2|0:2,0:0:0:0:
379,126,169492,2,0,P|387:76|394:27,2,100,2|0|2,3:1|0:2|0:2,0:0:0:0:
253,160,170646,2,0,P|266:111|277:62,2,100,2|0|2,3:1|0:0|0:2,0:0:0:0:
202,306,171800,6,0,P|107:296|57:213,1,200,2|2,3:1|0:2,0:0:0:0:
31,96,172953,1,2,3:1:0:0:
145,60,173338,1,0,0:0:0:0:
264,49,173723,1,2,0:2:0:0:
380,19,174107,2,0,P|346:120|452:115,1,250,2|0,3:1|0:0,0:2:0:0:
466,30,175261,2,0,L|461:279,1,250,2|0,0:1|0:0,0:0:0:0:
325,305,176415,6,0,P|349:261|380:221,2,100,2|0|0,3:1|0:0|0:0,0:0:0:0:
213,361,177569,2,0,P|189:317|158:277,2,100,2|0|2,0:2|0:0|0:2,0:0:0:0:
29,318,178723,2,0,P|52:275|64:226,1,100,2|0,3:2|0:2,0:0:0:0:
153,157,179492,1,2,0:2:0:0:
226,240,179877,2,0,P|294:257|341:204,1,149.999995422363,2|0,3:2|0:0,0:0:0:0:
401,152,181030,6,0,L|202:163,1,200,2|0,0:2|0:0,0:0:0:0:
102,99,182152,2,0,L|112:-1,2,100,2|0|2,0:2|0:0|0:2,0:0:0:0:
54,205,183316,2,0,L|64:305,2,100,2|2|2,3:2|0:1|0:2,0:0:0:0:
145,353,184500,6,0,P|220:350|295:349,1,150,2|0,3:2|0:0,0:0:0:0:
413,364,185269,1,2,0:2:0:0:
413,362,185643,2,0,P|444:284|359:284,1,200,2|0,3:2|0:0,0:0:0:0:
255,146,186796,2,0,P|261:196|269:245,1,100,2|2,0:1|0:2,0:0:0:0:
400,185,187592,1,2,3:2:0:0:
314,65,187945,2,0,P|264:60|214:52,2,100,2|0|2,0:1|0:0|0:2,0:0:0:0:
493,22,189107,1,2,0:2:0:0:
493,22,189847,5,2,0:1:0:0:
428,126,190247,2,0,P|436:200|444:275,1,149.999995422363,2|0,3:2|0:0,0:0:0:0:
394,341,191408,2,0,P|345:336|299:316,2,100,2|0|2,0:1|0:0|0:2,0:0:0:0:
311,223,192569,2,0,P|217:240|186:331,1,200,2|0,0:1|0:0,0:0:0:0:
36,305,193730,2,0,P|91:225|71:130,1,200,2|0,0:2|0:0,0:0:0:0:
1,221,194869,6,0,B|86:240|136:140|238:162,1,250,2|0,1:2|0:0,0:0:0:0:
335,218,196026,1,2,0:2:0:0:
334,217,196412,2,0,P|359:221|383:225,2,50,2|0|2,0:2|0:0|0:2,0:0:0:0:
309,307,197184,2,0,B|217:279|171:389|71:354,1,250,10|0,1:2|0:0,0:0:0:0:
115,282,198341,6,0,L|106:229,1,50,0|0,3:0|0:0,0:0:0:0:
21,233,198727,2,0,L|30:180,1,50,2|0,3:2|0:0,0:0:0:0:
100,138,199113,2,0,L|91:85,1,50,2|0,3:1|0:0,0:0:0:0:
42,36,199499,6,0,P|116:44|169:96,1,150,2|0,3:2|0:0,0:0:0:0:
200,180,200270,2,0,P|204:204|207:229,1,50,0|0,3:2|0:0,0:0:0:0:
257,114,200656,2,0,P|306:104|355:97,2,100,2|2|0,0:2|0:1|0:0,0:0:0:0:
200,180,201621,1,2,0:2:0:0:
319,259,201814,2,0,P|371:205|438:174,1,150,2|0,0:1|0:0,0:0:0:0:
443,321,202573,1,2,0:2:0:0:
442,320,202953,6,0,P|393:315|346:332,1,100,2|2,3:1|0:2,0:0:0:0:
239,366,203545,1,2,0:2:0:0:
239,366,203742,1,2,3:2:0:0:
122,308,204137,1,2,3:2:0:0:
200,186,204729,1,2,0:2:0:0:
200,186,204926,1,2,3:1:0:0:
69,126,205268,1,2,3:2:0:0:
69,126,206387,5,2,3:2:0:0:
170,61,206771,1,2,0:2:0:0:
277,113,207156,1,2,3:2:0:0:
355,21,207540,2,0,P|379:22|404:24,1,50,2|0,0:0|0:0,0:0:0:0:
501,82,207965,2,0,P|477:83|452:85,1,50,2|0,0:0|0:0,0:0:0:0:
391,136,208310,1,2,1:2:0:0:
391,136,208535,1,0,0:0:0:0:
444,185,208738,6,0,L|319:167,1,119.999996337891,6|0,3:2|0:0,0:0:0:0:
255,213,209307,1,2,0:2:0:0:
243,125,209497,2,0,P|248:90|241:55,1,59.9999981689454,2|2,3:2|0:1,0:0:0:0:
230,145,209877,2,0,L|91:164,1,119.999996337891,10|2,3:2|3:2,0:0:0:0:
26,138,210439,2,0,P|76:190|60:250,1,119.999996337891,0|2,0:0|0:2,0:0:0:0:
11,291,211002,1,2,3:2:0:0:
145,345,211389,2,0,P|152:319|135:282,2,59.9999981689454,0|0|2,0:0|0:0|0:2,0:0:0:0:
145,185,212163,2,0,P|161:197|184:191,6,29.9999990844727,2|0|0|0|2|0|0,3:1|0:0|0:2|0:0|0:2|0:0|0:2,0:0:0:0:
247,166,212937,2,0,P|228:128|235:98,1,59.9999981689454,2|0,3:2|0:0,0:0:0:0:
137,61,213324,6,0,P|205:90|246:57,1,119.999996337891,2|0,3:2|0:0,0:0:0:0:
307,23,213900,1,2,0:2:0:0:
370,122,214093,2,0,P|332:105|297:109,1,59.9999981689454,0|2,0:0|3:2,0:0:0:0:
276,177,214477,2,0,P|240:198|223:229,1,59.9999981689454,2|0,3:1|0:0,0:0:0:0:
283,284,214862,2,0,L|429:262,1,119.999996337891,2|0,0:2|0:0,0:0:0:0:
174,367,215631,1,2,3:1:0:0:
95,345,215824,1,2,0:2:0:0:
95,345,216016,2,0,L|76:208,2,119.999996337891,0|0|10,0:0|3:0|3:2,0:0:0:0:
197,109,217170,5,0,3:0:0:0:
280,82,217362,1,0,3:2:0:0:
280,82,217554,2,0,P|272:44|240:17,1,59.9999981689454,2|0,3:2|1:0,0:0:0:0:
338,136,217939,2,0,P|398:132|442:75,2,119.999996337891,6|0|0,3:2|0:0|0:0,0:0:0:0:
263,241,219093,2,0,P|203:237|159:176,1,119.999996337891,10|0,3:2|0:0,0:0:0:0:
143,305,219654,1,2,0:2:0:0:
16,252,219842,2,0,P|55:253|87:234,1,59.9999981689454,2|0,3:2|0:0,0:0:0:0:
149,317,220217,1,2,3:2:0:0:
262,140,220645,2,0,P|244:226|240:314,1,175,2|2,0:1|0:2,0:0:0:0:
297,376,221385,1,2,3:2:0:0:
297,376,221970,5,0,0:0:0:0:
364,325,222164,2,0,L|351:256,1,59.9999981689454,2|0,0:2|3:0,0:0:0:0:
445,354,222554,2,0,P|468:300|468:160,1,179.999994506836,2|2,3:1|0:2,0:0:0:0:
405,123,223323,1,0,0:0:0:0:
453,51,223515,1,2,0:2:0:0:
453,51,223707,2,0,L|391:41,1,59.9999981689454,2|0,1:2|0:0,0:0:0:0:
398,138,224092,2,0,L|338:153,2,59.9999981689454,0|2|0,0:0|0:2|0:0,0:0:0:0:
199,13,224861,5,2,3:2:0:0:
128,57,225053,1,0,0:0:0:0:
128,57,225245,2,0,P|152:101|163:171,1,119.999996337891,2|2,0:1|0:2,0:0:0:0:
106,229,225822,1,2,0:1:0:0:
106,229,226014,1,2,0:2:0:0:
219,328,226399,1,2,0:2:0:0:
219,328,226591,1,0,0:0:0:0:
289,277,226784,2,0,L|272:200,1,59.9999981689454,2|0,0:2|0:0,0:0:0:0:
374,139,227168,6,0,P|346:201|299:196,1,119.999996337891,6|0,3:2|0:0,0:0:0:0:
241,127,227745,1,2,0:2:0:0:
311,16,227937,2,0,P|314:45|309:75,1,59.9999981689454,0|2,0:0|3:2,0:0:0:0:
190,27,228322,2,0,B|127:13|127:13|66:61,1,119.999996337891,10|2,3:2|0:2,0:0:0:0:
0,141,228899,2,0,P|56:139|69:214,1,119.999996337891,0|0,0:0|1:0,0:0:0:0:
19,263,229476,1,2,3:2:0:0:
173,184,229861,2,0,L|241:197,2,59.9999981689454,0|2|0,0:0|0:2|0:0,0:0:0:0:
201,336,230630,1,2,3:1:0:0:
201,336,231207,2,0,P|229:310|263:291,1,59.9999981689454,2|0,0:2|1:0,0:0:0:0:
324,349,231591,1,0,3:0:0:0:
349,240,231784,6,0,P|401:280|455:196,1,179.999994506836,2|2,3:1|0:2,0:0:0:0:
363,10,232745,1,2,3:2:0:0:
448,46,232937,2,0,P|427:77|429:115,1,59.9999981689454,2|0,3:1|0:0,0:0:0:0:
329,137,233322,2,0,L|475:115,1,119.999996337891,0|0,3:2|0:0,0:0:0:0:
282,230,234091,1,2,3:2:0:0:
203,208,234285,1,2,0:2:0:0:
203,208,234480,2,0,P|204:163|230:77,2,119.999996337891,0|2|10,0:0|0:2|1:2,0:0:0:0:
29,376,235649,5,2,0:2:0:0:
112,349,235844,1,2,3:2:0:0:
112,349,236039,2,0,P|104:311|72:284,1,59.9999981689454,2|0,0:2|0:0,0:0:0:0:
42,207,236428,2,0,P|33:231|108:251,2,119.999996337891,6|0|0,3:2|0:0|0:0,0:0:0:0:
199,63,237574,2,0,L|177:186,1,119.999996337891,10|0,3:2|0:0,0:0:0:0:
239,248,238147,2,0,L|277:195,1,59.9999981689454,2|0,0:2|3:0,0:0:0:0:
331,299,238529,1,2,0:1:0:0:
331,299,238720,2,0,L|196:280,1,119.999996337891,2|2,3:2|0:2,0:0:0:0:
135,368,239294,1,2,3:1:0:0:
135,368,239485,2,0,P|129:317|111:292,1,59.9999981689454,0|2,0:0|0:2,0:0:0:0:
66,204,239867,6,0,P|69:253|139:271,1,119.999996337891,2|0,3:2|0:0,0:0:0:0:
261,132,240636,2,0,L|249:216,1,59.9999981689454,2|0,0:0|0:0,0:0:0:0:
164,140,241020,2,0,P|224:129|278:81,1,119.999996337891,2|2,3:2|0:2,0:0:0:0:
356,71,241597,2,0,P|363:59|362:40,4,29.9999990844727,2|0|2|0|2,0:2|0:0|3:1|0:0|0:2,0:0:0:0:
389,146,242174,1,2,3:2:0:0:
314,336,242559,1,2,0:2:0:0:
119,272,242943,1,0,0:0:0:0:
119,272,243328,6,0,P|138:217|191:225,1,119.999996337891,2|0,3:1|3:0,0:0:0:0:
188,135,243905,1,2,0:1:0:0:
253,94,244097,1,0,0:0:0:0:
326,131,244290,1,0,0:0:0:0:
326,131,244482,2,0,L|303:260,1,119.999996337891,2|2,1:2|3:2,0:0:0:0:
402,218,245059,1,2,1:1:0:0:
402,218,245251,2,0,L|409:298,1,59.9999981689454
343,353,245636,6,0,P|313:332|281:330,1,50,2|0,0:2|0:0,0:0:0:0:
223,374,246030,2,0,P|267:299|239:233,1,150,2|0,0:3|0:2,0:0:0:0:
305,181,246820,1,6,3:1:0:0:
