osu file format v14

[General]
AudioFilename: audio.mp3
AudioLeadIn: 0
PreviewTime: 208620
Countdown: 0
SampleSet: Soft
StackLeniency: 0.4
Mode: 0
LetterboxInBreaks: 0
WidescreenStoryboard: 0

[Editor]
DistanceSpacing: 1.2
BeatDivisor: 4
GridSize: 8
TimelineZoom: 2.799999

[Metadata]
Title:Lionheart
TitleUnicode:Lionheart
Artist:Serenity
ArtistUnicode:Serenity
Creator:AdeAAa
Version:Sh4rq_'s Heart of the Wilderness
Source:
Tags:Napalm Records symphonic power metal english male vocalist Georg Neuhauser Chris Hermsdörfer Fabio D'Amore Andreas Schipflinger 2017 streams sh4rq_ nebuwua
BeatmapID:3206402
BeatmapSetID:1390922

[Difficulty]
HPDrainRate:6
CircleSize:3.8
OverallDifficulty:9.4
ApproachRate:9.6
SliderMultiplier:2
SliderTickRate:1

[Events]
//Background and Video events
0,0,"background.jpg",0,0
//Break Periods
//Storyboard Layer 0 (Background)
//Storyboard Layer 1 (Fail)
//Storyboard Layer 2 (Pass)
//Storyboard Layer 3 (Foreground)
//Storyboard Layer 4 (Overlay)
//Storyboard Sound Samples

[TimingPoints]
38,333.333333333334,4,2,1,60,1,0
1371,-100,4,2,1,70,0,0
22704,-200,4,2,1,45,0,0
32704,-250,4,2,1,45,0,0
33371,-250,4,2,1,60,0,0
34371,-100,4,2,1,60,0,0
39371,-125,4,2,1,60,0,0
40204,-100,4,2,1,60,0,0
44038,-90.9090909090909,4,2,1,60,0,0
54704,-90.9090909090909,4,2,1,70,0,1
56704,-100,4,2,1,70,0,1
74871,-100,4,2,1,45,0,1
76038,-100,4,2,1,60,0,0
97371,-90.9090909090909,4,2,1,60,0,0
108038,-90.9090909090909,4,2,1,70,0,1
110038,-85.4700854700855,4,2,1,70,0,1
126704,-85.4700854700855,4,2,1,60,0,0
126871,-100,4,2,1,60,0,0
138038,-66.6666666666667,4,2,1,60,0,0
138538,-100,4,2,1,60,0,0
139371,-66.6666666666667,4,2,1,60,0,0
139704,-100,4,2,1,60,0,0
140704,-66.6666666666667,4,2,1,60,0,0
141204,-100,4,2,1,60,0,0
142038,-66.6666666666667,4,2,1,60,0,0
142371,-100,4,2,1,60,0,0
143371,-66.6666666666667,4,2,1,60,0,0
143871,-100,4,2,1,60,0,0
144704,-66.6666666666667,4,2,1,60,0,0
145038,-100,4,2,1,60,0,0
146038,-66.6666666666667,4,2,1,60,0,0
148704,-80,4,2,1,60,0,0
158704,-89.2857142857143,4,2,1,60,0,0
180038,-90.9090909090909,4,2,1,60,0,0
196038,-90.9090909090909,4,2,1,70,0,1
200038,-83.3333333333333,4,2,1,70,0,1
229371,-83.3333333333333,4,2,1,70,0,0
230714,333.333333333333,4,2,1,70,1,0

[Colours]
Combo1 : 175,165,143
Combo2 : 92,81,63
Combo3 : 208,171,153
Combo4 : 148,111,88

[HitObjects]
84,74,1371,5,14,2:0:0:0:
127,49,1454,1,0,2:0:0:0:
177,43,1538,1,0,2:0:0:0:
224,57,1621,1,0,2:0:0:0:
264,86,1704,1,8,2:0:0:0:
291,128,1788,1,0,2:0:0:0:
299,177,1871,1,0,2:0:0:0:
289,225,1954,1,0,2:0:0:0:
262,267,2038,1,8,2:0:0:0:
221,296,2121,1,0,2:0:0:0:
174,307,2204,1,0,2:0:0:0:
124,301,2288,1,0,2:0:0:0:
81,276,2371,5,10,2:0:0:0:
90,258,2454,1,0,2:0:0:0:
102,242,2538,1,0,2:0:0:0:
118,230,2621,1,0,2:0:0:0:
137,221,2704,5,10,2:0:0:0:
90,238,2788,1,0,2:0:0:0:
42,228,2871,1,0,2:0:0:0:
6,194,2954,1,0,2:0:0:0:
0,146,3038,1,8,2:0:0:0:
9,99,3121,1,0,2:0:0:0:
46,67,3204,1,0,2:0:0:0:
95,59,3288,1,0,2:0:0:0:
140,79,3371,1,8,2:0:0:0:
186,98,3454,1,0,2:0:0:0:
234,91,3538,1,0,2:0:0:0:
272,59,3621,1,0,2:0:0:0:
287,12,3704,2,0,L|234:4,3,50,10|0|0|0,2:0|2:0|2:0|2:0,2:0:0:0:
140,79,4038,5,10,2:0:0:0:
142,128,4121,1,0,2:0:0:0:
166,171,4204,1,0,2:0:0:0:
207,200,4288,1,0,2:0:0:0:
256,207,4371,1,8,2:0:0:0:
303,193,4454,1,0,2:0:0:0:
340,159,4538,2,0,L|331:101,1,50,2|0,2:0|2:0,2:0:0:0:
332,0,4704,5,10,2:0:0:0:
380,11,4788,1,0,2:0:0:0:
420,40,4871,1,0,2:0:0:0:
447,82,4954,1,0,2:0:0:0:
450,131,5038,2,0,L|439:187,3,50,10|0|0|0,2:0|2:0|2:0|2:0,2:0:0:0:
512,255,5371,5,10,2:0:0:0:
491,283,5454,1,0,2:0:0:0:
462,302,5538,1,0,2:0:0:0:
428,308,5621,1,0,2:0:0:0:
394,301,5704,1,8,2:0:0:0:
365,281,5788,1,0,2:0:0:0:
346,252,5871,1,0,2:0:0:0:
340,218,5954,1,0,2:0:0:0:
346,184,6038,2,0,P|358:130|357:118,3,50,10|0|0|0,2:0|2:0|2:0|2:0,2:0:0:0:
175,49,6371,2,0,B|178:78|187:103,3,50,10|0|0|0,2:0|2:0|2:0|2:0,2:0:0:0:
92,299,6704,5,14,2:0:0:0:
48,276,6788,1,0,2:0:0:0:
22,234,6871,1,0,2:0:0:0:
22,184,6954,1,0,2:0:0:0:
47,142,7038,1,8,2:0:0:0:
90,119,7121,1,0,2:0:0:0:
140,121,7204,1,0,2:0:0:0:
181,149,7288,1,0,2:0:0:0:
201,194,7371,5,10,2:0:0:0:
147,179,7454,1,0,2:0:0:0:
116,133,7538,1,0,2:0:0:0:
121,78,7621,1,0,2:0:0:0:
159,39,7704,1,8,2:0:0:0:
215,35,7788,1,0,2:0:0:0:
259,67,7871,1,0,2:0:0:0:
274,120,7954,1,0,2:0:0:0:
250,169,8038,5,10,2:0:0:0:
220,117,8121,1,0,2:0:0:0:
231,58,8204,1,0,2:0:0:0:
276,19,8288,1,0,2:0:0:0:
336,19,8371,1,8,2:0:0:0:
382,58,8454,1,0,2:0:0:0:
393,117,8538,1,0,2:0:0:0:
363,169,8621,1,0,2:0:0:0:
306,189,8704,5,10,2:0:0:0:
289,151,8788,1,0,2:0:0:0:
251,136,8871,1,0,2:0:0:0:
214,150,8954,1,0,2:0:0:0:
194,185,9038,1,8,2:0:0:0:
200,224,9121,1,0,2:0:0:0:
231,250,9204,1,0,2:0:0:0:
271,251,9288,1,0,2:0:0:0:
312,227,9371,6,0,P|312:194|301:168,3,50,10|0|0|0,2:0|2:0|2:0|2:0,2:0:0:0:
247,331,9704,2,0,P|246:363|257:389,3,50,8|0|0|0,2:0|2:0|2:0|2:0,2:0:0:0:
156,249,10038,5,10,2:0:0:0:
127,257,10121,1,0,2:0:0:0:
91,253,10204,1,0,2:0:0:0:
61,226,10288,1,0,2:0:0:0:
49,182,10371,1,10,2:0:0:0:
64,133,10454,1,0,2:0:0:0:
82,81,10538,1,0,2:0:0:0:
64,23,10621,1,0,2:0:0:0:
6,0,10704,5,10,2:0:0:0:
37,62,10788,1,0,2:0:0:0:
102,85,10871,1,0,2:0:0:0:
170,69,10954,1,0,2:0:0:0:
211,13,11038,6,0,P|248:8|278:14,3,50,10|0|0|0,2:0|2:0|2:0|2:0,2:0:0:0:
300,135,11371,2,0,P|295:172|301:202,3,50,10|0|0|0,2:0|2:0|2:0|2:0,2:0:0:0:
156,249,11704,2,0,P|161:211|155:182,3,50,10|0|0|0,2:0|2:0|2:0|2:0,2:0:0:0:
347,358,12038,5,14,2:0:0:0:
394,344,12121,1,0,2:0:0:0:
432,313,12204,1,0,2:0:0:0:
454,268,12288,1,0,2:0:0:0:
454,218,12371,1,8,2:0:0:0:
434,173,12454,1,0,2:0:0:0:
396,140,12538,1,0,2:0:0:0:
349,127,12621,1,0,2:0:0:0:
299,134,12704,1,8,2:0:0:0:
250,141,12788,1,0,2:0:0:0:
202,127,12871,1,0,2:0:0:0:
165,95,12954,1,0,2:0:0:0:
145,50,13038,5,10,2:0:0:0:
173,57,13121,1,0,2:0:0:0:
195,76,13204,1,0,2:0:0:0:
207,102,13288,1,0,2:0:0:0:
202,127,13371,5,10,2:0:0:0:
247,88,13454,1,0,2:0:0:0:
305,79,13538,1,0,2:0:0:0:
360,102,13621,1,0,2:0:0:0:
394,150,13704,1,8,2:0:0:0:
399,209,13788,1,0,2:0:0:0:
371,262,13871,1,0,2:0:0:0:
320,292,13954,1,0,2:0:0:0:
261,291,14038,1,8,2:0:0:0:
207,264,14121,1,0,2:0:0:0:
149,269,14204,1,0,2:0:0:0:
101,305,14288,1,0,2:0:0:0:
79,360,14371,2,0,L|131:356,3,50,10|0|0|0,2:0|2:0|2:0|2:0,2:0:0:0:
261,291,14704,5,10,2:0:0:0:
259,226,14788,1,0,2:0:0:0:
226,171,14871,1,0,2:0:0:0:
169,140,14954,1,0,2:0:0:0:
108,119,15038,1,8,2:0:0:0:
66,70,15121,1,0,2:0:0:0:
56,7,15204,6,0,L|118:13,1,50,2|0,2:0|2:0,2:0:0:0:
236,54,15371,2,0,B|231:76|231:76|233:97|233:97|227:117,3,50,10|0|0|0,2:0|2:0|2:0|2:0,2:0:0:0:
37,222,15704,2,0,B|42:200|42:200|40:179|40:179|46:159,3,50,10|0|0|0,2:0|2:0|2:0|2:0,2:0:0:0:
175,314,16038,5,10,2:0:0:0:
226,344,16121,1,0,2:0:0:0:
286,333,16204,1,0,2:0:0:0:
324,287,16288,1,0,2:0:0:0:
324,227,16371,1,8,2:0:0:0:
286,181,16454,1,0,2:0:0:0:
226,171,16538,1,0,2:0:0:0:
175,201,16621,1,0,2:0:0:0:
154,257,16704,2,0,P|129:281|96:288,3,50,10|0|0|0,2:0|2:0|2:0|2:0,2:0:0:0:
167,89,17038,2,0,P|158:55|169:23,3,50,10|0|0|0,2:0|2:0|2:0|2:0,2:0:0:0:
286,181,17371,5,10,2:0:0:0:
329,205,17454,1,0,2:0:0:0:
378,197,17538,1,0,2:0:0:0:
410,159,17621,1,0,2:0:0:0:
410,109,17704,1,8,2:0:0:0:
378,70,17788,1,0,2:0:0:0:
329,62,17871,1,0,2:0:0:0:
286,87,17954,1,0,2:0:0:0:
268,134,18038,5,10,2:0:0:0:
222,97,18121,1,0,2:0:0:0:
164,102,18204,1,0,2:0:0:0:
125,146,18288,1,0,2:0:0:0:
127,204,18371,1,8,2:0:0:0:
138,261,18454,1,0,2:0:0:0:
106,311,18538,1,0,2:0:0:0:
50,325,18621,1,0,2:0:0:0:
1,297,18704,5,10,2:0:0:0:
41,247,18788,1,0,2:0:0:0:
102,226,18871,1,0,2:0:0:0:
165,240,18954,1,0,2:0:0:0:
211,285,19038,1,8,2:0:0:0:
257,330,19121,1,0,2:0:0:0:
320,344,19204,1,0,2:0:0:0:
381,323,19288,1,0,2:0:0:0:
422,274,19371,2,0,L|412:210,3,50,10|0|0|0,2:0|2:0|2:0|2:0,2:0:0:0:
501,141,19704,2,0,L|511:77,3,50,8|0|0|0,2:0|2:0|2:0|2:0,2:0:0:0:
320,32,20038,5,10,2:0:0:0:
255,5,20121,1,0,2:0:0:0:
190,32,20204,1,0,2:0:0:0:
163,96,20288,1,0,2:0:0:0:
190,161,20371,1,8,2:0:0:0:
255,188,20454,1,0,2:0:0:0:
320,215,20538,1,0,2:0:0:0:
347,280,20621,1,0,2:0:0:0:
320,344,20704,1,8,2:0:0:0:
255,371,20788,1,0,2:0:0:0:
190,344,20871,1,0,2:0:0:0:
163,279,20954,1,0,2:0:0:0:
190,214,21038,2,0,L|192:153,3,50,8|0|0|0,2:0|2:0|2:0|2:0,2:0:0:0:
30,104,21371,5,10,3:0:0:0:
68,62,21454,1,8,3:0:0:0:
117,46,21538,1,8,3:0:0:0:
164,48,21621,1,8,3:0:0:0:
202,69,21704,1,12,3:0:0:0:
241,76,21788,1,4,3:0:0:0:
276,71,21871,1,4,3:0:0:0:
304,55,21954,1,4,3:0:0:0:
320,32,22038,5,8,2:0:0:0:
308,243,22704,6,0,L|314:306,1,50,2|0,3:0|2:0,2:0:0:0:
243,166,23038,2,0,L|237:229,1,50,2|0,2:0|2:0,2:0:0:0:
376,153,23371,2,0,L|382:216,1,50,2|0,3:0|2:0,2:0:0:0:
456,95,23704,2,0,L|462:158,1,50,2|0,2:0|2:0,2:0:0:0:
351,19,24038,2,0,L|294:22,3,50,2|0|0|0,3:0|2:0|2:0|2:0,2:0:0:0:
228,69,24704,2,0,L|171:66,3,50,0|0|0|0,3:0|2:0|2:0|2:0,2:0:0:0:
96,118,25371,6,0,L|91:68,1,50,2|0,3:0|2:0,2:0:0:0:
11,194,25704,2,0,L|16:144,1,50,2|0,2:0|2:0,2:0:0:0:
135,255,26038,2,0,L|130:205,1,50,2|0,3:0|2:0,2:0:0:0:
50,331,26371,2,0,L|55:281,1,50,2|0,2:0|2:0,2:0:0:0:
144,374,26704,2,0,P|174:378|200:370,3,50,2|0|0|0,3:0|2:0|2:0|2:0,2:0:0:0:
274,309,27371,2,0,P|304:305|330:313,3,50,0|0|0|0,3:0|2:0|2:0|2:0,2:0:0:0:
434,376,28038,6,0,L|440:319,2,50,2|0|0,3:0|2:0|2:0,2:0:0:0:
428,312,28538,1,2,2:0:0:0:
477,218,28704,2,0,L|486:278,1,50,2|0,3:0|2:0,2:0:0:0:
404,157,29038,2,0,L|413:97,1,50,2|0,2:0|2:0,2:0:0:0:
481,41,29371,6,0,L|493:97,2,50,2|0|0,3:0|2:0|2:0,2:0:0:0:
504,102,29871,1,0,2:0:0:0:
376,21,30038,2,0,L|319:13,1,50,2|0,3:0|2:0,2:0:0:0:
209,82,30371,2,0,L|266:74,1,50,2|0,2:0|2:0,2:0:0:0:
120,64,30704,2,0,L|111:5,1,50,2|0,3:0|2:0,2:0:0:0:
167,203,31038,2,0,L|176:144,1,50,2|0,2:0|2:0,2:0:0:0:
109,334,31371,2,0,L|101:284,1,50,2|0,3:0|2:0,2:0:0:0:
156,195,31704,2,0,L|163:145,1,50,2|0,2:0|2:0,2:0:0:0:
209,82,32038,5,2,3:0:0:0:
258,174,32204,1,0,2:0:0:0:
265,175,32288,1,0,2:0:0:0:
272,176,32371,1,0,2:0:0:0:
180,274,32538,1,0,2:0:0:0:
107,161,32704,6,0,P|93:140|-2:168,1,140,0|0,3:0|2:0,2:0:0:0:
0,178,33371,5,2,3:0:0:0:
147,68,33538,1,0,2:0:0:0:
286,124,33704,1,0,3:0:0:0:
300,124,33788,1,0,3:0:0:0:
314,120,33871,1,2,3:0:0:0:
327,113,33954,1,0,2:0:0:0:
338,104,34038,1,8,2:0:0:0:
417,5,34204,1,0,3:0:0:0:
427,160,34371,2,0,L|414:269,1,100,2|0,2:0|3:0,2:0:0:0:
187,143,34704,6,0,L|289:123,1,100,2|0,2:0|2:0,2:0:0:0:
295,129,34954,1,0,2:0:0:0:
304,134,35038,5,0,2:0:0:0:
326,220,35204,1,2,3:0:0:0:
284,299,35371,1,8,2:0:0:0:
236,209,35538,5,0,2:0:0:0:
194,288,35704,1,2,2:0:0:0:
216,375,35871,1,0,2:0:0:0:
242,201,36038,5,2,3:0:0:0:
356,309,36204,1,0,2:0:0:0:
152,218,36371,1,0,3:0:0:0:
137,221,36454,1,0,3:0:0:0:
123,228,36538,1,2,3:0:0:0:
111,237,36621,1,0,3:0:0:0:
101,249,36704,2,0,P|89:193|58:152,1,100,8|0,2:0|2:0,2:0:0:0:
52,155,37038,5,2,3:0:0:0:
209,83,37204,2,0,L|311:93,1,100,0|2,2:0|2:0,2:0:0:0:
389,37,37538,1,0,3:0:0:0:
372,194,37704,1,0,2:0:0:0:
313,84,37871,1,0,3:0:0:0:
455,203,38038,5,8,2:0:0:0:
233,204,38204,1,0,3:0:0:0:
434,103,38371,5,10,2:0:0:0:
436,325,38538,1,0,3:0:0:0:
223,200,38704,6,0,P|181:222|166:291,1,100,6|0,3:2|2:0,2:0:0:0:
306,295,39038,1,0,3:0:0:0:
291,292,39121,1,0,3:0:0:0:
276,289,39204,1,2,3:0:0:0:
261,286,39288,1,0,3:0:0:0:
244,283,39371,6,0,L|252:366,1,80,8|0,2:0|3:0,2:0:0:0:
380,187,39704,2,0,L|372:270,1,80,2|0,2:0|3:0,2:0:0:0:
442,331,40038,5,2,2:0:0:0:
308,157,40204,2,0,L|201:205,1,100,0|0,3:0|2:0,2:0:0:0:
167,276,40538,1,2,3:0:0:0:
138,122,40704,6,0,P|97:87|32:99,1,100,8|0,2:0|2:0,2:0:0:0:
140,203,41038,2,0,P|190:184|212:122,1,100,2|0,2:0|2:0,2:0:0:0:
71,165,41371,1,2,3:0:0:0:
219,141,41538,1,0,2:0:0:0:
88,266,41704,5,2,3:0:0:0:
100,273,41788,1,0,3:0:0:0:
114,277,41871,1,0,3:0:0:0:
128,280,41954,1,0,3:0:0:0:
143,282,42038,5,8,2:0:0:0:
195,364,42204,1,0,3:0:0:0:
241,278,42371,1,0,2:0:0:0:
335,376,42538,2,0,L|438:363,1,100,0|0,3:0|2:0,2:0:0:0:
512,384,42871,1,0,3:0:0:0:
409,223,43038,1,0,2:0:0:0:
330,383,43204,1,0,3:0:0:0:
315,382,43288,1,0,3:0:0:0:
298,380,43371,6,0,L|281:319,1,50,8|8,2:0|2:0,2:0:0:0:
206,155,43538,2,0,L|189:216,1,50,8|0,2:0|2:0,2:0:0:0:
395,126,43704,6,0,B|371:125|371:125|355:131|355:131|322:131,1,50,8|0,2:0|2:0,2:0:0:0:
108,57,43871,2,0,B|132:58|132:58|148:52|148:52|181:52,1,50,8|0,2:0|2:0,2:0:0:0:
402,216,44038,6,0,P|460:190|430:48,1,220,6|8,3:2|2:0,2:0:0:0:
276,77,44538,2,0,L|467:50,1,165,2|0,3:0|2:0,2:0:0:0:
449,47,44871,1,0,3:0:0:0:
209,0,45038,1,10,2:0:0:0:
258,163,45204,1,0,2:0:0:0:
40,17,45371,6,0,B|11:77|27:139|52:115|61:181|26:237,1,220,2|8,3:0|2:0,2:0:0:0:
1,304,45871,2,0,P|58:279|161:318,1,165,2|0,3:0|2:0,2:0:0:0:
159,324,46204,1,0,3:0:0:0:
136,102,46371,1,10,2:0:0:0:
263,169,46538,1,0,2:0:0:0:
465,16,46704,6,0,P|510:65|454:27,1,165,2|0,3:0|2:0,2:0:0:0:
390,9,47038,1,8,2:0:0:0:
458,198,47204,1,0,3:0:0:0:
458,198,47538,1,0,3:0:0:0:
368,359,47704,6,0,B|329:349|329:349|300:321|300:321|261:308,1,110,10|0,2:0|2:0,2:0:0:0:
180,362,48038,2,0,B|208:333|208:333|246:322|246:322|277:294,1,110,2|0,3:0|2:0,2:0:0:0:
258,189,48371,2,0,B|268:227|268:227|259:266|259:266|267:307,1,110,10|0,2:0|2:0,2:0:0:0:
342,255,48704,5,2,3:0:0:0:
162,226,48871,1,0,3:0:0:0:
362,141,49038,1,10,2:0:0:0:
182,112,49204,1,0,2:0:0:0:
354,262,49371,6,0,B|391:240|391:240|408:57,1,220,6|8,3:2|2:0,2:0:0:0:
494,23,49871,2,0,L|483:158,1,110,2|0,3:0|2:0,2:0:0:0:
496,227,50204,1,0,3:0:0:0:
403,54,50371,2,0,P|337:49|288:78,1,110,10|0,2:0|2:0,2:0:0:0:
235,172,50704,6,0,P|194:120|93:163,1,165,2|0,3:0|2:0,2:0:0:0:
163,188,51038,1,8,2:0:0:0:
27,20,51204,2,0,L|212:41,1,165,2|0,3:0|2:0,2:0:0:0:
268,17,51538,1,0,3:0:0:0:
4,175,51704,2,0,L|189:196,1,165,10|0,2:0|2:0,2:0:0:0:
228,248,52038,5,2,3:0:0:0:
310,87,52204,1,0,2:0:0:0:
361,268,52371,1,8,2:0:0:0:
232,115,52538,2,0,P|165:113|122:144,1,110,0|0,3:0|2:0,2:0:0:0:
395,202,52871,1,0,3:0:0:0:
195,185,53038,2,0,P|146:230|137:283,1,110,8|0,2:0|2:0,2:0:0:0:
209,343,53371,5,0,3:0:0:0:
293,158,53538,1,8,2:0:0:0:
410,323,53704,1,0,3:0:0:0:
203,349,53871,1,0,3:0:0:0:
457,164,54038,2,0,L|285:157,1,165,10|0,2:0|2:0,2:0:0:0:
251,245,54371,5,10,2:0:0:0:
380,26,54538,1,8,2:0:0:0:
326,311,54704,5,14,2:0:0:0:
282,334,54788,1,0,2:0:0:0:
232,335,54871,1,0,2:0:0:0:
188,314,54954,1,0,2:0:0:0:
158,274,55038,1,8,2:0:0:0:
149,226,55121,1,0,2:0:0:0:
163,178,55204,1,2,2:0:0:0:
177,130,55288,1,0,2:0:0:0:
168,82,55371,1,8,2:0:0:0:
138,42,55454,1,0,2:0:0:0:
94,21,55538,1,0,2:0:0:0:
44,22,55621,1,0,2:0:0:0:
0,45,55704,5,10,2:0:0:0:
27,67,55788,1,0,2:0:0:0:
61,70,55871,1,0,2:0:0:0:
91,53,55954,1,0,2:0:0:0:
94,21,56038,5,10,2:0:0:0:
116,75,56121,1,0,2:0:0:0:
166,105,56204,1,0,2:0:0:0:
225,99,56288,1,0,2:0:0:0:
267,58,56371,1,8,2:0:0:0:
309,17,56454,1,0,2:0:0:0:
368,11,56538,1,0,2:0:0:0:
418,41,56621,1,0,2:0:0:0:
441,96,56704,2,0,L|437:150,3,50,8|0|0|0,2:0|2:0|2:0|2:0,2:0:0:0:
335,251,57038,2,0,L|331:197,3,50,10|0|0|0,2:0|2:0|2:0|2:0,2:0:0:0:
412,350,57371,5,10,2:0:0:0:
368,373,57454,1,0,2:0:0:0:
318,376,57538,1,0,2:0:0:0:
273,358,57621,1,0,2:0:0:0:
239,321,57704,1,8,2:0:0:0:
224,274,57788,1,0,2:0:0:0:
231,225,57871,6,0,L|226:172,1,50,2|0,2:0|2:0,2:0:0:0:
95,88,58038,2,0,L|143:109,3,50,10|0|0|0,2:0|2:0|2:0|2:0,2:0:0:0:
282,38,58371,2,0,L|238:69,3,50,10|0|0|0,2:0|2:0|2:0|2:0,2:0:0:0:
331,201,58704,5,10,2:0:0:0:
365,221,58788,1,0,2:0:0:0:
405,214,58871,1,0,2:0:0:0:
430,183,58954,1,0,2:0:0:0:
430,143,59038,1,8,2:0:0:0:
405,112,59121,1,0,2:0:0:0:
365,105,59204,1,0,2:0:0:0:
331,125,59288,1,0,2:0:0:0:
317,163,59371,2,0,L|302:213,3,50,10|0|0|0,2:0|2:0|2:0|2:0,2:0:0:0:
223,48,59704,2,0,L|238:98,3,50,10|0|0|0,2:0|2:0|2:0|2:0,2:0:0:0:
378,13,60038,5,14,2:0:0:0:
426,19,60121,1,0,2:0:0:0:
460,54,60204,1,0,2:0:0:0:
465,103,60288,1,0,2:0:0:0:
438,144,60371,1,8,2:0:0:0:
411,185,60454,1,0,2:0:0:0:
416,234,60538,1,0,2:0:0:0:
450,269,60621,1,0,2:0:0:0:
499,276,60704,5,10,2:0:0:0:
481,229,60788,1,0,2:0:0:0:
441,200,60871,1,0,2:0:0:0:
392,195,60954,1,0,2:0:0:0:
348,217,61038,1,8,2:0:0:0:
322,259,61121,1,0,2:0:0:0:
321,308,61204,1,0,2:0:0:0:
347,350,61288,1,0,2:0:0:0:
391,373,61371,5,10,2:0:0:0:
380,314,61454,1,0,2:0:0:0:
341,269,61538,1,0,2:0:0:0:
286,248,61621,1,0,2:0:0:0:
227,257,61704,1,8,2:0:0:0:
170,242,61788,1,0,2:0:0:0:
128,200,61871,1,0,2:0:0:0:
111,144,61954,1,0,2:0:0:0:
126,87,62038,5,10,2:0:0:0:
182,110,62121,1,0,2:0:0:0:
204,165,62204,1,0,2:0:0:0:
182,220,62288,1,0,2:0:0:0:
126,243,62371,1,8,2:0:0:0:
71,220,62454,1,0,2:0:0:0:
48,165,62538,1,0,2:0:0:0:
71,110,62621,1,0,2:0:0:0:
126,87,62704,5,10,2:0:0:0:
153,152,62788,1,0,2:0:0:0:
126,216,62871,1,0,2:0:0:0:
61,243,62954,1,0,2:0:0:0:
40,309,63038,1,10,2:0:0:0:
81,365,63121,1,0,2:0:0:0:
151,369,63204,1,0,2:0:0:0:
197,317,63288,1,0,2:0:0:0:
185,249,63371,1,10,2:0:0:0:
125,215,63454,1,0,2:0:0:0:
94,153,63538,1,0,2:0:0:0:
104,83,63621,1,0,2:0:0:0:
154,34,63704,1,10,2:0:0:0:
223,23,63788,1,0,2:0:0:0:
285,55,63871,1,0,2:0:0:0:
317,117,63954,1,0,2:0:0:0:
306,186,64038,6,0,P|276:187|245:179,1,50,10|0,2:0|2:0,2:0:0:0:
315,198,64204,2,0,P|285:199|254:191,1,50,0|0,2:0|2:0,2:0:0:0:
181,260,64371,6,0,P|159:239|142:211,1,50,8|0,2:0|2:0,2:0:0:0:
178,274,64538,2,0,P|156:253|139:225,1,50,0|0,2:0|2:0,2:0:0:0:
45,88,64704,6,0,L|111:92,3,50,10|0|0|0,2:0|2:0|2:0|2:0,2:0:0:0:
49,261,65038,2,0,L|-13:255,3,50,10|0|0|0,2:0|2:0|2:0|2:0,2:0:0:0:
179,20,65371,5,14,2:0:0:0:
233,15,65454,1,0,2:0:0:0:
282,39,65538,1,0,2:0:0:0:
313,84,65621,1,0,2:0:0:0:
317,138,65704,1,8,2:0:0:0:
346,184,65788,1,0,2:0:0:0:
398,201,65871,1,0,2:0:0:0:
450,181,65954,1,0,2:0:0:0:
475,133,66038,1,8,2:0:0:0:
463,79,66121,1,0,2:0:0:0:
420,44,66204,1,0,2:0:0:0:
365,47,66288,1,0,2:0:0:0:
325,83,66371,5,10,2:0:0:0:
312,61,66454,1,0,2:0:0:0:
291,46,66538,1,0,2:0:0:0:
267,38,66621,1,0,2:0:0:0:
241,36,66704,5,10,2:0:0:0:
206,90,66788,1,0,2:0:0:0:
209,154,66871,1,0,2:0:0:0:
249,205,66954,1,0,2:0:0:0:
312,215,67038,1,8,2:0:0:0:
376,211,67121,1,0,2:0:0:0:
426,251,67204,1,0,2:0:0:0:
443,313,67288,1,0,2:0:0:0:
422,374,67371,2,0,L|371:381,3,50,8|0|0|0,2:0|2:0|2:0|2:0,2:0:0:0:
273,336,67704,5,10,2:0:0:0:
264,318,67788,1,0,2:0:0:0:
261,298,67871,1,0,2:0:0:0:
261,277,67954,1,0,2:0:0:0:
264,257,68038,5,10,2:0:0:0:
215,268,68121,1,0,2:0:0:0:
176,236,68204,1,0,2:0:0:0:
176,186,68288,1,0,2:0:0:0:
215,155,68371,1,8,2:0:0:0:
264,166,68454,1,0,2:0:0:0:
285,211,68538,6,0,L|341:227,1,50,2|0,2:0|2:0,2:0:0:0:
369,69,68704,2,0,L|327:109,3,50,10|0|0|0,2:0|2:0|2:0|2:0,2:0:0:0:
449,212,69038,2,0,L|434:155,3,50,10|0|0|0,2:0|2:0|2:0|2:0,2:0:0:0:
439,36,69371,5,10,2:0:0:0:
408,10,69454,1,0,2:0:0:0:
369,0,69538,1,0,2:0:0:0:
329,3,69621,1,0,2:0:0:0:
292,19,69704,1,8,2:0:0:0:
269,51,69788,1,0,2:0:0:0:
233,69,69871,1,0,2:0:0:0:
192,71,69954,1,0,2:0:0:0:
154,56,70038,2,0,L|169:7,3,50,10|0|0|0,2:0|2:0|2:0|2:0,2:0:0:0:
8,143,70371,2,0,L|23:192,3,50,10|0|0|0,2:0|2:0|2:0|2:0,2:0:0:0:
22,330,70704,5,14,2:0:0:0:
68,347,70788,1,0,2:0:0:0:
116,337,70871,1,0,2:0:0:0:
153,304,70954,1,0,2:0:0:0:
166,256,71038,1,8,2:0:0:0:
179,209,71121,1,0,2:0:0:0:
216,175,71204,1,0,2:0:0:0:
264,166,71288,1,0,2:0:0:0:
311,182,71371,5,10,2:0:0:0:
277,226,71454,1,0,2:0:0:0:
224,238,71538,1,0,2:0:0:0:
174,213,71621,1,0,2:0:0:0:
153,163,71704,1,8,2:0:0:0:
169,110,71788,1,0,2:0:0:0:
216,80,71871,1,0,2:0:0:0:
270,87,71954,1,0,2:0:0:0:
307,127,72038,5,10,2:0:0:0:
326,76,72121,1,0,2:0:0:0:
373,48,72204,1,0,2:0:0:0:
427,58,72288,1,0,2:0:0:0:
463,100,72371,1,8,2:0:0:0:
463,155,72454,1,0,2:0:0:0:
427,197,72538,1,0,2:0:0:0:
373,206,72621,1,0,2:0:0:0:
326,179,72704,5,10,2:0:0:0:
388,155,72788,1,0,2:0:0:0:
448,179,72871,1,0,2:0:0:0:
473,240,72954,1,0,2:0:0:0:
448,302,73038,1,8,2:0:0:0:
387,326,73121,1,0,2:0:0:0:
325,302,73204,1,0,2:0:0:0:
262,318,73288,1,0,2:0:0:0:
238,378,73371,5,10,3:2:0:0:
303,352,73454,1,0,2:0:0:0:
329,287,73538,1,0,3:0:0:0:
303,222,73621,1,0,2:0:0:0:
238,195,73704,1,8,3:2:0:0:
173,222,73788,1,0,2:0:0:0:
108,195,73871,1,0,3:0:0:0:
82,130,73954,1,0,2:0:0:0:
108,65,74038,5,8,3:2:0:0:
185,88,74121,1,4,3:0:0:0:
205,160,74204,1,4,3:0:0:0:
175,223,74288,1,0,2:0:0:0:
112,238,74371,1,8,3:2:0:0:
67,221,74454,1,8,3:0:0:0:
54,193,74538,1,8,3:0:0:0:
58,177,74621,1,8,3:0:0:0:
72,168,74704,5,4,3:0:0:0:
175,323,74871,1,0,2:0:0:0:
318,177,75038,5,0,3:0:0:0:
281,279,75204,1,0,2:0:0:0:
354,98,75371,2,0,P|406:148|351:259,1,200,0|2,3:0|3:0,2:0:0:0:
208,256,76038,5,2,3:0:0:0:
171,142,76204,1,0,3:0:0:0:
93,230,76371,5,2,2:0:0:0:
56,344,76538,1,0,3:0:0:0:
14,136,76704,6,0,L|180:149,1,150,10|0,2:0|2:0,2:0:0:0:
180,136,77038,5,2,3:0:0:0:
265,189,77204,1,0,3:0:0:0:
270,95,77371,5,2,2:0:0:0:
355,42,77538,1,0,3:0:0:0:
443,191,77704,5,0,3:0:0:0:
358,138,77871,1,0,2:0:0:0:
307,285,78038,5,8,2:0:0:0:
467,100,78204,2,0,L|444:212,1,100,0|0,2:0|3:0,2:0:0:0:
496,282,78538,1,0,3:0:0:0:
315,275,78704,6,0,L|352:122,1,150,2|0,3:0|2:0,2:0:0:0:
369,124,79038,5,2,3:0:0:0:
261,64,79204,1,0,2:0:0:0:
325,281,79371,6,0,B|269:285|269:285|221:270|221:270|177:274,1,150,10|0,2:0|2:0,2:0:0:0:
172,283,79704,2,0,P|188:225|140:137,1,150,2|0,3:0|2:0,2:0:0:0:
143,146,80038,5,2,3:0:0:0:
56,87,80204,1,0,3:0:0:0:
79,231,80371,5,0,2:0:0:0:
166,290,80538,1,0,3:0:0:0:
147,52,80704,5,8,2:0:0:0:
251,85,80871,1,0,2:0:0:0:
301,181,81038,1,2,3:0:0:0:
405,214,81204,1,0,2:0:0:0:
396,217,81288,1,0,2:0:0:0:
388,221,81371,6,0,B|376:279|376:279|404:378,1,150,2|0,3:0|2:0,2:0:0:0:
416,374,81704,1,0,2:0:0:0:
283,360,81871,1,2,3:0:0:0:
150,374,82038,6,0,P|140:313|211:236,1,150,8|0,2:0|2:0,2:0:0:0:
203,248,82371,5,2,3:0:0:0:
121,163,82538,1,0,2:0:0:0:
12,361,82704,5,2,3:0:0:0:
94,276,82871,1,0,3:0:0:0:
44,72,83038,5,0,2:0:0:0:
126,157,83204,1,2,3:0:0:0:
276,118,83371,6,0,B|315:122|349:113|349:113|346:121|346:121|384:113|422:121,1,150,8|0,2:0|2:0,2:0:0:0:
423,132,83704,5,2,3:0:0:0:
357,22,83871,1,0,3:0:0:0:
395,222,84038,6,0,P|457:217|514:146,1,150,2|0,3:0|2:0,2:0:0:0:
503,143,84371,2,0,B|498:195|498:195|510:253|510:253|509:305,1,150,2|0,3:0|2:0,2:0:0:0:
503,304,84704,5,10,2:0:0:0:
392,215,84871,1,0,2:0:0:0:
279,118,85038,5,2,3:0:0:0:
390,207,85204,1,0,2:0:0:0:
168,30,85371,5,2,3:0:0:0:
59,109,85538,1,0,3:0:0:0:
101,238,85704,1,0,3:0:0:0:
236,238,85871,1,0,3:0:0:0:
278,109,86038,5,8,2:0:0:0:
167,352,86204,1,0,3:0:0:0:
3,114,86371,6,0,B|27:113|27:113|33:115|33:115|63:113,1,50,8|0,2:0|2:0,2:0:0:0:
294,354,86538,2,0,B|318:355|318:355|324:353|324:353|354:355,1,50,8|0,2:0|2:0,2:0:0:0:
146,184,86704,5,6,3:2:0:0:
278,223,86871,1,0,3:0:0:0:
246,90,87038,1,0,3:0:0:0:
274,228,87204,5,2,3:0:0:0:
406,189,87371,1,0,3:0:0:0:
374,322,87538,1,0,3:0:0:0:
505,114,87704,6,0,L|336:77,1,150,10|0,2:0|2:0,2:0:0:0:
341,92,88038,1,2,3:0:0:0:
236,7,88204,1,0,3:0:0:0:
110,236,88371,5,0,3:0:0:0:
141,36,88538,1,2,3:0:0:0:
233,215,88704,1,0,3:0:0:0:
53,124,88871,1,0,3:0:0:0:
253,92,89038,5,10,2:0:0:0:
34,128,89204,1,8,2:0:0:0:
269,88,89371,6,0,B|304:65|353:74|339:82|376:95|425:81,1,150,2|0,3:0|2:0,2:0:0:0:
422,76,89704,1,0,3:0:0:0:
312,202,89871,5,2,3:0:0:0:
264,79,90038,1,0,3:0:0:0:
319,212,90204,1,0,3:0:0:0:
473,197,90371,5,10,2:0:0:0:
438,342,90538,1,0,3:0:0:0:
480,187,90704,1,2,3:0:0:0:
238,370,90871,5,0,3:0:0:0:
135,330,91038,1,0,3:0:0:0:
306,191,91204,5,0,3:0:0:0:
323,300,91371,1,0,3:0:0:0:
118,221,91538,5,0,3:0:0:0:
203,152,91704,1,10,2:0:0:0:
135,330,91871,1,0,3:0:0:0:
60,124,92038,6,0,L|227:149,1,150,6|0,3:2|2:0,2:0:0:0:
337,146,92371,5,0,3:0:0:0:
267,273,92538,1,2,3:0:0:0:
410,213,92704,1,0,3:0:0:0:
203,340,92871,5,0,3:0:0:0:
118,221,93038,1,10,2:0:0:0:
276,273,93204,1,0,3:0:0:0:
60,296,93371,6,0,P|22:230|45:153,1,150,6|0,3:2|2:0,2:0:0:0:
54,149,93704,5,0,3:0:0:0:
209,112,93871,1,2,3:0:0:0:
69,138,94038,5,0,3:0:0:0:
204,28,94204,1,0,3:0:0:0:
218,29,94288,1,0,3:0:0:0:
233,30,94371,1,10,2:0:0:0:
362,83,94538,1,0,3:0:0:0:
348,84,94621,1,0,3:0:0:0:
333,85,94704,5,6,3:2:0:0:
287,258,94871,1,0,3:0:0:0:
138,162,95038,5,0,3:0:0:0:
209,340,95204,1,0,3:0:0:0:
51,234,95371,5,0,3:0:0:0:
209,112,95538,1,0,3:0:0:0:
223,111,95621,1,0,3:0:0:0:
238,110,95704,5,10,2:0:0:0:
409,190,95871,1,2,3:0:0:0:
220,11,96038,1,4,3:2:0:0:
48,176,96204,5,0,3:0:0:0:
64,176,96288,1,0,3:0:0:0:
80,176,96371,5,0,3:0:0:0:
208,336,96538,1,0,3:0:0:0:
368,176,96704,1,8,2:0:0:0:
208,16,96871,1,0,3:0:0:0:
376,224,97038,6,0,B|375:203|375:203|367:182|367:182|366:158,1,50,8|0,2:0|2:0,2:0:0:0:
131,2,97204,2,0,B|132:23|132:23|140:44|140:44|141:68,1,50,8|0,2:0|2:0,2:0:0:0:
67,333,97371,6,0,P|29:237|110:173,1,220,6|8,3:2|2:0,2:0:0:0:
236,307,97871,2,0,L|45:334,1,165,2|0,3:0|2:0,2:0:0:0:
63,337,98204,1,0,3:0:0:0:
303,384,98371,1,10,2:0:0:0:
254,221,98538,1,0,2:0:0:0:
472,367,98704,6,0,B|501:307|485:245|460:269|451:203|486:147,1,220,2|8,3:0|2:0,2:0:0:0:
511,80,99204,2,0,P|454:105|351:66,1,165,2|0,3:0|2:0,2:0:0:0:
353,60,99538,1,0,3:0:0:0:
376,282,99704,1,10,2:0:0:0:
249,215,99871,1,0,2:0:0:0:
47,368,100038,6,0,P|2:319|58:357,1,165,2|0,3:2|2:0,2:0:0:0:
122,375,100371,1,8,2:0:0:0:
54,186,100538,1,0,3:0:0:0:
251,188,100704,1,0,2:0:0:0:
45,185,100871,1,0,3:0:0:0:
144,25,101038,6,0,B|183:35|183:35|212:63|212:63|251:76,1,110,10|0,2:0|2:0,2:0:0:0:
332,22,101371,2,0,B|304:51|304:51|266:62|266:62|235:90,1,110,2|0,3:0|2:0,2:0:0:0:
254,195,101704,2,0,B|244:157|244:157|253:118|253:118|245:77,1,110,10|0,2:0|2:0,2:0:0:0:
170,129,102038,5,2,3:0:0:0:
350,158,102204,1,0,3:0:0:0:
150,243,102371,1,10,2:0:0:0:
330,272,102538,1,0,3:0:0:0:
158,122,102704,6,0,B|121:144|121:144|104:327,1,220,6|8,3:2|2:0,2:0:0:0:
18,361,103204,2,0,L|29:226,1,110,2|0,3:0|2:0,2:0:0:0:
16,157,103538,1,0,3:0:0:0:
109,330,103704,2,0,P|175:335|224:306,1,110,10|0,2:0|2:0,2:0:0:0:
277,212,104038,6,0,P|318:264|419:221,1,165,2|0,3:0|2:0,2:0:0:0:
349,196,104371,1,8,2:0:0:0:
485,364,104538,2,0,L|300:343,1,165,2|0,3:0|2:0,2:0:0:0:
244,367,104871,1,0,3:0:0:0:
508,209,105038,2,0,L|323:188,1,165,10|0,2:0|2:0,2:0:0:0:
284,136,105371,5,2,3:2:0:0:
202,297,105538,1,0,3:0:0:0:
151,116,105704,1,8,2:0:0:0:
280,269,105871,2,0,P|347:271|390:240,1,110,0|0,3:0|2:0,2:0:0:0:
117,182,106204,1,0,3:0:0:0:
317,199,106371,2,0,P|366:154|375:101,1,110,8|0,2:0|3:0,2:0:0:0:
303,41,106704,5,0,3:0:0:0:
219,226,106871,1,8,2:0:0:0:
102,61,107038,1,0,3:0:0:0:
309,35,107204,1,0,3:0:0:0:
120,248,107371,5,10,2:0:0:0:
173,275,107454,1,8,2:0:0:0:
216,232,107538,1,8,2:0:0:0:
189,178,107621,1,0,2:0:0:0:
129,188,107704,1,10,2:0:0:0:
76,215,107788,1,8,2:0:0:0:
33,172,107871,1,8,2:0:0:0:
60,118,107954,1,8,2:0:0:0:
120,128,108038,5,14,2:0:0:0:
155,82,108121,1,0,2:0:0:0:
208,60,108204,1,0,2:0:0:0:
265,70,108288,1,0,2:0:0:0:
309,107,108371,1,8,2:0:0:0:
328,162,108454,1,0,2:0:0:0:
316,219,108538,1,2,2:0:0:0:
303,276,108621,1,0,2:0:0:0:
322,331,108704,1,8,2:0:0:0:
366,368,108788,1,0,2:0:0:0:
423,377,108871,1,0,2:0:0:0:
477,356,108954,1,0,2:0:0:0:
512,310,109038,5,10,2:0:0:0:
487,293,109121,1,0,2:0:0:0:
459,283,109204,1,0,2:0:0:0:
430,279,109288,1,0,2:0:0:0:
400,282,109371,5,10,2:0:0:0:
454,295,109454,1,0,2:0:0:0:
498,260,109538,1,0,2:0:0:0:
497,204,109621,1,0,2:0:0:0:
451,171,109704,1,8,2:0:0:0:
405,138,109788,1,0,2:0:0:0:
404,82,109871,1,0,2:0:0:0:
448,47,109954,1,0,2:0:0:0:
503,61,110038,2,0,L|496:119,3,58.5,8|0|0|0,2:0|2:0|2:0|2:0,2:0:0:0:
335,181,110371,2,0,L|328:123,3,58.5,10|0|0|0,2:0|2:0|2:0|2:0,2:0:0:0:
400,282,110704,5,10,2:0:0:0:
344,299,110788,1,0,2:0:0:0:
288,287,110871,1,0,2:0:0:0:
245,248,110954,1,0,2:0:0:0:
202,209,111038,1,8,2:0:0:0:
146,197,111121,1,0,2:0:0:0:
91,215,111204,6,0,P|93:251|108:275,1,58.5,2|0,2:0|2:0,2:0:0:0:
55,98,111371,2,0,P|22:81|-5:82,3,58.5,10|0|0|0,2:0|2:0|2:0|2:0,2:0:0:0:
174,125,111704,2,0,P|204:105|217:80,3,58.5,10|0|0|0,2:0|2:0|2:0|2:0,2:0:0:0:
200,335,112038,5,10,2:0:0:0:
251,324,112121,1,0,2:0:0:0:
288,287,112204,1,0,2:0:0:0:
301,236,112288,1,0,2:0:0:0:
291,183,112371,1,8,2:0:0:0:
281,130,112454,1,0,2:0:0:0:
294,79,112538,1,0,2:0:0:0:
331,42,112621,1,0,2:0:0:0:
382,31,112704,2,0,P|437:49|454:43,3,58.5,10|0|0|0,2:0|2:0|2:0|2:0,2:0:0:0:
512,213,113038,2,0,P|457:195|439:200,3,58.5,10|0|0|0,2:0|2:0|2:0|2:0,2:0:0:0:
312,32,113371,5,14,2:0:0:0:
266,6,113454,1,0,2:0:0:0:
213,13,113538,1,0,2:0:0:0:
175,46,113621,1,0,2:0:0:0:
161,96,113704,1,8,2:0:0:0:
178,145,113788,1,0,2:0:0:0:
221,175,113871,1,0,2:0:0:0:
272,177,113954,1,0,2:0:0:0:
317,156,114038,5,10,2:0:0:0:
278,113,114121,1,0,2:0:0:0:
222,109,114204,1,0,2:0:0:0:
178,145,114288,1,0,2:0:0:0:
171,201,114371,1,8,2:0:0:0:
182,256,114454,1,0,2:0:0:0:
151,303,114538,1,0,2:0:0:0:
96,317,114621,1,0,2:0:0:0:
47,289,114704,5,10,2:0:0:0:
91,251,114788,1,0,2:0:0:0:
148,241,114871,1,0,2:0:0:0:
202,262,114954,1,0,2:0:0:0:
238,306,115038,1,8,2:0:0:0:
274,350,115121,1,0,2:0:0:0:
328,371,115204,1,0,2:0:0:0:
385,361,115288,1,0,2:0:0:0:
430,324,115371,5,10,2:0:0:0:
372,319,115454,1,0,2:0:0:0:
325,285,115538,1,0,2:0:0:0:
303,231,115621,1,0,2:0:0:0:
312,174,115704,1,8,2:0:0:0:
349,130,115788,1,0,2:0:0:0:
404,112,115871,1,0,2:0:0:0:
460,125,115954,1,0,2:0:0:0:
502,166,116038,5,10,2:0:0:0:
476,231,116121,1,0,2:0:0:0:
411,257,116204,1,0,2:0:0:0:
346,230,116288,1,0,2:0:0:0:
319,166,116371,1,10,2:0:0:0:
346,101,116454,1,0,2:0:0:0:
319,37,116538,1,0,2:0:0:0:
254,10,116621,1,0,2:0:0:0:
189,37,116704,1,10,2:0:0:0:
162,101,116788,1,0,2:0:0:0:
189,166,116871,1,0,2:0:0:0:
162,231,116954,1,0,2:0:0:0:
97,257,117038,1,10,2:0:0:0:
32,230,117121,1,0,2:0:0:0:
5,166,117204,1,0,2:0:0:0:
32,101,117288,1,0,2:0:0:0:
97,74,117371,6,0,L|162:90,1,58.5,10|0,2:0|2:0,2:0:0:0:
112,89,117538,2,0,L|177:105,1,58.5,0|0,2:0|2:0,2:0:0:0:
309,156,117704,2,0,L|244:172,1,58.5,8|0,2:0|2:0,2:0:0:0:
294,171,117871,2,0,L|229:187,1,58.5,0|0,2:0|2:0,2:0:0:0:
37,243,118038,6,0,L|24:311,3,58.5,10|0|0|0,2:0|2:0|2:0|2:0,2:0:0:0:
180,93,118371,2,0,L|193:25,3,58.5,10|0|0|0,2:0|2:0|2:0|2:0,2:0:0:0:
178,288,118704,5,14,2:0:0:0:
230,312,118788,1,0,2:0:0:0:
286,299,118871,1,0,2:0:0:0:
322,255,118954,1,0,2:0:0:0:
324,198,119038,1,8,2:0:0:0:
326,141,119121,1,0,2:0:0:0:
362,97,119204,1,0,2:0:0:0:
418,84,119288,1,0,2:0:0:0:
471,109,119371,2,0,L|466:175,3,58.5,8|0|0|0,2:0|2:0|2:0|2:0,2:0:0:0:
324,198,119704,5,10,2:0:0:0:
298,184,119788,1,0,2:0:0:0:
282,158,119871,1,0,2:0:0:0:
275,129,119954,1,0,2:0:0:0:
279,100,120038,5,10,2:0:0:0:
301,152,120121,1,0,2:0:0:0:
281,205,120204,1,0,2:0:0:0:
229,230,120288,1,0,2:0:0:0:
175,213,120371,1,8,2:0:0:0:
148,162,120454,1,0,2:0:0:0:
163,107,120538,1,0,2:0:0:0:
152,51,120621,1,0,2:0:0:0:
106,17,120704,1,8,2:0:0:0:
50,26,120788,1,0,2:0:0:0:
15,70,120871,1,0,2:0:0:0:
18,128,120954,1,0,2:0:0:0:
58,169,121038,5,10,2:0:0:0:
57,186,121121,1,0,2:0:0:0:
56,203,121204,1,0,2:0:0:0:
55,220,121288,1,0,2:0:0:0:
55,240,121371,5,10,2:0:0:0:
109,220,121454,1,0,2:0:0:0:
165,231,121538,1,0,2:0:0:0:
208,270,121621,1,0,2:0:0:0:
251,309,121704,1,8,2:0:0:0:
307,320,121788,1,0,2:0:0:0:
362,301,121871,6,0,L|373:235,1,58.5,2|0,2:0|2:0,2:0:0:0:
222,173,122038,2,0,L|273:215,3,58.5,10|0|0|0,2:0|2:0|2:0|2:0,2:0:0:0:
405,111,122371,2,0,L|342:134,3,58.5,10|0|0|0,2:0|2:0|2:0|2:0,2:0:0:0:
475,290,122704,5,10,2:0:0:0:
452,343,122788,1,0,2:0:0:0:
403,371,122871,1,0,2:0:0:0:
347,363,122954,1,0,2:0:0:0:
307,320,123038,1,8,2:0:0:0:
267,277,123121,1,0,2:0:0:0:
211,269,123204,1,0,2:0:0:0:
162,297,123288,1,0,2:0:0:0:
139,350,123371,2,0,L|204:359,3,58.5,10|0|0|0,2:0|2:0|2:0|2:0,2:0:0:0:
222,173,123704,2,0,L|157:182,3,58.5,10|0|0|0,2:0|2:0|2:0|2:0,2:0:0:0:
475,290,124038,5,14,2:0:0:0:
470,240,124121,1,0,2:0:0:0:
442,199,124204,1,0,2:0:0:0:
397,178,124288,1,0,2:0:0:0:
348,183,124371,1,8,2:0:0:0:
306,158,124454,1,0,2:0:0:0:
282,115,124538,1,0,2:0:0:0:
283,65,124621,1,0,2:0:0:0:
309,22,124704,5,10,2:0:0:0:
334,76,124788,1,0,2:0:0:0:
322,135,124871,1,0,2:0:0:0:
282,179,124954,1,0,2:0:0:0:
226,198,125038,1,8,2:0:0:0:
167,187,125121,1,0,2:0:0:0:
122,148,125204,1,0,2:0:0:0:
103,91,125288,1,0,2:0:0:0:
114,33,125371,5,10,2:0:0:0:
183,50,125454,1,0,2:0:0:0:
219,112,125538,1,0,2:0:0:0:
208,186,125621,1,0,2:0:0:0:
150,233,125704,1,8,2:0:0:0:
76,233,125788,1,0,2:0:0:0:
19,186,125871,1,0,2:0:0:0:
4,112,125954,1,0,2:0:0:0:
43,47,126038,5,14,3:2:0:0:
53,53,126121,1,0,2:0:0:0:
53,62,126204,1,4,3:0:0:0:
43,65,126288,1,4,3:0:0:0:
38,57,126371,5,8,2:0:0:0:
153,244,126538,1,8,2:0:0:0:
259,56,126704,5,10,2:0:0:0:
148,253,126871,2,0,P|236:267|308:240,1,150,8|0,2:0|2:0,2:0:0:0:
302,259,127204,1,0,3:0:0:0:
411,47,127371,6,0,P|323:33|251:60,1,150,8|0,2:0|2:0,2:0:0:0:
256,62,127704,1,0,3:0:0:0:
419,194,127871,2,0,B|419:146|419:146|435:122|435:122|419:98|419:98|419:53,1,150,0|0,3:0|2:0,2:0:0:0:
430,41,128204,1,0,3:0:0:0:
255,176,128371,6,0,B|216:161|177:166|194:182|150:194|107:164,1,150,0|0,3:0|2:0,2:0:0:0:
106,151,128704,1,10,2:0:0:0:
176,289,128871,1,2,3:0:0:0:
70,62,129038,2,0,B|109:47|148:52|131:68|175:80|218:50,1,150,2|0,3:0|2:0,2:0:0:0:
223,35,129371,5,0,3:0:0:0:
63,217,129538,2,0,L|75:48,1,150,0|0,3:0|2:0,2:0:0:0:
66,58,129871,1,0,3:0:0:0:
24,283,130038,2,0,B|61:301|104:289|94:283|129:272|175:284,1,150,8|0,2:0|2:0,2:0:0:0:
181,296,130371,1,0,3:0:0:0:
366,119,130538,6,0,P|359:188|387:262,1,150,0|0,3:0|2:0,2:0:0:0:
407,277,130871,1,0,3:0:0:0:
251,69,131038,6,0,L|184:73,1,50,0|0,3:0|2:0,2:0:0:0:
167,196,131204,1,0,3:0:0:0:
177,196,131288,1,0,2:0:0:0:
186,196,131371,6,0,P|240:204|256:295,1,150,10|0,2:0|2:0,2:0:0:0:
185,335,131704,2,0,P|228:302|304:355,1,150,2|0,3:0|2:0,2:0:0:0:
298,364,132038,5,6,3:2:0:0:
429,203,132204,2,0,L|274:178,1,150,0|0,3:0|2:0,2:0:0:0:
265,195,132538,1,0,3:0:0:0:
404,52,132704,6,0,B|324:59|324:59|321:63|321:63|246:70,1,150,8|0,2:0|2:0,2:0:0:0:
250,56,133038,1,0,3:0:0:0:
489,13,133204,2,0,P|493:83|413:141,1,150,0|0,3:0|2:0,2:0:0:0:
431,132,133538,1,0,3:0:0:0:
451,333,133704,6,0,L|302:353,1,150,0|0,3:0|2:0,2:0:0:0:
302,364,134038,1,10,2:0:0:0:
267,191,134204,1,0,3:0:0:0:
37,357,134371,2,0,B|81:367|118:355|96:342|139:329|184:343,1,150,2|0,2:0|2:0,2:0:0:0:
191,353,134704,1,2,3:0:0:0:
273,186,134871,2,0,L|117:165,1,150,0|0,3:0|2:0,2:0:0:0:
116,172,135204,5,0,3:0:0:0:
300,344,135371,2,0,P|286:262|256:182,1,150,8|0,2:0|2:0,2:0:0:0:
195,64,135704,5,2,3:0:0:0:
190,62,135788,1,2,2:0:0:0:
190,57,135871,1,2,3:0:0:0:
195,55,135954,1,2,2:0:0:0:
197,59,136038,5,10,2:0:0:0:
217,81,136121,1,2,2:0:0:0:
249,94,136204,1,2,2:0:0:0:
289,93,136288,1,2,2:0:0:0:
333,67,136371,1,10,2:0:0:0:
425,54,136538,5,0,3:0:0:0:
467,66,136621,1,0,2:0:0:0:
507,79,136704,1,8,2:0:0:0:
374,176,136871,5,0,3:0:0:0:
379,156,136954,1,0,2:0:0:0:
385,137,137038,1,0,3:0:0:0:
470,283,137204,1,0,3:0:0:0:
299,100,137371,5,6,3:2:0:0:
512,3,137538,2,0,B|436:10|436:10|437:6|437:6|356:13,1,150,0|0,3:0|2:0,2:0:0:0:
356,20,137871,1,0,3:0:0:0:
476,292,138038,6,0,B|429:323|364:307|387:287|326:271|254:297,1,225,8|0,2:0|2:0,2:0:0:0:
251,309,138371,1,0,3:0:0:0:
132,152,138538,2,0,L|294:179,1,150,0|0,3:0|2:0,2:0:0:0:
288,192,138871,1,0,3:0:0:0:
121,52,139038,2,0,P|51:88|37:161,1,150,0|0,3:0|2:0,2:0:0:0:
11,328,139371,6,0,B|49:355|111:339|111:339|111:334|111:334|160:317|224:355,1,225,10|0,2:0|2:0,2:0:0:0:
221,370,139704,2,0,P|252:319|351:331,1,150,0|0,3:0|2:0,2:0:0:0:
339,327,140038,1,2,3:0:0:0:
464,161,140204,2,0,P|393:162|339:239,1,150,0|0,3:0|2:0,2:0:0:0:
341,233,140538,1,0,3:0:0:0:
127,47,140704,6,0,B|201:60|201:60|207:58|207:58|282:70|282:70|287:68|287:68|358:81,1,225,8|0,2:0|2:0,2:0:0:0:
356,93,141038,1,0,3:0:0:0:
167,190,141204,2,0,P|172:131|118:41,1,150,0|0,3:0|2:0,2:0:0:0:
121,42,141538,1,0,3:0:0:0:
229,140,141704,2,0,L|288:144,1,50,0|0,3:0|2:0,2:0:0:0:
295,1,141871,1,0,3:0:0:0:
304,1,141954,1,0,2:0:0:0:
315,3,142038,6,0,B|368:32|366:97|366:97|421:55|470:73,1,225,10|0,2:0|2:0,2:0:0:0:
487,64,142371,2,0,P|477:116|499:223,1,150,2|0,3:0|2:0,2:0:0:0:
503,217,142704,1,6,3:2:0:0:
285,149,142871,2,0,P|245:178|270:283,1,150,0|0,3:0|2:0,2:0:0:0:
273,277,143204,1,0,3:0:0:0:
227,35,143371,6,0,B|171:14|99:37|131:51|66:75|8:41,1,225,8|0,2:0|2:0,2:0:0:0:
8,30,143704,1,0,3:0:0:0:
200,183,143871,2,0,P|228:125|226:25,1,150,0|0,3:0|2:0,2:0:0:0:
224,28,144204,1,0,3:0:0:0:
70,223,144371,2,0,P|142:233|210:182,1,150,0|0,3:0|2:0,2:0:0:0:
290,69,144704,6,0,B|271:115|271:115|299:225|299:225|275:298,1,225,10|0,2:0|2:0,2:0:0:0:
265,295,145038,2,0,P|320:272|375:346,1,150,2|0,3:0|2:0,2:0:0:0:
372,349,145371,1,2,3:0:0:0:
499,207,145538,2,0,P|439:191|371:250,1,150,0|0,3:0|2:0,2:0:0:0:
376,255,145871,1,0,3:0:0:0:
288,0,146038,6,0,B|374:35|452:12|452:12|436:45|404:55,1,225,8|0,2:0|2:0,2:0:0:0:
406,64,146371,5,0,3:0:0:0:
502,217,146538,1,0,3:0:0:0:
215,111,146704,5,10,2:0:0:0:
512,6,146871,1,8,2:0:0:0:
469,326,147038,1,8,2:0:0:0:
278,39,147204,5,0,3:0:0:0:
255,35,147288,1,0,3:0:0:0:
232,31,147371,1,10,2:0:0:0:
9,213,147538,5,0,3:0:0:0:
32,217,147621,1,0,3:0:0:0:
55,221,147704,1,0,3:0:0:0:
7,23,147871,1,0,3:0:0:0:
83,296,148038,5,6,3:2:0:0:
121,134,148204,1,0,3:0:0:0:
198,279,148371,1,0,3:0:0:0:
32,217,148538,1,0,3:0:0:0:
266,223,148704,6,0,P|280:320|190:365,1,187.5,8|0,2:0|2:0,2:0:0:0:
198,360,149038,1,0,3:0:0:0:
332,303,149204,1,0,3:0:0:0:
201,135,149371,1,2,3:0:0:0:
345,158,149538,1,0,3:0:0:0:
192,133,149704,1,0,3:0:0:0:
354,161,149871,1,0,3:0:0:0:
202,35,150038,6,0,B|148:21|103:37|121:49|66:65|17:38,1,187.5,10|0,2:0|2:0,2:0:0:0:
83,0,150371,2,0,P|115:62|41:179,1,187.5,0|0,3:0|2:0,2:0:0:0:
0,148,150704,2,0,B|71:161|71:161|83:189|83:189|172:195,1,187.5,2|0,3:0|2:0,2:0:0:0:
181,182,151038,1,0,3:0:0:0:
281,52,151204,1,0,3:0:0:0:
455,234,151371,6,0,B|409:238|388:227|388:227|374:241|374:241|337:226|272:222,1,187.5,8|0,2:0|2:0,2:0:0:0:
270,228,151704,1,0,3:0:0:0:
393,110,151871,1,0,3:0:0:0:
261,235,152038,1,0,3:0:0:0:
206,47,152204,1,0,3:0:0:0:
84,188,152371,1,0,3:0:0:0:
212,38,152538,1,0,3:0:0:0:
184,265,152704,6,0,P|264:317|340:256,1,187.5,10|0,2:0|2:0,2:0:0:0:
334,252,153038,2,0,B|386:265|404:310|404:310|441:278|496:287,1,187.5,10|0,2:0|2:0,2:0:0:0:
498,310,153371,2,0,P|465:236|496:128,1,187.5,6|0,3:2|2:0,2:0:0:0:
509,135,153704,5,0,3:0:0:0:
326,59,153871,1,0,3:0:0:0:
334,260,154038,6,0,B|288:273|248:267|248:267|233:256|233:256|192:248|147:257,1,187.5,8|0,2:0|2:0,2:0:0:0:
167,262,154371,1,0,3:0:0:0:
75,379,154538,1,0,3:0:0:0:
17,184,154704,1,0,3:0:0:0:
91,299,154871,1,0,3:0:0:0:
161,90,155038,1,0,3:0:0:0:
94,213,155204,1,0,3:0:0:0:
11,17,155371,6,0,P|68:59|167:12,1,187.5,10|0,2:0|2:0,2:0:0:0:
159,3,155704,2,0,B|171:29|196:49|196:49|197:73|197:73|194:80|194:80|193:108|193:108|224:132|236:167,1,187.5,2|0,3:0|2:0,2:0:0:0:
226,175,156038,2,0,P|258:110|380:129,1,187.5,2|0,3:0|2:0,2:0:0:0:
362,130,156371,1,0,3:0:0:0:
459,4,156538,1,0,3:0:0:0:
499,203,156704,2,0,B|445:222|445:222|409:351,1,187.5,8|0,2:0|2:0,2:0:0:0:
424,364,157038,1,0,3:0:0:0:
326,232,157204,1,0,3:0:0:0:
168,340,157371,5,10,2:0:0:0:
216,97,157538,1,0,3:0:0:0:
292,308,157704,5,10,2:0:0:0:
60,246,157871,1,0,3:0:0:0:
347,10,158038,5,10,2:0:0:0:
292,308,158204,1,8,2:0:0:0:
108,0,158371,5,8,2:0:0:0:
163,298,158538,1,8,2:0:0:0:
355,0,158704,6,0,P|413:50|321:130,1,224,6|8,3:2|2:0,2:0:0:0:
322,126,159204,1,0,2:0:0:0:
224,25,159371,1,0,3:0:0:0:
224,25,159538,1,0,3:0:0:0:
221,219,159704,6,0,B|172:222|172:222|127:95,1,168,10|0,2:0|2:0,2:0:0:0:
146,93,160038,2,0,P|104:143|11:52,1,224,2|8,3:0|2:0,2:0:0:0:
16,44,160538,1,0,2:0:0:0:
36,226,160704,1,0,3:0:0:0:
36,226,160871,1,0,3:0:0:0:
232,110,161038,6,0,P|296:126|320:225,1,168,10|0,2:0|2:0,2:0:0:0:
309,228,161371,2,0,P|365:182|453:278,1,224,6|8,3:2|2:0,2:0:0:0:
444,290,161871,1,2,2:0:0:0:
501,102,162038,6,0,B|466:86|412:93|432:103|379:114|331:99,1,168,2|0,3:0|2:0,2:0:0:0:
343,77,162371,2,0,B|344:104|355:124|355:124|338:157|338:157|332:157|332:157|315:187|315:187|327:215|327:247,1,168,10|0,2:0|2:0,2:0:0:0:
352,238,162704,2,0,B|284:256|284:256|221:351,1,168,2|0,3:0|2:0,2:0:0:0:
243,354,163038,1,8,2:0:0:0:
94,246,163204,1,0,3:0:0:0:
94,246,163371,6,0,B|101:166|101:166|120:141|120:141|126:70,1,168,10|0,2:0|2:0,2:0:0:0:
114,70,163704,6,0,P|154:78|186:74,1,56,10|0,2:0|2:0,2:0:0:0:
278,16,163871,5,0,3:0:0:0:
294,15,163954,1,0,3:0:0:0:
310,16,164038,6,0,P|343:37|341:75,1,74.6666666666666,2|0,3:0|2:0,2:0:0:0:
254,127,164260,1,0,2:0:0:0:
362,195,164371,2,0,P|327:213|295:192,1,74.6666666666666,10|0,2:0|2:0,2:0:0:0:
254,127,164593,1,0,2:0:0:0:
141,186,164704,2,0,P|142:146|176:129,1,74.6666666666666,2|0,3:0|2:0,2:0:0:0:
254,127,164926,1,0,2:0:0:0:
277,240,165038,6,0,L|192:255,1,74.6666666666666,10|0,2:0|2:0,2:0:0:0:
141,186,165260,1,0,2:0:0:0:
26,277,165371,2,0,L|55:195,1,74.6666666666666,2|0,3:0|2:0,2:0:0:0:
141,186,165593,1,0,2:0:0:0:
120,42,165704,2,0,L|175:108,1,74.6666666666666,10|0,2:0|2:0,2:0:0:0:
141,186,165926,1,0,2:0:0:0:
340,103,166038,5,2,3:0:0:0:
268,80,166149,1,0,2:0:0:0:
322,29,166260,1,0,2:0:0:0:
346,108,166371,5,10,2:0:0:0:
259,80,166482,1,2,2:0:0:0:
324,19,166593,1,2,2:0:0:0:
370,190,166704,6,0,P|424:151|416:57,1,168,6|0,3:2|2:0,2:0:0:0:
402,48,167038,1,8,2:0:0:0:
485,229,167204,2,0,B|446:248|409:258|409:258|396:288|396:288|365:297|336:313,1,168,0|0,2:0|2:0,2:0:0:0:
337,327,167538,1,0,2:0:0:0:
323,296,167621,1,0,2:0:0:0:
300,271,167704,2,0,B|246:265|230:226|230:226|195:242|145:221,1,168,10|0,2:0|2:0,2:0:0:0:
120,255,168038,5,10,2:0:0:0:
196,34,168204,1,10,2:0:0:0:
222,204,168371,5,10,2:0:0:0:
1,128,168538,1,10,2:0:0:0:
249,129,168704,5,10,3:0:0:0:
195,283,168871,1,8,3:0:0:0:
257,106,169038,5,6,3:0:0:0:
186,306,169204,1,4,3:0:0:0:
263,91,169371,6,0,P|300:94|326:116,1,56,6|0,3:2|2:0,2:0:0:0:
368,44,169538,2,0,P|392:72|394:106,1,56,2|0,3:0|2:0,2:0:0:0:
478,86,169704,2,0,P|475:123|453:149,1,56,10|0,2:0|2:0,2:0:0:0:
404,270,169871,2,0,P|399:201|476:147,1,168,2|0,2:0|2:0,2:0:0:0:
495,155,170204,1,2,3:0:0:0:
310,301,170371,5,10,2:0:0:0:
293,297,170454,1,0,2:0:0:0:
274,284,170538,1,2,2:0:0:0:
257,261,170621,1,0,2:0:0:0:
249,228,170704,6,0,P|209:234|189:263,1,56,2|0,3:0|2:0,2:0:0:0:
144,175,170871,2,0,P|119:207|126:242,1,56,2|0,2:0|2:0,2:0:0:0:
32,211,171038,2,0,P|37:251|67:271,1,56,10|0,2:0|2:0,2:0:0:0:
29,375,171204,2,0,B|68:355|89:309|77:259|77:259|52:271|23:276,1,168,2|0,2:0|2:0,2:0:0:0:
40,263,171538,5,2,2:0:0:0:
222,91,171704,1,10,2:0:0:0:
0,67,171871,1,2,2:0:0:0:
252,259,172038,5,2,3:0:0:0:
182,154,172204,1,2,3:0:0:0:
209,19,172371,1,8,2:0:0:0:
159,296,172538,5,0,2:0:0:0:
188,147,172704,1,2,3:0:0:0:
326,55,172871,1,2,3:0:0:0:
36,237,173038,5,8,2:0:0:0:
183,139,173204,1,2,2:0:0:0:
372,176,173371,1,2,3:0:0:0:
66,108,173538,5,0,3:0:0:0:
189,132,173704,1,10,2:0:0:0:
266,247,173871,1,2,2:0:0:0:
263,74,174038,5,10,2:0:0:0:
161,288,174204,1,2,3:0:0:0:
191,30,174371,5,10,2:0:0:0:
247,348,174538,1,2,3:0:0:0:
350,125,174704,5,6,3:2:0:0:
110,206,174871,2,0,P|117:252|174:299,1,112,2|8,2:0|2:0,2:0:0:0:
288,250,175204,5,2,2:0:0:0:
61,137,175371,2,0,P|33:174|40:248,1,112,2|0,3:0|3:0,2:0:0:0:
47,246,175704,1,10,2:0:0:0:
168,19,175871,1,2,2:0:0:0:
233,179,176038,5,2,3:0:0:0:
361,0,176204,2,0,P|401:30|425:88,1,112,2|8,2:0|2:0,2:0:0:0:
282,82,176538,5,2,2:0:0:0:
499,45,176704,2,0,P|506:94|482:152,1,112,2|0,3:0|3:0,2:0:0:0:
472,157,177038,1,10,2:0:0:0:
274,73,177204,1,2,3:0:0:0:
347,281,177371,5,6,3:2:0:0:
149,164,177538,2,0,B|108:189|108:189|94:256,1,112,2|8,2:0|2:0,2:0:0:0:
243,310,177871,5,2,2:0:0:0:
185,87,178038,2,0,B|138:75|138:75|81:113,1,112,2|0,3:0|3:0,2:0:0:0:
170,240,178371,5,10,2:0:0:0:
236,16,178538,1,2,2:0:0:0:
241,16,178621,1,2,2:0:0:0:
245,16,178704,5,2,3:0:0:0:
306,172,178871,1,10,2:0:0:0:
363,3,179038,5,10,2:0:0:0:
239,235,179204,1,10,2:0:0:0:
450,133,179371,5,10,2:0:0:0:
147,224,179538,1,10,3:0:0:0:
478,380,179704,5,6,3:0:0:0:
363,3,179871,1,10,3:0:0:0:
335,336,180038,6,0,P|394:358|473:237,1,220,6|8,3:2|2:0,2:0:0:0:
446,89,180538,2,0,L|493:273,1,165,2|0,3:0|2:0,2:0:0:0:
487,249,180871,1,0,3:0:0:0:
309,60,181038,1,10,2:0:0:0:
240,226,181204,1,0,2:0:0:0:
164,49,181371,6,0,B|101:70|68:126|103:126|62:179|-1:194,1,220,2|8,3:0|2:0,2:0:0:0:
0,114,181871,2,0,P|47:137|92:237,1,165,2|0,3:0|2:0,2:0:0:0:
87,240,182204,1,0,3:0:0:0:
227,67,182371,1,10,2:0:0:0:
270,204,182538,1,0,2:0:0:0:
512,212,182704,6,0,P|509:278|496:212,1,165,2|0,3:0|2:0,2:0:0:0:
473,181,183038,1,8,2:0:0:0:
387,363,183204,1,0,2:0:0:0:
267,194,183371,1,0,3:0:0:0:
387,363,183538,1,0,3:0:0:0:
207,384,183704,6,0,B|183:365|179:336|192:336|192:299|167:272,1,110,10|0,2:0|2:0,2:0:0:0:
67,251,184038,2,0,B|95:239|122:250|116:262|148:280|183:272,1,110,2|0,3:0|2:0,2:0:0:0:
243,188,184371,2,0,B|238:218|215:236|208:224|176:243|166:278,1,110,10|0,2:0|2:0,2:0:0:0:
265,321,184704,5,2,3:0:0:0:
253,107,184871,1,0,3:0:0:0:
359,254,185038,1,10,2:0:0:0:
158,173,185204,1,0,3:0:0:0:
268,334,185371,6,0,B|310:345|310:345|451:228,1,220,6|8,3:2|2:0,2:0:0:0:
512,292,185871,2,0,L|408:379,1,110,2|0,3:0|2:0,2:0:0:0:
350,365,186204,1,0,2:0:0:0:
462,230,186371,2,0,P|418:179|363:165,1,110,10|0,2:0|2:0,2:0:0:0:
248,187,186704,6,0,P|255:121|154:80,1,165,2|0,3:0|2:0,2:0:0:0:
185,147,187038,1,8,2:0:0:0:
265,1,187204,2,0,P|313:62|397:72,1,165,2|0,3:0|2:0,2:0:0:0:
410,63,187538,1,0,3:0:0:0:
82,25,187704,2,0,L|198:171,1,165,10|0,2:0|2:0,2:0:0:0:
189,235,188038,5,2,3:0:0:0:
361,179,188204,1,0,3:0:0:0:
269,344,188371,1,8,2:0:0:0:
286,144,188538,2,0,P|240:95|188:87,1,110,2|0,3:0|2:0,2:0:0:0:
340,321,188871,1,0,3:0:0:0:
210,167,189038,2,0,P|144:165|100:196,1,110,10|0,2:0|3:0,2:0:0:0:
67,265,189371,5,10,2:0:0:0:
299,218,189538,1,10,2:0:0:0:
214,384,189704,1,10,2:0:0:0:
72,270,189871,1,10,2:0:0:0:
410,338,190038,2,0,L|294:211,1,165,10|0,2:0|2:0,2:0:0:0:
207,249,190371,5,10,2:0:0:0:
453,186,190538,1,0,3:0:0:0:
316,360,190704,5,10,2:0:0:0:
227,52,190871,1,8,2:0:0:0:
227,52,192038,5,10,2:0:0:0:
138,360,192204,1,8,2:0:0:0:
138,360,193371,5,10,2:0:0:0:
49,52,193538,1,0,3:0:0:0:
247,232,193704,5,0,3:0:0:0:
0,303,193871,1,10,2:0:0:0:
164,111,194038,5,2,3:0:0:0:
227,333,194204,1,0,3:0:0:0:
377,111,194371,5,10,2:0:0:0:
314,334,194538,1,0,3:0:0:0:
464,196,194704,5,2,3:0:0:0:
264,140,194871,1,8,3:0:0:0:
356,226,195038,5,4,3:0:0:0:
379,105,195204,1,8,3:0:0:0:
298,12,195371,2,0,P|214:31|122:5,1,165,10|0,2:0|2:0,2:0:0:0:
133,1,195704,1,6,3:0:0:0:
179,140,195871,1,0,3:0:0:0:
0,236,196038,5,14,2:0:0:0:
47,212,196121,1,0,2:0:0:0:
99,218,196204,1,0,2:0:0:0:
142,249,196288,1,0,2:0:0:0:
163,297,196371,1,8,2:0:0:0:
185,345,196454,1,0,2:0:0:0:
227,376,196538,1,0,2:0:0:0:
280,381,196621,1,0,2:0:0:0:
327,359,196704,5,10,2:0:0:0:
291,312,196788,1,0,2:0:0:0:
232,310,196871,1,0,2:0:0:0:
185,345,196954,1,0,2:0:0:0:
128,362,197038,1,8,2:0:0:0:
77,332,197121,1,0,2:0:0:0:
65,274,197204,1,0,2:0:0:0:
97,223,197288,1,0,2:0:0:0:
154,221,197371,5,10,2:0:0:0:
101,256,197454,1,0,2:0:0:0:
38,239,197538,1,0,2:0:0:0:
4,186,197621,1,0,2:0:0:0:
19,122,197704,1,8,2:0:0:0:
74,90,197788,1,0,2:0:0:0:
136,104,197871,1,0,2:0:0:0:
169,159,197954,1,0,2:0:0:0:
154,221,198038,5,10,2:0:0:0:
128,158,198121,1,0,2:0:0:0:
154,93,198204,1,0,2:0:0:0:
218,67,198288,1,0,2:0:0:0:
282,93,198371,1,8,2:0:0:0:
309,157,198454,1,0,2:0:0:0:
282,220,198538,1,0,2:0:0:0:
218,248,198621,1,0,2:0:0:0:
154,221,198704,5,10,2:0:0:0:
174,149,198788,1,0,2:0:0:0:
227,96,198871,1,0,2:0:0:0:
299,77,198954,1,0,2:0:0:0:
372,96,199038,1,10,2:0:0:0:
424,149,199121,1,0,2:0:0:0:
444,221,199204,1,0,2:0:0:0:
424,293,199288,1,0,2:0:0:0:
372,347,199371,1,10,2:0:0:0:
299,365,199454,1,0,2:0:0:0:
227,346,199538,1,0,2:0:0:0:
174,293,199621,1,0,2:0:0:0:
154,221,199704,1,10,2:0:0:0:
174,149,199788,1,0,2:0:0:0:
227,96,199871,1,0,2:0:0:0:
299,77,199954,1,0,2:0:0:0:
372,96,200038,6,0,L|379:161,1,60,10|0,2:0|2:0,2:0:0:0:
394,112,200204,2,0,L|387:177,1,60,0|0,2:0|2:0,2:0:0:0:
266,190,200371,2,0,L|259:255,1,60,8|0,2:0|2:0,2:0:0:0:
244,206,200538,2,0,L|251:271,1,60,0|0,2:0|2:0,2:0:0:0:
398,361,200704,6,0,L|328:352,3,60,10|0|0|0,2:0|2:0|2:0|2:0,2:0:0:0:
99,222,201038,2,0,L|169:213,3,60,10|0|0|0,2:0|2:0|2:0|2:0,2:0:0:0:
339,30,201371,5,14,2:0:0:0:
284,21,201454,1,0,2:0:0:0:
231,36,201538,1,0,2:0:0:0:
195,78,201621,1,0,2:0:0:0:
183,131,201704,1,8,2:0:0:0:
137,161,201788,1,0,2:0:0:0:
83,146,201871,1,0,2:0:0:0:
54,99,201954,1,0,2:0:0:0:
69,45,202038,1,8,2:0:0:0:
116,17,202121,1,0,2:0:0:0:
169,30,202204,1,0,2:0:0:0:
195,78,202288,1,0,2:0:0:0:
183,131,202371,5,10,2:0:0:0:
209,117,202454,1,0,2:0:0:0:
238,117,202538,1,0,2:0:0:0:
266,128,202621,1,0,2:0:0:0:
285,150,202704,5,10,2:0:0:0:
281,100,202788,1,0,2:0:0:0:
305,57,202871,1,0,2:0:0:0:
347,32,202954,1,0,2:0:0:0:
397,33,203038,1,8,2:0:0:0:
438,61,203121,1,0,2:0:0:0:
459,105,203204,1,0,2:0:0:0:
453,154,203288,1,0,2:0:0:0:
422,193,203371,2,0,P|411:232|414:259,3,60,8|0|0|0,2:0|2:0|2:0|2:0,2:0:0:0:
488,305,203704,5,10,2:0:0:0:
464,332,203788,1,0,2:0:0:0:
429,342,203871,1,0,2:0:0:0:
393,339,203954,1,0,2:0:0:0:
364,317,204038,5,10,2:0:0:0:
310,342,204121,1,0,2:0:0:0:
252,330,204204,1,0,2:0:0:0:
213,286,204288,1,0,2:0:0:0:
208,228,204371,1,8,2:0:0:0:
238,177,204454,1,0,2:0:0:0:
293,155,204538,6,0,L|309:217,1,60,2|0,2:0|2:0,2:0:0:0:
252,330,204704,2,0,L|191:312,3,60,10|0|0|0,2:0|2:0|2:0|2:0,2:0:0:0:
122,207,205038,2,0,L|167:162,3,60,10|0|0|0,2:0|2:0|2:0|2:0,2:0:0:0:
273,24,205371,5,10,2:0:0:0:
214,21,205454,1,0,2:0:0:0:
165,54,205538,1,0,2:0:0:0:
146,109,205621,1,0,2:0:0:0:
164,165,205704,1,8,2:0:0:0:
182,221,205788,1,0,2:0:0:0:
163,276,205871,1,0,2:0:0:0:
114,309,205954,1,0,2:0:0:0:
55,306,206038,2,0,L|46:238,3,60,10|0|0|0,2:0|2:0|2:0|2:0,2:0:0:0:
164,165,206371,2,0,L|173:97,3,60,10|0|0|0,2:0|2:0|2:0|2:0,2:0:0:0:
38,40,206704,5,10,2:0:0:0:
63,88,206788,1,0,2:0:0:0:
112,110,206871,1,0,2:0:0:0:
166,98,206954,1,0,2:0:0:0:
208,63,207038,1,8,2:0:0:0:
250,28,207121,1,0,2:0:0:0:
304,18,207204,1,0,2:0:0:0:
353,40,207288,1,0,2:0:0:0:
377,88,207371,5,10,2:0:0:0:
318,78,207454,1,0,2:0:0:0:
263,101,207538,1,0,2:0:0:0:
228,148,207621,1,0,2:0:0:0:
222,207,207704,1,8,2:0:0:0:
247,261,207788,1,0,2:0:0:0:
297,294,207871,1,0,2:0:0:0:
356,296,207954,1,0,2:0:0:0:
408,268,208038,5,10,3:2:0:0:
343,220,208121,1,8,3:0:0:0:
267,220,208204,1,8,3:0:0:0:
206,254,208288,1,8,3:0:0:0:
178,312,208371,1,8,3:2:0:0:
129,347,208454,1,4,3:0:0:0:
74,344,208538,1,4,3:0:0:0:
35,312,208621,1,0,2:0:0:0:
25,267,208704,5,10,2:0:0:0:
49,269,208788,1,0,3:0:0:0:
216,171,208954,5,0,2:0:0:0:
206,181,209038,1,10,2:0:0:0:
161,181,209121,1,0,3:0:0:0:
115,181,209204,1,0,3:0:0:0:
70,180,209288,1,0,3:0:0:0:
25,180,209371,5,6,2:0:0:0:
40,123,209454,1,0,2:0:0:0:
86,87,209538,1,0,2:0:0:0:
145,87,209621,1,0,2:0:0:0:
192,123,209704,1,8,2:0:0:0:
206,180,209788,1,0,2:0:0:0:
221,236,209871,1,2,2:0:0:0:
267,272,209954,1,0,2:0:0:0:
326,272,210038,1,0,2:0:0:0:
373,236,210121,1,0,2:0:0:0:
387,179,210204,1,0,2:0:0:0:
402,122,210288,1,0,2:0:0:0:
448,86,210371,5,10,2:0:0:0:
442,110,210454,1,0,2:0:0:0:
424,127,210538,1,0,2:0:0:0:
402,122,210621,1,0,2:0:0:0:
387,101,210704,5,2,2:0:0:0:
327,92,210788,1,0,2:0:0:0:
273,118,210871,1,0,2:0:0:0:
261,177,210954,1,0,2:0:0:0:
283,232,211038,1,8,2:0:0:0:
305,287,211121,1,0,2:0:0:0:
293,346,211204,1,0,2:0:0:0:
239,372,211288,1,0,2:0:0:0:
179,363,211371,2,0,L|186:296,3,60,0|0|0|0,2:0|2:0|2:0|2:0,2:0:0:0:
78,269,211704,2,0,L|71:204,3,60,10|0|0|0,2:0|2:0|2:0|2:0,2:0:0:0:
3,119,212038,5,2,2:0:0:0:
48,99,212121,1,0,2:0:0:0:
97,103,212204,1,0,2:0:0:0:
138,131,212288,1,0,2:0:0:0:
183,150,212371,1,8,2:0:0:0:
232,146,212454,1,0,2:0:0:0:
273,118,212538,6,0,P|241:98|212:96,1,60,2|0,2:0|2:0,2:0:0:0:
330,232,212704,2,0,P|363:214|381:188,3,60,2|0|0|0,2:0|2:0|2:0|2:0,2:0:0:0:
202,224,213038,2,0,P|200:261|213:289,3,60,10|0|0|0,2:0|2:0|2:0|2:0,2:0:0:0:
376,355,213371,5,2,2:0:0:0:
412,321,213454,1,0,2:0:0:0:
425,274,213538,1,0,2:0:0:0:
410,226,213621,1,0,2:0:0:0:
373,194,213704,1,8,2:0:0:0:
337,160,213788,1,0,2:0:0:0:
324,113,213871,1,0,2:0:0:0:
339,65,213954,1,0,2:0:0:0:
376,33,214038,6,0,L|385:96,3,60,2|0|0|0,2:0|2:0|2:0|2:0,2:0:0:0:
512,179,214371,2,0,L|505:243,3,60,10|0|0|0,2:0|2:0|2:0|2:0,2:0:0:0:
350,304,214704,5,6,2:0:0:0:
299,322,214788,1,0,2:0:0:0:
245,314,214871,1,0,2:0:0:0:
205,276,214954,1,0,2:0:0:0:
196,222,215038,1,8,2:0:0:0:
187,168,215121,1,0,2:0:0:0:
147,130,215204,1,0,2:0:0:0:
93,122,215288,1,0,2:0:0:0:
42,140,215371,5,2,2:0:0:0:
61,198,215454,1,0,2:0:0:0:
109,233,215538,1,0,2:0:0:0:
169,233,215621,1,0,2:0:0:0:
218,198,215704,1,8,2:0:0:0:
236,140,215788,1,0,2:0:0:0:
218,83,215871,1,0,2:0:0:0:
169,48,215954,1,0,2:0:0:0:
109,48,216038,5,2,2:0:0:0:
125,111,216121,1,0,2:0:0:0:
180,149,216204,1,0,2:0:0:0:
246,142,216288,1,0,2:0:0:0:
292,96,216371,1,8,2:0:0:0:
338,50,216454,1,0,2:0:0:0:
404,43,216538,1,0,2:0:0:0:
459,81,216621,1,0,2:0:0:0:
475,144,216704,5,2,2:0:0:0:
438,106,216788,1,0,2:0:0:0:
383,101,216871,1,0,2:0:0:0:
339,132,216954,1,0,2:0:0:0:
324,184,217038,1,8,2:0:0:0:
347,233,217121,1,0,2:0:0:0:
397,256,217204,1,0,2:0:0:0:
449,241,217288,1,0,2:0:0:0:
480,198,217371,5,2,2:0:0:0:
412,165,217454,1,0,2:0:0:0:
341,192,217538,1,0,2:0:0:0:
312,264,217621,1,0,2:0:0:0:
237,287,217704,1,10,2:0:0:0:
173,241,217788,1,0,2:0:0:0:
169,162,217871,1,0,2:0:0:0:
227,110,217954,1,0,2:0:0:0:
303,123,218038,1,2,2:0:0:0:
342,193,218121,1,0,2:0:0:0:
312,264,218204,1,0,2:0:0:0:
237,287,218288,1,0,2:0:0:0:
173,241,218371,1,10,2:0:0:0:
169,162,218454,1,0,2:0:0:0:
109,111,218538,1,0,2:0:0:0:
32,121,218621,1,0,2:0:0:0:
1,193,218704,5,10,3:0:0:0:
22,197,218788,1,8,3:0:0:0:
42,200,218871,1,8,3:0:0:0:
63,203,218954,1,0,2:0:0:0:
83,223,219038,5,8,3:0:0:0:
62,227,219121,1,0,2:0:0:0:
42,230,219204,1,4,3:0:0:0:
21,233,219288,1,0,2:0:0:0:
1,266,219371,5,2,2:0:0:0:
28,290,219454,1,0,3:0:0:0:
69,292,219538,1,0,3:0:0:0:
109,266,219621,1,0,2:0:0:0:
130,215,219704,1,2,2:0:0:0:
177,178,219788,1,0,2:0:0:0:
242,176,219871,1,0,2:0:0:0:
299,220,219954,1,0,2:0:0:0:
309,296,220038,5,6,2:0:0:0:
268,253,220121,1,0,2:0:0:0:
273,195,220204,1,0,2:0:0:0:
320,160,220288,1,0,2:0:0:0:
377,172,220371,1,8,2:0:0:0:
433,150,220454,1,0,2:0:0:0:
456,94,220538,1,0,2:0:0:0:
433,38,220621,1,0,2:0:0:0:
377,15,220704,1,0,2:0:0:0:
322,38,220788,1,0,2:0:0:0:
299,94,220871,1,0,2:0:0:0:
321,149,220954,1,0,2:0:0:0:
377,172,221038,5,10,2:0:0:0:
371,142,221121,1,0,2:0:0:0:
357,115,221204,1,0,2:0:0:0:
331,98,221288,1,0,2:0:0:0:
299,94,221371,5,2,2:0:0:0:
270,41,221454,1,0,2:0:0:0:
219,12,221538,1,0,2:0:0:0:
160,15,221621,1,0,2:0:0:0:
111,48,221704,1,8,2:0:0:0:
87,102,221788,1,0,2:0:0:0:
95,161,221871,1,0,2:0:0:0:
133,206,221954,1,0,2:0:0:0:
190,224,222038,2,0,L|254:210,3,60,0|0|0|0,2:0|2:0|2:0|2:0,2:0:0:0:
342,178,222371,5,10,2:0:0:0:
377,172,222454,1,0,2:0:0:0:
412,179,222538,1,0,2:0:0:0:
439,201,222621,1,0,2:0:0:0:
449,235,222704,5,2,2:0:0:0:
388,231,222788,1,0,2:0:0:0:
331,249,222871,1,0,2:0:0:0:
289,292,222954,1,0,2:0:0:0:
267,348,223038,1,8,2:0:0:0:
215,378,223121,1,0,2:0:0:0:
155,379,223204,6,0,L|122:327,1,60,2|0,2:0|2:0,2:0:0:0:
0,224,223371,2,0,L|61:221,3,60,2|0|0|0,2:0|2:0|2:0|2:0,2:0:0:0:
211,168,223704,2,0,L|182:222,3,60,10|0|0|0,2:0|2:0|2:0|2:0,2:0:0:0:
48,72,224038,5,2,2:0:0:0:
90,38,224121,1,0,2:0:0:0:
143,30,224204,1,0,2:0:0:0:
195,43,224288,1,0,2:0:0:0:
228,84,224371,1,8,2:0:0:0:
270,118,224454,1,0,2:0:0:0:
323,126,224538,1,0,2:0:0:0:
375,113,224621,1,0,2:0:0:0:
408,72,224704,2,0,L|345:60,3,60,2|0|0|0,2:0|2:0|2:0|2:0,2:0:0:0:
454,223,225038,2,0,L|517:211,3,60,10|0|0|0,2:0|2:0|2:0|2:0,2:0:0:0:
512,330,225371,5,14,2:0:0:0:
465,368,225454,1,0,2:0:0:0:
404,373,225538,1,0,2:0:0:0:
346,358,225621,1,0,2:0:0:0:
306,313,225704,1,8,2:0:0:0:
266,268,225788,1,0,2:0:0:0:
208,253,225871,1,0,2:0:0:0:
147,258,225954,1,0,2:0:0:0:
100,296,226038,5,10,2:0:0:0:
126,357,226121,1,0,2:0:0:0:
186,382,226204,1,0,2:0:0:0:
247,357,226288,1,0,2:0:0:0:
273,296,226371,1,8,2:0:0:0:
247,235,226454,1,0,2:0:0:0:
186,209,226538,1,0,2:0:0:0:
126,235,226621,1,0,2:0:0:0:
100,296,226704,5,10,2:0:0:0:
171,279,226788,1,0,2:0:0:0:
207,218,226871,1,0,2:0:0:0:
191,147,226954,1,0,2:0:0:0:
129,110,227038,1,8,2:0:0:0:
59,126,227121,1,0,2:0:0:0:
22,188,227204,1,0,2:0:0:0:
38,259,227288,1,0,2:0:0:0:
100,296,227371,6,0,L|129:232,3,60,10|0|0|0,2:0|2:0|2:0|2:0,2:0:0:0:
230,4,227704,2,0,L|259:68,3,60,8|0|0|0,2:0|2:0|2:0|2:0,2:0:0:0:
450,323,228038,5,10,3:2:0:0:
366,357,228121,1,0,3:0:0:0:
283,322,228204,1,0,3:0:0:0:
249,239,228288,1,0,2:0:0:0:
283,156,228371,1,8,3:2:0:0:
366,122,228454,1,0,3:0:0:0:
450,156,228538,1,0,3:0:0:0:
484,239,228621,1,0,2:0:0:0:
450,323,228704,1,8,3:2:0:0:
366,357,228788,1,8,3:0:0:0:
283,322,228871,1,8,3:0:0:0:
249,239,228954,1,0,2:0:0:0:
283,156,229038,1,8,3:2:0:0:
249,72,229121,1,4,3:0:0:0:
165,37,229204,1,4,3:0:0:0:
82,72,229288,1,4,3:0:0:0:
167,144,229371,5,12,3:2:0:0:
