osu file format v14

[General]
AudioFilename: audio.mp3
AudioLeadIn: 0
PreviewTime: 208620
Countdown: 0
SampleSet: Soft
StackLeniency: 0.7
Mode: 0
LetterboxInBreaks: 0
WidescreenStoryboard: 0

[Editor]
DistanceSpacing: 0.5
BeatDivisor: 4
GridSize: 8
TimelineZoom: 1.5

[Metadata]
Title:Lionheart
TitleUnicode:Lionheart
Artist:Serenity
ArtistUnicode:Serenity
Creator:AdeAAa
Version:Extreme
Source:
Tags:Napalm Records symphonic power metal english male vocalist Georg Neuhauser Chris Hermsdörfer Fabio D'Amore Andreas Schipflinger 2017 streams sh4rq_ nebuwua
BeatmapID:2872154
BeatmapSetID:1390922

[Difficulty]
HPDrainRate:6
CircleSize:4.2
OverallDifficulty:9.5
ApproachRate:9.6
SliderMultiplier:2
SliderTickRate:1

[Events]
//Background and Video events
0,0,"background.jpg",0,0
//Break Periods
2,22704,32037
//Storyboard Layer 0 (Background)
//Storyboard Layer 1 (Fail)
//Storyboard Layer 2 (Pass)
//Storyboard Layer 3 (Foreground)
//Storyboard Layer 4 (Overlay)
//Storyboard Sound Samples

[TimingPoints]
38,333.333333333334,4,2,1,60,1,0
704,-125,4,2,1,60,0,0
954,-125,4,2,1,5,0,0
1038,-111.111111111111,4,2,1,60,0,0
1288,-111.111111111111,4,2,1,5,0,0
1371,-111.111111111111,4,2,1,70,0,0
33371,-125,4,2,1,60,0,0
44038,-100,4,2,1,60,0,0
44288,-100,4,2,1,5,0,0
44371,-100,4,2,1,60,0,0
45621,-100,4,2,1,5,0,0
45704,-100,4,2,1,60,0,0
46954,-100,4,2,1,5,0,0
47038,-100,4,2,1,60,0,0
47954,-100,4,2,1,5,0,0
48038,-100,4,2,1,60,0,0
49621,-100,4,2,1,5,0,0
49704,-100,4,2,1,60,0,0
50954,-100,4,2,1,5,0,0
51038,-100,4,2,1,60,0,0
51954,-100,4,2,1,5,0,0
52038,-100,4,2,1,60,0,0
54704,-100,4,2,1,70,0,1
74704,-100,4,2,1,70,0,0
76038,-100,4,2,1,60,0,0
76204,-125,4,2,1,60,0,0
86954,-125,4,2,1,5,0,0
87038,-125,4,2,1,60,0,0
88288,-125,4,2,1,5,0,0
88371,-125,4,2,1,60,0,0
88788,-125,4,2,1,5,0,0
88871,-125,4,2,1,60,0,0
97371,-100,4,2,1,60,0,0
97621,-100,4,2,1,5,0,0
97704,-100,4,2,1,60,0,0
98954,-100,4,2,1,5,0,0
99038,-100,4,2,1,60,0,0
100288,-100,4,2,1,5,0,0
100371,-100,4,2,1,60,0,0
101288,-100,4,2,1,5,0,0
101371,-100,4,2,1,60,0,0
102954,-100,4,2,1,5,0,0
103038,-100,4,2,1,60,0,0
104288,-100,4,2,1,5,0,0
104371,-100,4,2,1,60,0,0
105288,-100,4,2,1,5,0,0
105371,-100,4,2,1,60,0,0
108038,-100,4,2,1,70,0,1
126704,-100,4,2,1,60,0,0
127371,-125,4,2,1,60,0,0
127621,-125,4,2,1,5,0,0
127704,-125,4,2,1,60,0,0
128621,-125,4,2,1,5,0,0
128704,-125,4,2,1,60,0,0
129288,-125,4,2,1,5,0,0
129371,-125,4,2,1,60,0,0
130288,-125,4,2,1,5,0,0
130371,-125,4,2,1,60,0,0
131954,-125,4,2,1,5,0,0
132038,-125,4,2,1,60,0,0
132954,-125,4,2,1,5,0,0
133038,-125,4,2,1,60,0,0
133954,-125,4,2,1,5,0,0
134038,-125,4,2,1,60,0,0
134621,-125,4,2,1,5,0,0
134704,-125,4,2,1,60,0,0
135621,-125,4,2,1,5,0,0
135704,-125,4,2,1,60,0,0
138038,-111.111111111111,4,2,1,60,0,0
138538,-125,4,2,1,60,0,0
139288,-125,4,2,1,5,0,0
139371,-111.111111111111,4,2,1,60,0,0
139704,-125,4,2,1,60,0,0
139954,-125,4,2,1,5,0,0
140038,-125,4,2,1,60,0,0
140704,-111.111111111111,4,2,1,60,0,0
141204,-125,4,2,1,60,0,0
142038,-111.111111111111,4,2,1,60,0,0
142371,-125,4,2,1,60,0,0
142621,-125,4,2,1,5,0,0
142704,-125,4,2,1,60,0,0
143371,-111.111111111111,4,2,1,60,0,0
143871,-125,4,2,1,60,0,0
144621,-125,4,2,1,5,0,0
144704,-125,4,2,1,60,0,0
145288,-125,4,2,1,5,0,0
145371,-125,4,2,1,60,0,0
146038,-111.111111111111,4,2,1,60,0,0
147371,-100,4,2,1,60,0,0
148038,-125,4,2,1,60,0,0
148704,-111.111111111111,4,2,1,60,0,0
149038,-125,4,2,1,60,0,0
151371,-111.111111111111,4,2,1,60,0,0
151871,-125,4,2,1,60,0,0
152704,-111.111111111111,4,2,1,60,0,0
153371,-125,4,2,1,60,0,0
154038,-111.111111111111,4,2,1,60,0,0
154538,-125,4,2,1,60,0,0
155371,-111.111111111111,4,2,1,60,0,0
155704,-125,4,2,1,60,0,0
156704,-111.111111111111,4,2,1,60,0,0
157038,-125,4,2,1,60,0,0
158704,-111.111111111111,4,2,1,60,0,0
158954,-111.111111111111,4,2,1,5,0,0
159038,-111.111111111111,4,2,1,60,0,0
159954,-111.111111111111,4,2,1,5,0,0
160038,-111.111111111111,4,2,1,60,0,0
161288,-111.111111111111,4,2,1,5,0,0
161371,-111.111111111111,4,2,1,60,0,0
164038,-99.9999999999999,4,2,1,60,0,0
166704,-111.111111111111,4,2,1,60,0,0
166954,-111.111111111111,4,2,1,5,0,0
167038,-111.111111111111,4,2,1,60,0,0
167704,-99.9999999999999,4,2,1,60,0,0
167954,-99.9999999999999,4,2,1,5,0,0
168038,-99.9999999999999,4,2,1,60,0,0
169371,-125,4,2,1,60,0,0
170538,-111.111111111111,4,2,1,60,0,0
180038,-99.9999999999999,4,2,1,60,0,0
180288,-99.9999999999999,4,2,1,5,0,0
180371,-99.9999999999999,4,2,1,60,0,0
181621,-99.9999999999999,4,2,1,5,0,0
181704,-99.9999999999999,4,2,1,60,0,0
182954,-99.9999999999999,4,2,1,5,0,0
183038,-99.9999999999999,4,2,1,60,0,0
183954,-99.9999999999999,4,2,1,5,0,0
184038,-99.9999999999999,4,2,1,60,0,0
185621,-99.9999999999999,4,2,1,5,0,0
185704,-99.9999999999999,4,2,1,60,0,0
186954,-99.9999999999999,4,2,1,5,0,0
187038,-99.9999999999999,4,2,1,60,0,0
195371,-166.666666666667,4,2,1,60,0,0
196038,-166.666666666667,4,2,1,70,0,1
200038,-100,4,2,1,70,0,1
229371,-100,4,2,1,70,0,0
230714,333.333333333333,4,2,1,70,1,0

[Colours]
Combo1 : 175,165,143
Combo2 : 92,81,63
Combo3 : 208,171,153
Combo4 : 148,111,88

[HitObjects]
50,140,704,6,0,P|88:155|148:88,1,120,2|0,2:0|2:0,2:0:0:0:
227,22,1038,2,0,L|251:179,1,135,2|0,2:0|2:0,2:0:0:0:
151,245,1371,5,14,2:0:0:0:
180,284,1454,1,0,2:0:0:0:
226,302,1538,1,0,2:0:0:0:
275,294,1621,1,0,2:0:0:0:
312,261,1704,1,8,2:0:0:0:
337,218,1788,1,0,2:0:0:0:
382,199,1871,1,0,2:0:0:0:
430,208,1954,1,0,2:0:0:0:
464,244,2038,1,8,2:0:0:0:
471,293,2121,1,0,2:0:0:0:
448,337,2204,1,0,2:0:0:0:
404,359,2288,1,0,2:0:0:0:
355,352,2371,5,10,2:0:0:0:
315,317,2454,1,0,2:0:0:0:
301,264,2538,1,0,2:0:0:0:
319,213,2621,1,0,2:0:0:0:
362,180,2704,1,10,2:0:0:0:
390,128,2788,1,0,2:0:0:0:
384,69,2871,1,0,2:0:0:0:
344,26,2954,1,0,2:0:0:0:
286,13,3038,1,8,2:0:0:0:
232,36,3121,1,0,2:0:0:0:
202,87,3204,1,0,2:0:0:0:
207,146,3288,1,0,2:0:0:0:
245,191,3371,1,8,2:0:0:0:
281,231,3454,1,0,2:0:0:0:
288,284,3538,1,0,2:0:0:0:
261,331,3621,1,0,2:0:0:0:
211,353,3704,5,10,2:0:0:0:
182,325,3788,1,0,2:0:0:0:
144,313,3871,1,0,2:0:0:0:
105,319,3954,1,0,2:0:0:0:
73,342,4038,5,10,2:0:0:0:
100,320,4121,1,0,2:0:0:0:
112,287,4204,1,0,2:0:0:0:
106,253,4288,1,0,2:0:0:0:
84,226,4371,1,8,2:0:0:0:
57,203,4454,1,0,2:0:0:0:
45,171,4538,1,2,2:0:0:0:
51,137,4621,1,0,2:0:0:0:
73,110,4704,6,0,P|95:94|130:93,3,45,10|0|0|0,2:0|2:0|2:0|2:0,2:0:0:0:
173,194,5038,2,0,P|148:182|129:153,3,45,10|0|0|0,2:0|2:0|2:0|2:0,2:0:0:0:
199,77,5371,5,10,2:0:0:0:
222,59,5454,1,0,2:0:0:0:
252,55,5538,1,0,2:0:0:0:
279,66,5621,1,0,2:0:0:0:
297,89,5704,1,8,2:0:0:0:
315,112,5788,1,0,2:0:0:0:
342,123,5871,1,0,2:0:0:0:
372,119,5954,1,0,2:0:0:0:
395,101,6038,6,0,B|403:77|403:77|394:50,3,45,10|0|0|0,2:0|2:0|2:0|2:0,2:0:0:0:
369,190,6371,1,10,2:0:0:0:
373,209,6454,1,0,2:0:0:0:
378,228,6538,1,0,2:0:0:0:
382,248,6621,1,0,2:0:0:0:
387,267,6704,5,14,2:0:0:0:
426,269,6788,1,0,2:0:0:0:
462,252,6871,1,0,2:0:0:0:
484,219,6954,1,0,2:0:0:0:
488,180,7038,1,8,2:0:0:0:
471,144,7121,1,0,2:0:0:0:
440,120,7204,1,0,2:0:0:0:
400,115,7288,1,0,2:0:0:0:
364,130,7371,5,10,2:0:0:0:
375,82,7454,1,0,2:0:0:0:
359,36,7538,1,0,2:0:0:0:
321,5,7621,1,0,2:0:0:0:
272,0,7704,1,8,2:0:0:0:
228,22,7788,1,0,2:0:0:0:
202,64,7871,1,0,2:0:0:0:
204,114,7954,1,0,2:0:0:0:
232,154,8038,5,10,2:0:0:0:
267,202,8121,1,0,2:0:0:0:
269,261,8204,1,0,2:0:0:0:
236,310,8288,1,0,2:0:0:0:
181,331,8371,1,8,2:0:0:0:
124,316,8454,1,0,2:0:0:0:
86,271,8538,1,0,2:0:0:0:
81,212,8621,1,0,2:0:0:0:
112,162,8704,5,10,2:0:0:0:
154,137,8788,1,0,2:0:0:0:
203,141,8871,1,0,2:0:0:0:
242,171,8954,1,0,2:0:0:0:
258,217,9038,1,8,2:0:0:0:
288,249,9121,1,0,2:0:0:0:
331,256,9204,1,0,2:0:0:0:
366,238,9288,1,0,2:0:0:0:
376,210,9371,5,10,2:0:0:0:
337,206,9454,1,0,2:0:0:0:
301,223,9538,1,0,2:0:0:0:
279,256,9621,1,0,2:0:0:0:
276,295,9704,1,8,2:0:0:0:
294,331,9788,1,0,2:0:0:0:
327,352,9871,1,0,2:0:0:0:
366,354,9954,1,0,2:0:0:0:
401,335,10038,6,0,P|407:314|385:270,3,45,10|0|0|0,2:0|2:0|2:0|2:0,2:0:0:0:
279,288,10371,2,0,P|292:303|344:306,3,45,10|0|0|0,2:0|2:0|2:0|2:0,2:0:0:0:
382,206,10704,2,0,P|362:210|333:251,3,45,10|0|0|0,2:0|2:0|2:0|2:0,2:0:0:0:
228,341,11038,1,10,2:0:0:0:
228,341,11121,1,0,2:0:0:0:
228,341,11204,2,0,L|160:356,1,45,0|0,2:0|2:0,2:0:0:0:
71,315,11371,6,0,L|81:253,3,45,10|0|0|0,2:0|2:0|2:0|2:0,2:0:0:0:
167,232,11704,2,0,L|154:162,3,45,10|0|0|0,2:0|2:0|2:0|2:0,2:0:0:0:
66,132,12038,5,14,2:0:0:0:
92,90,12121,1,0,2:0:0:0:
136,68,12204,1,0,2:0:0:0:
186,73,12288,1,0,2:0:0:0:
225,102,12371,1,8,2:0:0:0:
244,148,12454,1,0,2:0:0:0:
268,190,12538,1,0,2:0:0:0:
314,208,12621,1,0,2:0:0:0:
360,193,12704,1,8,2:0:0:0:
387,151,12788,1,0,2:0:0:0:
382,103,12871,1,0,2:0:0:0:
347,68,12954,1,0,2:0:0:0:
298,64,13038,5,10,2:0:0:0:
300,103,13121,1,0,2:0:0:0:
323,135,13204,1,0,2:0:0:0:
359,152,13288,1,0,2:0:0:0:
398,148,13371,5,10,2:0:0:0:
389,89,13454,1,0,2:0:0:0:
347,49,13538,1,0,2:0:0:0:
288,43,13621,1,0,2:0:0:0:
239,76,13704,1,8,2:0:0:0:
221,132,13788,1,0,2:0:0:0:
242,187,13871,1,0,2:0:0:0:
262,242,13954,1,0,2:0:0:0:
244,298,14038,1,8,2:0:0:0:
195,330,14121,1,0,2:0:0:0:
136,325,14204,1,0,2:0:0:0:
94,284,14288,1,0,2:0:0:0:
86,226,14371,5,10,2:0:0:0:
118,262,14454,1,0,2:0:0:0:
120,311,14538,1,0,2:0:0:0:
90,349,14621,1,0,2:0:0:0:
43,360,14704,5,10,2:0:0:0:
19,301,14788,1,0,2:0:0:0:
37,239,14871,1,0,2:0:0:0:
88,201,14954,1,0,2:0:0:0:
152,202,15038,1,8,2:0:0:0:
202,242,15121,1,0,2:0:0:0:
218,303,15204,2,0,L|204:368,1,45,2|0,2:0|2:0,2:0:0:0:
385,248,15371,2,0,L|457:229,3,45,10|0|0|0,2:0|2:0|2:0|2:0,2:0:0:0:
264,161,15704,2,0,L|198:148,3,45,10|0|0|0,2:0|2:0|2:0|2:0,2:0:0:0:
324,283,16038,5,10,2:0:0:0:
322,332,16121,1,0,2:0:0:0:
292,370,16204,1,0,2:0:0:0:
245,384,16288,1,0,2:0:0:0:
199,367,16371,1,8,2:0:0:0:
171,326,16454,1,0,2:0:0:0:
174,277,16538,1,0,2:0:0:0:
205,239,16621,1,0,2:0:0:0:
252,226,16704,6,0,B|255:251|255:251|244:273,3,45,10|0|0|0,2:0|2:0|2:0|2:0,2:0:0:0:
171,164,17038,2,0,B|191:148|191:148|215:146,3,45,10|0|0|0,2:0|2:0|2:0|2:0,2:0:0:0:
141,278,17371,5,10,2:0:0:0:
96,298,17454,1,0,2:0:0:0:
47,291,17538,1,0,2:0:0:0:
11,257,17621,1,0,2:0:0:0:
0,209,17704,1,8,2:0:0:0:
18,163,17788,1,0,2:0:0:0:
59,135,17871,1,0,2:0:0:0:
108,135,17954,1,0,2:0:0:0:
149,162,18038,5,10,2:0:0:0:
173,192,18121,1,0,2:0:0:0:
210,206,18204,1,0,2:0:0:0:
249,199,18288,1,0,2:0:0:0:
279,172,18371,1,8,2:0:0:0:
290,134,18454,1,0,2:0:0:0:
281,96,18538,1,0,2:0:0:0:
253,68,18621,1,0,2:0:0:0:
214,59,18704,5,10,2:0:0:0:
211,94,18788,1,0,2:0:0:0:
228,124,18871,1,0,2:0:0:0:
258,140,18954,1,0,2:0:0:0:
293,136,19038,1,8,2:0:0:0:
319,114,19121,1,0,2:0:0:0:
329,82,19204,1,0,2:0:0:0:
320,48,19288,1,0,2:0:0:0:
293,26,19371,5,10,2:0:0:0:
271,38,19454,1,0,2:0:0:0:
254,62,19538,1,0,2:0:0:0:
251,92,19621,1,0,2:0:0:0:
265,118,19704,1,8,2:0:0:0:
290,134,19788,1,0,2:0:0:0:
319,135,19871,1,0,2:0:0:0:
345,120,19954,1,0,2:0:0:0:
360,94,20038,5,10,2:0:0:0:
341,74,20121,1,0,2:0:0:0:
316,62,20204,1,0,2:0:0:0:
289,57,20288,1,0,2:0:0:0:
262,61,20371,1,8,2:0:0:0:
237,74,20454,1,0,2:0:0:0:
218,92,20538,1,0,2:0:0:0:
205,117,20621,1,0,2:0:0:0:
201,144,20704,1,8,2:0:0:0:
197,171,20788,1,0,2:0:0:0:
185,195,20871,1,0,2:0:0:0:
165,215,20954,1,0,2:0:0:0:
141,227,21038,1,8,2:0:0:0:
113,231,21121,1,0,2:0:0:0:
87,227,21204,1,0,2:0:0:0:
61,215,21288,1,0,2:0:0:0:
43,195,21371,5,10,3:0:0:0:
90,169,21454,1,8,3:0:0:0:
113,121,21538,1,8,3:0:0:0:
102,67,21621,1,8,3:0:0:0:
62,32,21704,5,12,3:0:0:0:
82,50,21788,1,4,3:0:0:0:
108,62,21871,1,4,3:0:0:0:
135,64,21954,1,4,3:0:0:0:
161,59,22038,1,8,2:0:0:0:
55,116,33371,6,0,B|125:84|125:84|157:113|195:137,1,160,2|0,3:0|3:0,2:0:0:0:
252,180,33788,1,0,3:0:0:0:
252,180,33871,2,0,L|302:166,1,40,2|0,3:0|2:0,2:0:0:0:
392,80,34038,1,8,2:0:0:0:
334,232,34204,1,0,3:0:0:0:
400,64,34371,2,0,P|370:41|315:49,1,80,2|0,2:0|3:0,2:0:0:0:
178,196,34704,6,0,P|236:207|342:234,1,160,2|0,2:0|2:0,2:0:0:0:
386,300,35204,1,2,3:0:0:0:
290,117,35371,1,8,2:0:0:0:
221,278,35538,1,0,2:0:0:0:
361,151,35704,2,0,B|376:112|376:112|361:76,1,80,2|0,2:0|2:0,2:0:0:0:
184,13,36038,6,0,P|196:56|223:168,1,160,2|0,3:0|3:0,2:0:0:0:
210,242,36454,1,0,3:0:0:0:
210,242,36538,2,0,P|225:247|258:232,1,40,2|0,3:0|3:0,2:0:0:0:
83,109,36704,1,8,2:0:0:0:
39,265,36871,1,0,2:0:0:0:
90,93,37038,2,0,L|178:110,1,80,2|0,3:0|2:0,2:0:0:0:
265,276,37371,6,0,P|212:298|150:226,1,160,2|0,2:0|2:0,2:0:0:0:
215,167,37871,1,0,3:0:0:0:
335,301,38038,5,8,2:0:0:0:
119,373,38204,1,0,3:0:0:0:
210,153,38371,5,10,2:0:0:0:
282,369,38538,1,0,3:0:0:0:
95,280,38704,6,0,B|178:252|159:324|251:294,1,160,6|0,3:2|3:0,2:0:0:0:
327,261,39121,1,0,3:0:0:0:
327,261,39204,2,0,P|331:280|335:306,1,40,2|0,3:0|3:0,2:0:0:0:
161,182,39371,1,8,2:0:0:0:
336,131,39538,1,0,3:0:0:0:
149,186,39704,2,0,P|129:154|134:106,1,80,2|0,2:0|3:0,2:0:0:0:
311,253,40038,6,0,P|276:237|182:301,1,160,2|0,2:0|2:0,2:0:0:0:
223,368,40538,1,2,3:0:0:0:
141,181,40704,1,8,2:0:0:0:
54,337,40871,1,0,2:0:0:0:
217,179,41038,2,0,L|198:80,1,80,2|0,2:0|2:0,2:0:0:0:
113,19,41371,5,2,3:0:0:0:
113,19,41538,1,0,2:0:0:0:
287,106,41704,1,2,3:0:0:0:
326,98,41788,1,0,3:0:0:0:
365,91,41871,1,0,3:0:0:0:
405,84,41954,1,0,3:0:0:0:
444,77,42038,5,8,2:0:0:0:
345,11,42204,1,0,3:0:0:0:
414,195,42371,1,0,2:0:0:0:
414,195,42538,1,0,3:0:0:0:
186,88,42704,5,0,2:0:0:0:
253,49,42871,1,0,3:0:0:0:
221,207,43038,1,0,2:0:0:0:
109,78,43204,1,0,3:0:0:0:
109,78,43288,1,0,3:0:0:0:
109,78,43371,2,0,L|125:27,1,40,8|8,2:0|2:0,2:0:0:0:
300,199,43538,2,0,L|284:148,1,40,8|0,2:0|2:0,2:0:0:0:
121,313,43704,1,8,2:0:0:0:
213,94,43871,1,8,2:0:0:0:
113,328,44038,6,0,B|211:294|211:294|226:312|260:338,1,150,6|0,3:2|2:0,2:0:0:0:
308,373,44371,1,8,2:0:0:0:
408,179,44538,2,0,L|304:152,1,100,2|0,3:0|2:0,2:0:0:0:
140,252,44871,1,0,3:0:0:0:
271,93,45038,2,0,P|291:55|269:0,1,100,10|0,2:0|2:0,2:0:0:0:
56,142,45371,6,0,P|98:119|197:171,1,150,2|0,3:0|2:0,2:0:0:0:
232,219,45704,1,8,2:0:0:0:
43,360,45871,2,0,L|14:262,1,100,2|0,3:0|2:0,2:0:0:0:
67,127,46204,1,0,3:0:0:0:
277,289,46371,2,0,B|228:305|228:305|181:283,1,100,10|0,2:0|2:0,2:0:0:0:
176,115,46704,6,0,B|245:89|245:89|312:131,1,150,2|0,3:0|2:0,2:0:0:0:
324,207,47038,1,8,2:0:0:0:
460,123,47204,2,0,L|440:23,1,100,0|0,3:0|2:0,2:0:0:0:
463,291,47538,1,0,3:0:0:0:
309,129,47704,2,0,B|294:118|285:96|285:96|305:206,1,150,10|0,2:0|2:0,2:0:0:0:
267,274,48038,6,0,P|302:290|366:255,1,100,2|0,3:0|2:0,2:0:0:0:
207,125,48371,2,0,P|172:109|108:144,1,100,10|0,2:0|2:0,2:0:0:0:
66,294,48704,1,2,3:0:0:0:
273,193,48871,1,0,3:0:0:0:
48,302,49038,2,0,B|26:256|26:256|45:202,1,100,10|0,2:0|2:0,2:0:0:0:
22,55,49371,6,0,B|104:32|79:91|172:66,1,150,6|0,3:2|2:0,2:0:0:0:
228,15,49704,1,8,2:0:0:0:
146,173,49871,2,0,P|160:225|174:281,1,100,2|0,3:0|2:0,2:0:0:0:
350,167,50204,1,0,3:0:0:0:
175,83,50371,2,0,P|145:70|81:104,1,100,10|0,2:0|2:0,2:0:0:0:
251,239,50704,6,0,P|301:250|409:280,1,150,2|0,3:0|2:0,2:0:0:0:
468,310,51038,1,8,2:0:0:0:
388,89,51204,2,0,B|366:135|366:135|384:182,1,100,2|0,3:0|2:0,2:0:0:0:
475,327,51538,1,0,3:0:0:0:
294,171,51704,2,0,P|261:151|171:206,1,150,10|0,2:0|2:0,2:0:0:0:
156,276,52038,5,2,3:0:0:0:
156,276,52204,1,0,2:0:0:0:
383,182,52371,1,8,2:0:0:0:
141,78,52538,1,0,3:0:0:0:
141,78,52704,1,0,2:0:0:0:
250,261,52871,1,0,3:0:0:0:
362,41,53038,1,8,2:0:0:0:
156,163,53204,1,0,2:0:0:0:
377,254,53371,5,0,3:0:0:0:
291,12,53538,1,8,2:0:0:0:
238,343,53704,5,0,3:0:0:0:
324,101,53871,1,0,3:0:0:0:
431,342,54038,2,0,P|380:353|319:369,1,100,10|0,2:0|2:0,2:0:0:0:
131,294,54371,5,10,2:0:0:0:
394,177,54538,1,8,2:0:0:0:
83,116,54704,5,14,2:0:0:0:
120,83,54788,1,0,2:0:0:0:
169,79,54871,1,0,2:0:0:0:
212,103,54954,1,0,2:0:0:0:
232,148,55038,1,8,2:0:0:0:
223,196,55121,1,0,2:0:0:0:
188,231,55204,1,2,2:0:0:0:
152,265,55288,1,0,2:0:0:0:
143,313,55371,1,8,2:0:0:0:
164,358,55454,1,0,2:0:0:0:
207,382,55538,1,0,2:0:0:0:
256,378,55621,1,0,2:0:0:0:
293,346,55704,5,10,2:0:0:0:
330,313,55788,1,0,2:0:0:0:
379,309,55871,1,0,2:0:0:0:
422,333,55954,1,0,2:0:0:0:
443,377,56038,5,10,2:0:0:0:
394,371,56121,1,0,2:0:0:0:
356,340,56204,1,0,2:0:0:0:
341,293,56288,1,0,2:0:0:0:
353,245,56371,1,8,2:0:0:0:
389,211,56454,1,0,2:0:0:0:
431,185,56538,1,0,2:0:0:0:
449,139,56621,1,0,2:0:0:0:
437,91,56704,1,8,2:0:0:0:
400,59,56788,1,0,2:0:0:0:
351,54,56871,1,0,2:0:0:0:
309,78,56954,1,0,2:0:0:0:
288,123,57038,2,0,L|302:184,3,50,10|0|0|0,2:0|2:0|2:0|2:0,2:0:0:0:
222,245,57371,5,10,2:0:0:0:
173,254,57454,1,0,2:0:0:0:
130,232,57538,1,0,2:0:0:0:
109,187,57621,1,0,2:0:0:0:
121,139,57704,1,8,2:0:0:0:
160,110,57788,1,0,2:0:0:0:
209,110,57871,1,2,2:0:0:0:
247,141,57954,1,0,2:0:0:0:
258,189,58038,5,10,2:0:0:0:
294,221,58121,1,0,2:0:0:0:
343,221,58204,1,0,2:0:0:0:
379,188,58288,1,0,2:0:0:0:
384,139,58371,1,10,2:0:0:0:
388,90,58454,1,0,2:0:0:0:
424,57,58538,1,0,2:0:0:0:
473,57,58621,1,0,2:0:0:0:
510,89,58704,5,10,2:0:0:0:
496,126,58788,1,0,2:0:0:0:
465,151,58871,1,0,2:0:0:0:
427,157,58954,1,0,2:0:0:0:
390,143,59038,1,8,2:0:0:0:
365,113,59121,1,0,2:0:0:0:
358,74,59204,1,0,2:0:0:0:
373,37,59288,1,0,2:0:0:0:
404,13,59371,6,0,L|462:-2,3,50,10|0|0|0,2:0|2:0|2:0|2:0,2:0:0:0:
294,33,59704,2,0,L|236:18,3,50,10|0|0|0,2:0|2:0|2:0|2:0,2:0:0:0:
339,201,60038,5,14,2:0:0:0:
374,218,60121,1,0,2:0:0:0:
413,213,60204,1,0,2:0:0:0:
443,187,60288,1,0,2:0:0:0:
454,149,60371,1,8,2:0:0:0:
443,111,60454,1,0,2:0:0:0:
412,86,60538,1,0,2:0:0:0:
373,82,60621,1,0,2:0:0:0:
338,99,60704,5,10,2:0:0:0:
307,137,60788,1,0,2:0:0:0:
303,187,60871,1,0,2:0:0:0:
327,230,60954,1,0,2:0:0:0:
370,253,61038,1,8,2:0:0:0:
419,249,61121,1,0,2:0:0:0:
458,219,61204,1,0,2:0:0:0:
474,172,61288,1,0,2:0:0:0:
462,125,61371,5,10,2:0:0:0:
418,92,61454,1,0,2:0:0:0:
364,88,61538,1,0,2:0:0:0:
317,114,61621,1,0,2:0:0:0:
291,161,61704,1,8,2:0:0:0:
262,206,61788,1,0,2:0:0:0:
210,223,61871,1,0,2:0:0:0:
160,203,61954,1,0,2:0:0:0:
134,155,62038,5,10,2:0:0:0:
178,193,62121,1,0,2:0:0:0:
193,250,62204,1,0,2:0:0:0:
172,306,62288,1,0,2:0:0:0:
124,339,62371,1,8,2:0:0:0:
75,344,62454,1,0,2:0:0:0:
33,318,62538,1,0,2:0:0:0:
21,281,62621,1,0,2:0:0:0:
31,253,62704,5,10,2:0:0:0:
92,234,62788,1,0,2:0:0:0:
152,255,62871,1,0,2:0:0:0:
186,309,62954,1,0,2:0:0:0:
237,346,63038,1,10,2:0:0:0:
300,340,63121,1,0,2:0:0:0:
343,293,63204,1,0,2:0:0:0:
343,230,63288,1,0,2:0:0:0:
301,182,63371,5,10,2:0:0:0:
241,162,63454,1,0,2:0:0:0:
215,105,63538,1,0,2:0:0:0:
240,46,63621,1,0,2:0:0:0:
299,25,63704,1,10,2:0:0:0:
352,48,63788,1,0,2:0:0:0:
366,98,63871,1,0,2:0:0:0:
339,127,63954,1,0,2:0:0:0:
301,110,64038,2,0,B|295:85|295:85|311:49,3,50,10|0|0|0,2:0|2:0|2:0|2:0,2:0:0:0:
442,87,64371,2,0,B|448:112|448:112|432:148,3,50,8|0|0|0,2:0|2:0|2:0|2:0,2:0:0:0:
352,230,64704,6,0,L|341:278,3,50,10|0|0|0,2:0|2:0|2:0|2:0,2:0:0:0:
174,143,65038,2,0,L|184:191,3,50,10|0|0|0,2:0|2:0|2:0|2:0,2:0:0:0:
266,12,65371,5,14,2:0:0:0:
294,52,65454,1,0,2:0:0:0:
296,101,65538,1,0,2:0:0:0:
271,144,65621,1,0,2:0:0:0:
228,167,65704,1,8,2:0:0:0:
185,192,65788,1,0,2:0:0:0:
164,237,65871,1,0,2:0:0:0:
170,286,65954,1,0,2:0:0:0:
201,324,66038,1,8,2:0:0:0:
248,339,66121,1,0,2:0:0:0:
296,326,66204,1,0,2:0:0:0:
329,289,66288,1,0,2:0:0:0:
337,241,66371,2,0,L|286:228,3,50,10|0|0|0,2:0|2:0|2:0|2:0,2:0:0:0:
195,186,66704,5,10,2:0:0:0:
174,136,66788,1,0,2:0:0:0:
190,84,66871,1,0,2:0:0:0:
235,55,66954,1,0,2:0:0:0:
289,63,67038,1,8,2:0:0:0:
325,102,67121,1,0,2:0:0:0:
365,138,67204,1,0,2:0:0:0:
419,140,67288,1,0,2:0:0:0:
462,107,67371,1,8,2:0:0:0:
408,112,67454,1,0,2:0:0:0:
366,147,67538,1,0,2:0:0:0:
350,199,67621,1,0,2:0:0:0:
366,251,67704,2,0,L|435:270,3,50,10|0|0|0,2:0|2:0|2:0|2:0,2:0:0:0:
280,146,68038,5,10,2:0:0:0:
229,115,68121,1,0,2:0:0:0:
170,112,68204,1,0,2:0:0:0:
117,140,68288,1,0,2:0:0:0:
84,189,68371,1,8,2:0:0:0:
81,248,68454,1,0,2:0:0:0:
106,302,68538,1,2,2:0:0:0:
155,336,68621,1,0,2:0:0:0:
214,341,68704,6,0,L|275:324,3,50,10|0|0|0,2:0|2:0|2:0|2:0,2:0:0:0:
269,238,69038,2,0,L|208:255,3,50,10|0|0|0,2:0|2:0|2:0|2:0,2:0:0:0:
468,190,69371,5,10,2:0:0:0:
466,131,69454,1,0,2:0:0:0:
428,86,69538,1,0,2:0:0:0:
370,75,69621,1,0,2:0:0:0:
319,103,69704,1,8,2:0:0:0:
273,140,69788,1,0,2:0:0:0:
214,142,69871,1,0,2:0:0:0:
167,107,69954,1,0,2:0:0:0:
151,50,70038,6,0,L|161:1,3,50,10|0|0|0,2:0|2:0|2:0|2:0,2:0:0:0:
213,157,70371,2,0,L|203:206,3,50,10|0|0|0,2:0|2:0|2:0|2:0,2:0:0:0:
415,300,70704,5,14,2:0:0:0:
381,336,70788,1,0,2:0:0:0:
333,350,70871,1,0,2:0:0:0:
285,338,70954,1,0,2:0:0:0:
249,304,71038,1,8,2:0:0:0:
235,257,71121,1,0,2:0:0:0:
201,222,71204,1,0,2:0:0:0:
153,211,71288,1,0,2:0:0:0:
107,228,71371,5,10,2:0:0:0:
131,258,71454,1,0,2:0:0:0:
169,270,71538,1,0,2:0:0:0:
207,259,71621,1,0,2:0:0:0:
233,230,71704,1,8,2:0:0:0:
238,191,71788,1,0,2:0:0:0:
221,155,71871,1,0,2:0:0:0:
187,135,71954,1,0,2:0:0:0:
147,137,72038,5,10,2:0:0:0:
178,176,72121,1,0,2:0:0:0:
224,191,72204,1,0,2:0:0:0:
272,176,72288,1,0,2:0:0:0:
302,138,72371,1,8,2:0:0:0:
335,101,72454,1,0,2:0:0:0:
383,90,72538,1,0,2:0:0:0:
429,107,72621,1,0,2:0:0:0:
457,148,72704,5,10,2:0:0:0:
421,188,72788,1,0,2:0:0:0:
368,199,72871,1,0,2:0:0:0:
318,178,72954,1,0,2:0:0:0:
289,132,73038,1,8,2:0:0:0:
292,78,73121,1,0,2:0:0:0:
325,35,73204,1,0,2:0:0:0:
377,20,73288,1,0,2:0:0:0:
428,37,73371,5,10,3:2:0:0:
396,102,73454,1,0,2:0:0:0:
326,125,73538,1,0,3:0:0:0:
261,92,73621,1,0,2:0:0:0:
219,33,73704,1,8,3:2:0:0:
147,19,73788,1,0,2:0:0:0:
85,59,73871,1,0,3:0:0:0:
69,130,73954,1,0,2:0:0:0:
106,193,74038,1,8,3:2:0:0:
172,206,74121,1,4,3:0:0:0:
215,168,74204,1,4,3:0:0:0:
195,124,74288,1,0,2:0:0:0:
158,115,74371,1,8,3:2:0:0:
140,136,74454,1,8,3:0:0:0:
153,161,74538,1,8,3:0:0:0:
172,165,74621,1,8,3:0:0:0:
186,152,74704,5,4,3:0:0:0:
84,244,76038,5,2,3:0:0:0:
154,174,76204,2,0,P|190:158|240:185,1,80,0|2,3:0|2:0,2:0:0:0:
188,321,76538,1,0,3:0:0:0:
70,167,76704,2,0,L|87:88,1,80,10|0,2:0|2:0,2:0:0:0:
36,11,77038,1,2,3:0:0:0:
36,11,77204,1,0,3:0:0:0:
178,163,77371,5,2,2:0:0:0:
247,97,77538,2,0,P|263:61|236:11,1,80,0|0,3:0|3:0,2:0:0:0:
86,88,77871,1,0,2:0:0:0:
228,225,78038,1,8,2:0:0:0:
303,185,78204,1,0,2:0:0:0:
137,313,78371,1,0,3:0:0:0:
62,273,78538,1,0,3:0:0:0:
62,273,78621,1,0,2:0:0:0:
62,273,78704,6,0,P|83:245|70:195,1,80,2|0,3:0|2:0,2:0:0:0:
0,70,79038,2,0,P|13:102|63:115,1,80,2|0,3:0|2:0,2:0:0:0:
207,119,79371,2,0,P|172:114|135:151,1,80,10|0,2:0|2:0,2:0:0:0:
201,269,79704,2,0,P|239:278|288:292,1,80,2|0,3:0|2:0,2:0:0:0:
360,364,80038,5,2,3:0:0:0:
360,364,80204,1,0,3:0:0:0:
449,297,80371,2,0,L|431:208,1,80,0|0,2:0|3:0,2:0:0:0:
397,83,80704,1,8,2:0:0:0:
323,238,80871,1,0,2:0:0:0:
403,67,81038,2,0,B|365:48|365:48|321:59,1,80,2|0,3:0|2:0,2:0:0:0:
274,105,81288,1,0,2:0:0:0:
274,105,81371,6,0,L|181:83,1,80,2|0,3:0|2:0,2:0:0:0:
131,0,81704,1,0,2:0:0:0:
171,165,81871,1,2,3:0:0:0:
1,30,82038,2,0,L|22:119,1,80,8|0,2:0|2:0,2:0:0:0:
178,171,82371,2,0,P|192:139|183:92,1,80,2|0,3:0|2:0,2:0:0:0:
54,208,82704,5,2,3:0:0:0:
150,297,82871,2,0,P|182:311|229:302,1,80,0|0,3:0|2:0,2:0:0:0:
178,171,83204,1,2,3:0:0:0:
57,290,83371,2,0,P|67:332|78:376,1,80,8|0,2:0|2:0,2:0:0:0:
195,241,83704,1,2,3:0:0:0:
195,241,83871,1,0,3:0:0:0:
141,91,84038,6,0,P|101:87|68:108,1,80,2|0,3:0|2:0,2:0:0:0:
248,167,84371,2,0,P|282:148|299:112,1,80,2|0,3:0|3:0,2:0:0:0:
101,185,84704,2,0,P|112:228|125:285,1,80,10|0,2:0|2:0,2:0:0:0:
228,93,85038,2,0,P|217:50|204:-7,1,80,2|0,3:0|2:0,2:0:0:0:
237,255,85371,5,2,3:0:0:0:
336,94,85538,1,0,3:0:0:0:
372,291,85704,1,0,3:0:0:0:
372,291,85871,1,0,3:0:0:0:
201,183,86038,5,8,2:0:0:0:
406,86,86204,1,0,3:0:0:0:
288,302,86371,5,8,2:0:0:0:
175,87,86538,1,8,2:0:0:0:
295,318,86704,6,0,B|342:309|342:309|365:320|365:320|433:307,1,120,6|0,3:2|2:0,2:0:0:0:
480,295,87038,1,0,3:0:0:0:
351,199,87204,2,0,P|313:183|260:204,1,80,2|0,3:0|3:0,2:0:0:0:
329,384,87538,1,0,3:0:0:0:
184,225,87704,2,0,L|201:137,1,80,10|0,2:0|3:0,2:0:0:0:
391,50,88038,6,0,P|332:65|274:78,1,120,2|0,3:0|2:0,2:0:0:0:
207,52,88371,1,0,3:0:0:0:
249,212,88538,2,0,P|190:196|132:183,1,120,2|0,3:0|2:0,2:0:0:0:
65,210,88871,1,0,3:0:0:0:
226,322,89038,1,10,2:0:0:0:
203,126,89204,1,8,2:0:0:0:
229,340,89371,6,0,L|316:318,1,80,2|0,3:0|3:0,2:0:0:0:
130,162,89704,1,0,3:0:0:0:
78,347,89871,2,0,L|-9:325,1,80,2|0,3:0|3:0,2:0:0:0:
130,162,90204,1,0,3:0:0:0:
286,301,90371,2,0,P|301:335|278:386,1,80,10|0,2:0|3:0,2:0:0:0:
208,133,90704,6,0,P|251:122|310:105,1,80,2|0,3:0|3:0,2:0:0:0:
153,298,91038,2,0,P|110:287|51:270,1,80,0|0,3:0|3:0,2:0:0:0:
275,202,91371,1,0,3:0:0:0:
275,202,91538,1,0,3:0:0:0:
206,384,91704,1,10,2:0:0:0:
113,196,91871,1,0,3:0:0:0:
302,356,92038,6,0,P|341:342|397:324,1,80,6|0,3:2|2:0,2:0:0:0:
377,148,92371,1,0,3:0:0:0:
235,161,92538,2,0,P|227:201|215:259,1,80,2|0,3:0|3:0,2:0:0:0:
377,329,92871,1,0,3:0:0:0:
288,95,93038,2,0,P|258:77|207:86,1,80,10|0,2:0|3:0,2:0:0:0:
353,237,93371,6,0,P|392:226|448:208,1,80,6|0,3:2|2:0,2:0:0:0:
504,182,93704,1,0,3:0:0:0:
367,10,93871,2,0,B|352:48|352:48|368:86,1,80,2|0,3:0|3:0,2:0:0:0:
430,128,94121,1,0,3:0:0:0:
430,128,94204,2,0,L|444:82,1,40,0|0,3:0|3:0,2:0:0:0:
280,11,94371,1,10,2:0:0:0:
219,187,94538,1,0,3:0:0:0:
219,187,94621,1,0,3:0:0:0:
219,187,94704,6,0,L|307:205,1,80,6|0,3:2|3:0,2:0:0:0:
383,330,95038,2,0,L|295:348,1,80,0|0,3:0|3:0,2:0:0:0:
369,125,95371,1,0,3:0:0:0:
424,213,95538,1,0,3:0:0:0:
424,213,95621,1,0,3:0:0:0:
424,213,95704,1,10,2:0:0:0:
300,75,95871,1,2,3:0:0:0:
418,14,96038,5,4,3:2:0:0:
333,211,96204,1,0,3:0:0:0:
333,211,96288,1,0,3:0:0:0:
333,211,96371,1,0,3:0:0:0:
436,100,96538,1,0,3:0:0:0:
330,298,96704,5,8,2:0:0:0:
205,106,96871,1,0,3:0:0:0:
430,212,97038,5,8,2:0:0:0:
218,349,97204,1,8,2:0:0:0:
321,105,97371,6,0,B|382:96|382:96|405:109|405:109|480:97,1,150,6|0,3:2|2:0,2:0:0:0:
511,19,97704,1,8,2:0:0:0:
354,177,97871,2,0,P|340:221|372:274,1,100,2|0,3:0|2:0,2:0:0:0:
507,174,98204,1,0,3:0:0:0:
358,29,98371,2,0,B|308:9|308:9|261:33,1,100,10|0,2:0|2:0,2:0:0:0:
123,238,98704,6,0,L|300:189,1,150,2|0,3:0|2:0,2:0:0:0:
354,177,99038,1,8,2:0:0:0:
212,335,99204,2,0,P|172:351|111:311,1,100,2|0,3:0|2:0,2:0:0:0:
232,129,99538,1,0,3:0:0:0:
395,274,99704,2,0,L|374:379,1,100,10|0,2:0|2:0,2:0:0:0:
299,84,100038,6,0,P|266:56|159:97,1,150,2|0,3:2|2:0,2:0:0:0:
117,151,100371,1,8,2:0:0:0:
373,128,100538,2,0,P|389:101|372:37,1,100,0|0,3:0|2:0,2:0:0:0:
217,217,100871,1,0,3:0:0:0:
355,312,101038,2,0,B|423:344|423:344|483:295,1,150,10|0,2:0|2:0,2:0:0:0:
509,211,101371,6,0,P|471:202|408:185,1,100,2|0,3:0|2:0,2:0:0:0:
245,360,101704,2,0,P|283:369|346:386,1,100,10|0,2:0|2:0,2:0:0:0:
255,144,102038,1,2,3:0:0:0:
125,334,102204,1,0,3:0:0:0:
342,235,102371,1,10,2:0:0:0:
152,104,102538,1,0,3:0:0:0:
234,338,102704,6,0,P|276:347|390:377,1,150,6|0,3:2|2:0,2:0:0:0:
460,334,103038,1,8,2:0:0:0:
265,207,103204,2,0,P|224:197|166:236,1,100,2|0,3:0|2:0,2:0:0:0:
118,361,103538,1,0,3:0:0:0:
333,276,103704,2,0,P|362:245|357:175,1,100,10|0,2:0|2:0,2:0:0:0:
390,18,104038,6,0,B|309:-5|330:62|249:43,1,150,2|0,3:0|2:0,2:0:0:0:
162,20,104371,1,8,2:0:0:0:
28,166,104538,2,0,P|76:178|125:193,1,100,2|0,3:0|2:0,2:0:0:0:
167,2,104871,1,0,3:0:0:0:
247,239,105038,2,0,B|263:247|272:265|272:265|247:138,1,150,10|0,2:0|2:0,2:0:0:0:
177,107,105371,5,2,3:2:0:0:
177,107,105538,1,0,3:0:0:0:
271,334,105704,1,8,2:0:0:0:
375,91,105871,5,0,3:0:0:0:
375,91,106038,1,0,2:0:0:0:
183,269,106204,1,0,3:0:0:0:
224,31,106371,1,8,2:0:0:0:
355,233,106538,1,0,3:0:0:0:
125,114,106704,5,0,3:0:0:0:
374,19,106871,1,8,2:0:0:0:
54,8,107038,5,0,3:0:0:0:
303,103,107204,1,0,3:0:0:0:
11,244,107371,5,10,2:0:0:0:
11,244,107454,1,8,2:0:0:0:
11,244,107538,2,0,L|21:180,1,50,8|0,2:0|2:0,2:0:0:0:
96,206,107704,2,0,L|86:270,3,50,10|8|8|8,2:0|2:0|2:0|2:0,2:0:0:0:
208,216,108038,5,14,2:0:0:0:
219,168,108121,1,0,2:0:0:0:
205,120,108204,1,0,2:0:0:0:
168,87,108288,1,0,2:0:0:0:
120,78,108371,1,8,2:0:0:0:
74,95,108454,1,0,2:0:0:0:
42,133,108538,1,2,2:0:0:0:
76,168,108621,1,0,2:0:0:0:
123,184,108704,1,8,2:0:0:0:
172,178,108788,1,0,2:0:0:0:
214,151,108871,1,0,2:0:0:0:
239,108,108954,1,0,2:0:0:0:
243,59,109038,5,10,2:0:0:0:
265,103,109121,1,0,2:0:0:0:
309,125,109204,1,0,2:0:0:0:
357,118,109288,1,0,2:0:0:0:
393,84,109371,5,10,2:0:0:0:
363,44,109454,1,0,2:0:0:0:
317,28,109538,1,0,2:0:0:0:
270,42,109621,1,0,2:0:0:0:
239,80,109704,1,8,2:0:0:0:
236,129,109788,1,0,2:0:0:0:
262,171,109871,1,0,2:0:0:0:
293,209,109954,1,0,2:0:0:0:
294,258,110038,1,8,2:0:0:0:
263,296,110121,1,0,2:0:0:0:
215,307,110204,1,0,2:0:0:0:
171,285,110288,1,0,2:0:0:0:
151,241,110371,2,0,L|166:176,3,50,10|0|0|0,2:0|2:0|2:0|2:0,2:0:0:0:
68,333,110704,5,10,2:0:0:0:
24,310,110788,1,0,2:0:0:0:
0,267,110871,1,0,2:0:0:0:
4,218,110954,1,0,2:0:0:0:
35,179,111038,1,8,2:0:0:0:
82,164,111121,1,0,2:0:0:0:
129,177,111204,1,2,2:0:0:0:
161,215,111288,1,0,2:0:0:0:
167,264,111371,5,10,2:0:0:0:
194,304,111454,1,0,2:0:0:0:
242,315,111538,1,0,2:0:0:0:
285,292,111621,1,0,2:0:0:0:
302,246,111704,1,10,2:0:0:0:
329,206,111788,1,0,2:0:0:0:
377,197,111871,1,0,2:0:0:0:
416,226,111954,1,0,2:0:0:0:
422,274,112038,5,10,2:0:0:0:
393,301,112121,1,0,2:0:0:0:
355,310,112204,1,0,2:0:0:0:
318,297,112288,1,0,2:0:0:0:
293,266,112371,1,8,2:0:0:0:
288,227,112454,1,0,2:0:0:0:
305,191,112538,1,0,2:0:0:0:
339,170,112621,1,0,2:0:0:0:
378,169,112704,6,0,L|431:183,3,50,10|0|0|0,2:0|2:0|2:0|2:0,2:0:0:0:
456,91,113038,2,0,L|403:77,3,50,10|0|0|0,2:0|2:0|2:0|2:0,2:0:0:0:
328,238,113371,5,14,2:0:0:0:
291,271,113454,1,0,2:0:0:0:
242,276,113538,1,0,2:0:0:0:
200,252,113621,1,0,2:0:0:0:
179,208,113704,1,8,2:0:0:0:
189,159,113788,1,0,2:0:0:0:
225,126,113871,1,0,2:0:0:0:
274,121,113954,1,0,2:0:0:0:
317,145,114038,5,10,2:0:0:0:
271,162,114121,1,0,2:0:0:0:
224,146,114204,1,0,2:0:0:0:
198,105,114288,1,0,2:0:0:0:
203,57,114371,1,8,2:0:0:0:
238,22,114454,1,0,2:0:0:0:
287,18,114538,1,0,2:0:0:0:
328,45,114621,1,0,2:0:0:0:
342,92,114704,5,10,2:0:0:0:
368,139,114788,1,0,2:0:0:0:
419,158,114871,1,0,2:0:0:0:
469,139,114954,1,0,2:0:0:0:
495,92,115038,1,8,2:0:0:0:
484,39,115121,1,0,2:0:0:0:
442,6,115204,1,0,2:0:0:0:
388,9,115288,1,0,2:0:0:0:
349,46,115371,5,10,2:0:0:0:
343,85,115454,1,0,2:0:0:0:
337,125,115538,1,0,2:0:0:0:
331,164,115621,1,0,2:0:0:0:
325,204,115704,1,8,2:0:0:0:
318,243,115788,1,0,2:0:0:0:
312,283,115871,1,0,2:0:0:0:
308,312,115954,1,0,2:0:0:0:
303,342,116038,5,10,2:0:0:0:
242,323,116121,1,0,2:0:0:0:
209,269,116204,1,0,2:0:0:0:
220,206,116288,1,0,2:0:0:0:
270,166,116371,1,10,2:0:0:0:
300,111,116454,1,0,2:0:0:0:
284,50,116538,1,0,2:0:0:0:
229,17,116621,1,0,2:0:0:0:
167,32,116704,5,10,2:0:0:0:
134,86,116788,1,0,2:0:0:0:
147,148,116871,1,0,2:0:0:0:
198,185,116954,1,0,2:0:0:0:
261,176,117038,1,10,2:0:0:0:
299,132,117121,1,0,2:0:0:0:
352,124,117204,1,0,2:0:0:0:
386,144,117288,1,0,2:0:0:0:
398,170,117371,2,0,L|384:227,3,50,10|0|0|0,2:0|2:0|2:0|2:0,2:0:0:0:
295,259,117704,2,0,L|309:315,3,50,8|0|0|0,2:0|2:0|2:0|2:0,2:0:0:0:
439,372,118038,6,0,L|448:323,3,50,10|0|0|0,2:0|2:0|2:0|2:0,2:0:0:0:
308,181,118371,2,0,L|295:114,3,50,10|0|0|0,2:0|2:0|2:0|2:0,2:0:0:0:
159,341,118704,5,14,2:0:0:0:
204,360,118788,1,0,2:0:0:0:
252,350,118871,1,0,2:0:0:0:
285,314,118954,1,0,2:0:0:0:
292,265,119038,1,8,2:0:0:0:
269,221,119121,1,0,2:0:0:0:
225,199,119204,1,0,2:0:0:0:
176,206,119288,1,0,2:0:0:0:
127,213,119371,1,8,2:0:0:0:
83,190,119454,1,0,2:0:0:0:
60,147,119538,1,0,2:0:0:0:
66,98,119621,1,0,2:0:0:0:
100,62,119704,2,0,L|91:13,3,50,10|0|0|0,2:0|2:0|2:0|2:0,2:0:0:0:
215,24,120038,5,10,2:0:0:0:
269,24,120121,1,0,2:0:0:0:
313,56,120204,1,0,2:0:0:0:
330,107,120288,1,0,2:0:0:0:
316,159,120371,1,8,2:0:0:0:
274,193,120454,1,0,2:0:0:0:
220,196,120538,1,0,2:0:0:0:
166,204,120621,1,0,2:0:0:0:
132,245,120704,1,8,2:0:0:0:
134,298,120788,1,0,2:0:0:0:
171,337,120871,1,0,2:0:0:0:
225,340,120954,1,0,2:0:0:0:
267,306,121038,2,0,L|257:254,3,50,10|0|0|0,2:0|2:0|2:0|2:0,2:0:0:0:
412,286,121371,5,10,2:0:0:0:
437,243,121454,1,0,2:0:0:0:
442,194,121538,1,0,2:0:0:0:
426,147,121621,1,0,2:0:0:0:
392,111,121704,1,8,2:0:0:0:
346,93,121788,1,0,2:0:0:0:
296,97,121871,1,2,2:0:0:0:
253,120,121954,1,0,2:0:0:0:
223,160,122038,6,0,L|233:216,3,50,10|0|0|0,2:0|2:0|2:0|2:0,2:0:0:0:
133,104,122371,2,0,L|142:47,3,50,10|0|0|0,2:0|2:0|2:0|2:0,2:0:0:0:
31,240,122704,5,10,2:0:0:0:
78,266,122788,1,0,2:0:0:0:
132,266,122871,1,0,2:0:0:0:
179,238,122954,1,0,2:0:0:0:
205,190,123038,1,8,2:0:0:0:
237,152,123121,1,0,2:0:0:0:
283,135,123204,1,0,2:0:0:0:
332,142,123288,1,0,2:0:0:0:
372,171,123371,6,0,L|389:239,3,50,10|0|0|0,2:0|2:0|2:0|2:0,2:0:0:0:
290,344,123704,2,0,L|276:291,3,50,10|0|0|0,2:0|2:0|2:0|2:0,2:0:0:0:
288,147,124038,5,14,2:0:0:0:
303,98,124121,1,0,2:0:0:0:
287,51,124204,1,0,2:0:0:0:
246,24,124288,1,0,2:0:0:0:
198,24,124371,1,8,2:0:0:0:
159,54,124454,1,0,2:0:0:0:
145,100,124538,1,0,2:0:0:0:
161,146,124621,1,0,2:0:0:0:
201,175,124704,5,10,2:0:0:0:
258,186,124788,1,0,2:0:0:0:
297,231,124871,1,0,2:0:0:0:
299,290,124954,1,0,2:0:0:0:
264,337,125038,1,8,2:0:0:0:
207,353,125121,1,0,2:0:0:0:
153,330,125204,1,0,2:0:0:0:
125,278,125288,1,0,2:0:0:0:
135,220,125371,5,10,2:0:0:0:
183,171,125454,1,0,2:0:0:0:
251,166,125538,1,0,2:0:0:0:
306,208,125621,1,0,2:0:0:0:
320,275,125704,1,8,2:0:0:0:
359,330,125788,1,0,2:0:0:0:
420,344,125871,1,0,2:0:0:0:
465,308,125954,1,0,2:0:0:0:
466,269,126038,6,0,P|449:252|413:246,1,50,14|0,3:2|2:0,2:0:0:0:
255,183,126204,1,4,3:0:0:0:
260,202,126288,1,4,3:0:0:0:
264,221,126371,5,8,2:0:0:0:
474,136,126538,1,8,2:0:0:0:
226,99,126704,5,10,2:0:0:0:
512,216,126871,1,8,2:0:0:0:
361,156,127204,5,0,3:0:0:0:
292,339,127371,2,0,L|311:203,1,120,8|0,2:0|2:0,2:0:0:0:
268,133,127704,1,0,3:0:0:0:
452,271,127871,2,0,L|437:173,1,80,0|0,3:0|2:0,2:0:0:0:
466,80,128204,1,0,3:0:0:0:
299,181,128371,2,0,L|321:308,1,120,0|0,3:0|2:0,2:0:0:0:
267,380,128704,5,10,2:0:0:0:
392,216,128871,1,2,3:0:0:0:
189,315,129038,2,0,P|183:278|166:187,1,120,2|0,3:0|2:0,2:0:0:0:
217,113,129371,5,0,3:0:0:0:
30,256,129538,2,0,P|36:219|50:144,1,80,0|0,3:0|2:0,2:0:0:0:
96,66,129871,1,0,3:0:0:0:
206,260,130038,2,0,P|236:273|312:203,1,120,8|0,2:0|2:0,2:0:0:0:
328,138,130371,1,0,3:0:0:0:
149,139,130538,2,0,P|136:189|126:232,1,80,0|0,3:0|2:0,2:0:0:0:
341,143,130871,1,0,3:0:0:0:
216,49,131038,2,0,P|166:36|123:26,1,80,0|0,3:0|3:0,2:0:0:0:
239,164,131288,1,0,3:0:0:0:
239,164,131371,6,0,B|274:179|274:179|334:149,1,80,10|0,2:0|2:0,2:0:0:0:
385,233,131704,2,0,B|427:195|427:195|433:115,1,120,2|0,3:0|2:0,2:0:0:0:
359,69,132038,5,6,3:2:0:0:
314,246,132204,2,0,P|327:290|339:340,1,80,0|0,3:0|2:0,2:0:0:0:
500,245,132538,1,0,3:0:0:0:
348,155,132704,2,0,P|290:131|229:172,1,120,8|0,2:0|2:0,2:0:0:0:
175,224,133038,1,0,3:0:0:0:
364,267,133204,2,0,P|391:258|454:245,1,80,0|0,3:0|2:0,2:0:0:0:
284,108,133538,1,0,3:0:0:0:
169,235,133704,2,0,P|155:285|174:359,1,120,0|0,3:0|2:0,2:0:0:0:
335,313,134038,6,0,P|305:292|247:301,1,80,10|0,2:0|3:0,2:0:0:0:
224,180,134371,2,0,P|190:195|169:275,1,120,2|0,2:0|2:0,2:0:0:0:
201,361,134704,5,2,3:0:0:0:
408,280,134871,2,0,P|443:286|493:300,1,80,0|0,3:0|2:0,2:0:0:0:
196,366,135204,1,0,3:0:0:0:
335,238,135371,2,0,L|311:114,1,120,8|0,2:0|2:0,2:0:0:0:
379,48,135704,1,0,3:0:0:0:
189,149,135871,1,0,3:0:0:0:
421,260,136038,5,8,2:0:0:0:
312,120,136204,1,0,3:0:0:0:
238,322,136371,5,8,2:0:0:0:
473,190,136538,1,0,3:0:0:0:
473,190,136621,1,0,3:0:0:0:
473,190,136704,6,0,B|479:171|479:171|474:151,1,40,8|0,2:0|2:0,2:0:0:0:
289,10,136871,1,0,3:0:0:0:
289,10,136954,1,0,3:0:0:0:
289,10,137038,2,0,B|283:29|283:29|288:49,1,40,0|0,3:0|2:0,2:0:0:0:
353,241,137204,1,0,3:0:0:0:
466,13,137371,5,6,3:2:0:0:
287,151,137538,2,0,L|368:131,1,80,0|0,3:0|2:0,2:0:0:0:
350,368,137871,1,0,3:0:0:0:
500,229,138038,2,0,L|411:207,1,90.0000000000001,8|0,2:0|2:0,2:0:0:0:
266,275,138371,1,0,3:0:0:0:
450,144,138538,2,0,P|463:113|449:64,1,80,0|0,3:0|2:0,2:0:0:0:
382,300,138871,1,0,3:0:0:0:
257,150,139038,2,0,L|122:179,1,120,0|0,3:0|2:0,2:0:0:0:
50,208,139371,6,0,P|43:164|82:118,1,90.0000000000001,10|0,2:0|3:0,2:0:0:0:
251,60,139704,2,0,P|212:81|127:30,1,120,0|0,3:0|2:0,2:0:0:0:
32,61,140038,5,2,3:0:0:0:
136,231,140204,2,0,L|117:331,1,80,0|0,3:0|2:0,2:0:0:0:
212,127,140538,1,0,3:0:0:0:
292,317,140704,2,0,L|404:298,1,90.0000000000001,8|0,2:0|2:0,2:0:0:0:
492,347,141038,1,0,3:0:0:0:
318,234,141204,2,0,B|306:197|306:197|320:149,1,80,0|0,3:0|2:0,2:0:0:0:
401,60,141538,1,0,3:0:0:0:
494,236,141704,2,0,L|413:223,1,80,0|0,3:0|3:0,2:0:0:0:
270,126,141954,1,0,3:0:0:0:
270,126,142038,6,0,L|284:34,1,90.0000000000001,10|0,2:0|2:0,2:0:0:0:
139,177,142371,2,0,L|159:49,1,120,2|0,3:0|2:0,2:0:0:0:
102,10,142704,5,6,3:2:0:0:
218,209,142871,2,0,P|263:219|328:237,1,80,0|0,3:0|2:0,2:0:0:0:
392,189,143204,1,0,3:0:0:0:
219,332,143371,2,0,P|174:342|94:363,1,90.0000000000001,8|0,2:0|2:0,2:0:0:0:
41,310,143704,1,0,3:0:0:0:
196,162,143871,2,0,L|176:259,1,80,0|0,3:0|2:0,2:0:0:0:
226,355,144204,1,0,3:0:0:0:
67,218,144371,2,0,L|42:95,1,120,0|0,3:0|2:0,2:0:0:0:
42,71,144704,6,0,P|82:73|112:114,1,80,10|0,2:0|3:0,2:0:0:0:
202,71,145038,2,0,P|220:106|183:175,1,120,2|0,3:0|2:0,2:0:0:0:
124,214,145371,5,2,3:0:0:0:
311,113,145538,2,0,L|394:128,1,80,0|0,3:0|2:0,2:0:0:0:
468,182,145871,1,0,3:0:0:0:
290,11,146038,2,0,L|197:30,1,90.0000000000001,8|0,2:0|2:0,2:0:0:0:
102,154,146371,1,0,3:0:0:0:
102,154,146538,1,0,3:0:0:0:
343,101,146704,5,10,2:0:0:0:
126,30,146871,1,8,2:0:0:0:
273,227,147038,1,8,2:0:0:0:
383,16,147204,1,0,3:0:0:0:
383,16,147288,1,0,3:0:0:0:
383,16,147371,2,0,L|309:40,1,50,10|0,2:0|2:0,2:0:0:0:
128,121,147538,2,0,L|196:144,1,50,0|0,3:0|3:0,2:0:0:0:
345,204,147704,1,0,3:0:0:0:
245,23,147871,1,0,3:0:0:0:
88,242,148038,6,0,L|66:150,1,80,6|0,3:2|3:0,2:0:0:0:
140,57,148371,2,0,L|162:149,1,80,0|0,3:0|3:0,2:0:0:0:
284,238,148704,2,0,P|329:250|387:218,1,90.0000000000001,8|0,2:0|3:0,2:0:0:0:
422,143,149038,2,0,P|377:131|328:156,1,80,0|0,3:0|3:0,2:0:0:0:
119,378,149371,5,2,3:0:0:0:
191,222,149538,1,0,3:0:0:0:
119,378,149704,2,0,L|98:267,1,80,0|0,3:0|3:0,2:0:0:0:
278,105,150038,5,10,2:0:0:0:
347,334,150204,1,0,3:0:0:0:
278,105,150371,2,0,L|263:183,1,80,0|0,3:0|3:0,2:0:0:0:
426,375,150704,5,2,3:0:0:0:
512,106,150871,1,0,3:0:0:0:
426,375,151038,2,0,L|410:289,1,80,0|0,3:0|3:0,2:0:0:0:
230,367,151371,2,0,P|268:373|329:385,1,90.0000000000001,8|0,2:0|3:0,2:0:0:0:
173,183,151704,1,0,3:0:0:0:
91,346,151871,2,0,P|53:352|-7:364,1,80,0|0,3:0|3:0,2:0:0:0:
303,232,152204,1,0,3:0:0:0:
140,118,152371,2,0,P|143:78|150:38,1,80,0|0,3:0|3:0,2:0:0:0:
205,277,152704,6,0,L|108:258,1,90.0000000000001,10|0,2:0|3:0,2:0:0:0:
44,241,152954,1,0,2:0:0:0:
44,241,153038,1,10,2:0:0:0:
243,356,153204,1,0,3:0:0:0:
313,239,153371,6,0,L|330:156,1,80,6|0,3:2|3:0,2:0:0:0:
224,28,153704,2,0,L|207:111,1,80,0|0,3:0|3:0,2:0:0:0:
482,66,154038,2,0,P|447:51|392:57,1,90.0000000000001,8|0,2:0|3:0,2:0:0:0:
205,235,154371,1,0,3:0:0:0:
283,97,154538,2,0,P|272:57|259:9,1,80,0|0,3:0|3:0,2:0:0:0:
196,249,154871,1,0,3:0:0:0:
83,148,155038,2,0,P|94:108|107:60,1,80,0|0,3:0|3:0,2:0:0:0:
151,337,155371,6,0,L|187:224,1,90.0000000000001,10|0,2:0|3:0,2:0:0:0:
343,256,155704,2,0,L|231:282,1,80,2|0,3:0|3:0,2:0:0:0:
190,132,156038,2,0,L|268:214,1,80,2|0,3:0|3:0,2:0:0:0:
105,249,156371,1,0,3:0:0:0:
105,249,156538,1,0,3:0:0:0:
288,57,156704,2,0,P|242:42|180:68,1,90.0000000000001,8|0,2:0|3:0,2:0:0:0:
367,133,157038,2,0,P|407:143|449:132,1,80,0|0,3:0|3:0,2:0:0:0:
211,192,157371,5,10,2:0:0:0:
271,301,157538,1,0,3:0:0:0:
289,132,157704,1,10,2:0:0:0:
110,218,157871,1,0,3:0:0:0:
342,351,158038,5,10,2:0:0:0:
217,102,158204,1,8,2:0:0:0:
206,345,158371,5,8,2:0:0:0:
334,72,158538,1,8,2:0:0:0:
196,361,158704,6,0,B|281:345|225:308|326:290,1,135,6|0,3:2|2:0,2:0:0:0:
379,326,159038,1,8,2:0:0:0:
255,194,159204,2,0,B|236:154|236:154|264:89,1,90.0000000000001,0|0,2:0|3:0,2:0:0:0:
440,156,159538,1,0,3:0:0:0:
278,294,159704,2,0,P|223:324|157:277,1,135,10|0,2:0|2:0,2:0:0:0:
130,225,160038,6,0,L|35:246,1,90.0000000000001,2|0,3:0|2:0,2:0:0:0:
177,73,160371,1,8,2:0:0:0:
297,224,160538,2,0,L|392:245,1,90.0000000000001,0|0,2:0|3:0,2:0:0:0:
316,105,160871,1,0,3:0:0:0:
204,242,161038,2,0,P|180:285|226:349,1,135,10|0,2:0|2:0,2:0:0:0:
293,378,161371,6,0,P|323:359|384:353,1,90.0000000000001,6|0,3:2|2:0,2:0:0:0:
478,384,161704,1,8,2:0:0:0:
302,285,161871,1,2,2:0:0:0:
486,159,162038,2,0,B|499:204|499:204|469:245,1,90.0000000000001,2|0,3:0|3:0,2:0:0:0:
297,208,162371,2,0,B|283:162|283:162|313:121,1,90.0000000000001,10|0,2:0|2:0,2:0:0:0:
422,45,162704,1,2,3:0:0:0:
422,45,162871,1,0,3:0:0:0:
349,268,163038,5,8,2:0:0:0:
210,85,163204,1,0,3:0:0:0:
149,296,163371,5,10,2:0:0:0:
389,200,163538,1,0,3:0:0:0:
107,165,163704,5,10,2:0:0:0:
363,292,163871,1,0,3:0:0:0:
363,292,163954,1,0,3:0:0:0:
363,292,164038,6,0,P|366:327|346:362,2,66.6666666666667,2|0|0,3:0|2:0|2:0,2:0:0:0:
339,159,164371,6,0,P|370:173|391:208,2,66.6666666666667,10|0|0,2:0|2:0|2:0,2:0:0:0:
197,255,164704,5,2,3:0:0:0:
161,246,164815,2,0,B|149:207|149:207|167:169,1,66.6666666666667,0|0,2:0|2:0,2:0:0:0:
214,0,165038,5,10,2:0:0:0:
251,9,165149,2,0,B|263:48|263:48|245:86,1,66.6666666666667,0|0,2:0|2:0,2:0:0:0:
25,244,165371,5,2,3:0:0:0:
20,222,165482,1,0,2:0:0:0:
16,200,165593,1,0,2:0:0:0:
30,174,165704,5,10,2:0:0:0:
37,138,165815,1,0,2:0:0:0:
43,102,165926,1,0,2:0:0:0:
13,59,166038,5,2,3:0:0:0:
56,107,166149,1,0,2:0:0:0:
118,117,166260,1,0,2:0:0:0:
170,73,166371,5,10,2:0:0:0:
235,35,166482,1,2,2:0:0:0:
308,68,166593,1,2,2:0:0:0:
319,152,166704,6,0,B|286:111|238:141|238:141|217:172|178:170,1,135,6|0,3:2|2:0,2:0:0:0:
132,191,167038,1,8,2:0:0:0:
277,282,167204,2,0,P|324:268|384:252,1,90.0000000000001,0|2,2:0|3:0,2:0:0:0:
443,240,167454,1,0,2:0:0:0:
443,240,167538,1,0,2:0:0:0:
271,374,167704,2,0,P|224:360|119:331,1,150,10|0,2:0|2:0,2:0:0:0:
51,326,168038,5,10,2:0:0:0:
302,203,168204,1,10,2:0:0:0:
80,184,168371,1,10,2:0:0:0:
277,327,168538,1,10,2:0:0:0:
194,120,168704,5,10,3:0:0:0:
142,256,168871,1,8,3:0:0:0:
256,228,169038,1,6,3:0:0:0:
184,195,169204,1,4,3:0:0:0:
72,66,169371,6,0,L|96:164,1,80,6|2,3:2|3:0,2:0:0:0:
142,256,169704,1,10,2:0:0:0:
322,85,169871,2,0,L|217:101,1,80,2|0,2:0|3:0,2:0:0:0:
142,256,170204,1,2,3:0:0:0:
44,61,170371,1,10,2:0:0:0:
44,61,170454,1,0,2:0:0:0:
44,61,170538,2,0,L|58:116,1,45,2|0,2:0|2:0,2:0:0:0:
142,256,170704,6,0,P|104:276|50:264,1,90.0000000000001,2|2,3:0|2:0,2:0:0:0:
162,75,171038,1,10,2:0:0:0:
277,248,171204,2,0,P|287:282|271:345,1,90.0000000000001,2|0,2:0|3:0,2:0:0:0:
125,168,171538,1,2,2:0:0:0:
256,44,171704,1,10,2:0:0:0:
423,144,171871,1,2,2:0:0:0:
423,144,171954,1,0,2:0:0:0:
423,144,172038,1,2,3:0:0:0:
340,182,172204,5,2,3:0:0:0:
420,62,172371,1,8,2:0:0:0:
486,193,172538,1,0,2:0:0:0:
112,100,172704,5,2,3:0:0:0:
299,27,172871,1,2,3:0:0:0:
267,225,173038,1,8,2:0:0:0:
190,42,173204,5,2,2:0:0:0:
312,129,173371,1,2,3:0:0:0:
173,191,173538,1,0,3:0:0:0:
380,70,173704,5,10,2:0:0:0:
380,70,173871,1,2,2:0:0:0:
287,241,174038,5,10,2:0:0:0:
489,152,174204,1,2,3:0:0:0:
215,128,174371,5,10,2:0:0:0:
495,258,174538,1,2,3:0:0:0:
325,369,174704,6,0,L|344:274,1,90.0000000000001,6|2,3:2|2:0,2:0:0:0:
489,152,175038,1,8,2:0:0:0:
236,109,175204,2,0,L|341:88,1,90.0000000000001,2|2,2:0|3:0,2:0:0:0:
185,291,175538,1,0,3:0:0:0:
383,181,175704,1,10,2:0:0:0:
164,90,175871,1,2,2:0:0:0:
349,309,176038,6,0,L|450:288,1,90.0000000000001,2|2,3:0|2:0,2:0:0:0:
209,364,176371,1,8,2:0:0:0:
124,185,176538,2,0,L|142:74,1,90.0000000000001,2|2,2:0|3:0,2:0:0:0:
64,350,176871,1,0,3:0:0:0:
149,107,177038,1,10,2:0:0:0:
209,364,177204,1,2,3:0:0:0:
71,261,177371,6,0,L|46:145,1,90.0000000000001,6|2,3:2|2:0,2:0:0:0:
136,384,177704,1,8,2:0:0:0:
223,212,177871,2,0,L|329:186,1,90.0000000000001,2|2,2:0|3:0,2:0:0:0:
244,110,178204,1,0,3:0:0:0:
186,302,178371,1,10,2:0:0:0:
397,221,178538,1,2,2:0:0:0:
397,221,178621,1,2,2:0:0:0:
397,221,178704,2,0,L|381:126,1,90.0000000000001,2|10,3:0|2:0,2:0:0:0:
271,47,179038,5,10,2:0:0:0:
209,239,179204,1,10,2:0:0:0:
392,105,179371,1,10,2:0:0:0:
117,2,179538,1,10,3:0:0:0:
283,289,179704,1,6,3:0:0:0:
407,0,179871,1,10,3:0:0:0:
92,181,180038,6,0,B|173:201|154:136|242:161,1,150,6|0,3:2|2:0,2:0:0:0:
310,209,180371,1,8,2:0:0:0:
118,332,180538,2,0,P|75:320|15:307,1,100,2|0,3:0|2:0,2:0:0:0:
120,111,180871,1,0,3:0:0:0:
255,272,181038,2,0,B|272:320|272:320|251:370,1,100,10|0,2:0|2:0,2:0:0:0:
124,120,181371,6,0,B|156:103|184:75|184:75|260:106,1,150,2|0,3:0|2:0,2:0:0:0:
303,178,181704,1,8,2:0:0:0:
100,235,181871,2,0,L|2:214,1,100,2|0,3:0|2:0,2:0:0:0:
107,33,182204,1,0,3:0:0:0:
212,196,182371,2,0,P|227:245|197:298,1,100,10|0,2:0|2:0,2:0:0:0:
100,18,182704,6,0,P|153:30|258:59,1,150,2|0,3:0|2:0,2:0:0:0:
325,16,183038,1,8,2:0:0:0:
290,196,183204,2,0,P|305:242|322:307,1,100,0|0,2:0|3:0,2:0:0:0:
486,149,183538,1,0,3:0:0:0:
287,77,183704,2,0,P|221:61|164:128,1,150,10|0,2:0|2:0,2:0:0:0:
118,190,184038,6,0,P|154:209|216:179,1,100,2|0,3:0|2:0,2:0:0:0:
437,120,184371,2,0,P|401:101|339:131,1,100,10|0,2:0|2:0,2:0:0:0:
219,277,184704,1,2,3:0:0:0:
400,184,184871,1,0,3:0:0:0:
162,136,185038,1,10,2:0:0:0:
273,353,185204,1,0,3:0:0:0:
473,123,185371,6,0,L|318:88,1,150,6|0,3:2|2:0,2:0:0:0:
258,30,185704,1,8,2:0:0:0:
119,205,185871,2,0,B|167:222|167:222|221:194,1,100,2|0,3:0|2:0,2:0:0:0:
142,6,186204,1,0,2:0:0:0:
37,195,186371,2,0,L|9:300,1,100,10|0,2:0|2:0,2:0:0:0:
147,384,186704,6,0,P|179:359|293:380,1,150,2|0,3:0|2:0,2:0:0:0:
371,357,187038,1,8,2:0:0:0:
227,204,187204,2,0,L|255:99,1,100,2|0,3:0|2:0,2:0:0:0:
382,33,187538,1,0,3:0:0:0:
275,258,187704,2,0,P|234:280|175:253,1,100,10|0,2:0|2:0,2:0:0:0:
450,123,188038,5,2,3:0:0:0:
450,123,188204,1,0,3:0:0:0:
356,350,188371,1,8,2:0:0:0:
252,107,188538,5,2,3:0:0:0:
252,107,188704,1,0,2:0:0:0:
401,281,188871,1,0,3:0:0:0:
360,43,189038,1,10,2:0:0:0:
229,245,189204,1,0,3:0:0:0:
458,174,189371,5,10,2:0:0:0:
270,20,189538,1,10,2:0:0:0:
324,270,189704,1,10,2:0:0:0:
512,116,189871,1,10,2:0:0:0:
207,76,190038,2,0,B|189:126|189:126|211:172,1,100,10|0,2:0|3:0,2:0:0:0:
426,317,190371,1,10,2:0:0:0:
299,115,190538,1,0,3:0:0:0:
198,361,190704,5,10,2:0:0:0:
499,219,190871,1,8,2:0:0:0:
499,219,192038,5,10,2:0:0:0:
198,361,192204,1,8,2:0:0:0:
198,361,193371,5,10,2:0:0:0:
405,234,193538,1,0,3:0:0:0:
405,234,193704,1,0,3:0:0:0:
116,194,193871,5,10,2:0:0:0:
368,328,194038,1,2,3:0:0:0:
368,328,194204,1,0,3:0:0:0:
246,60,194371,5,10,2:0:0:0:
112,312,194538,1,0,3:0:0:0:
333,216,194704,5,2,3:0:0:0:
196,122,194871,1,8,3:0:0:0:
184,288,195038,1,4,3:0:0:0:
238,209,195204,1,8,3:0:0:0:
11,110,195371,2,0,P|-2:136|18:181,1,59.9999999999999,10|0,2:0|3:0,2:0:0:0:
179,282,195704,2,0,P|162:257|114:252,1,59.9999999999999,6|0,3:0|3:0,2:0:0:0:
60,360,196038,5,14,2:0:0:0:
98,351,196121,1,0,2:0:0:0:
128,325,196204,1,0,2:0:0:0:
141,287,196288,1,0,2:0:0:0:
135,248,196371,1,8,2:0:0:0:
111,217,196454,1,0,2:0:0:0:
75,201,196538,1,0,2:0:0:0:
36,204,196621,1,0,2:0:0:0:
3,226,196704,5,10,2:0:0:0:
49,241,196788,1,0,2:0:0:0:
96,227,196871,1,0,2:0:0:0:
126,189,196954,1,0,2:0:0:0:
150,146,197038,1,8,2:0:0:0:
194,123,197121,1,0,2:0:0:0:
243,130,197204,1,0,2:0:0:0:
280,162,197288,1,0,2:0:0:0:
292,210,197371,5,10,2:0:0:0:
246,174,197454,1,0,2:0:0:0:
229,118,197538,1,0,2:0:0:0:
250,62,197621,1,0,2:0:0:0:
300,31,197704,1,8,2:0:0:0:
358,35,197788,1,0,2:0:0:0:
403,73,197871,1,0,2:0:0:0:
416,130,197954,1,0,2:0:0:0:
392,184,198038,5,10,2:0:0:0:
343,174,198121,1,0,2:0:0:0:
294,165,198204,1,0,2:0:0:0:
245,155,198288,1,0,2:0:0:0:
196,145,198371,1,8,2:0:0:0:
157,137,198454,1,0,2:0:0:0:
118,129,198538,1,0,2:0:0:0:
88,124,198621,1,0,2:0:0:0:
59,118,198704,5,10,2:0:0:0:
86,175,198788,1,0,2:0:0:0:
144,201,198871,1,0,2:0:0:0:
205,183,198954,1,0,2:0:0:0:
240,130,199038,1,10,2:0:0:0:
280,81,199121,1,0,2:0:0:0:
343,73,199204,1,0,2:0:0:0:
395,110,199288,1,0,2:0:0:0:
409,172,199371,5,10,2:0:0:0:
376,226,199454,1,0,2:0:0:0:
330,270,199538,1,0,2:0:0:0:
328,333,199621,1,0,2:0:0:0:
370,380,199704,1,10,2:0:0:0:
428,380,199788,1,0,2:0:0:0:
460,338,199871,1,0,2:0:0:0:
454,299,199954,1,0,2:0:0:0:
427,291,200038,2,0,P|416:318|428:354,3,50,10|0|0|0,2:0|2:0|2:0|2:0,2:0:0:0:
305,262,200371,2,0,P|306:237|295:215,3,50,8|0|0|0,2:0|2:0|2:0|2:0,2:0:0:0:
404,146,200704,6,0,L|388:214,3,50,10|0|0|0,2:0|2:0|2:0|2:0,2:0:0:0:
222,255,201038,2,0,L|234:304,3,50,10|0|0|0,2:0|2:0|2:0|2:0,2:0:0:0:
406,354,201371,5,14,2:0:0:0:
379,311,201454,1,0,2:0:0:0:
338,283,201538,1,0,2:0:0:0:
290,274,201621,1,0,2:0:0:0:
241,285,201704,1,8,2:0:0:0:
202,315,201788,1,0,2:0:0:0:
160,341,201871,1,0,2:0:0:0:
110,345,201954,1,0,2:0:0:0:
65,326,202038,1,8,2:0:0:0:
33,289,202121,1,0,2:0:0:0:
21,240,202204,1,0,2:0:0:0:
34,192,202288,1,0,2:0:0:0:
67,155,202371,2,0,L|56:90,3,50,10|0|0|0,2:0|2:0|2:0|2:0,2:0:0:0:
185,202,202704,5,10,2:0:0:0:
229,223,202788,1,0,2:0:0:0:
278,221,202871,1,0,2:0:0:0:
321,197,202954,1,0,2:0:0:0:
347,155,203038,1,8,2:0:0:0:
375,115,203121,1,0,2:0:0:0:
422,99,203204,1,0,2:0:0:0:
469,114,203288,1,0,2:0:0:0:
499,153,203371,1,8,2:0:0:0:
500,202,203454,1,0,2:0:0:0:
473,243,203538,1,0,2:0:0:0:
427,260,203621,1,0,2:0:0:0:
380,247,203704,2,0,L|365:296,3,50,10|0|0|0,2:0|2:0|2:0|2:0,2:0:0:0:
355,131,204038,5,10,2:0:0:0:
303,102,204121,1,0,2:0:0:0:
244,106,204204,1,0,2:0:0:0:
197,142,204288,1,0,2:0:0:0:
178,198,204371,1,8,2:0:0:0:
164,255,204454,1,0,2:0:0:0:
118,292,204538,1,2,2:0:0:0:
59,292,204621,1,0,2:0:0:0:
13,256,204704,6,0,L|21:178,3,50,10|0|0|0,2:0|2:0|2:0|2:0,2:0:0:0:
118,135,205038,2,0,L|107:204,3,50,10|0|0|0,2:0|2:0|2:0|2:0,2:0:0:0:
141,278,205371,5,10,2:0:0:0:
195,285,205454,1,0,2:0:0:0:
249,293,205538,1,0,2:0:0:0:
304,301,205621,1,0,2:0:0:0:
358,309,205704,1,8,2:0:0:0:
413,291,205788,1,0,2:0:0:0:
443,240,205871,1,0,2:0:0:0:
429,183,205954,1,0,2:0:0:0:
380,151,206038,6,0,L|318:161,3,50,10|0|0|0,2:0|2:0|2:0|2:0,2:0:0:0:
324,236,206371,2,0,L|384:226,3,50,10|0|0|0,2:0|2:0|2:0|2:0,2:0:0:0:
373,83,206704,5,10,2:0:0:0:
328,61,206788,1,0,2:0:0:0:
278,62,206871,1,0,2:0:0:0:
234,84,206954,1,0,2:0:0:0:
205,124,207038,1,8,2:0:0:0:
178,165,207121,1,0,2:0:0:0:
133,186,207204,1,0,2:0:0:0:
84,181,207288,1,0,2:0:0:0:
45,151,207371,5,10,2:0:0:0:
92,123,207454,1,0,2:0:0:0:
146,116,207538,1,0,2:0:0:0:
198,130,207621,1,0,2:0:0:0:
241,165,207704,1,8,2:0:0:0:
267,213,207788,1,0,2:0:0:0:
272,267,207871,1,0,2:0:0:0:
255,319,207954,1,0,2:0:0:0:
218,360,208038,5,10,3:2:0:0:
179,317,208121,1,8,3:0:0:0:
174,258,208204,1,8,3:0:0:0:
205,208,208288,1,8,3:0:0:0:
261,189,208371,1,8,3:2:0:0:
324,188,208454,1,4,3:0:0:0:
372,145,208538,1,4,3:0:0:0:
379,82,208621,1,0,2:0:0:0:
344,30,208704,6,0,L|280:21,3,50,10|0|0|0,2:0|3:0|3:0|2:0,2:0:0:0:
196,98,209038,2,0,L|264:107,3,50,10|0|0|0,2:0|3:0|3:0|3:0,2:0:0:0:
350,110,209371,5,6,2:0:0:0:
380,148,209454,1,0,2:0:0:0:
384,198,209538,1,0,2:0:0:0:
360,241,209621,1,0,2:0:0:0:
316,264,209704,1,8,2:0:0:0:
267,259,209788,1,0,2:0:0:0:
229,229,209871,1,2,2:0:0:0:
184,207,209954,1,0,2:0:0:0:
135,212,210038,1,0,2:0:0:0:
96,242,210121,1,0,2:0:0:0:
78,288,210204,1,0,2:0:0:0:
87,337,210288,1,0,2:0:0:0:
120,373,210371,5,10,2:0:0:0:
154,337,210454,1,0,2:0:0:0:
167,290,210538,1,0,2:0:0:0:
154,242,210621,1,0,2:0:0:0:
118,207,210704,5,2,2:0:0:0:
160,183,210788,1,0,2:0:0:0:
181,138,210871,1,0,2:0:0:0:
171,90,210954,1,0,2:0:0:0:
134,57,211038,1,8,2:0:0:0:
85,52,211121,1,0,2:0:0:0:
43,78,211204,1,0,2:0:0:0:
24,123,211288,1,0,2:0:0:0:
36,171,211371,1,0,2:0:0:0:
68,193,211454,1,0,2:0:0:0:
107,193,211538,1,0,2:0:0:0:
139,170,211621,1,0,2:0:0:0:
152,132,211704,2,0,L|140:80,3,50,10|0|0|0,2:0|2:0|2:0|2:0,2:0:0:0:
228,78,212038,5,2,2:0:0:0:
240,135,212121,1,0,2:0:0:0:
252,194,212204,1,0,2:0:0:0:
264,253,212288,1,0,2:0:0:0:
276,312,212371,1,8,2:0:0:0:
302,333,212454,1,0,2:0:0:0:
337,336,212538,1,2,2:0:0:0:
367,320,212621,1,0,2:0:0:0:
383,290,212704,6,0,L|369:231,3,50,2|0|0|0,2:0|2:0|2:0|2:0,2:0:0:0:
288,187,213038,2,0,L|272:246,3,50,10|0|0|0,2:0|2:0|2:0|2:0,2:0:0:0:
425,82,213371,5,2,2:0:0:0:
406,58,213454,1,0,2:0:0:0:
379,47,213538,1,0,2:0:0:0:
349,49,213621,1,0,2:0:0:0:
325,66,213704,1,8,2:0:0:0:
306,89,213788,1,0,2:0:0:0:
279,100,213871,1,0,2:0:0:0:
249,98,213954,1,0,2:0:0:0:
225,81,214038,6,0,L|235:27,3,50,2|0|0|0,2:0|2:0|2:0|2:0,2:0:0:0:
128,168,214371,2,0,L|118:118,3,50,10|0|0|0,2:0|2:0|2:0|2:0,2:0:0:0:
220,289,214704,5,6,2:0:0:0:
196,332,214788,1,0,2:0:0:0:
154,358,214871,1,0,2:0:0:0:
105,359,214954,1,0,2:0:0:0:
61,335,215038,1,8,2:0:0:0:
36,292,215121,1,0,2:0:0:0:
36,243,215204,1,0,2:0:0:0:
60,200,215288,1,0,2:0:0:0:
103,175,215371,5,2,2:0:0:0:
161,178,215454,1,0,2:0:0:0:
208,215,215538,1,0,2:0:0:0:
226,271,215621,1,0,2:0:0:0:
208,327,215704,1,8,2:0:0:0:
162,364,215788,1,0,2:0:0:0:
103,367,215871,1,0,2:0:0:0:
52,337,215954,1,0,2:0:0:0:
28,283,216038,5,2,2:0:0:0:
66,237,216121,1,0,2:0:0:0:
122,219,216204,1,0,2:0:0:0:
179,234,216288,1,0,2:0:0:0:
219,278,216371,1,8,2:0:0:0:
258,321,216454,1,0,2:0:0:0:
316,333,216538,1,0,2:0:0:0:
369,308,216621,1,0,2:0:0:0:
397,256,216704,5,2,2:0:0:0:
393,197,216788,1,0,2:0:0:0:
356,150,216871,1,0,2:0:0:0:
299,134,216954,1,0,2:0:0:0:
243,153,217038,1,8,2:0:0:0:
216,204,217121,1,0,2:0:0:0:
235,254,217204,1,0,2:0:0:0:
273,259,217288,1,0,2:0:0:0:
295,242,217371,5,2,2:0:0:0:
245,202,217454,1,0,2:0:0:0:
181,203,217538,1,0,2:0:0:0:
131,241,217621,1,0,2:0:0:0:
68,236,217704,1,10,2:0:0:0:
24,190,217788,1,0,2:0:0:0:
22,127,217871,1,0,2:0:0:0:
63,78,217954,1,0,2:0:0:0:
126,70,218038,5,2,2:0:0:0:
173,113,218121,1,0,2:0:0:0:
236,114,218204,1,0,2:0:0:0:
284,72,218288,1,0,2:0:0:0:
333,32,218371,1,10,2:0:0:0:
390,41,218454,1,0,2:0:0:0:
420,85,218538,1,0,2:0:0:0:
411,123,218621,1,0,2:0:0:0:
386,138,218704,6,0,P|371:164|378:200,1,50,10|8,3:0|3:0,2:0:0:0:
512,275,218871,2,0,P|497:248|463:236,1,50,8|0,3:0|2:0,2:0:0:0:
364,319,219038,1,8,3:0:0:0:
336,327,219121,1,0,2:0:0:0:
307,336,219204,1,4,3:0:0:0:
278,345,219288,1,0,2:0:0:0:
250,354,219371,6,0,L|231:292,3,50,2|0|0|0,2:0|3:0|3:0|2:0,2:0:0:0:
303,147,219704,2,0,L|284:208,3,50,2|0|0|0,2:0|2:0|2:0|2:0,2:0:0:0:
166,210,220038,5,6,2:0:0:0:
140,167,220121,1,0,2:0:0:0:
137,118,220204,1,0,2:0:0:0:
159,73,220288,1,0,2:0:0:0:
199,45,220371,1,8,2:0:0:0:
248,39,220454,1,0,2:0:0:0:
294,57,220538,1,0,2:0:0:0:
325,95,220621,1,0,2:0:0:0:
335,144,220704,1,0,2:0:0:0:
316,190,220788,1,0,2:0:0:0:
311,239,220871,1,0,2:0:0:0:
321,288,220954,1,0,2:0:0:0:
346,332,221038,5,10,2:0:0:0:
381,291,221121,1,0,2:0:0:0:
381,238,221204,1,0,2:0:0:0:
344,198,221288,1,0,2:0:0:0:
288,194,221371,5,2,2:0:0:0:
237,213,221454,1,0,2:0:0:0:
183,203,221538,1,0,2:0:0:0:
143,167,221621,1,0,2:0:0:0:
128,115,221704,1,8,2:0:0:0:
140,57,221788,1,0,2:0:0:0:
182,15,221871,1,0,2:0:0:0:
239,2,221954,1,0,2:0:0:0:
295,23,222038,1,0,2:0:0:0:
330,70,222121,1,0,2:0:0:0:
334,129,222204,1,0,2:0:0:0:
306,181,222288,1,0,2:0:0:0:
254,209,222371,2,0,L|188:196,3,50,10|0|0|0,2:0|2:0|2:0|2:0,2:0:0:0:
430,382,222704,5,2,2:0:0:0:
475,344,222788,1,0,2:0:0:0:
491,287,222871,1,0,2:0:0:0:
471,231,222954,1,0,2:0:0:0:
424,197,223038,1,8,2:0:0:0:
364,195,223121,1,0,2:0:0:0:
315,228,223204,1,2,2:0:0:0:
294,283,223288,1,0,2:0:0:0:
307,341,223371,6,0,L|365:358,3,50,2|0|0|0,2:0|2:0|2:0|2:0,2:0:0:0:
462,237,223704,2,0,L|414:222,3,50,10|0|0|0,2:0|2:0|2:0|2:0,2:0:0:0:
364,65,224038,5,2,2:0:0:0:
326,104,224121,1,0,2:0:0:0:
274,119,224204,1,0,2:0:0:0:
221,106,224288,1,0,2:0:0:0:
182,68,224371,1,8,2:0:0:0:
144,29,224454,1,0,2:0:0:0:
92,14,224538,1,0,2:0:0:0:
39,27,224621,1,0,2:0:0:0:
0,65,224704,6,0,L|9:116,3,50,2|0|0|0,2:0|2:0|2:0|2:0,2:0:0:0:
116,227,225038,2,0,L|125:176,3,50,10|0|0|0,2:0|2:0|2:0|2:0,2:0:0:0:
121,17,225371,5,14,2:0:0:0:
73,4,225454,1,0,2:0:0:0:
27,22,225538,1,0,2:0:0:0:
0,63,225621,1,0,2:0:0:0:
2,112,225704,1,8,2:0:0:0:
33,151,225788,1,0,2:0:0:0:
80,164,225871,1,0,2:0:0:0:
126,147,225954,1,0,2:0:0:0:
154,107,226038,5,10,2:0:0:0:
189,66,226121,1,0,2:0:0:0:
242,53,226204,1,0,2:0:0:0:
292,72,226288,1,0,2:0:0:0:
322,117,226371,1,8,2:0:0:0:
321,171,226454,1,0,2:0:0:0:
289,215,226538,1,0,2:0:0:0:
238,232,226621,1,0,2:0:0:0:
186,217,226704,5,10,2:0:0:0:
206,273,226788,1,0,2:0:0:0:
191,330,226871,1,0,2:0:0:0:
146,368,226954,1,0,2:0:0:0:
87,375,227038,1,8,2:0:0:0:
35,347,227121,1,0,2:0:0:0:
9,294,227204,1,0,2:0:0:0:
16,235,227288,1,0,2:0:0:0:
56,192,227371,5,10,2:0:0:0:
107,175,227454,1,0,2:0:0:0:
158,192,227538,1,0,2:0:0:0:
189,236,227621,1,0,2:0:0:0:
187,290,227704,1,8,2:0:0:0:
154,326,227788,1,0,2:0:0:0:
106,339,227871,1,0,2:0:0:0:
60,322,227954,1,0,2:0:0:0:
31,282,228038,5,10,3:2:0:0:
80,214,228121,1,0,3:0:0:0:
160,194,228204,1,0,3:0:0:0:
235,231,228288,1,0,2:0:0:0:
268,308,228371,1,8,3:2:0:0:
333,358,228454,1,0,3:0:0:0:
415,348,228538,1,0,3:0:0:0:
465,282,228621,1,0,2:0:0:0:
454,200,228704,5,8,3:2:0:0:
396,148,228788,1,8,3:0:0:0:
318,154,228871,1,8,3:0:0:0:
274,212,228954,1,0,2:0:0:0:
290,283,229038,1,8,3:2:0:0:
351,312,229121,1,4,3:0:0:0:
408,276,229204,1,4,3:0:0:0:
383,225,229288,1,4,3:0:0:0:
344,222,229371,5,12,3:2:0:0:
