osu file format v14

[General]
AudioFilename: audio.mp3
AudioLeadIn: 0
PreviewTime: 208620
Countdown: 0
SampleSet: Soft
StackLeniency: 0.5
Mode: 0
LetterboxInBreaks: 0
WidescreenStoryboard: 1

[Editor]
DistanceSpacing: 1
BeatDivisor: 4
GridSize: 16
TimelineZoom: 1.299999

[Metadata]
Title:Lionheart
TitleUnicode:Lionheart
Artist:Serenity
ArtistUnicode:Serenity
Creator:AdeAAa
Version:Expert
Source:
Tags:Napalm Records symphonic power metal english male vocalist Georg Neuhauser Chris Hermsdörfer Fabio D'Amore Andreas Schipflinger 2017 streams sh4rq_ nebuwua
BeatmapID:2983479
BeatmapSetID:1390922

[Difficulty]
HPDrainRate:5.6
CircleSize:4
OverallDifficulty:9
ApproachRate:9.3
SliderMultiplier:1.7
SliderTickRate:1

[Events]
//Background and Video events
0,0,"background.jpg",0,0
//Break Periods
2,22702,32035
//Storyboard Layer 0 (Background)
//Storyboard Layer 1 (Fail)
//Storyboard Layer 2 (Pass)
//Storyboard Layer 3 (Foreground)
//Storyboard Layer 4 (Overlay)
//Storyboard Sound Samples

[TimingPoints]
38,333.333333333334,4,2,1,60,1,0
704,-125,4,2,1,60,0,0
954,-125,4,2,1,5,0,0
1038,-111.111111111111,4,2,1,60,0,0
1288,-111.111111111111,4,2,1,5,0,0
1371,-111.111111111111,4,2,1,70,0,0
2371,-100,4,2,1,70,0,0
33371,-125,4,2,1,60,0,0
44038,-100,4,2,1,60,0,0
44288,-100,4,2,1,5,0,0
44371,-100,4,2,1,60,0,0
45621,-100,4,2,1,5,0,0
45704,-100,4,2,1,60,0,0
46954,-100,4,2,1,5,0,0
47038,-100,4,2,1,60,0,0
49621,-100,4,2,1,5,0,0
49704,-100,4,2,1,60,0,0
50954,-100,4,2,1,5,0,0
51038,-100,4,2,1,60,0,0
54038,-166.666666666667,4,2,1,60,0,0
54704,-166.666666666667,4,2,1,70,0,1
55704,-100,4,2,1,70,0,1
74704,-100,4,2,1,70,0,0
75704,-250,4,2,1,45,0,0
76038,-250,4,2,1,60,0,0
76204,-125,4,2,1,60,0,0
97371,-100,4,2,1,60,0,0
97621,-100,4,2,1,5,0,0
97704,-100,4,2,1,60,0,0
98954,-100,4,2,1,5,0,0
99038,-100,4,2,1,60,0,0
100288,-100,4,2,1,5,0,0
100371,-100,4,2,1,60,0,0
102954,-100,4,2,1,5,0,0
103038,-100,4,2,1,60,0,0
104288,-100,4,2,1,5,0,0
104371,-100,4,2,1,60,0,0
108038,-100,4,2,1,70,0,1
126704,-100,4,2,1,60,0,1
126871,-100,4,2,1,60,0,0
127371,-125,4,2,1,60,0,0
127621,-125,4,2,1,5,0,0
127704,-125,4,2,1,60,0,0
128621,-125,4,2,1,5,0,0
128704,-125,4,2,1,60,0,0
129288,-125,4,2,1,5,0,0
129371,-125,4,2,1,60,0,0
130288,-125,4,2,1,5,0,0
130371,-125,4,2,1,60,0,0
131954,-125,4,2,1,5,0,0
132038,-125,4,2,1,60,0,0
132954,-125,4,2,1,5,0,0
133038,-125,4,2,1,60,0,0
133954,-125,4,2,1,5,0,0
134038,-125,4,2,1,60,0,0
134621,-125,4,2,1,5,0,0
134704,-125,4,2,1,60,0,0
135621,-125,4,2,1,5,0,0
135704,-125,4,2,1,60,0,0
139288,-125,4,2,1,5,0,0
139371,-125,4,2,1,60,0,0
139954,-125,4,2,1,5,0,0
140038,-125,4,2,1,60,0,0
142621,-125,4,2,1,5,0,0
142704,-125,4,2,1,60,0,0
144621,-125,4,2,1,5,0,0
144704,-125,4,2,1,60,0,0
145288,-125,4,2,1,5,0,0
145371,-125,4,2,1,60,0,0
147371,-100,4,2,1,60,0,0
148038,-125,4,2,1,60,0,0
148704,-111.111111111111,4,2,1,60,0,0
149704,-125,4,2,1,60,0,0
151371,-111.111111111111,4,2,1,60,0,0
152371,-125,4,2,1,60,0,0
152704,-111.111111111111,4,2,1,60,0,0
153371,-125,4,2,1,60,0,0
154038,-111.111111111111,4,2,1,60,0,0
155038,-125,4,2,1,60,0,0
155371,-111.111111111111,4,2,1,60,0,0
155704,-125,4,2,1,60,0,0
156704,-111.111111111111,4,2,1,60,0,0
157371,-125,4,2,1,60,0,0
158704,-111.111111111111,4,2,1,60,0,0
158954,-111.111111111111,4,2,1,5,0,0
159038,-111.111111111111,4,2,1,60,0,0
160288,-111.111111111111,4,2,1,5,0,0
160371,-111.111111111111,4,2,1,60,0,0
161288,-111.111111111111,4,2,1,5,0,0
161371,-111.111111111111,4,2,1,60,0,0
161621,-111.111111111111,4,2,1,5,0,0
161704,-111.111111111111,4,2,1,60,0,0
164038,-99.9999999999999,4,2,1,60,0,0
166704,-111.111111111111,4,2,1,60,0,0
166954,-111.111111111111,4,2,1,5,0,0
167038,-111.111111111111,4,2,1,60,0,0
169371,-125,4,2,1,60,0,0
170538,-111.111111111111,4,2,1,60,0,0
180038,-100,4,2,1,60,0,0
180288,-100,4,2,1,5,0,0
180371,-100,4,2,1,60,0,0
181621,-100,4,2,1,5,0,0
181704,-100,4,2,1,60,0,0
182954,-100,4,2,1,5,0,0
183038,-100,4,2,1,60,0,0
185621,-100,4,2,1,5,0,0
185704,-100,4,2,1,60,0,0
186954,-100,4,2,1,5,0,0
187038,-100,4,2,1,60,0,0
195371,-125,4,2,1,60,0,0
196038,-125,4,2,1,70,0,1
198704,-100,4,2,1,70,0,1
229371,-100,4,2,1,70,0,0
230714,333.333333333333,4,2,1,70,1,0

[Colours]
Combo1 : 175,165,143
Combo2 : 92,81,63
Combo3 : 208,171,153
Combo4 : 148,111,88

[HitObjects]
232,72,704,6,0,B|274:79|274:79|286:76|286:76|332:83,1,102,2|0,2:0|2:0,2:0:0:0:
390,151,1038,2,0,P|401:165|371:149,1,114.75,2|0,2:0|2:0,2:0:0:0:
459,240,1371,5,14,2:0:0:0:
425,265,1454,1,0,2:0:0:0:
384,275,1538,1,0,2:0:0:0:
342,268,1621,1,0,2:0:0:0:
306,246,1704,1,8,2:0:0:0:
282,211,1788,1,0,2:0:0:0:
274,170,1871,1,0,2:0:0:0:
272,128,1954,1,0,2:0:0:0:
252,90,2038,1,8,2:0:0:0:
219,65,2121,1,0,2:0:0:0:
178,56,2204,1,0,2:0:0:0:
136,65,2288,1,0,2:0:0:0:
103,91,2371,2,0,L|94:160,3,42.5,10|0|0|0,2:0|2:0|2:0|2:0,2:0:0:0:
22,212,2704,5,10,2:0:0:0:
53,240,2788,1,0,2:0:0:0:
93,252,2871,1,0,2:0:0:0:
135,246,2954,1,0,2:0:0:0:
169,222,3038,1,8,2:0:0:0:
191,186,3121,1,0,2:0:0:0:
194,144,3204,2,0,L|185:99,5,42.5,0|0|8|0|0|0,2:0|2:0|2:0|2:0|2:0|2:0,2:0:0:0:
281,36,3704,2,0,L|290:81,3,42.5,10|0|0|0,2:0|2:0|2:0|2:0,2:0:0:0:
313,166,4038,5,10,2:0:0:0:
338,143,4121,1,0,2:0:0:0:
370,134,4204,1,0,2:0:0:0:
404,139,4288,1,0,2:0:0:0:
431,159,4371,1,8,2:0:0:0:
448,188,4454,1,0,2:0:0:0:
451,221,4538,1,2,2:0:0:0:
439,253,4621,1,0,2:0:0:0:
415,276,4704,2,0,L|423:329,3,42.5,10|0|0|0,2:0|2:0|2:0|2:0,2:0:0:0:
332,357,5038,2,0,L|324:304,3,42.5,10|0|0|0,2:0|2:0|2:0|2:0,2:0:0:0:
263,246,5371,5,10,2:0:0:0:
241,232,5454,1,0,2:0:0:0:
216,229,5538,1,0,2:0:0:0:
192,236,5621,1,0,2:0:0:0:
172,252,5704,1,8,2:0:0:0:
152,268,5788,1,0,2:0:0:0:
128,275,5871,1,0,2:0:0:0:
103,271,5954,1,0,2:0:0:0:
81,258,6038,6,0,P|73:236|87:202,3,42.5,10|0|0|0,2:0|2:0|2:0|2:0,2:0:0:0:
18,157,6371,2,0,P|33:139|69:134,3,42.5,10|0|0|0,2:0|2:0|2:0|2:0,2:0:0:0:
81,42,6704,5,14,2:0:0:0:
112,29,6788,1,0,2:0:0:0:
146,32,6871,1,0,2:0:0:0:
175,48,6954,1,0,2:0:0:0:
195,75,7038,1,8,2:0:0:0:
215,102,7121,1,0,2:0:0:0:
244,118,7204,1,0,2:0:0:0:
278,120,7288,1,0,2:0:0:0:
309,108,7371,5,10,2:0:0:0:
273,84,7454,1,0,2:0:0:0:
232,84,7538,1,0,2:0:0:0:
196,106,7621,1,0,2:0:0:0:
178,144,7704,1,8,2:0:0:0:
184,186,7788,1,0,2:0:0:0:
211,218,7871,1,0,2:0:0:0:
251,230,7954,1,0,2:0:0:0:
291,218,8038,5,10,2:0:0:0:
329,185,8121,1,0,2:0:0:0:
379,180,8204,1,0,2:0:0:0:
423,204,8288,1,0,2:0:0:0:
446,249,8371,1,8,2:0:0:0:
438,298,8454,1,0,2:0:0:0:
404,335,8538,1,0,2:0:0:0:
355,346,8621,1,0,2:0:0:0:
309,326,8704,2,0,L|263:341,7,42.5,10|0|0|0|8|0|0|0,2:0|2:0|2:0|2:0|2:0|2:0|2:0|2:0,2:0:0:0:
61,304,9371,5,10,2:0:0:0:
82,323,9454,1,0,2:0:0:0:
110,335,9538,1,0,2:0:0:0:
139,338,9621,1,0,2:0:0:0:
168,330,9704,1,8,2:0:0:0:
193,314,9788,1,0,2:0:0:0:
211,291,9871,1,0,2:0:0:0:
221,263,9954,1,0,2:0:0:0:
221,233,10038,6,0,P|219:217|213:192,3,42.5,10|0|0|0,2:0|2:0|2:0|2:0,2:0:0:0:
314,133,10371,2,0,P|311:147|306:177,3,42.5,10|0|0|0,2:0|2:0|2:0|2:0,2:0:0:0:
301,251,10704,1,10,2:0:0:0:
338,257,10788,1,0,2:0:0:0:
376,263,10871,1,0,2:0:0:0:
414,270,10954,1,0,2:0:0:0:
451,276,11038,2,0,L|445:229,3,42.5,10|0|0|0,2:0|2:0|2:0|2:0,2:0:0:0:
479,128,11371,6,0,P|454:115|428:118,3,42.5,10|0|0|0,2:0|2:0|2:0|2:0,2:0:0:0:
397,41,11704,2,0,P|373:56|362:80,3,42.5,10|0|0|0,2:0|2:0|2:0|2:0,2:0:0:0:
321,163,12038,5,14,2:0:0:0:
285,185,12121,1,0,2:0:0:0:
243,189,12204,1,0,2:0:0:0:
204,173,12288,1,0,2:0:0:0:
176,141,12371,1,8,2:0:0:0:
136,129,12454,1,0,2:0:0:0:
95,139,12538,1,0,2:0:0:0:
65,168,12621,1,0,2:0:0:0:
54,208,12704,2,0,L|60:263,3,42.5,8|0|0|0,2:0|2:0|2:0|2:0,2:0:0:0:
148,307,13038,1,10,2:0:0:0:
148,307,13121,1,0,2:0:0:0:
148,307,13204,2,0,L|142:252,1,42.5,0|0,2:0|2:0,2:0:0:0:
185,159,13371,5,10,2:0:0:0:
224,128,13454,1,0,2:0:0:0:
275,127,13538,1,0,2:0:0:0:
316,155,13621,1,0,2:0:0:0:
333,203,13704,1,8,2:0:0:0:
349,250,13788,1,0,2:0:0:0:
391,278,13871,1,0,2:0:0:0:
441,276,13954,1,0,2:0:0:0:
480,245,14038,1,8,2:0:0:0:
493,196,14121,1,0,2:0:0:0:
475,150,14204,1,0,2:0:0:0:
432,123,14288,1,0,2:0:0:0:
382,126,14371,2,0,L|392:75,3,42.5,10|0|0|0,2:0|2:0|2:0|2:0,2:0:0:0:
333,203,14704,5,10,2:0:0:0:
288,234,14788,1,0,2:0:0:0:
234,237,14871,1,0,2:0:0:0:
188,208,14954,1,0,2:0:0:0:
165,159,15038,1,8,2:0:0:0:
173,105,15121,1,0,2:0:0:0:
209,65,15204,1,2,2:0:0:0:
262,52,15288,1,0,2:0:0:0:
313,70,15371,6,0,L|365:57,3,42.5,10|0|0|0,2:0|2:0|2:0|2:0,2:0:0:0:
385,170,15704,2,0,L|333:183,3,42.5,10|0|0|0,2:0|2:0|2:0|2:0,2:0:0:0:
246,226,16038,5,10,2:0:0:0:
221,259,16121,1,0,2:0:0:0:
216,301,16204,1,0,2:0:0:0:
233,340,16288,1,0,2:0:0:0:
266,365,16371,1,8,2:0:0:0:
308,370,16454,1,0,2:0:0:0:
347,354,16538,1,0,2:0:0:0:
372,320,16621,1,0,2:0:0:0:
378,279,16704,6,0,L|440:264,3,42.5,10|0|0|0,2:0|2:0|2:0|2:0,2:0:0:0:
397,193,17038,2,0,L|335:208,3,42.5,10|0|0|0,2:0|2:0|2:0|2:0,2:0:0:0:
214,140,17371,5,10,2:0:0:0:
190,105,17454,1,0,2:0:0:0:
187,63,17538,1,0,2:0:0:0:
207,26,17621,1,0,2:0:0:0:
243,4,17704,1,8,2:0:0:0:
284,5,17788,1,0,2:0:0:0:
320,26,17871,1,0,2:0:0:0:
339,64,17954,1,0,2:0:0:0:
336,106,18038,5,10,2:0:0:0:
297,131,18121,1,0,2:0:0:0:
251,138,18204,1,0,2:0:0:0:
206,127,18288,1,0,2:0:0:0:
169,99,18371,1,8,2:0:0:0:
131,72,18454,1,0,2:0:0:0:
86,65,18538,1,0,2:0:0:0:
41,79,18621,1,0,2:0:0:0:
8,111,18704,5,10,2:0:0:0:
38,127,18788,1,0,2:0:0:0:
62,152,18871,1,0,2:0:0:0:
78,181,18954,1,0,2:0:0:0:
85,215,19038,1,8,2:0:0:0:
83,248,19121,1,0,2:0:0:0:
71,280,19204,1,0,2:0:0:0:
51,308,19288,1,0,2:0:0:0:
25,329,19371,5,10,2:0:0:0:
40,304,19454,1,0,2:0:0:0:
62,283,19538,1,0,2:0:0:0:
87,268,19621,1,0,2:0:0:0:
116,260,19704,1,8,2:0:0:0:
146,259,19788,1,0,2:0:0:0:
175,266,19871,1,0,2:0:0:0:
201,279,19954,1,0,2:0:0:0:
224,298,20038,6,0,L|235:350,3,42.5,10|0|0|0,2:0|2:0|2:0|2:0,2:0:0:0:
328,323,20371,2,0,L|317:271,3,42.5,8|0|0|0,2:0|2:0|2:0|2:0,2:0:0:0:
283,178,20704,2,0,L|292:136,3,42.5,8|0|0|0,2:0|2:0|2:0|2:0,2:0:0:0:
387,153,21038,2,0,L|379:194,3,42.5,8|0|0|0,2:0|2:0|2:0|2:0,2:0:0:0:
302,274,21371,5,10,3:0:0:0:
262,286,21454,1,8,3:0:0:0:
222,274,21538,1,8,3:0:0:0:
195,242,21621,1,8,3:0:0:0:
188,201,21704,1,12,3:0:0:0:
177,223,21788,1,4,3:0:0:0:
159,241,21871,1,4,3:0:0:0:
136,251,21954,1,4,3:0:0:0:
111,253,22038,1,8,2:0:0:0:
234,115,33371,6,0,L|85:145,1,136,2|0,3:0|3:0,2:0:0:0:
54,155,33788,1,0,3:0:0:0:
54,155,33871,2,0,L|63:192,1,34,2|0,3:0|3:0,2:0:0:0:
24,294,34038,2,0,P|48:304|91:285,1,68,8|0,2:0|3:0,2:0:0:0:
204,221,34371,2,0,P|173:207|141:217,1,68,2|0,2:0|3:0,2:0:0:0:
217,352,34704,6,0,L|350:325,1,136,2|0,2:0|2:0,2:0:0:0:
455,377,35204,1,2,3:0:0:0:
507,323,35371,2,0,P|518:290|491:247,1,68,8|0,2:0|3:0,2:0:0:0:
351,224,35704,2,0,P|374:250|424:248,1,68,2|0,2:0|2:0,2:0:0:0:
511,127,36038,6,0,P|481:103|377:127,1,136,2|0,3:0|3:0,2:0:0:0:
351,148,36454,1,0,3:0:0:0:
351,148,36538,2,0,L|307:139,1,34,2|0,3:0|3:0,2:0:0:0:
221,78,36704,2,0,L|234:-10,1,68,8|0,2:0|2:0,2:0:0:0:
132,173,37038,1,2,3:0:0:0:
53,136,37204,2,0,L|40:48,1,68,0|2,2:0|2:0,2:0:0:0:
59,224,37538,1,0,3:0:0:0:
224,163,37704,2,0,L|237:251,1,68,0|0,2:0|3:0,2:0:0:0:
167,341,38038,5,8,2:0:0:0:
323,269,38204,1,0,3:0:0:0:
111,253,38371,5,10,2:0:0:0:
298,339,38538,1,0,3:0:0:0:
213,121,38704,6,0,B|171:145|171:145|207:228,1,136,6|0,3:2|3:0,2:0:0:0:
234,273,39121,1,0,3:0:0:0:
234,273,39204,2,0,L|183:259,1,34,2|0,3:0|3:0,2:0:0:0:
347,185,39371,2,0,B|364:218|364:218|351:253,1,68,8|0,2:0|3:0,2:0:0:0:
304,374,39704,2,0,B|287:341|287:341|300:306,1,68,2|0,2:0|3:0,2:0:0:0:
429,262,40038,5,2,2:0:0:0:
341,172,40204,2,0,L|349:89,1,68,0|0,3:0|2:0,2:0:0:0:
428,280,40538,1,2,3:0:0:0:
493,158,40704,2,0,P|466:144|417:162,1,68,8|0,2:0|2:0,2:0:0:0:
289,253,41038,2,0,P|321:260|351:245,1,68,2|0,2:0|2:0,2:0:0:0:
195,145,41371,5,2,3:0:0:0:
156,289,41538,1,0,2:0:0:0:
283,161,41704,1,2,3:0:0:0:
278,141,41788,1,0,3:0:0:0:
274,121,41871,1,0,3:0:0:0:
270,101,41954,1,0,3:0:0:0:
265,81,42038,6,0,L|350:64,1,68,8|0,2:0|3:0,2:0:0:0:
273,240,42371,1,0,2:0:0:0:
182,120,42538,2,0,L|97:103,1,68,0|0,3:0|2:0,2:0:0:0:
197,276,42871,1,0,3:0:0:0:
197,276,43038,5,0,2:0:0:0:
351,216,43204,1,0,3:0:0:0:
351,216,43288,1,0,3:0:0:0:
351,216,43371,2,0,L|337:265,1,34,8|8,2:0|2:0,2:0:0:0:
181,132,43538,2,0,L|195:181,1,34,8|0,2:0|2:0,2:0:0:0:
278,314,43704,1,8,2:0:0:0:
359,120,43871,1,8,2:0:0:0:
274,325,44038,6,0,B|351:306|321:360|412:339,1,127.5,6|0,3:2|2:0,2:0:0:0:
458,324,44371,1,8,2:0:0:0:
330,210,44538,2,0,P|275:193|226:181,1,85,2|0,3:0|2:0,2:0:0:0:
118,223,44871,1,0,3:0:0:0:
273,107,45038,2,0,P|290:77|275:25,1,85,10|0,2:0|2:0,2:0:0:0:
486,186,45371,6,0,P|444:152|358:191,1,127.5,2|0,3:0|2:0,2:0:0:0:
330,210,45704,1,8,2:0:0:0:
302,378,45871,2,0,P|344:364|414:343,1,85,2|0,3:0|2:0,2:0:0:0:
512,376,46204,1,0,3:0:0:0:
330,210,46371,2,0,B|315:251|315:251|339:290,1,85,10|0,2:0|2:0,2:0:0:0:
222,363,46704,6,0,B|173:353|173:353|146:366|146:366|96:358,1,127.5,2|0,3:0|2:0,2:0:0:0:
36,347,47038,1,8,2:0:0:0:
181,255,47204,2,0,L|281:274,1,85,0|0,3:0|2:0,2:0:0:0:
318,326,47538,1,0,3:0:0:0:
109,287,47704,2,0,P|98:247|119:206,1,85,10|0,2:0|2:0,2:0:0:0:
160,110,48038,6,0,L|60:91,1,85,2|0,3:0|2:0,2:0:0:0:
294,168,48371,2,0,L|394:149,1,85,10|0,2:0|2:0,2:0:0:0:
180,263,48704,1,2,3:0:0:0:
271,80,48871,1,0,3:0:0:0:
341,259,49038,2,0,P|301:269|262:229,1,85,10|0,2:0|2:0,2:0:0:0:
120,147,49371,6,0,B|151:105|200:127|200:127|217:158|262:162,1,127.5,6|0,3:2|2:0,2:0:0:0:
286,173,49704,1,8,2:0:0:0:
122,254,49871,2,0,P|83:242|32:229,1,85,2|0,3:0|2:0,2:0:0:0:
66,74,50204,1,0,3:0:0:0:
189,226,50371,2,0,P|199:267|173:309,1,85,10|0,2:0|2:0,2:0:0:0:
413,195,50704,6,0,P|383:175|287:228,1,127.5,2|0,3:0|2:0,2:0:0:0:
272,255,51038,1,8,2:0:0:0:
413,363,51204,2,0,B|435:278,1,85,2|0,3:0|2:0,2:0:0:0:
512,169,51538,1,0,3:0:0:0:
331,84,51704,2,0,L|356:175,1,85,10|0,2:0|2:0,2:0:0:0:
224,186,52038,5,2,3:0:0:0:
224,186,52204,1,0,2:0:0:0:
374,261,52371,1,8,2:0:0:0:
236,107,52538,5,0,3:0:0:0:
236,107,52704,1,0,2:0:0:0:
138,287,52871,1,0,3:0:0:0:
322,132,53038,2,0,L|302:36,1,85,8|0,2:0|2:0,2:0:0:0:
220,230,53371,5,0,3:0:0:0:
427,111,53538,1,8,2:0:0:0:
189,75,53704,5,0,3:0:0:0:
412,205,53871,1,0,3:0:0:0:
148,258,54038,2,0,P|136:236|145:197,1,50.9999999999999,10|0,2:0|2:0,2:0:0:0:
281,138,54371,5,10,2:0:0:0:
186,346,54538,1,8,2:0:0:0:
358,105,54704,5,14,2:0:0:0:
332,71,54788,1,0,2:0:0:0:
293,55,54871,1,0,2:0:0:0:
252,59,54954,1,0,2:0:0:0:
218,84,55038,1,8,2:0:0:0:
200,122,55121,1,0,2:0:0:0:
204,164,55204,1,2,2:0:0:0:
223,202,55288,1,0,2:0:0:0:
214,242,55371,1,8,2:0:0:0:
183,269,55454,1,0,2:0:0:0:
141,271,55538,1,0,2:0:0:0:
107,246,55621,1,0,2:0:0:0:
96,205,55704,2,0,L|108:141,3,42.5,10|0|0|0,2:0|2:0|2:0|2:0,2:0:0:0:
221,248,56038,5,10,2:0:0:0:
254,273,56121,1,0,2:0:0:0:
296,275,56204,1,0,2:0:0:0:
333,255,56288,1,0,2:0:0:0:
352,217,56371,1,8,2:0:0:0:
368,178,56454,1,0,2:0:0:0:
403,155,56538,1,0,2:0:0:0:
445,156,56621,1,0,2:0:0:0:
479,180,56704,1,8,2:0:0:0:
494,220,56788,1,0,2:0:0:0:
485,260,56871,1,0,2:0:0:0:
454,289,56954,1,0,2:0:0:0:
413,295,57038,2,0,L|423:345,3,42.5,10|0|0|0,2:0|2:0|2:0|2:0,2:0:0:0:
330,238,57371,5,10,2:0:0:0:
306,213,57454,1,0,2:0:0:0:
274,202,57538,1,0,2:0:0:0:
241,205,57621,1,0,2:0:0:0:
212,223,57704,1,8,2:0:0:0:
194,251,57788,1,0,2:0:0:0:
190,285,57871,1,2,2:0:0:0:
201,316,57954,1,0,2:0:0:0:
225,340,58038,6,0,P|245:343|269:328,3,42.5,10|0|0|0,2:0|2:0|2:0|2:0,2:0:0:0:
344,358,58371,2,0,P|355:341|354:313,3,42.5,10|0|0|0,2:0|2:0|2:0|2:0,2:0:0:0:
330,238,58704,5,10,2:0:0:0:
308,223,58788,1,0,2:0:0:0:
295,202,58871,1,0,2:0:0:0:
290,177,58954,1,0,2:0:0:0:
296,153,59038,1,8,2:0:0:0:
311,132,59121,1,0,2:0:0:0:
333,120,59204,1,0,2:0:0:0:
358,116,59288,1,0,2:0:0:0:
382,124,59371,6,0,P|397:143|395:176,3,42.5,10|0|0|0,2:0|2:0|2:0|2:0,2:0:0:0:
468,199,59704,2,0,P|459:221|429:236,3,42.5,10|0|0|0,2:0|2:0|2:0|2:0,2:0:0:0:
398,317,60038,5,14,2:0:0:0:
370,297,60121,1,0,2:0:0:0:
338,287,60204,1,0,2:0:0:0:
304,291,60288,1,0,2:0:0:0:
274,306,60371,1,8,2:0:0:0:
246,326,60454,1,0,2:0:0:0:
214,336,60538,1,0,2:0:0:0:
180,332,60621,1,0,2:0:0:0:
150,317,60704,5,10,2:0:0:0:
130,279,60788,1,0,2:0:0:0:
135,238,60871,1,0,2:0:0:0:
162,206,60954,1,0,2:0:0:0:
203,194,61038,1,8,2:0:0:0:
242,207,61121,1,0,2:0:0:0:
268,240,61204,1,0,2:0:0:0:
272,282,61288,1,0,2:0:0:0:
251,318,61371,5,10,2:0:0:0:
213,285,61454,1,0,2:0:0:0:
202,236,61538,1,0,2:0:0:0:
221,190,61621,1,0,2:0:0:0:
264,164,61704,1,8,2:0:0:0:
305,135,61788,1,0,2:0:0:0:
320,87,61871,1,0,2:0:0:0:
302,41,61954,1,0,2:0:0:0:
259,15,62038,5,10,2:0:0:0:
237,60,62121,1,0,2:0:0:0:
243,110,62204,1,0,2:0:0:0:
276,148,62288,1,0,2:0:0:0:
325,161,62371,1,8,2:0:0:0:
372,145,62454,1,0,2:0:0:0:
403,105,62538,1,0,2:0:0:0:
406,54,62621,1,0,2:0:0:0:
380,11,62704,6,0,L|325:20,3,42.5,10|0|0|0,2:0|2:0|2:0|2:0,2:0:0:0:
470,90,63038,2,0,L|525:81,3,42.5,10|0|0|0,2:0|2:0|2:0|2:0,2:0:0:0:
365,152,63371,2,0,L|322:145,3,42.5,10|0|0|0,2:0|2:0|2:0|2:0,2:0:0:0:
434,221,63704,2,0,L|476:214,3,42.5,10|0|0|0,2:0|2:0|2:0|2:0,2:0:0:0:
354,291,64038,5,10,2:0:0:0:
329,288,64121,1,0,2:0:0:0:
304,285,64204,1,0,2:0:0:0:
279,281,64288,1,0,2:0:0:0:
253,278,64371,1,8,2:0:0:0:
228,274,64454,1,0,2:0:0:0:
203,271,64538,1,0,2:0:0:0:
178,267,64621,1,0,2:0:0:0:
152,264,64704,6,0,L|102:275,3,42.5,10|0|0|0,2:0|2:0|2:0|2:0,2:0:0:0:
86,358,65038,2,0,L|135:348,3,42.5,10|0|0|0,2:0|2:0|2:0|2:0,2:0:0:0:
243,384,65371,5,14,2:0:0:0:
274,355,65454,1,0,2:0:0:0:
288,315,65538,1,0,2:0:0:0:
284,273,65621,1,0,2:0:0:0:
262,237,65704,1,8,2:0:0:0:
227,214,65788,1,0,2:0:0:0:
186,205,65871,1,0,2:0:0:0:
155,176,65954,1,0,2:0:0:0:
144,136,66038,1,8,2:0:0:0:
156,96,66121,1,0,2:0:0:0:
186,67,66204,1,0,2:0:0:0:
227,59,66288,1,0,2:0:0:0:
267,73,66371,2,0,L|281:25,3,42.5,10|0|0|0,2:0|2:0|2:0|2:0,2:0:0:0:
315,192,66704,5,10,2:0:0:0:
275,168,66788,1,0,2:0:0:0:
229,168,66871,1,0,2:0:0:0:
189,192,66954,1,0,2:0:0:0:
167,233,67038,1,8,2:0:0:0:
144,273,67121,1,0,2:0:0:0:
103,293,67204,1,0,2:0:0:0:
57,288,67288,1,0,2:0:0:0:
22,258,67371,1,8,2:0:0:0:
60,242,67454,1,0,2:0:0:0:
101,251,67538,1,0,2:0:0:0:
128,283,67621,1,0,2:0:0:0:
132,324,67704,2,0,L|121:373,3,42.5,10|0|0|0,2:0|2:0|2:0|2:0,2:0:0:0:
288,327,68038,5,10,2:0:0:0:
325,293,68121,1,0,2:0:0:0:
339,245,68204,1,0,2:0:0:0:
327,196,68288,1,0,2:0:0:0:
291,160,68371,1,8,2:0:0:0:
242,149,68454,1,0,2:0:0:0:
194,164,68538,1,2,2:0:0:0:
161,202,68621,1,0,2:0:0:0:
153,252,68704,6,0,P|171:273|207:278,3,42.5,10|0|0|0,2:0|2:0|2:0|2:0,2:0:0:0:
211,354,69038,2,0,P|238:348|260:320,3,42.5,10|0|0|0,2:0|2:0|2:0|2:0,2:0:0:0:
351,357,69371,5,10,2:0:0:0:
386,321,69454,1,0,2:0:0:0:
393,271,69538,1,0,2:0:0:0:
371,226,69621,1,0,2:0:0:0:
326,203,69704,1,8,2:0:0:0:
286,173,69788,1,0,2:0:0:0:
276,124,69871,1,0,2:0:0:0:
300,80,69954,1,0,2:0:0:0:
347,64,70038,6,0,L|392:75,3,42.5,10|0|0|0,2:0|2:0|2:0|2:0,2:0:0:0:
462,142,70371,2,0,L|417:152,3,42.5,10|0|0|0,2:0|2:0|2:0|2:0,2:0:0:0:
381,312,70704,5,14,2:0:0:0:
421,323,70788,1,0,2:0:0:0:
461,313,70871,1,0,2:0:0:0:
490,282,70954,1,0,2:0:0:0:
499,241,71038,1,8,2:0:0:0:
486,202,71121,1,0,2:0:0:0:
453,175,71204,1,0,2:0:0:0:
412,169,71288,1,0,2:0:0:0:
373,185,71371,5,10,2:0:0:0:
397,151,71454,1,0,2:0:0:0:
399,109,71538,1,0,2:0:0:0:
377,73,71621,1,0,2:0:0:0:
340,55,71704,1,8,2:0:0:0:
298,60,71788,1,0,2:0:0:0:
267,88,71871,1,0,2:0:0:0:
256,128,71954,1,0,2:0:0:0:
269,168,72038,5,10,2:0:0:0:
295,206,72121,1,0,2:0:0:0:
296,252,72204,1,0,2:0:0:0:
272,291,72288,1,0,2:0:0:0:
230,309,72371,1,8,2:0:0:0:
184,301,72454,1,0,2:0:0:0:
151,270,72538,1,0,2:0:0:0:
141,225,72621,1,0,2:0:0:0:
158,182,72704,5,10,2:0:0:0:
196,149,72788,1,0,2:0:0:0:
246,143,72871,1,0,2:0:0:0:
291,165,72954,1,0,2:0:0:0:
316,209,73038,1,8,2:0:0:0:
341,252,73121,1,0,2:0:0:0:
386,274,73204,1,0,2:0:0:0:
436,268,73288,1,0,2:0:0:0:
474,235,73371,5,10,3:2:0:0:
437,194,73454,1,0,2:0:0:0:
385,179,73538,1,0,3:0:0:0:
333,195,73621,1,0,2:0:0:0:
298,237,73704,2,0,L|289:291,3,42.5,8|0|0|0,3:2|2:0|3:0|2:0,2:0:0:0:
216,368,74038,5,8,3:2:0:0:
159,380,74121,1,4,3:0:0:0:
115,343,74204,1,4,3:0:0:0:
118,285,74288,1,0,2:0:0:0:
165,252,74371,1,8,3:2:0:0:
198,217,74454,1,8,3:0:0:0:
190,177,74538,1,8,3:0:0:0:
160,165,74621,1,8,3:0:0:0:
134,185,74704,5,4,3:0:0:0:
134,185,75704,6,0,L|143:226,1,34,2|0,3:0|2:0,2:0:0:0:
213,288,76038,1,2,3:0:0:0:
272,207,76204,2,0,P|243:189|196:199,1,68,0|2,3:0|2:0,2:0:0:0:
305,335,76538,1,0,3:0:0:0:
374,303,76704,2,0,L|457:318,1,68,10|0,2:0|2:0,2:0:0:0:
386,155,77038,1,2,3:0:0:0:
386,155,77204,1,0,3:0:0:0:
461,172,77371,6,0,P|452:209|444:251,1,68,2|0,2:0|3:0,2:0:0:0:
399,70,77704,2,0,P|435:59|475:45,1,68,0|0,3:0|2:0,2:0:0:0:
344,199,78038,2,0,B|286:189|286:189|266:171|266:171|198:158,1,136,8|0,2:0|3:0,2:0:0:0:
105,112,78538,1,0,3:0:0:0:
105,112,78621,1,0,2:0:0:0:
105,112,78704,6,0,P|92:141|111:183,1,68,2|0,3:0|2:0,2:0:0:0:
227,43,79038,2,0,P|208:17|162:12,1,68,2|0,3:0|2:0,2:0:0:0:
221,187,79371,1,10,2:0:0:0:
289,142,79538,2,0,L|364:155,1,68,0|2,2:0|3:0,2:0:0:0:
236,272,79871,1,0,2:0:0:0:
157,241,80038,6,0,B|78:225|100:284|21:265,1,136,2|0,3:0|2:0,2:0:0:0:
44,188,80538,1,0,3:0:0:0:
135,327,80704,1,8,2:0:0:0:
208,166,80871,1,0,2:0:0:0:
131,339,81038,2,0,P|166:351|199:361,1,68,2|0,3:0|2:0,2:0:0:0:
281,329,81288,1,0,2:0:0:0:
281,329,81371,6,0,P|319:355|397:287,1,136,2|0,3:0|2:0,2:0:0:0:
410,191,81871,1,2,3:0:0:0:
326,164,82038,2,0,B|311:197|311:197|326:229,1,68,8|0,2:0|2:0,2:0:0:0:
492,225,82371,2,0,B|507:192|507:192|492:160,1,68,2|0,3:0|2:0,2:0:0:0:
412,58,82704,5,2,3:0:0:0:
314,78,82871,2,0,L|301:1,1,68,0|0,3:0|2:0,2:0:0:0:
379,159,83204,1,2,3:0:0:0:
477,179,83371,2,0,L|490:102,1,68,8|0,2:0|2:0,2:0:0:0:
324,213,83704,2,0,P|356:237|409:219,1,68,2|0,3:0|3:0,2:0:0:0:
255,120,84038,6,0,P|221:127|188:135,1,68,2|0,3:0|2:0,2:0:0:0:
185,281,84371,2,0,P|218:273|251:265,1,68,2|0,3:0|3:0,2:0:0:0:
75,143,84704,2,0,P|63:179|76:217,1,68,10|0,2:0|2:0,2:0:0:0:
202,54,85038,2,0,P|176:25|137:17,1,68,2|0,3:0|2:0,2:0:0:0:
216,211,85371,5,2,3:0:0:0:
216,211,85538,1,0,3:0:0:0:
174,144,85704,1,0,3:0:0:0:
255,277,85871,1,0,3:0:0:0:
278,112,86038,5,8,2:0:0:0:
169,303,86204,1,0,3:0:0:0:
396,181,86371,5,8,2:0:0:0:
205,67,86538,1,0,2:0:0:0:
341,254,86704,6,0,P|366:273|424:264,1,68,6|0,3:2|3:0,2:0:0:0:
474,254,87038,1,0,3:0:0:0:
314,179,87204,2,0,B|239:163|256:218|180:202,1,136,2|0,3:0|3:0,2:0:0:0:
54,130,87704,2,0,P|64:164|73:200,1,68,10|0,2:0|3:0,2:0:0:0:
16,334,88038,2,0,P|42:315|102:322,1,68,2|0,3:0|3:0,2:0:0:0:
147,341,88371,1,0,3:0:0:0:
282,264,88538,2,0,B|199:232|199:232|179:254|152:269,1,136,2|0,3:0|3:0,2:0:0:0:
89,231,89038,5,10,2:0:0:0:
241,344,89204,1,8,2:0:0:0:
79,225,89371,6,0,B|68:193|68:193|81:157,1,68,2|0,3:0|3:0,2:0:0:0:
112,87,89704,1,0,3:0:0:0:
220,192,89871,2,0,P|206:241|187:335,1,136,2|0,3:0|3:0,2:0:0:0:
302,224,90371,2,0,P|316:192|292:146,1,68,10|0,2:0|3:0,2:0:0:0:
247,108,90704,5,2,3:0:0:0:
247,108,90871,1,0,3:0:0:0:
349,3,91038,2,0,P|335:35|359:81,1,68,0|0,3:0|3:0,2:0:0:0:
404,119,91371,1,0,3:0:0:0:
404,119,91538,1,0,3:0:0:0:
259,29,91704,5,10,2:0:0:0:
327,205,91871,1,0,3:0:0:0:
249,14,92038,6,0,L|105:45,1,136,6|0,3:2|3:0,2:0:0:0:
15,21,92538,2,0,B|7:57|7:57|29:91,1,68,2|0,3:0|3:0,2:0:0:0:
80,158,92871,1,0,3:0:0:0:
223,140,93038,2,0,B|195:115|195:115|155:117,1,68,10|0,2:0|3:0,2:0:0:0:
13,207,93371,6,0,P|35:229|138:209,1,136,6|0,3:2|3:0,2:0:0:0:
287,102,93871,2,0,P|300:137|279:177,1,68,2|0,3:0|3:0,2:0:0:0:
221,234,94204,1,0,3:0:0:0:
112,185,94371,2,0,P|135:156|180:154,1,68,10|0,2:0|3:0,2:0:0:0:
214,138,94621,1,0,3:0:0:0:
214,138,94704,6,0,P|252:152|373:183,1,136,6|0,3:2|3:0,2:0:0:0:
492,203,95204,2,0,P|451:215|420:228,1,68,0|0,3:0|3:0,2:0:0:0:
346,274,95538,1,0,3:0:0:0:
421,133,95704,1,10,2:0:0:0:
476,313,95871,1,2,3:0:0:0:
415,120,96038,6,0,L|431:36,1,68,4|0,3:2|3:0,2:0:0:0:
441,3,96288,1,0,3:0:0:0:
441,3,96371,1,0,3:0:0:0:
337,77,96538,1,0,3:0:0:0:
486,164,96704,5,8,2:0:0:0:
340,3,96871,1,0,3:0:0:0:
347,229,97038,5,8,2:0:0:0:
508,83,97204,1,8,2:0:0:0:
339,238,97371,6,0,P|306:229|202:205,1,127.5,6|0,3:2|2:0,2:0:0:0:
158,238,97704,1,8,2:0:0:0:
337,132,97871,2,0,P|354:100|331:48,1,85,2|0,3:0|2:0,2:0:0:0:
196,95,98204,1,0,3:0:0:0:
340,222,98371,2,0,P|376:208|436:190,1,85,10|0,2:0|2:0,2:0:0:0:
261,292,98704,6,0,B|191:269|203:326|139:306,1,127.5,2|0,3:0|2:0,2:0:0:0:
79,328,99038,1,8,2:0:0:0:
140,147,99204,2,0,P|158:180|130:244,1,85,2|0,3:0|2:0,2:0:0:0:
1,188,99538,1,0,3:0:0:0:
122,62,99704,2,0,P|166:53|220:39,1,85,10|0,2:0|2:0,2:0:0:0:
284,152,100038,6,0,P|316:171|408:113,1,127.5,2|0,3:2|2:0,2:0:0:0:
425,87,100371,1,8,2:0:0:0:
258,71,100538,2,0,P|216:81|175:89,1,85,0|0,3:0|2:0,2:0:0:0:
270,248,100871,1,0,3:0:0:0:
335,96,101038,2,0,B|347:56|347:56|328:15,1,85,10|0,2:0|2:0,2:0:0:0:
265,259,101371,6,0,P|284:282|349:273,1,85,2|0,3:0|2:0,2:0:0:0:
168,105,101704,2,0,P|138:109|113:170,1,85,10|0,2:0|2:0,2:0:0:0:
335,96,102038,1,2,3:0:0:0:
335,96,102204,1,0,3:0:0:0:
211,19,102371,5,10,2:0:0:0:
302,194,102538,1,0,3:0:0:0:
203,6,102704,6,0,L|176:151,1,127.5,6|0,3:2|2:0,2:0:0:0:
166,194,103038,1,8,2:0:0:0:
305,314,103204,2,0,B|325:213,1,85,2|0,3:0|2:0,2:0:0:0:
269,115,103538,1,0,3:0:0:0:
117,264,103704,2,0,P|144:282|200:265,1,85,10|0,2:0|2:0,2:0:0:0:
188,92,104038,6,0,P|135:109|54:132,1,127.5,2|0,3:0|2:0,2:0:0:0:
3,117,104371,1,8,2:0:0:0:
190,195,104538,2,0,P|243:178|301:160,1,85,2|0,3:0|2:0,2:0:0:0:
180,19,104871,1,0,3:0:0:0:
96,218,105038,2,0,P|43:201|-15:183,1,85,10|0,2:0|2:0,2:0:0:0:
202,103,105371,5,2,3:2:0:0:
202,103,105538,1,0,3:0:0:0:
243,261,105704,1,8,2:0:0:0:
326,87,105871,5,0,3:0:0:0:
326,87,106038,1,0,2:0:0:0:
125,140,106204,1,0,3:0:0:0:
317,246,106371,2,0,P|360:231|410:215,1,85,8|0,2:0|3:0,2:0:0:0:
512,144,106704,5,0,3:0:0:0:
326,87,106871,1,8,2:0:0:0:
473,278,107038,5,0,3:0:0:0:
423,43,107204,1,0,3:0:0:0:
276,211,107371,5,10,2:0:0:0:
276,211,107454,1,8,2:0:0:0:
276,211,107538,2,0,L|289:265,1,42.5,8|0,2:0|2:0,2:0:0:0:
193,326,107704,2,0,L|180:272,3,42.5,10|8|8|8,2:0|2:0|2:0|2:0,2:0:0:0:
331,344,108038,5,14,2:0:0:0:
368,362,108121,1,0,2:0:0:0:
410,356,108204,1,0,2:0:0:0:
442,329,108288,1,0,2:0:0:0:
454,289,108371,1,8,2:0:0:0:
443,249,108454,1,0,2:0:0:0:
411,221,108538,1,2,2:0:0:0:
370,216,108621,1,0,2:0:0:0:
342,185,108704,1,8,2:0:0:0:
339,144,108788,1,0,2:0:0:0:
363,110,108871,1,0,2:0:0:0:
404,99,108954,1,0,2:0:0:0:
442,116,109038,2,0,L|496:98,3,42.5,10|0|0|0,2:0|2:0|2:0|2:0,2:0:0:0:
406,227,109371,5,10,2:0:0:0:
373,253,109454,1,0,2:0:0:0:
331,259,109538,1,0,2:0:0:0:
292,244,109621,1,0,2:0:0:0:
266,211,109704,1,8,2:0:0:0:
246,173,109788,1,0,2:0:0:0:
210,152,109871,1,0,2:0:0:0:
168,152,109954,1,0,2:0:0:0:
132,174,110038,1,8,2:0:0:0:
113,211,110121,1,0,2:0:0:0:
115,253,110204,1,0,2:0:0:0:
139,287,110288,1,0,2:0:0:0:
177,305,110371,2,0,L|167:364,3,42.5,10|0|0|0,2:0|2:0|2:0|2:0,2:0:0:0:
273,329,110704,5,10,2:0:0:0:
295,303,110788,1,0,2:0:0:0:
326,291,110871,1,0,2:0:0:0:
360,294,110954,1,0,2:0:0:0:
389,312,111038,1,8,2:0:0:0:
411,338,111121,1,0,2:0:0:0:
442,350,111204,1,2,2:0:0:0:
476,347,111288,1,0,2:0:0:0:
505,329,111371,6,0,L|494:278,3,42.5,10|0|0|0,2:0|2:0|2:0|2:0,2:0:0:0:
420,236,111704,2,0,L|431:185,3,42.5,10|0|0|0,2:0|2:0|2:0|2:0,2:0:0:0:
438,90,112038,5,10,2:0:0:0:
424,59,112121,1,0,2:0:0:0:
399,36,112204,1,0,2:0:0:0:
367,25,112288,1,0,2:0:0:0:
333,27,112371,1,8,2:0:0:0:
304,43,112454,1,0,2:0:0:0:
283,70,112538,1,0,2:0:0:0:
274,102,112621,1,0,2:0:0:0:
279,136,112704,6,0,L|268:186,3,42.5,10|0|0|0,2:0|2:0|2:0|2:0,2:0:0:0:
352,192,113038,2,0,L|363:142,3,42.5,10|0|0|0,2:0|2:0|2:0|2:0,2:0:0:0:
56,149,113371,5,14,2:0:0:0:
95,164,113454,1,0,2:0:0:0:
137,161,113538,1,0,2:0:0:0:
173,140,113621,1,0,2:0:0:0:
197,105,113704,1,8,2:0:0:0:
218,69,113788,1,0,2:0:0:0:
256,51,113871,1,0,2:0:0:0:
297,57,113954,1,0,2:0:0:0:
328,86,114038,5,10,2:0:0:0:
338,131,114121,1,0,2:0:0:0:
372,163,114204,1,0,2:0:0:0:
417,170,114288,1,0,2:0:0:0:
459,150,114371,1,8,2:0:0:0:
482,110,114454,1,0,2:0:0:0:
479,64,114538,1,0,2:0:0:0:
451,28,114621,1,0,2:0:0:0:
407,14,114704,5,10,2:0:0:0:
359,28,114788,1,0,2:0:0:0:
326,66,114871,1,0,2:0:0:0:
321,116,114954,1,0,2:0:0:0:
344,161,115038,1,8,2:0:0:0:
379,195,115121,1,0,2:0:0:0:
385,245,115204,1,0,2:0:0:0:
357,287,115288,1,0,2:0:0:0:
309,301,115371,5,10,2:0:0:0:
264,271,115454,1,0,2:0:0:0:
245,220,115538,1,0,2:0:0:0:
261,168,115621,1,0,2:0:0:0:
304,136,115704,1,8,2:0:0:0:
358,135,115788,1,0,2:0:0:0:
402,167,115871,1,0,2:0:0:0:
419,219,115954,1,0,2:0:0:0:
401,270,116038,6,0,L|414:329,3,42.5,10|0|0|0,2:0|2:0|2:0|2:0,2:0:0:0:
495,293,116371,2,0,L|482:234,3,42.5,10|0|0|0,2:0|2:0|2:0|2:0,2:0:0:0:
341,167,116704,2,0,L|350:126,3,42.5,10|0|0|0,2:0|2:0|2:0|2:0,2:0:0:0:
433,144,117038,2,0,L|425:186,3,42.5,10|0|0|0,2:0|2:0|2:0|2:0,2:0:0:0:
280,50,117371,5,10,2:0:0:0:
305,46,117454,1,0,2:0:0:0:
330,42,117538,1,0,2:0:0:0:
355,38,117621,1,0,2:0:0:0:
380,35,117704,1,8,2:0:0:0:
406,31,117788,1,0,2:0:0:0:
431,27,117871,1,0,2:0:0:0:
456,23,117954,1,0,2:0:0:0:
481,20,118038,6,0,L|494:72,3,42.5,10|0|0|0,2:0|2:0|2:0|2:0,2:0:0:0:
405,149,118371,2,0,L|392:97,3,42.5,10|0|0|0,2:0|2:0|2:0|2:0,2:0:0:0:
474,238,118704,5,14,2:0:0:0:
443,266,118788,1,0,2:0:0:0:
402,275,118871,1,0,2:0:0:0:
362,264,118954,1,0,2:0:0:0:
332,235,119038,1,8,2:0:0:0:
302,206,119121,1,0,2:0:0:0:
262,195,119204,1,0,2:0:0:0:
221,204,119288,1,0,2:0:0:0:
190,232,119371,1,8,2:0:0:0:
177,271,119454,1,0,2:0:0:0:
187,312,119538,1,0,2:0:0:0:
219,339,119621,1,0,2:0:0:0:
260,345,119704,2,0,L|272:292,3,42.5,10|0|0|0,2:0|2:0|2:0|2:0,2:0:0:0:
362,264,120038,5,10,2:0:0:0:
379,217,120121,1,0,2:0:0:0:
364,169,120204,1,0,2:0:0:0:
325,138,120288,1,0,2:0:0:0:
274,137,120371,1,8,2:0:0:0:
233,164,120454,1,0,2:0:0:0:
215,211,120538,1,0,2:0:0:0:
228,260,120621,1,0,2:0:0:0:
253,302,120704,1,8,2:0:0:0:
245,352,120788,1,0,2:0:0:0:
207,384,120871,1,0,2:0:0:0:
157,384,120954,1,0,2:0:0:0:
120,353,121038,2,0,L|129:294,3,42.5,10|0|0|0,2:0|2:0|2:0|2:0,2:0:0:0:
146,201,121371,5,10,2:0:0:0:
173,157,121454,1,0,2:0:0:0:
217,134,121538,1,0,2:0:0:0:
268,138,121621,1,0,2:0:0:0:
308,167,121704,1,8,2:0:0:0:
328,214,121788,1,0,2:0:0:0:
320,264,121871,1,2,2:0:0:0:
287,302,121954,1,0,2:0:0:0:
240,318,122038,6,0,L|252:372,3,42.5,10|0|0|0,2:0|2:0|2:0|2:0,2:0:0:0:
341,384,122371,2,0,L|351:337,3,42.5,10|0|0|0,2:0|2:0|2:0|2:0,2:0:0:0:
462,368,122704,5,10,2:0:0:0:
495,336,122788,1,0,2:0:0:0:
512,293,122871,1,0,2:0:0:0:
508,247,122954,1,0,2:0:0:0:
484,207,123038,1,8,2:0:0:0:
445,182,123121,1,0,2:0:0:0:
399,177,123204,1,0,2:0:0:0:
355,193,123288,1,0,2:0:0:0:
323,226,123371,6,0,L|312:292,3,42.5,10|0|0|0,2:0|2:0|2:0|2:0,2:0:0:0:
396,332,123704,2,0,L|402:290,3,42.5,10|0|0|0,2:0|2:0|2:0|2:0,2:0:0:0:
211,354,124038,5,14,2:0:0:0:
169,349,124121,1,0,2:0:0:0:
134,324,124204,1,0,2:0:0:0:
116,286,124288,1,0,2:0:0:0:
118,244,124371,1,8,2:0:0:0:
139,208,124454,1,0,2:0:0:0:
176,187,124538,1,0,2:0:0:0:
218,186,124621,1,0,2:0:0:0:
255,205,124704,5,10,2:0:0:0:
214,234,124788,1,0,2:0:0:0:
164,237,124871,1,0,2:0:0:0:
120,212,124954,1,0,2:0:0:0:
97,167,125038,1,8,2:0:0:0:
101,117,125121,1,0,2:0:0:0:
132,78,125204,1,0,2:0:0:0:
180,61,125288,1,0,2:0:0:0:
229,73,125371,5,10,2:0:0:0:
268,117,125454,1,0,2:0:0:0:
276,175,125538,1,0,2:0:0:0:
251,228,125621,1,0,2:0:0:0:
201,258,125704,1,8,2:0:0:0:
142,256,125788,1,0,2:0:0:0:
95,221,125871,1,0,2:0:0:0:
74,166,125954,1,0,2:0:0:0:
88,109,126038,6,0,L|77:53,1,42.5,14|0,3:2|2:0,2:0:0:0:
19,221,126204,1,4,3:0:0:0:
19,221,126288,1,4,3:0:0:0:
19,221,126371,2,0,L|30:277,1,42.5,8|0,2:0|2:0,2:0:0:0:
75,48,126538,1,8,2:0:0:0:
92,307,126704,5,10,2:0:0:0:
1,117,126871,1,8,2:0:0:0:
99,320,127204,5,0,3:0:0:0:
238,258,127371,2,0,B|282:284|282:284|346:258,1,102,8|0,2:0|2:0,2:0:0:0:
374,240,127704,1,0,3:0:0:0:
221,116,127871,2,0,P|215:149|204:181,1,68,0|0,3:0|2:0,2:0:0:0:
323,0,128204,1,0,3:0:0:0:
380,149,128371,2,0,P|398:165|491:145,1,102,0|0,3:0|2:0,2:0:0:0:
509,128,128704,5,10,2:0:0:0:
403,4,128871,1,2,3:0:0:0:
302,138,129038,2,0,P|268:147|176:174,1,102,2|0,3:0|2:0,2:0:0:0:
154,150,129371,5,0,3:0:0:0:
212,289,129538,2,0,P|221:319|203:365,1,68,0|0,3:0|2:0,2:0:0:0:
61,307,129871,1,0,3:0:0:0:
261,216,130038,2,0,P|295:225|387:252,1,102,8|0,2:0|2:0,2:0:0:0:
406,263,130371,1,0,3:0:0:0:
266,384,130538,2,0,P|229:372|182:360,1,68,0|0,3:0|2:0,2:0:0:0:
168,176,130871,1,0,3:0:0:0:
6,313,131038,2,0,P|43:301|90:289,1,68,0|0,3:0|3:0,2:0:0:0:
124,311,131288,1,0,3:0:0:0:
124,311,131371,6,0,P|144:297|194:294,1,68,10|0,2:0|2:0,2:0:0:0:
260,220,131704,2,0,P|290:246|279:316,1,102,2|0,3:0|2:0,2:0:0:0:
261,347,132038,5,6,3:2:0:0:
360,196,132204,2,0,P|369:167|386:118,1,68,0|0,3:0|2:0,2:0:0:0:
200,148,132538,1,0,3:0:0:0:
326,286,132704,2,0,P|373:305|433:266,1,102,8|0,2:0|2:0,2:0:0:0:
446,244,133038,1,0,3:0:0:0:
254,198,133204,2,0,L|181:217,1,68,0|0,3:0|2:0,2:0:0:0:
268,384,133538,1,0,3:0:0:0:
357,203,133704,2,0,P|372:181|356:104,1,102,0|0,3:0|2:0,2:0:0:0:
324,75,134038,6,0,P|302:91|256:88,1,68,10|0,2:0|3:0,2:0:0:0:
195,168,134371,2,0,P|170:156|149:85,1,102,2|0,2:0|2:0,2:0:0:0:
174,45,134704,5,2,3:0:0:0:
65,186,134871,2,0,P|75:225|84:271,1,68,0|0,3:0|2:0,2:0:0:0:
18,377,135204,1,0,3:0:0:0:
162,292,135371,2,0,B|223:275|202:323|276:303,1,102,8|0,2:0|2:0,2:0:0:0:
307,289,135704,1,0,3:0:0:0:
196,190,135871,1,0,3:0:0:0:
162,370,136038,5,8,2:0:0:0:
309,210,136204,1,0,2:0:0:0:
96,158,136371,1,8,2:0:0:0:
252,338,136538,1,0,3:0:0:0:
252,338,136621,1,0,3:0:0:0:
252,338,136704,6,0,P|271:343|297:352,1,34,8|0,2:0|2:0,2:0:0:0:
415,252,136871,2,0,P|396:247|370:238,1,34,0|0,3:0|3:0,2:0:0:0:
283,148,137038,1,0,3:0:0:0:
323,286,137204,1,0,3:0:0:0:
375,106,137371,5,6,3:2:0:0:
247,215,137538,2,0,P|217:225|169:200,1,68,0|0,3:0|2:0,2:0:0:0:
220,33,137871,1,0,3:0:0:0:
334,176,138038,2,0,P|344:206|319:254,1,68,8|0,2:0|2:0,2:0:0:0:
232,361,138371,1,0,3:0:0:0:
414,254,138538,2,0,P|449:244|490:237,1,68,0|0,3:0|2:0,2:0:0:0:
341,384,138871,1,0,3:0:0:0:
229,217,139038,2,0,P|184:205|113:190,1,102,0|0,3:0|2:0,2:0:0:0:
59,229,139371,6,0,P|49:201|62:148,1,68,10|0,2:0|3:0,2:0:0:0:
139,27,139704,2,0,P|157:54|150:133,1,102,0|0,3:0|2:0,2:0:0:0:
129,193,140038,5,2,3:0:0:0:
260,71,140204,2,0,L|343:53,1,68,0|0,3:0|2:0,2:0:0:0:
428,210,140538,1,0,3:0:0:0:
486,26,140704,2,0,L|403:8,1,68,8|0,2:0|2:0,2:0:0:0:
318,165,141038,1,0,3:0:0:0:
493,252,141204,2,0,P|508:228|496:183,1,68,0|0,3:0|2:0,2:0:0:0:
399,83,141538,1,0,3:0:0:0:
274,226,141704,2,0,P|285:263|297:304,1,68,0|0,3:0|3:0,2:0:0:0:
312,338,141954,1,0,3:0:0:0:
312,338,142038,6,0,P|279:322|235:336,1,68,10|0,2:0|2:0,2:0:0:0:
65,343,142371,2,0,P|99:357|166:305,1,102,2|0,3:0|2:0,2:0:0:0:
182,287,142704,5,6,3:2:0:0:
44,173,142871,2,0,L|27:239,1,68,0|0,3:0|2:0,2:0:0:0:
224,173,143204,1,0,3:0:0:0:
122,61,143371,2,0,P|87:43|49:48,1,68,8|0,2:0|2:0,2:0:0:0:
120,236,143704,1,0,3:0:0:0:
269,114,143871,2,0,P|287:79|282:41,1,68,0|0,3:0|2:0,2:0:0:0:
78,154,144204,1,0,3:0:0:0:
231,277,144371,2,0,L|342:253,1,102,0|0,3:0|2:0,2:0:0:0:
381,249,144704,6,0,P|393:282|378:323,1,68,10|0,2:0|3:0,2:0:0:0:
307,173,145038,2,0,P|345:142|419:158,1,102,2|0,3:0|2:0,2:0:0:0:
441,168,145371,5,2,3:0:0:0:
234,194,145538,2,0,L|159:175,1,68,0|0,3:0|2:0,2:0:0:0:
321,27,145871,1,0,3:0:0:0:
363,226,146038,2,0,L|438:207,1,68,8|0,2:0|2:0,2:0:0:0:
264,125,146371,1,0,3:0:0:0:
211,282,146538,1,0,3:0:0:0:
339,97,146704,5,10,2:0:0:0:
396,324,146871,1,8,2:0:0:0:
216,197,147038,1,8,2:0:0:0:
431,143,147204,1,0,3:0:0:0:
431,143,147288,1,0,3:0:0:0:
431,143,147371,2,0,L|418:192,1,42.5,10|0,2:0|2:0,2:0:0:0:
289,280,147538,2,0,L|277:237,1,42.5,0|0,3:0|3:0,2:0:0:0:
327,147,147704,1,0,3:0:0:0:
283,297,147871,1,0,3:0:0:0:
385,207,148038,6,0,P|418:217|467:229,1,68,6|0,3:2|3:0,2:0:0:0:
299,318,148371,2,0,P|266:308|217:296,1,68,0|0,3:0|3:0,2:0:0:0:
307,115,148704,2,0,B|321:151|321:151|300:191,1,76.5000000000001,8|0,2:0|3:0,2:0:0:0:
149,177,149038,2,0,B|135:141|135:141|156:101,1,76.5000000000001,0|0,3:0|3:0,2:0:0:0:
208,39,149371,5,2,3:0:0:0:
230,136,149538,1,0,3:0:0:0:
208,39,149704,2,0,L|133:22,1,68,0|0,3:0|3:0,2:0:0:0:
310,218,150038,5,10,2:0:0:0:
348,61,150204,1,0,3:0:0:0:
310,218,150371,2,0,L|219:238,1,68,0|0,3:0|3:0,2:0:0:0:
399,15,150704,5,2,3:0:0:0:
453,225,150871,1,0,3:0:0:0:
399,15,151038,2,0,L|309:-5,1,68,0|0,3:0|3:0,2:0:0:0:
199,142,151371,2,0,B|235:155|235:155|281:137,1,76.5000000000001,8|0,2:0|3:0,2:0:0:0:
119,1,151704,1,0,3:0:0:0:
15,139,151871,2,0,P|26:178|36:222,1,76.5000000000001,0|0,3:0|3:0,2:0:0:0:
199,142,152204,1,0,3:0:0:0:
62,62,152371,2,0,B|30:49|30:49|-7:65,1,68,0|0,3:0|3:0,2:0:0:0:
120,221,152704,6,0,P|159:232|209:247,1,76.5000000000001,10|0,2:0|3:0,2:0:0:0:
245,266,152954,1,0,3:0:0:0:
245,266,153038,1,10,2:0:0:0:
40,323,153204,1,0,3:0:0:0:
201,161,153371,6,0,P|258:149|347:129,1,136,6|0,3:2|3:0,2:0:0:0:
402,99,153871,1,0,3:0:0:0:
482,252,154038,2,0,P|443:263|393:278,1,76.5000000000001,8|0,2:0|3:0,2:0:0:0:
339,349,154371,1,0,3:0:0:0:
195,232,154538,2,0,B|184:196|184:196|204:154,1,76.5000000000001,0|0,3:0|3:0,2:0:0:0:
376,200,154871,1,0,3:0:0:0:
225,324,155038,2,0,B|189:335|189:335|149:317,1,68,0|0,3:0|3:0,2:0:0:0:
282,151,155371,6,0,P|291:190|304:240,1,76.5000000000001,10|0,2:0|3:0,2:0:0:0:
166,92,155704,2,0,P|195:64|229:31,1,68,2|0,3:0|3:0,2:0:0:0:
179,221,156038,2,0,P|140:209|44:183,1,136,2|0,3:0|3:0,2:0:0:0:
21,256,156538,1,0,3:0:0:0:
85,97,156704,2,0,P|77:57|65:3,1,76.5000000000001,8|0,2:0|3:0,2:0:0:0:
179,221,157038,1,0,3:0:0:0:
222,148,157204,1,0,3:0:0:0:
101,202,157371,6,0,B|93:237|93:237|111:271,1,68,10|0,2:0|3:0,2:0:0:0:
315,230,157704,2,0,B|324:197|324:197|307:160,1,68,10|0,2:0|3:0,2:0:0:0:
145,85,158038,5,10,2:0:0:0:
209,271,158204,1,8,2:0:0:0:
292,56,158371,5,8,2:0:0:0:
68,132,158538,1,8,2:0:0:0:
304,52,158704,6,0,B|364:36|351:86|421:67,1,114.75,6|0,3:2|2:0,2:0:0:0:
468,52,159038,1,8,2:0:0:0:
500,236,159204,2,0,P|427:214|352:194,1,153,0|0,2:0|3:0,2:0:0:0:
182,131,159704,2,0,P|208:111|273:131,1,76.5000000000001,10|0,2:0|2:0,2:0:0:0:
249,271,160038,2,0,P|207:284|129:318,1,114.75,2|0,3:0|2:0,2:0:0:0:
93,342,160371,1,8,2:0:0:0:
255,191,160538,2,0,P|293:203|336:215,1,76.5000000000001,0|0,2:0|3:0,2:0:0:0:
373,291,160871,1,0,3:0:0:0:
182,131,161038,2,0,P|162:154|180:248,1,114.75,10|0,2:0|2:0,2:0:0:0:
203,277,161371,6,0,B|161:268|161:268|131:283|131:283|74:273,1,114.75,6|0,3:2|2:0,2:0:0:0:
36,265,161704,1,8,2:0:0:0:
36,265,161871,1,2,2:0:0:0:
181,367,162038,2,0,P|217:356|271:343,1,76.5000000000001,2|0,3:0|3:0,2:0:0:0:
210,165,162371,2,0,P|174:176|120:189,1,76.5000000000001,10|0,2:0|2:0,2:0:0:0:
299,241,162704,1,2,3:0:0:0:
299,241,162871,1,0,3:0:0:0:
224,74,163038,5,8,2:0:0:0:
196,252,163204,1,0,3:0:0:0:
347,131,163371,5,10,2:0:0:0:
151,27,163538,1,0,3:0:0:0:
387,19,163704,5,10,2:0:0:0:
177,137,163871,1,0,3:0:0:0:
177,137,163954,1,0,3:0:0:0:
177,137,164038,6,0,P|149:125|114:113,2,56.6666666666667,2|0|0,3:0|2:0|2:0,2:0:0:0:
284,187,164371,2,0,P|280:156|273:120,2,56.6666666666667,10|0|0,2:0|2:0|2:0,2:0:0:0:
178,323,164704,5,2,3:0:0:0:
154,298,164815,2,0,P|161:273|171:234,1,56.6666666666667,0|0,2:0|2:0,2:0:0:0:
358,227,165038,5,10,2:0:0:0:
348,260,165149,2,0,P|323:266|284:276,1,56.6666666666667,0|0,2:0|2:0,2:0:0:0:
146,120,165371,5,2,3:0:0:0:
167,125,165482,1,0,2:0:0:0:
189,131,165593,1,0,2:0:0:0:
217,151,165704,5,10,2:0:0:0:
243,141,165815,1,0,2:0:0:0:
270,132,165926,1,0,2:0:0:0:
312,94,166038,5,2,3:0:0:0:
361,107,166149,2,0,B|366:139|366:139|348:173,1,56.6666666666667,0|0,2:0|2:0,2:0:0:0:
255,297,166371,5,10,2:0:0:0:
185,279,166482,2,0,B|179:250|179:250|198:213,1,56.6666666666667,2|2,2:0|2:0,2:0:0:0:
349,234,166704,6,0,P|404:247|486:270,1,114.75,6|0,3:2|2:0,2:0:0:0:
495,277,167038,1,8,2:0:0:0:
323,370,167204,2,0,P|289:374|254:333,1,76.5000000000001,0|2,2:0|3:0,2:0:0:0:
245,311,167454,1,0,2:0:0:0:
245,311,167538,1,0,2:0:0:0:
328,155,167704,2,0,P|365:145|402:136,1,76.5000000000001,10|0,2:0|2:0,2:0:0:0:
141,251,168038,5,10,2:0:0:0:
231,66,168204,1,10,2:0:0:0:
283,291,168371,1,10,2:0:0:0:
211,143,168538,1,10,2:0:0:0:
77,360,168704,5,10,3:0:0:0:
202,322,168871,1,8,3:0:0:0:
106,226,169038,1,6,3:0:0:0:
126,301,169204,1,4,3:0:0:0:
94,119,169371,6,0,P|62:108|19:98,1,68,6|2,3:2|3:0,2:0:0:0:
31,263,169704,1,10,2:0:0:0:
190,145,169871,2,0,P|198:111|209:79,1,68,2|0,2:0|3:0,2:0:0:0:
92,213,170204,1,2,3:0:0:0:
103,32,170371,1,10,2:0:0:0:
103,32,170454,1,0,2:0:0:0:
103,32,170538,2,0,P|110:52|116:73,1,38.25,2|0,2:0|2:0,2:0:0:0:
176,227,170704,6,0,P|165:259|154:304,1,76.5000000000001,2|2,3:0|2:0,2:0:0:0:
0,219,171038,1,10,2:0:0:0:
155,130,171204,2,0,B|188:112|188:112|238:128,1,76.5000000000001,2|0,2:0|3:0,2:0:0:0:
288,219,171538,1,2,2:0:0:0:
79,162,171704,1,10,2:0:0:0:
217,15,171871,1,2,2:0:0:0:
217,15,171954,1,0,2:0:0:0:
217,15,172038,1,2,3:0:0:0:
330,156,172204,5,2,3:0:0:0:
404,0,172371,1,8,2:0:0:0:
279,68,172538,1,0,2:0:0:0:
468,213,172704,5,2,3:0:0:0:
415,103,172871,1,2,3:0:0:0:
508,142,173038,1,8,2:0:0:0:
347,275,173204,5,2,2:0:0:0:
390,187,173371,1,2,3:0:0:0:
311,211,173538,1,0,3:0:0:0:
428,348,173704,5,10,2:0:0:0:
328,136,173871,1,2,2:0:0:0:
236,363,174038,5,10,2:0:0:0:
448,263,174204,1,2,3:0:0:0:
180,235,174371,5,10,2:0:0:0:
392,335,174538,1,2,3:0:0:0:
236,363,174704,6,0,L|254:286,1,76.5000000000001,6|2,3:2|2:0,2:0:0:0:
205,152,175038,1,8,2:0:0:0:
372,261,175204,2,0,L|354:184,1,76.5000000000001,2|2,2:0|3:0,2:0:0:0:
403,50,175538,1,0,3:0:0:0:
284,228,175704,1,10,2:0:0:0:
433,136,175871,1,2,2:0:0:0:
235,31,176038,6,0,L|218:107,1,76.5000000000001,2|2,3:0|2:0,2:0:0:0:
284,228,176371,1,8,2:0:0:0:
109,118,176538,2,0,L|126:194,1,76.5000000000001,2|2,2:0|3:0,2:0:0:0:
60,315,176871,1,0,3:0:0:0:
214,180,177038,1,10,2:0:0:0:
180,311,177204,1,2,3:0:0:0:
41,137,177371,6,0,P|66:117|126:128,1,76.5000000000001,6|2,3:2|2:0,2:0:0:0:
60,315,177704,1,8,2:0:0:0:
281,199,177871,2,0,P|256:179|196:190,1,76.5000000000001,2|2,2:0|3:0,2:0:0:0:
262,377,178204,1,0,3:0:0:0:
118,267,178371,2,0,P|127:228|138:163,1,76.5000000000001,10|2,2:0|2:0,2:0:0:0:
128,154,178621,1,0,2:0:0:0:
128,154,178704,1,2,3:0:0:0:
230,266,178871,5,10,2:0:0:0:
185,87,179038,1,10,2:0:0:0:
154,337,179204,5,10,2:0:0:0:
272,161,179371,1,10,2:0:0:0:
43,107,179538,5,10,3:0:0:0:
230,266,179704,1,6,3:0:0:0:
256,23,179871,1,10,3:0:0:0:
41,218,180038,6,0,B|88:210|88:210|116:223|116:223|171:212,1,127.5,6|0,3:2|2:0,2:0:0:0:
202,195,180371,1,8,2:0:0:0:
337,292,180538,2,0,P|373:310|423:283,1,85,2|0,3:0|2:0,2:0:0:0:
492,197,180871,1,0,3:0:0:0:
324,101,181038,2,0,P|314:148|303:192,1,85,10|0,2:0|2:0,2:0:0:0:
247,297,181371,6,0,B|179:272|197:331|112:302,1,127.5,2|0,3:0|2:0,2:0:0:0:
83,295,181704,1,8,2:0:0:0:
125,141,181871,2,0,P|158:125|219:144,1,85,2|0,3:0|2:0,2:0:0:0:
312,253,182204,1,0,3:0:0:0:
279,83,182371,2,0,P|287:37|296:-10,1,85,10|0,2:0|2:0,2:0:0:0:
251,212,182704,6,0,B|216:241|216:241|119:214,1,127.5,2|0,3:0|2:0,2:0:0:0:
96,205,183038,1,8,2:0:0:0:
280,93,183204,2,0,L|383:121,1,85,0|0,2:0|3:0,2:0:0:0:
282,280,183538,1,0,3:0:0:0:
182,152,183704,2,0,B|165:112|165:112|187:62,1,85,10|0,2:0|2:0,2:0:0:0:
287,291,184038,6,0,P|252:314|201:289,1,85,2|0,3:0|2:0,2:0:0:0:
387,203,184371,2,0,P|424:221|428:278,1,85,10|0,2:0|2:0,2:0:0:0:
228,190,184704,1,2,3:0:0:0:
406,93,184871,1,0,3:0:0:0:
215,197,185038,2,0,L|111:174,1,85,10|0,2:0|3:0,2:0:0:0:
308,0,185371,6,0,B|340:56|340:56|306:118,1,127.5,6|0,3:2|2:0,2:0:0:0:
286,146,185704,1,8,2:0:0:0:
406,255,185871,2,0,P|446:242|499:228,1,85,2|0,3:0|2:0,2:0:0:0:
406,93,186204,1,0,2:0:0:0:
295,238,186371,2,0,P|254:225|202:211,1,85,10|0,2:0|2:0,2:0:0:0:
12,331,186704,6,0,P|56:352|123:282,1,127.5,2|0,3:0|2:0,2:0:0:0:
132,274,187038,1,8,2:0:0:0:
22,119,187204,2,0,P|4:156|17:200,1,85,2|0,3:0|2:0,2:0:0:0:
189,148,187538,1,0,3:0:0:0:
77,21,187704,2,0,P|40:3|-4:16,1,85,10|0,2:0|2:0,2:0:0:0:
98,178,188038,5,2,3:0:0:0:
98,178,188204,1,0,3:0:0:0:
199,36,188371,1,8,2:0:0:0:
222,245,188538,5,2,3:0:0:0:
222,245,188704,1,0,2:0:0:0:
126,81,188871,1,0,3:0:0:0:
67,282,189038,2,0,P|82:332|94:375,1,85,10|0,2:0|3:0,2:0:0:0:
225,173,189371,5,10,2:0:0:0:
16,109,189538,1,10,2:0:0:0:
158,299,189704,5,10,2:0:0:0:
233,73,189871,1,10,2:0:0:0:
91,133,190038,2,0,P|76:183|64:226,1,85,10|0,2:0|3:0,2:0:0:0:
158,299,190371,5,10,2:0:0:0:
0,144,190538,1,0,3:0:0:0:
167,13,190704,5,10,2:0:0:0:
45,284,190871,1,8,2:0:0:0:
45,284,192038,5,10,2:0:0:0:
167,13,192204,1,8,2:0:0:0:
167,13,193371,5,10,2:0:0:0:
240,216,193538,1,0,3:0:0:0:
240,216,193704,1,0,3:0:0:0:
33,190,193871,5,10,2:0:0:0:
236,117,194038,1,2,3:0:0:0:
236,117,194204,1,0,3:0:0:0:
51,348,194371,5,10,2:0:0:0:
140,157,194538,1,0,3:0:0:0:
241,370,194704,5,2,3:0:0:0:
146,335,194871,1,8,3:0:0:0:
181,240,195038,1,4,3:0:0:0:
277,269,195204,1,8,3:0:0:0:
138,339,195371,6,0,P|102:349|53:366,1,68,10|0,2:0|3:0,2:0:0:0:
45,277,195704,2,0,P|81:267|130:250,1,68,6|0,3:0|3:0,2:0:0:0:
158,142,196038,5,14,2:0:0:0:
192,118,196121,1,0,2:0:0:0:
234,112,196204,1,0,2:0:0:0:
274,125,196288,1,0,2:0:0:0:
304,155,196371,1,8,2:0:0:0:
318,194,196454,1,0,2:0:0:0:
336,233,196538,1,0,2:0:0:0:
370,257,196621,1,0,2:0:0:0:
412,262,196704,5,10,2:0:0:0:
394,223,196788,1,0,2:0:0:0:
361,198,196871,1,0,2:0:0:0:
319,192,196954,1,0,2:0:0:0:
280,207,197038,1,8,2:0:0:0:
252,238,197121,1,0,2:0:0:0:
224,275,197204,1,0,2:0:0:0:
181,291,197288,1,0,2:0:0:0:
134,276,197371,5,10,2:0:0:0:
155,235,197454,1,0,2:0:0:0:
193,208,197538,1,0,2:0:0:0:
239,200,197621,1,0,2:0:0:0:
283,214,197704,1,8,2:0:0:0:
333,214,197788,1,0,2:0:0:0:
377,190,197871,1,0,2:0:0:0:
404,147,197954,1,0,2:0:0:0:
406,97,198038,5,10,2:0:0:0:
356,102,198121,1,0,2:0:0:0:
315,131,198204,1,0,2:0:0:0:
292,176,198288,1,0,2:0:0:0:
294,227,198371,1,8,2:0:0:0:
280,275,198454,1,0,2:0:0:0:
240,305,198538,1,0,2:0:0:0:
190,306,198621,1,0,2:0:0:0:
149,277,198704,6,0,L|136:325,3,42.5,10|0|0|0,2:0|2:0|2:0|2:0,2:0:0:0:
58,300,199038,2,0,L|69:259,3,42.5,10|0|0|0,2:0|2:0|2:0|2:0,2:0:0:0:
93,172,199371,2,0,L|82:130,3,42.5,10|0|0|0,2:0|2:0|2:0|2:0,2:0:0:0:
3,149,199704,2,0,L|14:190,3,42.5,10|0|0|0,2:0|2:0|2:0|2:0,2:0:0:0:
50,45,200038,5,10,2:0:0:0:
74,50,200121,1,0,2:0:0:0:
99,56,200204,1,0,2:0:0:0:
124,61,200288,1,0,2:0:0:0:
149,67,200371,1,8,2:0:0:0:
174,73,200454,1,0,2:0:0:0:
199,78,200538,1,0,2:0:0:0:
224,84,200621,1,0,2:0:0:0:
248,90,200704,6,0,L|265:31,3,42.5,10|0|0|0,2:0|2:0|2:0|2:0,2:0:0:0:
347,140,201038,2,0,L|330:81,3,42.5,10|0|0|0,2:0|2:0|2:0|2:0,2:0:0:0:
449,51,201371,5,14,2:0:0:0:
477,83,201454,1,0,2:0:0:0:
487,123,201538,1,0,2:0:0:0:
477,164,201621,1,0,2:0:0:0:
448,195,201704,1,8,2:0:0:0:
420,227,201788,1,0,2:0:0:0:
414,269,201871,1,0,2:0:0:0:
433,306,201954,1,0,2:0:0:0:
468,328,202038,1,8,2:0:0:0:
469,286,202121,1,0,2:0:0:0:
447,251,202204,1,0,2:0:0:0:
409,233,202288,1,0,2:0:0:0:
367,239,202371,2,0,L|355:178,3,42.5,10|0|0|0,2:0|2:0|2:0|2:0,2:0:0:0:
294,329,202704,5,10,2:0:0:0:
252,357,202788,1,0,2:0:0:0:
202,354,202871,1,0,2:0:0:0:
165,321,202954,1,0,2:0:0:0:
155,272,203038,1,8,2:0:0:0:
178,227,203121,1,0,2:0:0:0:
223,206,203204,1,0,2:0:0:0:
264,177,203288,1,0,2:0:0:0:
280,129,203371,1,8,2:0:0:0:
265,81,203454,1,0,2:0:0:0:
225,51,203538,1,0,2:0:0:0:
175,50,203621,1,0,2:0:0:0:
134,78,203704,2,0,L|83:67,3,42.5,10|0|0|0,2:0|2:0|2:0|2:0,2:0:0:0:
9,225,204038,5,10,2:0:0:0:
44,260,204121,1,0,2:0:0:0:
93,274,204204,1,0,2:0:0:0:
142,261,204288,1,0,2:0:0:0:
178,227,204371,1,8,2:0:0:0:
213,193,204454,1,0,2:0:0:0:
262,179,204538,1,2,2:0:0:0:
311,192,204621,1,0,2:0:0:0:
347,226,204704,6,0,P|352:243|339:277,3,42.5,10|0|0|0,2:0|2:0|2:0|2:0,2:0:0:0:
392,335,205038,2,0,P|379:347|343:353,3,42.5,10|0|0|0,2:0|2:0|2:0|2:0,2:0:0:0:
228,336,205371,5,10,2:0:0:0:
188,304,205454,1,0,2:0:0:0:
170,257,205538,1,0,2:0:0:0:
180,208,205621,1,0,2:0:0:0:
214,171,205704,1,8,2:0:0:0:
262,157,205788,1,0,2:0:0:0:
311,170,205871,1,0,2:0:0:0:
345,207,205954,1,0,2:0:0:0:
355,257,206038,6,0,L|341:310,3,42.5,10|0|0|0,2:0|2:0|2:0|2:0,2:0:0:0:
440,359,206371,2,0,L|454:306,3,42.5,10|0|0|0,2:0|2:0|2:0|2:0,2:0:0:0:
451,182,206704,5,10,2:0:0:0:
412,164,206788,1,0,2:0:0:0:
370,164,206871,1,0,2:0:0:0:
332,181,206954,1,0,2:0:0:0:
305,214,207038,1,8,2:0:0:0:
294,254,207121,1,0,2:0:0:0:
301,296,207204,1,0,2:0:0:0:
325,331,207288,1,0,2:0:0:0:
361,352,207371,5,10,2:0:0:0:
364,306,207454,1,0,2:0:0:0:
345,264,207538,1,0,2:0:0:0:
307,237,207621,1,0,2:0:0:0:
261,232,207704,1,8,2:0:0:0:
215,239,207788,1,0,2:0:0:0:
174,218,207871,1,0,2:0:0:0:
153,177,207954,1,0,2:0:0:0:
159,132,208038,5,10,3:2:0:0:
205,112,208121,1,8,3:0:0:0:
255,117,208204,1,8,3:0:0:0:
296,147,208288,1,8,3:0:0:0:
317,193,208371,1,8,3:2:0:0:
330,245,208454,1,4,3:0:0:0:
371,281,208538,1,4,3:0:0:0:
425,285,208621,1,0,2:0:0:0:
472,256,208704,6,0,L|481:196,3,42.5,10|0|0|0,2:0|3:0|3:0|2:0,2:0:0:0:
406,148,209038,2,0,L|397:208,3,42.5,10|0|0|0,2:0|3:0|3:0|3:0,2:0:0:0:
433,3,209371,5,6,2:0:0:0:
472,17,209454,1,0,2:0:0:0:
498,50,209538,1,0,2:0:0:0:
504,91,209621,1,0,2:0:0:0:
487,130,209704,1,8,2:0:0:0:
452,153,209788,1,0,2:0:0:0:
411,156,209871,1,2,2:0:0:0:
373,137,209954,1,0,2:0:0:0:
333,124,210038,1,0,2:0:0:0:
292,133,210121,1,0,2:0:0:0:
260,161,210204,1,0,2:0:0:0:
246,200,210288,1,0,2:0:0:0:
253,242,210371,2,0,L|316:255,3,42.5,10|0|0|0,2:0|2:0|2:0|2:0,2:0:0:0:
172,321,210704,5,2,2:0:0:0:
126,342,210788,1,0,2:0:0:0:
76,335,210871,1,0,2:0:0:0:
38,303,210954,1,0,2:0:0:0:
24,254,211038,1,8,2:0:0:0:
39,206,211121,1,0,2:0:0:0:
78,174,211204,1,0,2:0:0:0:
124,156,211288,1,0,2:0:0:0:
150,113,211371,1,0,2:0:0:0:
145,63,211454,1,0,2:0:0:0:
110,27,211538,1,0,2:0:0:0:
61,19,211621,1,0,2:0:0:0:
17,43,211704,2,0,L|31:101,3,42.5,10|0|0|0,2:0|2:0|2:0|2:0,2:0:0:0:
78,174,212038,5,2,2:0:0:0:
111,198,212121,1,0,2:0:0:0:
153,205,212204,1,0,2:0:0:0:
193,190,212288,1,0,2:0:0:0:
221,159,212371,1,8,2:0:0:0:
249,127,212454,1,0,2:0:0:0:
288,113,212538,1,2,2:0:0:0:
330,119,212621,1,0,2:0:0:0:
364,144,212704,6,0,L|373:193,3,42.5,2|0|0|0,2:0|2:0|2:0|2:0,2:0:0:0:
291,243,213038,2,0,L|282:194,3,42.5,10|0|0|0,2:0|2:0|2:0|2:0,2:0:0:0:
381,319,213371,5,2,2:0:0:0:
355,323,213454,1,0,2:0:0:0:
330,328,213538,1,0,2:0:0:0:
305,333,213621,1,0,2:0:0:0:
280,338,213704,1,8,2:0:0:0:
256,344,213788,1,0,2:0:0:0:
231,350,213871,1,0,2:0:0:0:
206,356,213954,1,0,2:0:0:0:
181,362,214038,6,0,L|129:348,3,42.5,2|0|0|0,2:0|2:0|2:0|2:0,2:0:0:0:
166,256,214371,2,0,L|218:270,3,42.5,10|0|0|0,2:0|2:0|2:0|2:0,2:0:0:0:
37,180,214704,5,6,2:0:0:0:
20,141,214788,1,0,2:0:0:0:
22,99,214871,1,0,2:0:0:0:
43,62,214954,1,0,2:0:0:0:
78,39,215038,1,8,2:0:0:0:
119,34,215121,1,0,2:0:0:0:
159,47,215204,1,0,2:0:0:0:
188,77,215288,1,0,2:0:0:0:
202,117,215371,5,2,2:0:0:0:
186,161,215454,1,0,2:0:0:0:
189,208,215538,1,0,2:0:0:0:
209,249,215621,1,0,2:0:0:0:
244,280,215704,1,8,2:0:0:0:
288,294,215788,1,0,2:0:0:0:
334,291,215871,1,0,2:0:0:0:
376,269,215954,1,0,2:0:0:0:
406,234,216038,5,2,2:0:0:0:
366,201,216121,1,0,2:0:0:0:
318,194,216204,1,0,2:0:0:0:
270,213,216288,1,0,2:0:0:0:
240,254,216371,1,8,2:0:0:0:
236,303,216454,1,0,2:0:0:0:
217,351,216538,1,0,2:0:0:0:
177,380,216621,1,0,2:0:0:0:
126,384,216704,5,2,2:0:0:0:
108,332,216788,1,0,2:0:0:0:
115,278,216871,1,0,2:0:0:0:
144,232,216954,1,0,2:0:0:0:
191,203,217038,1,8,2:0:0:0:
245,198,217121,1,0,2:0:0:0:
296,218,217204,1,0,2:0:0:0:
334,257,217288,1,0,2:0:0:0:
350,310,217371,6,0,L|337:367,3,42.5,2|0|0|0,2:0|2:0|2:0|2:0,2:0:0:0:
249,329,217704,2,0,L|262:272,3,42.5,10|0|0|0,2:0|2:0|2:0|2:0,2:0:0:0:
295,185,218038,2,0,L|282:128,3,42.5,2|0|0|0,2:0|2:0|2:0|2:0,2:0:0:0:
194,166,218371,2,0,L|207:223,3,42.5,10|0|0|0,2:0|2:0|2:0|2:0,2:0:0:0:
315,283,218704,5,10,3:0:0:0:
361,262,218788,1,8,3:0:0:0:
388,220,218871,1,8,3:0:0:0:
388,170,218954,1,0,2:0:0:0:
361,128,219038,1,8,3:0:0:0:
391,156,219121,1,0,2:0:0:0:
433,162,219204,1,4,3:0:0:0:
470,143,219288,1,0,2:0:0:0:
489,106,219371,6,0,P|479:88|454:75,3,42.5,2|0|0|0,2:0|3:0|3:0|2:0,2:0:0:0:
418,8,219704,2,0,P|397:7|373:22,3,42.5,2|0|0|0,2:0|2:0|2:0|2:0,2:0:0:0:
294,175,220038,5,6,2:0:0:0:
256,193,220121,1,0,2:0:0:0:
214,188,220204,1,0,2:0:0:0:
182,162,220288,1,0,2:0:0:0:
170,122,220371,1,8,2:0:0:0:
182,81,220454,1,0,2:0:0:0:
214,54,220538,1,0,2:0:0:0:
256,49,220621,1,0,2:0:0:0:
293,68,220704,1,0,2:0:0:0:
330,86,220788,1,0,2:0:0:0:
372,80,220871,1,0,2:0:0:0:
404,53,220954,1,0,2:0:0:0:
416,13,221038,2,0,L|473:-1,3,42.5,10|0|0|0,2:0|2:0|2:0|2:0,2:0:0:0:
293,68,221371,5,2,2:0:0:0:
258,104,221454,1,0,2:0:0:0:
251,154,221538,1,0,2:0:0:0:
276,198,221621,1,0,2:0:0:0:
321,219,221704,1,8,2:0:0:0:
367,238,221788,1,0,2:0:0:0:
394,281,221871,1,0,2:0:0:0:
390,331,221954,1,0,2:0:0:0:
358,369,222038,1,0,2:0:0:0:
309,382,222121,1,0,2:0:0:0:
263,364,222204,1,0,2:0:0:0:
236,321,222288,1,0,2:0:0:0:
238,271,222371,2,0,L|251:222,3,42.5,10|0|0|0,2:0|2:0|2:0|2:0,2:0:0:0:
156,345,222704,5,2,2:0:0:0:
109,364,222788,1,0,2:0:0:0:
60,357,222871,1,0,2:0:0:0:
21,325,222954,1,0,2:0:0:0:
6,277,223038,1,8,2:0:0:0:
18,228,223121,1,0,2:0:0:0:
54,193,223204,1,2,2:0:0:0:
104,182,223288,1,0,2:0:0:0:
151,199,223371,6,0,L|141:253,3,42.5,2|0|0|0,2:0|2:0|2:0|2:0,2:0:0:0:
224,292,223704,2,0,L|234:238,3,42.5,10|0|0|0,2:0|2:0|2:0|2:0,2:0:0:0:
339,264,224038,5,2,2:0:0:0:
379,251,224121,1,0,2:0:0:0:
408,221,224204,1,0,2:0:0:0:
418,180,224288,1,0,2:0:0:0:
406,140,224371,1,8,2:0:0:0:
376,110,224454,1,0,2:0:0:0:
336,99,224538,1,0,2:0:0:0:
295,110,224621,1,0,2:0:0:0:
265,140,224704,6,0,P|267:165|291:187,3,42.5,2|0|0|0,2:0|2:0|2:0|2:0,2:0:0:0:
259,252,225038,2,0,P|281:263|312:253,3,42.5,10|0|0|0,2:0|2:0|2:0|2:0,2:0:0:0:
163,211,225371,5,14,2:0:0:0:
139,235,225454,1,0,2:0:0:0:
107,245,225538,1,0,2:0:0:0:
74,238,225621,1,0,2:0:0:0:
49,216,225704,1,8,2:0:0:0:
37,184,225788,1,0,2:0:0:0:
43,151,225871,1,0,2:0:0:0:
64,125,225954,1,0,2:0:0:0:
95,112,226038,5,10,2:0:0:0:
136,120,226121,1,0,2:0:0:0:
166,149,226204,1,0,2:0:0:0:
175,189,226288,1,0,2:0:0:0:
161,229,226371,1,8,2:0:0:0:
133,260,226454,1,0,2:0:0:0:
126,302,226538,1,0,2:0:0:0:
142,341,226621,1,0,2:0:0:0:
175,366,226704,5,10,2:0:0:0:
202,334,226788,1,0,2:0:0:0:
241,317,226871,1,0,2:0:0:0:
283,318,226954,1,0,2:0:0:0:
321,336,227038,1,8,2:0:0:0:
348,367,227121,1,0,2:0:0:0:
387,384,227204,1,0,2:0:0:0:
429,383,227288,1,0,2:0:0:0:
467,365,227371,6,0,L|476:315,3,42.5,10|0|0|0,2:0|2:0|2:0|2:0,2:0:0:0:
385,247,227704,2,0,L|376:297,3,42.5,8|0|0|0,2:0|2:0|2:0|2:0,2:0:0:0:
499,193,228038,5,10,3:2:0:0:
473,139,228121,1,0,3:0:0:0:
424,108,228204,1,0,3:0:0:0:
365,107,228288,1,0,2:0:0:0:
315,137,228371,1,8,3:2:0:0:
288,190,228454,1,0,3:0:0:0:
294,248,228538,1,0,3:0:0:0:
329,295,228621,1,0,2:0:0:0:
384,316,228704,5,8,3:2:0:0:
360,272,228788,1,8,3:0:0:0:
315,250,228871,1,8,3:0:0:0:
266,259,228954,1,0,2:0:0:0:
231,296,229038,1,8,3:2:0:0:
204,328,229121,1,4,3:0:0:0:
163,338,229204,1,4,3:0:0:0:
131,329,229288,1,4,3:0:0:0:
111,303,229371,5,12,3:2:0:0:
