osu file format v14

[General]
AudioFilename: audio.mp3
AudioLeadIn: 0
PreviewTime: 208620
Countdown: 0
SampleSet: Soft
StackLeniency: 0.7
Mode: 0
LetterboxInBreaks: 0
WidescreenStoryboard: 1

[Editor]
Bookmarks: 54704,108038,158704,209371
DistanceSpacing: 0.8
BeatDivisor: 4
GridSize: 16
TimelineZoom: 1.8

[Metadata]
Title:Lionheart
TitleUnicode:Lionheart
Artist:Serenity
ArtistUnicode:Serenity
Creator:AdeAAa
Version:Collab Extra
Source:
Tags:Napalm Records symphonic power metal english male vocalist Georg Neuhauser Chris Hermsdörfer Fabio D'Amore Andreas Schipflinger 2017 streams sh4rq_ nebuwua
BeatmapID:2887834
BeatmapSetID:1390922

[Difficulty]
HPDrainRate:5
CircleSize:4
OverallDifficulty:8.2
ApproachRate:9
SliderMultiplier:1.6
SliderTickRate:1

[Events]
//Background and Video events
0,0,"background.jpg",0,0
//Break Periods
2,22704,32037
//Storyboard Layer 0 (Background)
//Storyboard Layer 1 (Fail)
//Storyboard Layer 2 (Pass)
//Storyboard Layer 3 (Foreground)
//Storyboard Layer 4 (Overlay)
//Storyboard Sound Samples

[TimingPoints]
38,333.333333333334,4,2,1,60,1,0
704,-125,4,2,1,60,0,0
954,-125,4,2,1,5,0,0
1038,-125,4,2,1,60,0,0
1288,-125,4,2,1,5,0,0
1371,-125,4,2,1,70,0,0
2038,-111.111111111111,4,2,1,70,0,0
10954,-111.111111111111,4,2,1,5,0,0
11038,-111.111111111111,4,2,1,70,0,0
20704,-142.857142857143,4,2,1,70,0,0
33371,-125,4,2,1,60,0,0
44038,-111.111111111111,4,2,1,60,0,0
54704,-111.111111111111,4,2,1,70,0,1
55704,-99.9999999999999,4,2,1,70,0,1
74704,-99.9999999999999,4,2,1,70,0,0
75704,-250,4,2,1,45,0,0
76038,-125,4,2,1,60,0,0
97371,-111.111111111111,4,2,1,60,0,0
108038,-111.111111111111,4,2,1,70,0,1
109038,-99.9999999999999,4,2,1,70,0,1
126704,-99.9999999999999,4,2,1,60,0,0
127371,-125,4,2,1,60,0,0
158704,-111.111111111111,4,2,1,60,0,0
196038,-111.111111111111,4,2,1,70,0,1
196704,-99.9999999999999,4,2,1,70,0,1
229371,-99.9999999999999,4,2,1,70,0,0
230714,333.333333333333,4,2,1,70,1,0

[Colours]
Combo1 : 175,165,143
Combo2 : 92,81,63
Combo3 : 208,171,153
Combo4 : 148,111,88

[HitObjects]
469,159,704,6,0,P|420:149|360:135,1,96,2|0,2:0|2:0,2:0:0:0:
350,133,1038,2,0,B|325:175|325:175|351:228,1,96,2|0,2:0|2:0,2:0:0:0:
417,283,1371,5,14,2:0:0:0:
392,309,1454,1,0,2:0:0:0:
359,320,1538,1,0,2:0:0:0:
323,316,1621,1,0,2:0:0:0:
294,295,1704,1,8,2:0:0:0:
269,269,1788,1,0,2:0:0:0:
236,258,1871,1,0,2:0:0:0:
200,262,1954,1,0,2:0:0:0:
171,283,2038,2,0,P|166:304|175:326,3,36,8|0|0|0,2:0|2:0|2:0|2:0,2:0:0:0:
55,240,2371,6,0,P|70:254|94:258,3,36,10|0|0|0,2:0|2:0|2:0|2:0,2:0:0:0:
116,178,2704,1,10,2:0:0:0:
147,149,2788,1,0,2:0:0:0:
157,108,2871,1,0,2:0:0:0:
140,69,2954,1,0,2:0:0:0:
104,46,3038,2,0,P|87:51|74:64,1,36,8|0,2:0|2:0,2:0:0:0:
223,143,3204,6,0,L|308:165,1,72.0000000000001,2|8,2:0|2:0,2:0:0:0:
382,185,3538,1,0,2:0:0:0:
382,185,3621,1,0,2:0:0:0:
382,185,3704,2,0,B|387:168|387:168|382:151,3,36,10|0|0|0,2:0|2:0|2:0|2:0,2:0:0:0:
341,260,4038,5,10,2:0:0:0:
313,267,4121,1,0,2:0:0:0:
285,276,4204,1,0,2:0:0:0:
258,285,4288,1,0,2:0:0:0:
231,295,4371,2,0,P|211:303|183:315,1,36,8|0,2:0|2:0,2:0:0:0:
136,362,4538,2,0,P|119:355|102:349,1,36,2|0,2:0|2:0,2:0:0:0:
35,262,4704,6,0,P|22:274|15:305,3,36,10|0|0|0,2:0|2:0|2:0|2:0,2:0:0:0:
103,190,5038,2,0,P|86:184|55:194,3,36,10|0|0|0,2:0|2:0|2:0|2:0,2:0:0:0:
185,232,5371,1,10,2:0:0:0:
194,212,5454,1,0,2:0:0:0:
199,191,5538,1,0,2:0:0:0:
197,170,5621,1,0,2:0:0:0:
191,149,5704,2,0,P|186:132|169:107,1,36,8|0,2:0|2:0,2:0:0:0:
184,29,5871,1,0,2:0:0:0:
184,29,5954,1,0,2:0:0:0:
184,29,6038,6,0,P|166:24|136:27,3,36,10|0|0|0,2:0|2:0|2:0|2:0,2:0:0:0:
296,35,6371,2,0,P|308:22|321:-5,3,36,10|0|0|0,2:0|2:0|2:0|2:0,2:0:0:0:
229,124,6704,5,14,2:0:0:0:
209,144,6788,1,0,2:0:0:0:
197,170,6871,1,0,2:0:0:0:
197,199,6954,1,0,2:0:0:0:
207,226,7038,2,0,P|223:242|247:246,1,36,8|0,2:0|2:0,2:0:0:0:
264,312,7204,2,0,P|285:306|301:287,1,36,0|0,2:0|2:0,2:0:0:0:
428,176,7371,5,10,2:0:0:0:
398,155,7454,1,0,2:0:0:0:
363,151,7538,1,0,2:0:0:0:
330,164,7621,1,0,2:0:0:0:
307,192,7704,2,0,L|263:179,3,36,8|0|0|0,2:0|2:0|2:0|2:0,2:0:0:0:
388,253,8038,5,10,2:0:0:0:
416,284,8121,1,0,2:0:0:0:
422,326,8204,1,0,2:0:0:0:
403,364,8288,1,0,2:0:0:0:
365,384,8371,2,0,P|343:378|327:359,1,36,8|0,2:0|2:0,2:0:0:0:
262,377,8538,2,0,P|256:355|264:332,1,36,0|0,2:0|2:0,2:0:0:0:
224,246,8704,5,10,2:0:0:0:
244,239,8788,1,0,2:0:0:0:
264,231,8871,1,0,2:0:0:0:
284,223,8954,1,0,2:0:0:0:
314,204,9038,5,8,2:0:0:0:
334,208,9121,1,0,2:0:0:0:
355,212,9204,1,0,2:0:0:0:
377,215,9288,1,0,2:0:0:0:
405,237,9371,6,0,P|439:226|479:216,1,72.0000000000001,10|0,2:0|2:0,2:0:0:0:
364,134,9704,1,8,2:0:0:0:
339,298,9871,1,0,2:0:0:0:
339,298,9954,1,0,2:0:0:0:
339,298,10038,2,0,P|346:317|353:341,3,36,10|0|0|0,2:0|2:0|2:0|2:0,2:0:0:0:
254,219,10371,2,0,P|261:200|268:176,1,36,10|0,2:0|2:0,2:0:0:0:
205,337,10538,1,0,2:0:0:0:
205,337,10621,1,0,2:0:0:0:
205,337,10704,6,0,P|161:348|89:368,1,108,10|0,2:0|2:0,2:0:0:0:
65,354,11038,1,10,2:0:0:0:
138,236,11204,1,0,2:0:0:0:
138,236,11288,1,0,2:0:0:0:
138,236,11371,6,0,P|148:219|142:191,3,36,10|0|0|0,2:0|2:0|2:0|2:0,2:0:0:0:
35,175,11704,2,0,P|44:192|71:200,3,36,10|0|0|0,2:0|2:0|2:0|2:0,2:0:0:0:
138,114,12038,5,14,2:0:0:0:
158,85,12121,1,0,2:0:0:0:
190,69,12204,1,0,2:0:0:0:
226,71,12288,1,0,2:0:0:0:
256,89,12371,1,8,2:0:0:0:
277,118,12454,1,0,2:0:0:0:
309,134,12538,1,0,2:0:0:0:
344,132,12621,1,0,2:0:0:0:
374,114,12704,2,0,P|382:98|376:68,3,36,8|0|0|0,2:0|2:0|2:0|2:0,2:0:0:0:
476,93,13038,6,0,P|493:94|516:114,3,36,10|0|0|0,2:0|2:0|2:0|2:0,2:0:0:0:
456,174,13371,1,10,2:0:0:0:
422,200,13454,1,0,2:0:0:0:
406,240,13538,1,0,2:0:0:0:
411,282,13621,1,0,2:0:0:0:
436,317,13704,2,0,P|456:327|486:326,1,36,8|0,2:0|2:0,2:0:0:0:
311,268,13871,6,0,P|279:280|236:294,1,72.0000000000001,0|8,2:0|2:0,2:0:0:0:
139,339,14204,1,0,2:0:0:0:
139,339,14288,1,0,2:0:0:0:
139,339,14371,2,0,B|130:325|130:325|132:305,3,36,10|0|0|0,2:0|2:0|2:0|2:0,2:0:0:0:
202,224,14704,5,10,2:0:0:0:
226,185,14788,1,0,2:0:0:0:
225,139,14871,1,0,2:0:0:0:
197,102,14954,1,0,2:0:0:0:
153,87,15038,1,8,2:0:0:0:
109,101,15121,1,0,2:0:0:0:
80,136,15204,2,0,P|86:158|90:178,1,36,2|0,2:0|2:0,2:0:0:0:
126,246,15371,6,0,P|114:258|89:263,3,36,10|0|0|0,2:0|2:0|2:0|2:0,2:0:0:0:
53,332,15704,2,0,P|36:327|19:308,3,36,10|0|0|0,2:0|2:0|2:0|2:0,2:0:0:0:
165,322,16038,5,10,2:0:0:0:
199,331,16121,1,0,2:0:0:0:
234,341,16204,1,0,2:0:0:0:
268,353,16288,1,0,2:0:0:0:
302,364,16371,2,0,P|297:346|291:319,1,36,8|0,2:0|2:0,2:0:0:0:
243,259,16538,1,0,2:0:0:0:
243,259,16621,1,0,2:0:0:0:
243,259,16704,6,0,P|254:244|254:213,3,36,10|0|0|0,2:0|2:0|2:0|2:0,2:0:0:0:
153,172,17038,2,0,P|160:189|187:204,3,36,10|0|0|0,2:0|2:0|2:0|2:0,2:0:0:0:
246,98,17371,5,10,2:0:0:0:
210,90,17454,1,0,2:0:0:0:
175,82,17538,1,0,2:0:0:0:
140,75,17621,1,0,2:0:0:0:
105,67,17704,2,0,P|100:86|91:113,1,36,8|0,2:0|2:0,2:0:0:0:
12,132,17871,2,0,P|17:150|26:177,1,36,0|0,2:0|2:0,2:0:0:0:
66,262,18038,5,10,2:0:0:0:
88,244,18121,1,0,2:0:0:0:
116,240,18204,1,0,2:0:0:0:
143,250,18288,1,0,2:0:0:0:
161,272,18371,2,0,P|169:291|175:313,1,36,8|0,2:0|2:0,2:0:0:0:
238,351,18538,2,0,P|230:370|224:392,1,36,0|0,2:0|2:0,2:0:0:0:
334,352,18704,5,10,2:0:0:0:
354,345,18788,1,0,2:0:0:0:
374,338,18871,1,0,2:0:0:0:
395,331,18954,1,0,2:0:0:0:
415,324,19038,2,0,P|406:307|397:279,1,36,8|0,2:0|2:0,2:0:0:0:
471,272,19204,2,0,P|480:255|489:227,1,36,0|0,2:0|2:0,2:0:0:0:
409,208,19371,5,10,2:0:0:0:
397,193,19454,1,0,2:0:0:0:
391,177,19538,1,0,2:0:0:0:
390,159,19621,1,0,2:0:0:0:
395,141,19704,2,0,B|401:125|401:125|394:108,3,36,8|0|0|0,2:0|2:0|2:0|2:0,2:0:0:0:
325,214,20038,6,0,P|304:207|283:197,3,36,10|0|0|0,2:0|2:0|2:0|2:0,2:0:0:0:
250,167,20371,2,0,P|229:174|208:184,3,36,8|0|0|0,2:0|2:0|2:0|2:0,2:0:0:0:
186,198,20704,6,0,P|165:191|148:183,3,28,8|0|0|0,2:0|2:0|2:0|2:0,2:0:0:0:
133,168,21038,2,0,P|112:175|95:184,3,28,8|0|0|0,2:0|2:0|2:0|2:0,2:0:0:0:
53,229,21371,5,10,3:0:0:0:
57,245,21454,1,8,3:0:0:0:
61,261,21538,1,8,3:0:0:0:
65,277,21621,1,8,3:0:0:0:
76,297,21704,5,12,3:0:0:0:
73,308,21788,1,4,3:0:0:0:
70,319,21871,1,4,3:0:0:0:
68,330,21954,1,4,3:0:0:0:
75,351,22038,5,8,2:0:0:0:
479,333,33371,6,0,B|408:309|427:377|340:350,1,128,2|0,3:0|3:0,2:0:0:0:
333,348,33788,1,0,3:0:0:0:
333,348,33871,1,2,3:0:0:0:
268,245,34038,2,0,P|293:226|335:228,1,64,8|0,2:0|3:0,2:0:0:0:
211,370,34371,2,0,P|179:357|131:344,1,64,2|0,2:0|3:0,2:0:0:0:
19,285,34704,6,0,P|64:272|158:238,1,128,2|0,2:0|2:0,2:0:0:0:
205,287,35204,1,2,3:0:0:0:
119,162,35371,2,0,P|127:134|135:97,1,64,8|0,2:0|2:0,2:0:0:0:
236,23,35704,2,0,P|242:54|251:85,1,64,2|0,2:0|2:0,2:0:0:0:
288,177,36038,6,0,P|326:145|407:162,1,128,2|0,3:0|3:0,2:0:0:0:
418,172,36454,1,0,3:0:0:0:
418,172,36538,1,2,3:0:0:0:
455,270,36704,2,0,P|445:307|438:345,1,64,8|0,2:0|2:0,2:0:0:0:
329,377,37038,2,0,P|322:345|314:314,1,64,2|0,3:0|2:0,2:0:0:0:
270,231,37371,2,0,B|242:198|199:221|199:221|181:255|146:253,1,128,2|0,2:0|2:0,2:0:0:0:
80,273,37871,1,0,3:0:0:0:
68,168,38038,5,8,2:0:0:0:
0,323,38204,1,0,3:0:0:0:
12,118,38371,5,10,2:0:0:0:
80,273,38538,1,0,3:0:0:0:
131,112,38704,6,0,P|161:88|254:97,1,128,6|0,3:2|3:0,2:0:0:0:
267,106,39121,1,0,3:0:0:0:
267,106,39204,1,2,3:0:0:0:
371,69,39371,2,0,B|402:57|402:57|450:72,1,64,8|0,2:0|3:0,2:0:0:0:
434,190,39704,2,0,B|403:202|403:202|355:187,1,64,2|0,2:0|3:0,2:0:0:0:
267,106,40038,5,2,2:0:0:0:
214,204,40204,2,0,L|235:276,1,64,0|0,3:0|2:0,2:0:0:0:
71,144,40538,1,2,3:0:0:0:
114,253,40704,2,0,L|93:325,1,64,8|0,2:0|2:0,2:0:0:0:
192,384,41038,2,0,P|224:376|265:367,1,64,2|0,2:0|2:0,2:0:0:0:
341,348,41371,5,2,3:0:0:0:
231,265,41538,1,0,2:0:0:0:
354,353,41704,1,2,3:0:0:0:
369,356,41788,1,0,3:0:0:0:
385,359,41871,1,0,3:0:0:0:
400,363,41954,1,0,3:0:0:0:
416,367,42038,6,0,P|406:338|398:304,1,64,8|0,2:0|3:0,2:0:0:0:
452,210,42371,1,0,2:0:0:0:
298,292,42538,2,0,P|308:263|316:229,1,64,0|0,3:0|2:0,2:0:0:0:
263,125,42871,1,0,3:0:0:0:
218,247,43038,1,0,2:0:0:0:
369,138,43204,5,0,3:0:0:0:
366,123,43288,1,0,3:0:0:0:
363,107,43371,1,8,2:0:0:0:
359,92,43454,1,0,3:0:0:0:
355,76,43538,1,0,3:0:0:0:
272,8,43704,5,8,2:0:0:0:
453,94,43871,1,8,2:0:0:0:
292,189,44038,6,0,B|251:181|251:181|226:197|226:197|168:187,1,108,6|0,3:2|2:0,2:0:0:0:
161,186,44371,1,8,2:0:0:0:
74,88,44538,2,0,P|104:51|205:74,1,144,2|0,3:0|3:0,2:0:0:0:
325,101,45038,2,0,L|409:82,1,72.0000000000001,10|0,2:0|2:0,2:0:0:0:
243,194,45371,2,0,P|217:240|251:296,1,108,2|0,3:0|2:0,2:0:0:0:
260,304,45704,1,8,2:0:0:0:
157,145,45871,2,0,L|73:126,1,72.0000000000001,2|0,3:0|2:0,2:0:0:0:
126,311,46204,1,0,3:0:0:0:
243,194,46371,2,0,L|262:109,1,72.0000000000001,10|0,2:0|2:0,2:0:0:0:
346,272,46704,6,0,P|373:247|452:253,1,108,2|0,3:0|2:0,2:0:0:0:
465,262,47038,1,8,2:0:0:0:
330,382,47204,2,0,P|293:371|243:359,1,72.0000000000001,0|0,3:0|2:0,2:0:0:0:
148,380,47538,1,0,3:0:0:0:
258,273,47704,2,0,B|272:240|272:240|258:200,1,72.0000000000001,10|0,2:0|2:0,2:0:0:0:
173,90,48038,6,0,P|161:128|191:165,1,72.0000000000001,2|0,3:0|2:0,2:0:0:0:
342,139,48371,2,0,P|315:109|268:117,1,72.0000000000001,10|0,2:0|2:0,2:0:0:0:
169,238,48704,1,2,3:0:0:0:
330,298,48871,1,0,3:0:0:0:
152,238,49038,2,0,P|123:249|77:263,1,72.0000000000001,10|0,2:0|2:0,2:0:0:0:
234,362,49371,6,0,P|279:347|360:322,1,108,6|0,3:2|2:0,2:0:0:0:
364,337,49704,1,8,2:0:0:0:
470,225,49871,2,0,P|434:216|391:203,1,72.0000000000001,2|0,3:0|2:0,2:0:0:0:
441,364,50204,1,0,3:0:0:0:
308,251,50371,2,0,P|292:221|301:178,1,72.0000000000001,10|0,2:0|2:0,2:0:0:0:
449,68,50704,6,0,P|409:96|342:69,1,108,2|0,3:0|2:0,2:0:0:0:
336,60,51038,1,8,2:0:0:0:
275,183,51204,2,0,P|269:218|285:249,1,72.0000000000001,2|0,3:0|2:0,2:0:0:0:
200,79,51538,1,0,3:0:0:0:
350,202,51704,2,0,P|385:207|416:191,1,72.0000000000001,10|0,2:0|2:0,2:0:0:0:
277,101,52038,5,2,3:0:0:0:
188,252,52204,1,0,2:0:0:0:
188,252,52371,1,8,2:0:0:0:
158,150,52538,5,0,3:0:0:0:
294,299,52704,1,0,2:0:0:0:
294,299,52871,1,0,3:0:0:0:
188,252,53038,2,0,P|214:243|261:227,1,72.0000000000001,8|0,2:0|2:0,2:0:0:0:
213,365,53371,5,0,3:0:0:0:
51,272,53538,1,8,2:0:0:0:
178,170,53704,5,0,3:0:0:0:
68,355,53871,1,0,3:0:0:0:
8,165,54038,2,0,P|34:174|81:190,1,72.0000000000001,10|0,2:0|2:0,2:0:0:0:
188,252,54371,5,10,2:0:0:0:
85,74,54538,1,8,2:0:0:0:
24,258,54704,5,14,2:0:0:0:
47,280,54788,1,0,2:0:0:0:
77,287,54871,1,0,2:0:0:0:
109,283,54954,1,0,2:0:0:0:
136,266,55038,1,8,2:0:0:0:
154,240,55121,1,0,2:0:0:0:
164,209,55204,5,2,2:0:0:0:
184,197,55288,1,0,2:0:0:0:
207,197,55371,1,8,2:0:0:0:
229,205,55454,1,0,2:0:0:0:
245,222,55538,1,0,2:0:0:0:
254,243,55621,1,0,2:0:0:0:
255,267,55704,2,0,P|252:289|220:319,3,40,10|0|0|0,2:0|2:0|2:0|2:0,2:0:0:0:
192,384,56038,5,10,2:0:0:0:
223,380,56121,1,0,2:0:0:0:
255,376,56204,1,0,2:0:0:0:
286,372,56288,1,0,2:0:0:0:
317,369,56371,2,0,L|359:363,3,40,8|0|0|0,2:0|2:0|2:0|2:0,2:0:0:0:
462,299,56704,2,0,L|420:293,3,40,8|0|0|0,2:0|2:0|2:0|2:0,2:0:0:0:
322,233,57038,2,0,L|364:227,3,40,10|0|0|0,2:0|2:0|2:0|2:0,2:0:0:0:
436,156,57371,5,10,2:0:0:0:
411,134,57454,1,0,2:0:0:0:
379,126,57538,1,0,2:0:0:0:
349,138,57621,1,0,2:0:0:0:
325,160,57704,1,8,2:0:0:0:
293,163,57788,1,0,2:0:0:0:
264,148,57871,2,0,P|246:132|245:93,1,40,2|0,2:0|2:0,2:0:0:0:
323,41,58038,2,0,P|318:64|284:84,3,40,10|0|0|0,2:0|2:0|2:0|2:0,2:0:0:0:
198,46,58371,2,0,P|220:38|255:57,3,40,10|0|0|0,2:0|2:0|2:0|2:0,2:0:0:0:
135,109,58704,5,10,2:0:0:0:
132,128,58788,1,0,2:0:0:0:
129,147,58871,1,0,2:0:0:0:
126,166,58954,1,0,2:0:0:0:
123,185,59038,1,8,2:0:0:0:
120,204,59121,1,0,2:0:0:0:
118,224,59204,1,0,2:0:0:0:
116,243,59288,1,0,2:0:0:0:
114,263,59371,2,0,P|106:304|103:343,1,80.0000000000001,10|0,2:0|2:0,2:0:0:0:
316,266,59704,2,0,P|312:224|305:186,1,80.0000000000001,10|0,2:0|2:0,2:0:0:0:
248,346,60038,5,14,2:0:0:0:
281,366,60121,1,0,2:0:0:0:
321,368,60204,1,0,2:0:0:0:
359,357,60288,1,0,2:0:0:0:
386,328,60371,1,8,2:0:0:0:
403,296,60454,1,0,2:0:0:0:
431,282,60538,1,0,2:0:0:0:
458,282,60621,1,0,2:0:0:0:
479,292,60704,2,0,P|487:320|489:353,3,40,10|0|0|0,2:0|2:0|2:0|2:0,2:0:0:0:
327,239,61038,2,0,P|319:267|317:300,3,40,8|0|0|0,2:0|2:0|2:0|2:0,2:0:0:0:
422,189,61371,5,10,2:0:0:0:
416,157,61454,1,0,2:0:0:0:
411,125,61538,1,0,2:0:0:0:
406,93,61621,1,0,2:0:0:0:
401,61,61704,2,0,L|392:14,3,40,8|0|0|0,2:0|2:0|2:0|2:0,2:0:0:0:
302,109,62038,5,10,2:0:0:0:
302,109,62121,1,0,2:0:0:0:
302,109,62204,2,0,L|255:118,1,40,0|0,2:0|2:0,2:0:0:0:
209,44,62371,5,8,2:0:0:0:
209,44,62454,1,0,2:0:0:0:
209,44,62538,2,0,L|162:35,1,40,0|0,2:0|2:0,2:0:0:0:
72,77,62704,5,10,2:0:0:0:
47,108,62788,1,0,2:0:0:0:
47,147,62871,1,0,2:0:0:0:
69,180,62954,1,0,2:0:0:0:
105,196,63038,1,10,2:0:0:0:
139,216,63121,1,0,2:0:0:0:
155,252,63204,1,0,2:0:0:0:
154,291,63288,1,0,2:0:0:0:
128,321,63371,1,10,2:0:0:0:
93,332,63454,1,0,2:0:0:0:
61,325,63538,1,0,2:0:0:0:
44,302,63621,1,0,2:0:0:0:
45,277,63704,1,10,2:0:0:0:
58,262,63788,1,0,2:0:0:0:
73,257,63871,1,0,2:0:0:0:
84,259,63954,1,0,2:0:0:0:
91,265,64038,6,0,P|79:291|59:308,3,40,10|0|0|0,2:0|2:0|2:0|2:0,2:0:0:0:
160,216,64371,2,0,P|174:240|177:266,3,40,8|0|0|0,2:0|2:0|2:0|2:0,2:0:0:0:
118,147,64704,2,0,P|71:149|32:147,1,80.0000000000001,10|0,2:0|2:0,2:0:0:0:
169,329,65038,2,0,P|216:327|255:329,1,80.0000000000001,10|0,2:0|2:0,2:0:0:0:
346,256,65371,5,14,2:0:0:0:
373,238,65454,1,0,2:0:0:0:
404,236,65538,1,0,2:0:0:0:
434,245,65621,1,0,2:0:0:0:
457,266,65704,2,0,P|461:294|456:316,3,40,8|0|0|0,2:0|2:0|2:0|2:0,2:0:0:0:
475,181,66038,2,0,P|500:193|515:209,3,40,8|0|0|0,2:0|2:0|2:0|2:0,2:0:0:0:
431,114,66371,2,0,P|455:99|477:96,3,40,10|0|0|0,2:0|2:0|2:0|2:0,2:0:0:0:
328,86,66704,5,10,2:0:0:0:
301,77,66788,1,0,2:0:0:0:
273,81,66871,1,0,2:0:0:0:
250,98,66954,1,0,2:0:0:0:
233,120,67038,1,8,2:0:0:0:
208,134,67121,1,0,2:0:0:0:
179,133,67204,1,0,2:0:0:0:
155,118,67288,1,0,2:0:0:0:
142,93,67371,2,0,P|137:64|153:36,3,40,8|0|0|0,2:0|2:0|2:0|2:0,2:0:0:0:
53,3,67704,2,0,P|57:59|53:104,1,80.0000000000001,10|0,2:0|2:0,2:0:0:0:
17,247,68038,5,10,2:0:0:0:
40,274,68121,1,0,2:0:0:0:
74,286,68204,1,0,2:0:0:0:
109,282,68288,1,0,2:0:0:0:
137,260,68371,1,8,2:0:0:0:
153,227,68454,1,0,2:0:0:0:
145,191,68538,2,0,P|169:209|202:216,1,40,2|0,2:0|2:0,2:0:0:0:
295,149,68704,2,0,P|267:160|244:185,3,40,10|0|0|0,2:0|2:0|2:0|2:0,2:0:0:0:
352,203,69038,2,0,P|379:214|402:239,3,40,10|0|0|0,2:0|2:0|2:0|2:0,2:0:0:0:
333,309,69371,5,10,2:0:0:0:
317,321,69454,1,0,2:0:0:0:
297,326,69538,1,0,2:0:0:0:
277,323,69621,1,0,2:0:0:0:
259,312,69704,1,8,2:0:0:0:
248,295,69788,1,0,2:0:0:0:
248,275,69871,1,0,2:0:0:0:
257,257,69954,1,0,2:0:0:0:
275,249,70038,2,0,P|286:293|283:356,1,80.0000000000001,10|0,2:0|2:0,2:0:0:0:
112,255,70371,2,0,P|113:215|124:176,1,80.0000000000001,10|0,2:0|2:0,2:0:0:0:
232,73,70704,5,14,2:0:0:0:
263,48,70788,1,0,2:0:0:0:
302,46,70871,1,0,2:0:0:0:
340,59,70954,1,0,2:0:0:0:
365,89,71038,1,8,2:0:0:0:
398,101,71121,1,0,2:0:0:0:
430,98,71204,1,0,2:0:0:0:
454,84,71288,1,0,2:0:0:0:
462,61,71371,5,10,2:0:0:0:
425,63,71454,1,0,2:0:0:0:
396,85,71538,1,0,2:0:0:0:
386,119,71621,1,0,2:0:0:0:
392,154,71704,2,0,P|405:175|439:191,3,40,8|0|0|0,2:0|2:0|2:0|2:0,2:0:0:0:
490,255,72038,5,10,2:0:0:0:
461,283,72121,1,0,2:0:0:0:
421,291,72204,1,0,2:0:0:0:
383,276,72288,1,0,2:0:0:0:
363,241,72371,1,8,2:0:0:0:
334,218,72454,1,0,2:0:0:0:
298,216,72538,1,0,2:0:0:0:
270,231,72621,1,0,2:0:0:0:
255,259,72704,2,0,P|252:280|260:309,3,40,10|0|0|0,2:0|2:0|2:0|2:0,2:0:0:0:
247,384,73038,2,0,P|230:370|201:363,3,40,8|0|0|0,2:0|2:0|2:0|2:0,2:0:0:0:
143,279,73371,5,10,3:2:0:0:
123,243,73454,1,0,2:0:0:0:
122,203,73538,1,0,3:0:0:0:
142,168,73621,1,0,2:0:0:0:
176,146,73704,1,8,3:2:0:0:
215,142,73788,1,0,2:0:0:0:
249,122,73871,1,0,3:0:0:0:
265,85,73954,1,0,2:0:0:0:
252,47,74038,2,0,L|198:57,1,40,8|4,3:2|3:0,2:0:0:0:
98,73,74204,5,4,3:0:0:0:
86,75,74288,1,0,2:0:0:0:
74,77,74371,1,8,3:2:0:0:
62,80,74454,1,8,3:0:0:0:
50,82,74538,1,8,3:0:0:0:
38,84,74621,1,8,3:0:0:0:
26,86,74704,1,4,3:0:0:0:
26,86,75704,6,0,P|31:108|35:129,1,32,2|0,3:0|2:0,2:0:0:0:
7,222,76038,2,0,L|80:206,1,64,2|0,3:0|3:0,2:0:0:0:
135,120,76371,2,0,L|208:136,1,64,2|0,2:0|3:0,2:0:0:0:
272,203,76704,1,10,2:0:0:0:
345,178,76871,2,0,P|336:147|327:105,1,64,0|2,2:0|3:0,2:0:0:0:
256,211,77204,1,0,3:0:0:0:
341,282,77371,6,0,P|383:293|469:318,1,128,2|0,2:0|3:0,2:0:0:0:
464,316,77871,1,0,2:0:0:0:
416,213,78038,2,0,P|425:182|434:140,1,64,8|0,2:0|2:0,2:0:0:0:
342,22,78371,2,0,P|362:38|364:88,1,64,0|0,3:0|3:0,2:0:0:0:
364,91,78621,1,0,2:0:0:0:
364,91,78704,6,0,P|332:82|297:71,1,64,2|0,3:0|2:0,2:0:0:0:
263,173,79038,2,0,P|232:181|201:191,1,64,2|0,3:0|2:0,2:0:0:0:
52,118,79371,1,10,2:0:0:0:
132,96,79538,2,0,B|142:127|142:127|125:159,1,64,0|2,2:0|3:0,2:0:0:0:
37,117,79871,1,0,2:0:0:0:
161,19,80038,2,0,B|228:-2|212:53|289:29,1,128,2|0,3:0|2:0,2:0:0:0:
283,30,80538,1,0,3:0:0:0:
255,139,80704,2,0,B|245:170|245:170|262:202,1,64,8|0,2:0|2:0,2:0:0:0:
416,186,81038,2,0,B|394:161|394:161|357:160,1,64,2|0,3:0|2:0,2:0:0:0:
350,167,81288,1,0,2:0:0:0:
350,167,81371,6,0,P|358:202|380:303,1,128,2|0,3:0|2:0,2:0:0:0:
377,291,81871,1,2,3:0:0:0:
499,230,82038,2,0,P|491:198|484:167,1,64,8|0,2:0|2:0,2:0:0:0:
397,108,82371,1,2,3:0:0:0:
507,53,82538,1,0,2:0:0:0:
374,187,82704,6,0,P|340:174|235:153,1,128,2|0,3:0|2:0,2:0:0:0:
250,154,83204,1,2,3:0:0:0:
90,170,83371,2,0,P|114:186|161:166,1,64,8|0,2:0|2:0,2:0:0:0:
210,30,83704,2,0,P|184:42|177:93,1,64,2|0,3:0|3:0,2:0:0:0:
250,154,84038,6,0,P|239:189|232:224,1,64,2|0,3:0|2:0,2:0:0:0:
173,337,84371,2,0,P|166:305|156:275,1,64,2|0,3:0|3:0,2:0:0:0:
297,326,84704,2,0,P|306:358|276:394,1,64,10|0,2:0|2:0,2:0:0:0:
321,233,85038,2,0,P|344:209|390:217,1,64,2|0,3:0|2:0,2:0:0:0:
197,297,85371,5,2,3:0:0:0:
197,297,85538,1,0,3:0:0:0:
172,212,85704,1,0,3:0:0:0:
172,212,85871,1,0,3:0:0:0:
108,321,86038,5,8,2:0:0:0:
266,247,86204,1,0,3:0:0:0:
101,174,86371,5,8,2:0:0:0:
185,371,86538,1,0,2:0:0:0:
96,163,86704,6,0,P|124:145|176:162,1,64,6|0,3:2|3:0,2:0:0:0:
154,252,87038,1,0,3:0:0:0:
322,181,87204,2,0,B|291:144|247:163|247:163|232:192|201:196,1,128,2|0,3:0|3:0,2:0:0:0:
185,326,87704,2,0,P|218:314|255:302,1,64,10|0,2:0|3:0,2:0:0:0:
425,300,88038,2,0,P|386:318|313:265,1,128,2|0,3:0|3:0,2:0:0:0:
412,156,88538,2,0,P|400:189|388:226,1,64,2|0,3:0|3:0,2:0:0:0:
434,308,88871,1,0,3:0:0:0:
287,183,89038,5,10,2:0:0:0:
341,363,89204,1,8,2:0:0:0:
293,164,89371,6,0,P|303:133|314:103,1,64,2|0,3:0|3:0,2:0:0:0:
271,17,89704,1,0,3:0:0:0:
157,119,89871,2,0,B|77:135|132:164|39:183,1,128,2|0,3:0|3:0,2:0:0:0:
139,45,90371,2,0,P|175:40|215:68,1,64,10|0,2:0|3:0,2:0:0:0:
212,173,90704,2,0,P|199:211|190:245,1,64,2|0,3:0|3:0,2:0:0:0:
298,98,91038,2,0,P|311:136|320:170,1,64,0|0,3:0|3:0,2:0:0:0:
339,238,91371,1,0,3:0:0:0:
339,238,91538,1,0,3:0:0:0:
504,108,91704,2,0,P|474:87|411:117,1,96,10|0,2:0|2:0,2:0:0:0:
417,118,92038,6,0,P|407:148|396:178,1,64,6|0,3:2|2:0,2:0:0:0:
451,268,92371,1,0,3:0:0:0:
307,194,92538,2,0,P|321:233|344:323,1,128,2|0,3:0|3:0,2:0:0:0:
425,381,93038,2,0,P|447:388|489:351,1,64,10|0,2:0|3:0,2:0:0:0:
506,224,93371,6,0,B|457:212|457:212|427:226|427:226|374:217,1,128,6|0,3:2|3:0,2:0:0:0:
281,231,93871,2,0,P|273:203|296:164,1,64,2|0,3:0|3:0,2:0:0:0:
334,40,94204,1,0,3:0:0:0:
403,61,94371,2,0,P|411:89|388:128,1,64,10|0,2:0|3:0,2:0:0:0:
388,133,94621,1,0,2:0:0:0:
388,133,94704,6,0,P|344:119|239:98,1,128,6|0,3:2|3:0,2:0:0:0:
200,33,95204,1,0,3:0:0:0:
135,78,95371,1,0,3:0:0:0:
77,30,95538,1,0,3:0:0:0:
77,30,95621,1,0,2:0:0:0:
77,30,95704,2,0,P|41:42|-2:52,1,64,10|2,2:0|3:0,2:0:0:0:
113,159,96038,2,0,P|143:167|174:177,1,64,4|0,3:2|3:0,2:0:0:0:
192,187,96288,1,0,2:0:0:0:
192,187,96371,1,0,3:0:0:0:
265,153,96538,1,0,3:0:0:0:
135,253,96704,5,8,2:0:0:0:
201,108,96871,1,0,3:0:0:0:
193,334,97038,5,8,2:0:0:0:
113,159,97204,1,8,2:0:0:0:
200,347,97371,6,0,P|236:323|312:339,1,108,6|0,3:2|2:0,2:0:0:0:
312,339,97704,1,8,2:0:0:0:
433,368,97871,2,0,B|475:311|475:311|423:228,1,144,2|0,3:0|3:0,2:0:0:0:
340,176,98371,2,0,L|322:250,1,72.0000000000001,10|0,2:0|2:0,2:0:0:0:
410,121,98704,6,0,P|376:87|305:97,1,108,2|0,3:0|2:0,2:0:0:0:
304,98,99038,1,8,2:0:0:0:
482,170,99204,2,0,L|500:96,1,72.0000000000001,2|0,3:0|2:0,2:0:0:0:
435,44,99538,1,0,3:0:0:0:
427,224,99704,2,0,P|450:245|498:241,1,72.0000000000001,10|0,2:0|2:0,2:0:0:0:
328,189,100038,6,0,B|297:160|258:181|258:181|244:202|220:208,1,108,2|0,3:2|2:0,2:0:0:0:
218,210,100371,1,8,2:0:0:0:
125,139,100538,2,0,P|132:107|141:58,1,72.0000000000001,0|0,3:0|2:0,2:0:0:0:
56,91,100871,1,0,3:0:0:0:
218,210,101038,2,0,P|211:178|202:129,1,72.0000000000001,10|0,2:0|2:0,2:0:0:0:
164,279,101371,6,0,P|195:300|251:277,1,72.0000000000001,2|0,3:0|2:0,2:0:0:0:
94,200,101704,2,0,P|58:197|29:217,1,72.0000000000001,10|0,2:0|2:0,2:0:0:0:
218,210,102038,1,2,3:0:0:0:
218,210,102204,1,0,3:0:0:0:
74,291,102371,5,10,2:0:0:0:
156,134,102538,1,0,3:0:0:0:
68,305,102704,6,0,P|110:320|208:355,1,144,6|8,3:2|2:0,2:0:0:0:
316,276,103204,2,0,B|295:309|295:309|305:343,1,72.0000000000001,2|0,3:0|2:0,2:0:0:0:
227,240,103538,1,0,3:0:0:0:
392,293,103704,2,0,B|400:260|400:260|380:227,1,72.0000000000001,10|0,2:0|2:0,2:0:0:0:
316,140,104038,6,0,P|276:160|216:122,1,108,2|0,3:0|2:0,2:0:0:0:
214,117,104371,1,8,2:0:0:0:
333,48,104538,2,0,P|371:59|424:71,1,72.0000000000001,2|0,3:0|2:0,2:0:0:0:
501,28,104871,1,0,3:0:0:0:
385,158,105038,2,0,P|347:147|294:135,1,72.0000000000001,10|0,2:0|2:0,2:0:0:0:
475,135,105371,5,2,3:2:0:0:
475,135,105538,1,0,3:0:0:0:
336,228,105704,1,8,2:0:0:0:
402,66,105871,5,0,3:0:0:0:
402,66,106038,1,0,2:0:0:0:
471,253,106204,1,0,3:0:0:0:
303,110,106371,2,0,P|316:63|322:30,1,72.0000000000001,8|0,2:0|3:0,2:0:0:0:
214,181,106704,5,0,3:0:0:0:
336,228,106871,1,8,2:0:0:0:
199,91,107038,5,0,3:0:0:0:
142,237,107204,1,0,3:0:0:0:
207,67,107371,5,10,2:0:0:0:
207,67,107454,1,8,2:0:0:0:
207,67,107538,2,0,L|198:16,1,36,8|0,2:0|2:0,2:0:0:0:
268,134,107704,2,0,L|259:185,3,36,10|8|8|8,2:0|2:0|2:0|2:0,2:0:0:0:
341,66,108038,5,14,2:0:0:0:
372,42,108121,1,0,2:0:0:0:
412,41,108204,1,0,2:0:0:0:
445,62,108288,1,0,2:0:0:0:
461,98,108371,1,8,2:0:0:0:
453,137,108454,1,0,2:0:0:0:
425,165,108538,5,2,2:0:0:0:
396,178,108621,1,0,2:0:0:0:
379,205,108704,1,8,2:0:0:0:
378,236,108788,1,0,2:0:0:0:
393,264,108871,1,0,2:0:0:0:
421,279,108954,1,0,2:0:0:0:
452,278,109038,2,0,P|461:258|444:230,3,40,10|0|0|0,2:0|2:0|2:0|2:0,2:0:0:0:
415,356,109371,5,10,2:0:0:0:
375,348,109454,1,0,2:0:0:0:
336,341,109538,1,0,2:0:0:0:
297,333,109621,1,0,2:0:0:0:
257,326,109704,2,0,L|249:368,3,40,8|0|0|0,2:0|2:0|2:0|2:0,2:0:0:0:
175,347,110038,2,0,L|184:308,3,40,8|0|0|0,2:0|2:0|2:0|2:0,2:0:0:0:
83,258,110371,2,0,L|91:297,3,40,10|0|0|0,2:0|2:0|2:0|2:0,2:0:0:0:
162,222,110704,5,10,2:0:0:0:
185,201,110788,1,0,2:0:0:0:
196,171,110871,1,0,2:0:0:0:
190,140,110954,1,0,2:0:0:0:
170,115,111038,1,8,2:0:0:0:
140,104,111121,1,0,2:0:0:0:
109,109,111204,2,0,P|101:121|113:153,1,40,2|0,2:0|2:0,2:0:0:0:
93,21,111371,2,0,P|86:8|52:2,3,40,10|0|0|0,2:0|2:0|2:0|2:0,2:0:0:0:
186,45,111704,2,0,P|200:45|222:19,3,40,10|0|0|0,2:0|2:0|2:0|2:0,2:0:0:0:
270,97,112038,5,10,2:0:0:0:
289,102,112121,1,0,2:0:0:0:
308,109,112204,1,0,2:0:0:0:
327,115,112288,1,0,2:0:0:0:
345,122,112371,1,8,2:0:0:0:
364,129,112454,1,0,2:0:0:0:
382,137,112538,1,0,2:0:0:0:
401,145,112621,1,0,2:0:0:0:
419,154,112704,2,0,P|410:123|400:68,1,80.0000000000001,10|0,2:0|2:0,2:0:0:0:
288,183,113038,2,0,P|298:221|305:260,1,80.0000000000001,10|0,2:0|2:0,2:0:0:0:
394,368,113371,5,14,2:0:0:0:
430,353,113454,1,0,2:0:0:0:
450,319,113538,1,0,2:0:0:0:
445,280,113621,1,0,2:0:0:0:
418,252,113704,1,8,2:0:0:0:
388,225,113788,1,0,2:0:0:0:
385,187,113871,1,0,2:0:0:0:
409,156,113954,1,0,2:0:0:0:
448,151,114038,2,0,L|401:135,3,40,10|0|0|0,2:0|2:0|2:0|2:0,2:0:0:0:
383,67,114371,2,0,L|335:83,3,40,8|0|0|0,2:0|2:0|2:0|2:0,2:0:0:0:
283,142,114704,5,10,2:0:0:0:
248,161,114788,1,0,2:0:0:0:
209,157,114871,1,0,2:0:0:0:
180,131,114954,1,0,2:0:0:0:
171,93,115038,2,0,L|180:43,3,40,8|0|0|0,2:0|2:0|2:0|2:0,2:0:0:0:
101,157,115371,5,10,2:0:0:0:
101,157,115454,1,0,2:0:0:0:
101,157,115538,2,0,P|106:173|118:208,1,40,0|0,2:0|2:0,2:0:0:0:
192,240,115704,5,8,2:0:0:0:
192,240,115788,1,0,2:0:0:0:
192,240,115871,2,0,P|187:256|175:291,1,40,0|0,2:0|2:0,2:0:0:0:
109,355,116038,5,10,2:0:0:0:
74,373,116121,1,0,2:0:0:0:
35,367,116204,1,0,2:0:0:0:
6,340,116288,1,0,2:0:0:0:
0,301,116371,1,10,2:0:0:0:
15,265,116454,1,0,2:0:0:0:
49,246,116538,1,0,2:0:0:0:
89,250,116621,1,0,2:0:0:0:
118,276,116704,1,10,2:0:0:0:
149,292,116788,1,0,2:0:0:0:
181,290,116871,1,0,2:0:0:0:
204,276,116954,1,0,2:0:0:0:
213,254,117038,1,10,2:0:0:0:
208,234,117121,1,0,2:0:0:0:
194,220,117204,1,0,2:0:0:0:
178,217,117288,1,0,2:0:0:0:
163,222,117371,6,0,P|151:243|152:264,3,40,10|0|0|0,2:0|2:0|2:0|2:0,2:0:0:0:
212,142,117704,2,0,P|207:122|191:111,3,40,8|0|0|0,2:0|2:0|2:0|2:0,2:0:0:0:
279,203,118038,2,0,P|332:217|367:228,1,80.0000000000001,10|0,2:0|2:0,2:0:0:0:
400,75,118371,2,0,P|361:65|322:53,1,80.0000000000001,10|0,2:0|2:0,2:0:0:0:
406,289,118704,5,14,2:0:0:0:
437,265,118788,1,0,2:0:0:0:
451,228,118871,1,0,2:0:0:0:
441,190,118954,1,0,2:0:0:0:
411,164,119038,2,0,P|397:172|389:205,3,40,8|0|0|0,2:0|2:0|2:0|2:0,2:0:0:0:
320,232,119371,2,0,P|319:248|343:272,3,40,8|0|0|0,2:0|2:0|2:0|2:0,2:0:0:0:
321,347,119704,2,0,P|335:355|367:346,3,40,10|0|0|0,2:0|2:0|2:0|2:0,2:0:0:0:
237,292,120038,5,10,2:0:0:0:
212,271,120121,1,0,2:0:0:0:
181,264,120204,1,0,2:0:0:0:
151,272,120288,1,0,2:0:0:0:
127,294,120371,1,8,2:0:0:0:
102,314,120454,1,0,2:0:0:0:
71,321,120538,1,0,2:0:0:0:
41,313,120621,1,0,2:0:0:0:
17,291,120704,2,0,P|25:268|34:227,3,40,8|0|0|0,2:0|2:0|2:0|2:0,2:0:0:0:
102,206,121038,2,0,P|91:165|80:107,1,80.0000000000001,10|0,2:0|2:0,2:0:0:0:
26,55,121371,5,10,2:0:0:0:
59,34,121454,1,0,2:0:0:0:
98,34,121538,1,0,2:0:0:0:
132,55,121621,1,0,2:0:0:0:
165,76,121704,1,8,2:0:0:0:
204,76,121788,1,0,2:0:0:0:
238,55,121871,2,0,P|250:36|240:9,1,40,2|0,2:0|2:0,2:0:0:0:
185,152,122038,2,0,L|197:200,3,40,10|0|0|0,2:0|2:0|2:0|2:0,2:0:0:0:
279,171,122371,2,0,L|269:132,3,40,10|0|0|0,2:0|2:0|2:0|2:0,2:0:0:0:
269,267,122704,5,10,2:0:0:0:
285,284,122788,1,0,2:0:0:0:
307,293,122871,1,0,2:0:0:0:
331,293,122954,1,0,2:0:0:0:
352,283,123038,1,8,2:0:0:0:
368,266,123121,1,0,2:0:0:0:
376,243,123204,1,0,2:0:0:0:
374,219,123288,1,0,2:0:0:0:
363,198,123371,2,0,P|352:240|337:291,1,80.0000000000001,10|0,2:0|2:0,2:0:0:0:
470,322,123704,2,0,P|481:280|496:229,1,80.0000000000001,10|0,2:0|2:0,2:0:0:0:
418,148,124038,5,14,2:0:0:0:
396,124,124121,1,0,2:0:0:0:
366,113,124204,1,0,2:0:0:0:
335,116,124288,1,0,2:0:0:0:
308,133,124371,1,8,2:0:0:0:
286,156,124454,1,0,2:0:0:0:
256,167,124538,1,0,2:0:0:0:
225,164,124621,1,0,2:0:0:0:
198,147,124704,5,10,2:0:0:0:
220,169,124788,1,0,2:0:0:0:
229,199,124871,1,0,2:0:0:0:
221,230,124954,1,0,2:0:0:0:
200,254,125038,2,0,P|182:263|143:240,3,40,8|0|0|0,2:0|2:0|2:0|2:0,2:0:0:0:
263,328,125371,5,10,2:0:0:0:
296,300,125454,1,0,2:0:0:0:
340,296,125538,1,0,2:0:0:0:
378,316,125621,1,0,2:0:0:0:
400,353,125704,1,8,2:0:0:0:
436,370,125788,1,0,2:0:0:0:
473,359,125871,1,0,2:0:0:0:
496,327,125954,1,0,2:0:0:0:
492,288,126038,1,14,3:2:0:0:
495,272,126121,1,0,2:0:0:0:
497,256,126204,1,4,3:0:0:0:
500,241,126288,1,4,3:0:0:0:
502,225,126371,5,8,2:0:0:0:
365,323,126538,1,8,2:0:0:0:
313,115,126704,5,10,2:0:0:0:
424,249,126871,1,8,2:0:0:0:
424,249,127204,5,0,3:0:0:0:
388,156,127371,2,0,P|394:119|413:41,1,96,8|0,2:0|2:0,2:0:0:0:
413,47,127704,1,0,3:0:0:0:
317,192,127871,2,0,P|329:228|340:265,1,64,0|0,3:0|2:0,2:0:0:0:
310,328,128204,1,0,3:0:0:0:
423,223,128371,2,0,B|468:212|468:212|510:240,1,96,0|0,3:0|2:0,2:0:0:0:
510,255,128704,5,10,2:0:0:0:
426,122,128871,1,2,3:0:0:0:
362,265,129038,2,0,P|336:280|267:244,1,96,2|0,3:0|2:0,2:0:0:0:
266,248,129371,5,0,3:0:0:0:
344,364,129538,2,0,P|377:351|419:338,1,64,0|0,3:0|2:0,2:0:0:0:
209,305,129871,1,0,3:0:0:0:
329,201,130038,2,0,P|344:170|319:101,1,96,8|0,2:0|2:0,2:0:0:0:
319,100,130371,1,0,3:0:0:0:
175,158,130538,2,0,P|231:172|251:156,1,64,0|0,3:0|2:0,2:0:0:0:
189,22,130871,1,0,3:0:0:0:
89,112,131038,2,0,P|75:168|91:188,1,64,0|0,3:0|3:0,2:0:0:0:
87,187,131288,1,0,2:0:0:0:
87,187,131371,6,0,L|73:256,1,64,10|0,2:0|2:0,2:0:0:0:
13,370,131704,2,0,P|56:356|124:337,1,96,2|0,3:0|2:0,2:0:0:0:
119,348,132038,5,6,3:2:0:0:
231,384,132204,2,0,B|243:355|243:355|232:314,1,64,0|0,3:0|2:0,2:0:0:0:
195,229,132538,1,0,3:0:0:0:
317,309,132704,2,0,B|371:294|358:328|419:313,1,96,8|0,2:0|2:0,2:0:0:0:
426,311,133038,1,0,3:0:0:0:
328,169,133204,2,0,B|315:200|315:200|330:235,1,64,0|0,3:0|2:0,2:0:0:0:
459,187,133538,1,0,3:0:0:0:
346,85,133704,2,0,P|315:62|247:86,1,96,0|0,3:0|2:0,2:0:0:0:
251,83,134038,6,0,P|226:100|176:85,1,64,10|0,2:0|3:0,2:0:0:0:
135,173,134371,2,0,P|107:159|93:91,1,96,2|0,2:0|2:0,2:0:0:0:
95,85,134704,5,2,3:0:0:0:
19,204,134871,2,0,P|27:240|36:282,1,64,0|0,3:0|2:0,2:0:0:0:
13,374,135204,1,0,3:0:0:0:
131,277,135371,2,0,B|168:268|168:268|189:275|189:275|243:262,1,96,8|0,2:0|2:0,2:0:0:0:
239,262,135704,1,0,3:0:0:0:
200,197,135871,1,0,3:0:0:0:
166,353,136038,5,8,2:0:0:0:
279,197,136204,1,0,3:0:0:0:
137,135,136371,1,8,2:0:0:0:
239,262,136538,1,0,3:0:0:0:
239,262,136621,1,0,2:0:0:0:
239,262,136704,6,0,L|226:302,1,32,8|0,2:0|2:0,2:0:0:0:
144,143,136871,2,0,L|157:103,1,32,0|0,3:0|2:0,2:0:0:0:
115,221,137038,1,0,3:0:0:0:
62,162,137204,1,0,3:0:0:0:
6,317,137371,6,0,B|64:294|64:294|124:338,1,128,6|0,3:2|2:0,2:0:0:0:
116,332,137871,1,0,3:0:0:0:
240,228,138038,2,0,P|213:213|165:229,1,64,8|0,2:0|2:0,2:0:0:0:
226,369,138371,1,0,3:0:0:0:
327,273,138538,2,0,P|341:246|325:198,1,64,0|0,3:0|2:0,2:0:0:0:
279,155,138871,1,0,3:0:0:0:
365,343,139038,2,0,P|408:354|473:376,1,96,0|0,3:0|2:0,2:0:0:0:
472,375,139371,6,0,P|458:340|471:304,1,64,10|0,2:0|3:0,2:0:0:0:
391,231,139704,2,0,P|412:190|382:129,1,96,0|0,3:0|2:0,2:0:0:0:
382,141,140038,5,2,3:0:0:0:
302,261,140204,2,0,L|317:340,1,64,0|0,3:0|2:0,2:0:0:0:
298,239,140538,1,0,3:0:0:0:
192,356,140704,2,0,L|215:212,1,128,8|0,2:0|3:0,2:0:0:0:
255,156,141204,2,0,P|228:141|186:149,1,64,0|0,3:0|2:0,2:0:0:0:
369,214,141538,1,0,3:0:0:0:
293,88,141704,2,0,P|320:73|362:81,1,64,0|0,3:0|3:0,2:0:0:0:
371,83,141954,1,0,2:0:0:0:
371,83,142038,6,0,P|403:77|445:65,1,64,10|0,2:0|2:0,2:0:0:0:
477,161,142371,2,0,P|431:172|364:192,1,96,2|0,3:0|2:0,2:0:0:0:
369,191,142704,5,6,3:2:0:0:
450,304,142871,2,0,P|441:339|434:375,1,64,0|0,3:0|2:0,2:0:0:0:
457,286,143204,1,0,3:0:0:0:
330,382,143371,2,0,P|323:350|297:249,1,128,8|0,2:0|3:0,2:0:0:0:
164,318,143871,2,0,B|194:331|194:331|231:320,1,64,0|0,3:0|2:0,2:0:0:0:
189,184,144204,1,0,3:0:0:0:
63,275,144371,2,0,P|77:299|52:369,1,96,0|0,3:0|2:0,2:0:0:0:
60,361,144704,6,0,P|34:351|-6:338,1,64,10|0,2:0|3:0,2:0:0:0:
153,307,145038,2,0,P|178:297|252:278,1,96,2|0,3:0|2:0,2:0:0:0:
259,286,145371,5,2,3:0:0:0:
116,209,145538,2,0,B|105:180|105:180|116:143,1,64,0|0,3:0|2:0,2:0:0:0:
149,39,145871,1,0,3:0:0:0:
31,143,146038,2,0,B|42:114|42:114|31:77,1,64,8|0,2:0|2:0,2:0:0:0:
149,39,146371,1,0,3:0:0:0:
149,39,146538,1,0,3:0:0:0:
187,128,146704,5,10,2:0:0:0:
68,7,146871,1,8,2:0:0:0:
32,159,147038,5,8,2:0:0:0:
231,62,147204,1,0,3:0:0:0:
231,62,147288,1,0,2:0:0:0:
231,62,147371,2,0,L|222:17,1,32,10|0,2:0|2:0,2:0:0:0:
108,166,147538,2,0,L|99:211,1,32,0|0,3:0|3:0,2:0:0:0:
81,97,147704,1,0,3:0:0:0:
183,182,147871,1,0,3:0:0:0:
8,284,148038,6,0,B|74:262|63:316|132:293,1,128,6|0,3:2|3:0,2:0:0:0:
130,293,148538,1,0,3:0:0:0:
257,281,148704,2,0,P|267:303|248:353,1,64,8|0,2:0|3:0,2:0:0:0:
183,182,149038,2,0,P|197:162|249:153,1,64,0|0,3:0|3:0,2:0:0:0:
326,214,149371,5,2,3:0:0:0:
359,132,149538,1,0,3:0:0:0:
326,214,149704,2,0,P|334:242|344:283,1,64,0|0,3:0|3:0,2:0:0:0:
234,308,150038,5,10,2:0:0:0:
183,182,150204,1,0,3:0:0:0:
234,308,150371,2,0,P|224:341|212:390,1,64,0|0,3:0|3:0,2:0:0:0:
98,125,150704,5,2,3:0:0:0:
37,277,150871,1,0,3:0:0:0:
98,125,151038,2,0,P|86:84|76:40,1,64,0|0,3:0|3:0,2:0:0:0:
240,202,151371,2,0,P|269:211|298:199,1,64,8|0,2:0|3:0,2:0:0:0:
256,71,151704,1,0,3:0:0:0:
160,174,151871,2,0,P|150:203|162:232,1,64,0|0,3:0|3:0,2:0:0:0:
252,88,152204,1,0,3:0:0:0:
371,219,152371,2,0,P|383:172|398:127,1,96,0|0,3:0|2:0,2:0:0:0:
407,113,152704,6,0,P|385:119|345:97,1,64,10|0,2:0|3:0,2:0:0:0:
341,88,152954,1,0,2:0:0:0:
341,88,153038,1,10,2:0:0:0:
397,38,153204,1,0,3:0:0:0:
297,170,153371,6,0,B|233:143|237:202|172:177,1,128,6|0,3:2|3:0,2:0:0:0:
198,105,153871,1,0,3:0:0:0:
100,210,154038,2,0,B|87:179|87:179|99:144,1,64,8|0,2:0|3:0,2:0:0:0:
52,72,154371,1,0,3:0:0:0:
174,178,154538,2,0,B|187:209|187:209|175:244,1,64,0|0,3:0|3:0,2:0:0:0:
113,292,154871,1,0,3:0:0:0:
198,105,155038,2,0,B|238:97|238:97|248:101|248:101|308:89,1,96,0|0,3:0|2:0,2:0:0:0:
307,90,155371,6,0,P|319:68|296:24,1,64,10|0,2:0|3:0,2:0:0:0:
267,190,155704,2,0,P|280:211|329:213,1,64,2|0,3:0|3:0,2:0:0:0:
198,105,156038,2,0,P|172:105|146:147,1,64,2|0,3:0|3:0,2:0:0:0:
179,208,156371,1,0,3:0:0:0:
179,208,156538,1,0,3:0:0:0:
355,155,156704,6,0,P|396:167|486:187,1,128,8|0,2:0|3:0,2:0:0:0:
479,185,157204,1,0,3:0:0:0:
384,82,157371,2,0,P|359:72|316:88,1,64,10|0,2:0|3:0,2:0:0:0:
238,207,157704,2,0,P|213:217|170:201,1,64,10|0,2:0|3:0,2:0:0:0:
213,110,158038,5,10,2:0:0:0:
296,272,158204,1,8,2:0:0:0:
178,207,158371,5,8,2:0:0:0:
261,45,158538,1,8,2:0:0:0:
363,228,158704,6,0,B|394:199|429:220|429:220|442:248|477:250,1,108,6|0,3:2|2:0,2:0:0:0:
471,249,159038,1,8,2:0:0:0:
283,275,159204,2,0,P|265:246|310:155,1,144,0|0,2:0|3:0,2:0:0:0:
361,315,159704,2,0,P|349:355|341:396,1,72.0000000000001,10|0,2:0|2:0,2:0:0:0:
209,325,160038,2,0,B|167:314|167:314|143:325|143:325|99:315,1,108,2|0,3:0|2:0,2:0:0:0:
88,311,160371,1,8,2:0:0:0:
233,216,160538,2,0,L|310:198,1,72.0000000000001,0|0,2:0|3:0,2:0:0:0:
152,180,160871,1,0,3:0:0:0:
294,285,161038,2,0,B|315:337|315:337|285:388,1,108,10|0,2:0|2:0,2:0:0:0:
271,378,161371,6,0,L|403:345,1,108,6|0,3:2|2:0,2:0:0:0:
396,349,161704,1,8,2:0:0:0:
396,349,161871,1,2,2:0:0:0:
285,205,162038,2,0,L|376:228,1,72.0000000000001,2|0,3:0|3:0,2:0:0:0:
471,120,162371,2,0,L|380:143,1,72.0000000000001,10|0,2:0|2:0,2:0:0:0:
277,24,162704,2,0,P|325:9|371:63,1,108,2|0,3:0|2:0,2:0:0:0:
373,58,163038,1,8,2:0:0:0:
297,102,163204,1,0,3:0:0:0:
438,7,163371,5,10,2:0:0:0:
401,193,163538,1,0,3:0:0:0:
297,102,163704,5,10,2:0:0:0:
483,139,163871,1,0,3:0:0:0:
483,139,163954,1,0,3:0:0:0:
483,139,164038,6,0,B|490:166|490:166|477:194,2,48,2|0|0,3:0|2:0|2:0,2:0:0:0:
503,263,164371,6,0,B|483:282|483:282|452:285,2,48,10|0|0,2:0|2:0|2:0,2:0:0:0:
381,328,164704,5,2,3:0:0:0:
381,328,164815,2,0,L|331:311,1,48,0|0,2:0|2:0,2:0:0:0:
273,243,165038,5,10,2:0:0:0:
273,243,165149,2,0,L|223:260,1,48,0|0,2:0|2:0,2:0:0:0:
119,347,165371,6,0,P|142:348|162:335,2,48,2|0|0,3:0|2:0|2:0,2:0:0:0:
138,244,165704,6,0,P|150:224|149:200,2,48,10|0|0,2:0|2:0|2:0,2:0:0:0:
14,147,166038,5,2,3:0:0:0:
0,167,166149,2,0,P|7:187|15:216,1,48,0|0,2:0|2:0,2:0:0:0:
117,96,166371,5,10,2:0:0:0:
131,76,166482,2,0,P|124:56|116:27,1,48,2|2,2:0|2:0,2:0:0:0:
223,145,166704,6,0,P|269:154|370:177,1,144,6|8,3:2|2:0,2:0:0:0:
423,237,167204,2,0,P|450:217|496:218,1,72.0000000000001,0|2,2:0|3:0,2:0:0:0:
507,225,167454,1,0,2:0:0:0:
507,225,167538,1,0,2:0:0:0:
406,362,167704,2,0,P|366:352|315:345,1,72.0000000000001,10|0,2:0|2:0,2:0:0:0:
220,384,168038,5,10,2:0:0:0:
338,232,168204,1,10,2:0:0:0:
180,182,168371,5,10,2:0:0:0:
274,303,168538,1,10,2:0:0:0:
348,152,168704,5,10,3:0:0:0:
251,227,168871,1,8,3:0:0:0:
338,232,169038,1,6,3:0:0:0:
338,232,169204,1,4,3:0:0:0:
220,114,169371,6,0,P|191:99|140:110,1,72.0000000000001,6|2,3:2|3:0,2:0:0:0:
180,258,169704,1,10,2:0:0:0:
299,156,169871,2,0,L|318:71,1,72.0000000000001,2|0,2:0|3:0,2:0:0:0:
242,23,170204,1,2,3:0:0:0:
394,144,170371,1,10,2:0:0:0:
394,144,170454,1,2,2:0:0:0:
394,144,170538,2,0,P|411:137|448:127,1,36,2|0,2:0|2:0,2:0:0:0:
305,245,170704,6,0,P|293:273|314:323,1,72.0000000000001,2|2,3:0|2:0,2:0:0:0:
432,269,171038,1,10,2:0:0:0:
313,171,171204,2,0,P|279:164|231:151,1,72.0000000000001,2|0,2:0|3:0,2:0:0:0:
194,235,171538,1,2,2:0:0:0:
298,91,171704,1,10,2:0:0:0:
210,48,171871,1,2,2:0:0:0:
210,48,171954,1,2,2:0:0:0:
210,48,172038,1,2,3:0:0:0:
282,200,172204,5,2,3:0:0:0:
210,48,172371,1,8,2:0:0:0:
377,61,172538,1,0,2:0:0:0:
222,256,172704,5,2,3:0:0:0:
270,119,172871,1,2,3:0:0:0:
363,228,173038,1,8,2:0:0:0:
282,200,173204,5,2,2:0:0:0:
353,145,173371,2,0,P|390:155|431:164,1,72.0000000000001,2|0,3:0|3:0,2:0:0:0:
303,284,173704,5,10,2:0:0:0:
303,284,173871,1,2,2:0:0:0:
270,119,174038,5,10,2:0:0:0:
380,300,174204,1,2,3:0:0:0:
337,72,174371,5,10,2:0:0:0:
227,253,174538,1,2,3:0:0:0:
346,56,174704,6,0,P|355:91|365:126,1,72.0000000000001,6|2,3:2|2:0,2:0:0:0:
328,207,175038,1,8,2:0:0:0:
209,102,175204,2,0,P|200:137|190:172,1,72.0000000000001,2|2,2:0|3:0,2:0:0:0:
227,253,175538,1,0,3:0:0:0:
118,118,175704,1,10,2:0:0:0:
118,118,175871,1,2,2:0:0:0:
275,39,176038,6,0,P|318:50|359:58,1,72.0000000000001,2|2,3:0|2:0,2:0:0:0:
397,146,176371,1,8,2:0:0:0:
300,234,176538,2,0,P|288:191|274:151,1,72.0000000000001,2|2,2:0|3:0,2:0:0:0:
410,149,176871,1,0,3:0:0:0:
330,301,177038,1,10,2:0:0:0:
330,301,177204,1,2,3:0:0:0:
189,177,177371,6,0,P|198:142|209:108,1,72.0000000000001,6|2,3:2|2:0,2:0:0:0:
162,256,177704,1,8,2:0:0:0:
31,223,177871,2,0,P|21:188|10:154,1,72.0000000000001,2|2,2:0|3:0,2:0:0:0:
58,302,178204,1,0,3:0:0:0:
71,110,178371,2,0,P|93:88|147:94,1,72.0000000000001,10|2,2:0|2:0,2:0:0:0:
152,95,178621,1,0,2:0:0:0:
152,95,178704,5,2,3:0:0:0:
104,187,178871,1,10,2:0:0:0:
122,0,179038,5,10,2:0:0:0:
250,67,179204,1,10,2:0:0:0:
183,195,179371,1,10,2:0:0:0:
55,128,179538,1,10,3:0:0:0:
152,95,179704,1,6,3:0:0:0:
152,95,179871,1,10,3:0:0:0:
256,227,180038,6,0,B|311:205|308:253|370:227,1,108,6|0,3:2|2:0,2:0:0:0:
377,226,180371,1,8,2:0:0:0:
348,78,180538,2,0,P|311:72|274:106,1,72.0000000000001,2|0,3:0|2:0,2:0:0:0:
377,226,180871,1,0,3:0:0:0:
477,133,181038,2,0,P|483:96|449:59,1,72.0000000000001,10|0,2:0|2:0,2:0:0:0:
377,226,181371,6,0,P|359:255|385:327,1,108,2|0,3:0|2:0,2:0:0:0:
394,330,181704,1,8,2:0:0:0:
307,190,181871,2,0,B|274:176|274:176|238:195,1,72.0000000000001,2|0,3:0|2:0,2:0:0:0:
446,274,182204,1,0,3:0:0:0:
368,138,182371,2,0,B|354:105|354:105|373:69,1,72.0000000000001,10|0,2:0|2:0,2:0:0:0:
316,268,182704,6,0,P|278:280|192:311,1,108,2|0,3:0|2:0,2:0:0:0:
197,311,183038,1,8,2:0:0:0:
372,211,183204,2,0,P|390:233|385:286,1,72.0000000000001,0|0,2:0|3:0,2:0:0:0:
242,192,183538,1,0,3:0:0:0:
321,89,183704,2,0,L|399:72,1,72.0000000000001,10|0,2:0|2:0,2:0:0:0:
230,198,184038,6,0,P|203:187|181:139,1,72.0000000000001,2|0,3:0|2:0,2:0:0:0:
382,218,184371,2,0,P|400:240|395:293,1,72.0000000000001,10|0,2:0|2:0,2:0:0:0:
259,131,184704,1,2,3:0:0:0:
302,293,184871,1,0,3:0:0:0:
251,115,185038,2,0,P|261:81|271:41,1,72.0000000000001,10|0,2:0|3:0,2:0:0:0:
51,158,185371,6,0,P|103:145|153:206,1,108,6|0,3:2|2:0,2:0:0:0:
153,190,185704,1,8,2:0:0:0:
69,324,185871,2,0,P|25:336|-17:349,1,72.0000000000001,2|0,3:0|2:0,2:0:0:0:
167,293,186204,1,0,2:0:0:0:
0,221,186371,2,0,P|44:233|86:246,1,72.0000000000001,10|0,2:0|2:0,2:0:0:0:
172,304,186704,6,0,P|216:287|292:265,1,108,2|0,3:0|2:0,2:0:0:0:
291,271,187038,1,8,2:0:0:0:
395,324,187204,2,0,P|418:334|476:301,1,72.0000000000001,2|0,3:0|2:0,2:0:0:0:
398,179,187538,1,0,3:0:0:0:
291,271,187704,2,0,P|281:294|314:352,1,72.0000000000001,10|0,2:0|2:0,2:0:0:0:
398,179,188038,5,2,3:0:0:0:
398,179,188204,1,0,3:0:0:0:
246,120,188371,1,8,2:0:0:0:
375,246,188538,5,2,3:0:0:0:
375,246,188704,1,0,2:0:0:0:
441,70,188871,1,0,3:0:0:0:
317,16,189038,2,0,P|332:59|355:143,1,108,10|0,2:0|2:0,2:0:0:0:
363,144,189371,5,10,2:0:0:0:
287,299,189538,1,10,2:0:0:0:
458,177,189704,5,10,2:0:0:0:
304,219,189871,1,10,2:0:0:0:
443,269,190038,2,0,L|529:294,1,72.0000000000001,10|0,2:0|3:0,2:0:0:0:
363,150,190371,5,10,2:0:0:0:
287,299,190538,1,0,3:0:0:0:
273,91,190704,5,10,2:0:0:0:
364,269,190871,1,8,2:0:0:0:
364,269,192038,5,10,2:0:0:0:
273,91,192204,1,8,2:0:0:0:
273,91,193371,6,0,L|293:175,1,72.0000000000001,10|0,2:0|3:0,2:0:0:0:
190,151,193704,1,0,3:0:0:0:
378,40,193871,2,0,L|358:124,1,72.0000000000001,10|2,2:0|3:0,2:0:0:0:
461,100,194204,1,0,3:0:0:0:
300,9,194371,2,0,P|263:-1|199:41,1,108,10|0,2:0|2:0,2:0:0:0:
200,50,194704,5,2,3:0:0:0:
112,13,194871,1,8,3:0:0:0:
190,151,195038,5,4,3:0:0:0:
261,121,195204,1,8,3:0:0:0:
106,145,195371,6,0,P|119:186|130:224,1,72.0000000000001,10|0,2:0|3:0,2:0:0:0:
231,299,195704,1,6,3:0:0:0:
231,299,195871,1,0,3:0:0:0:
106,349,196038,5,14,2:0:0:0:
67,341,196121,1,0,2:0:0:0:
44,310,196204,1,0,2:0:0:0:
50,271,196288,1,0,2:0:0:0:
80,247,196371,1,8,2:0:0:0:
119,239,196454,1,0,2:0:0:0:
142,208,196538,1,0,2:0:0:0:
136,169,196621,1,0,2:0:0:0:
106,145,196704,2,0,L|118:193,3,40,10|0|0|0,2:0|2:0|2:0|2:0,2:0:0:0:
209,94,197038,2,0,L|197:142,3,40,8|0|0|0,2:0|2:0|2:0|2:0,2:0:0:0:
253,218,197371,5,10,2:0:0:0:
286,239,197454,1,0,2:0:0:0:
325,237,197538,1,0,2:0:0:0:
356,213,197621,1,0,2:0:0:0:
368,175,197704,2,0,L|355:122,3,40,8|0|0|0,2:0|2:0|2:0|2:0,2:0:0:0:
407,25,198038,5,10,2:0:0:0:
407,25,198121,1,0,2:0:0:0:
407,25,198204,2,0,L|420:78,1,40,0|0,2:0|2:0,2:0:0:0:
481,120,198371,5,8,2:0:0:0:
481,120,198454,1,0,2:0:0:0:
481,120,198538,2,0,L|468:173,1,40,0|0,2:0|2:0,2:0:0:0:
375,165,198704,5,10,2:0:0:0:
351,196,198788,1,0,2:0:0:0:
350,236,198871,1,0,2:0:0:0:
371,269,198954,1,0,2:0:0:0:
407,284,199038,1,10,2:0:0:0:
373,263,199121,1,0,2:0:0:0:
334,263,199204,1,0,2:0:0:0:
301,285,199288,1,0,2:0:0:0:
284,320,199371,1,10,2:0:0:0:
265,350,199454,1,0,2:0:0:0:
237,364,199538,1,0,2:0:0:0:
209,362,199621,1,0,2:0:0:0:
191,346,199704,1,10,2:0:0:0:
185,327,199788,1,0,2:0:0:0:
189,307,199871,1,0,2:0:0:0:
201,296,199954,1,0,2:0:0:0:
216,293,200038,6,0,P|221:304|206:328,3,40,10|0|0|0,2:0|2:0|2:0|2:0,2:0:0:0:
175,221,200371,2,0,P|182:211|210:212,3,40,8|0|0|0,2:0|2:0|2:0|2:0,2:0:0:0:
116,295,200704,2,0,P|80:307|29:326,1,80.0000000000001,10|0,2:0|2:0,2:0:0:0:
0,187,201038,2,0,P|36:175|87:156,1,80.0000000000001,10|0,2:0|2:0,2:0:0:0:
211,160,201371,5,14,2:0:0:0:
238,132,201454,1,0,2:0:0:0:
242,92,201538,1,0,2:0:0:0:
221,59,201621,1,0,2:0:0:0:
184,47,201704,2,0,L|174:96,3,40,8|0|0|0,2:0|2:0|2:0|2:0,2:0:0:0:
100,70,202038,2,0,L|110:21,3,40,8|0|0|0,2:0|2:0|2:0|2:0,2:0:0:0:
0,0,202371,2,0,L|10:49,3,40,10|0|0|0,2:0|2:0|2:0|2:0,2:0:0:0:
0,175,202704,5,10,2:0:0:0:
21,152,202788,1,0,2:0:0:0:
52,144,202871,1,0,2:0:0:0:
82,153,202954,1,0,2:0:0:0:
103,176,203038,1,8,2:0:0:0:
124,198,203121,1,0,2:0:0:0:
155,206,203204,1,0,2:0:0:0:
185,197,203288,1,0,2:0:0:0:
206,174,203371,2,0,P|199:153|194:124,3,40,8|0|0|0,2:0|2:0|2:0|2:0,2:0:0:0:
287,203,203704,2,0,P|273:247|261:293,1,80.0000000000001,10|0,2:0|2:0,2:0:0:0:
211,352,204038,5,10,2:0:0:0:
244,372,204121,1,0,2:0:0:0:
284,376,204204,1,0,2:0:0:0:
321,362,204288,1,0,2:0:0:0:
348,333,204371,1,8,2:0:0:0:
360,295,204454,1,0,2:0:0:0:
353,256,204538,2,0,L|366:203,1,40,2|0,2:0|2:0,2:0:0:0:
450,165,204704,2,0,B|456:186|456:186|448:202,3,40,10|0|0|0,2:0|2:0|2:0|2:0,2:0:0:0:
386,98,205038,2,0,B|401:82|401:82|419:81,3,40,10|0|0|0,2:0|2:0|2:0|2:0,2:0:0:0:
316,150,205371,5,10,2:0:0:0:
300,162,205454,1,0,2:0:0:0:
282,170,205538,1,0,2:0:0:0:
262,171,205621,1,0,2:0:0:0:
242,167,205704,1,8,2:0:0:0:
225,157,205788,1,0,2:0:0:0:
211,142,205871,1,0,2:0:0:0:
203,124,205954,1,0,2:0:0:0:
200,105,206038,2,0,P|209:68|217:17,1,80.0000000000001,10|0,2:0|2:0,2:0:0:0:
376,0,206371,2,0,P|367:37|359:88,1,80.0000000000001,10|0,2:0|2:0,2:0:0:0:
416,192,206704,5,10,2:0:0:0:
395,168,206788,1,0,2:0:0:0:
365,156,206871,1,0,2:0:0:0:
334,159,206954,1,0,2:0:0:0:
307,176,207038,1,8,2:0:0:0:
291,203,207121,1,0,2:0:0:0:
289,235,207204,1,0,2:0:0:0:
301,264,207288,1,0,2:0:0:0:
326,284,207371,2,0,P|338:268|331:236,3,40,10|0|0|0,2:0|2:0|2:0|2:0,2:0:0:0:
238,336,207704,2,0,P|245:354|277:364,3,40,8|0|0|0,2:0|2:0|2:0|2:0,2:0:0:0:
219,242,208038,5,10,3:2:0:0:
199,236,208121,1,8,3:0:0:0:
180,231,208204,1,8,3:0:0:0:
161,225,208288,1,8,3:0:0:0:
131,237,208371,5,8,3:2:0:0:
115,242,208454,1,4,3:0:0:0:
100,246,208538,1,4,3:0:0:0:
85,251,208621,1,0,2:0:0:0:
52,249,208704,6,0,B|44:231|44:231|51:213,3,40,10|0|0|0,2:0|3:0|3:0|2:0,2:0:0:0:
117,158,209038,2,0,B|125:140|125:140|118:122,3,40,10|0|0|0,2:0|3:0|3:0|3:0,2:0:0:0:
50,59,209371,5,6,2:0:0:0:
77,30,209454,1,0,2:0:0:0:
115,20,209538,1,0,2:0:0:0:
153,30,209621,1,0,2:0:0:0:
180,59,209704,2,0,L|195:101,1,40,8|0,2:0|2:0,2:0:0:0:
263,156,209871,5,2,2:0:0:0:
298,172,209954,1,0,2:0:0:0:
336,163,210038,1,0,2:0:0:0:
359,131,210121,1,0,2:0:0:0:
382,99,210204,1,0,2:0:0:0:
420,90,210288,1,0,2:0:0:0:
455,106,210371,2,0,L|468:51,3,40,10|0|0|0,2:0|2:0|2:0|2:0,2:0:0:0:
425,193,210704,5,2,2:0:0:0:
433,232,210788,1,0,2:0:0:0:
442,271,210871,1,0,2:0:0:0:
451,310,210954,1,0,2:0:0:0:
460,349,211038,2,0,L|414:333,3,40,8|0|0|0,2:0|2:0|2:0|2:0,2:0:0:0:
359,276,211371,2,0,L|312:292,3,40,0|0|0|0,2:0|2:0|2:0|2:0,2:0:0:0:
269,345,211704,2,0,L|222:328,3,40,10|0|0|0,2:0|2:0|2:0|2:0,2:0:0:0:
163,284,212038,5,2,2:0:0:0:
139,305,212121,1,0,2:0:0:0:
108,312,212204,1,0,2:0:0:0:
77,305,212288,1,0,2:0:0:0:
54,284,212371,1,8,2:0:0:0:
42,254,212454,1,0,2:0:0:0:
46,223,212538,2,0,P|61:204|82:194,1,40,2|0,2:0|2:0,2:0:0:0:
194,203,212704,2,0,P|170:200|151:186,3,40,2|0|0|0,2:0|2:0|2:0|2:0,2:0:0:0:
107,86,213038,2,0,P|116:108|114:131,3,40,10|0|0|0,2:0|2:0|2:0|2:0,2:0:0:0:
201,127,213371,5,2,2:0:0:0:
220,122,213454,1,0,2:0:0:0:
240,118,213538,1,0,2:0:0:0:
259,113,213621,1,0,2:0:0:0:
278,108,213704,1,8,2:0:0:0:
297,102,213788,1,0,2:0:0:0:
316,96,213871,1,0,2:0:0:0:
335,89,213954,1,0,2:0:0:0:
354,82,214038,2,0,P|325:76|261:60,1,80.0000000000001,2|0,2:0|2:0,2:0:0:0:
242,212,214371,2,0,P|281:220|319:229,1,80.0000000000001,10|0,2:0|2:0,2:0:0:0:
161,138,214704,5,6,2:0:0:0:
131,164,214788,1,0,2:0:0:0:
121,202,214871,1,0,2:0:0:0:
132,240,214954,1,0,2:0:0:0:
162,266,215038,1,8,2:0:0:0:
191,277,215121,1,0,2:0:0:0:
211,302,215204,1,0,2:0:0:0:
216,333,215288,1,0,2:0:0:0:
204,362,215371,2,0,L|190:317,3,40,2|0|0|0,2:0|2:0|2:0|2:0,2:0:0:0:
285,308,215704,2,0,L|299:263,3,40,8|0|0|0,2:0|2:0|2:0|2:0,2:0:0:0:
384,357,216038,5,2,2:0:0:0:
392,317,216121,1,0,2:0:0:0:
401,278,216204,1,0,2:0:0:0:
410,239,216288,1,0,2:0:0:0:
419,200,216371,2,0,B|429:182|429:182|424:156,3,40,8|0|0|0,2:0|2:0|2:0|2:0,2:0:0:0:
332,168,216704,5,2,2:0:0:0:
332,168,216788,1,0,2:0:0:0:
332,168,216871,2,0,P|311:177|278:191,1,40,0|0,2:0|2:0,2:0:0:0:
238,134,217038,5,8,2:0:0:0:
238,134,217121,1,0,2:0:0:0:
238,134,217204,2,0,P|217:125|184:111,1,40,0|0,2:0|2:0,2:0:0:0:
108,93,217371,5,2,2:0:0:0:
78,118,217454,1,0,2:0:0:0:
69,157,217538,1,0,2:0:0:0:
83,193,217621,1,0,2:0:0:0:
116,215,217704,1,10,2:0:0:0:
81,234,217788,1,0,2:0:0:0:
61,268,217871,1,0,2:0:0:0:
61,308,217954,1,0,2:0:0:0:
80,342,218038,1,2,2:0:0:0:
111,361,218121,1,0,2:0:0:0:
142,360,218204,1,0,2:0:0:0:
170,344,218288,1,0,2:0:0:0:
179,318,218371,1,10,2:0:0:0:
171,295,218454,1,0,2:0:0:0:
156,281,218538,1,0,2:0:0:0:
136,280,218621,1,0,2:0:0:0:
120,284,218704,6,0,P|142:296|171:276,3,40,10|8|8|0,3:0|3:0|3:0|2:0,2:0:0:0:
190,179,219038,2,0,P|168:192|171:227,3,40,8|0|4|0,3:0|2:0|3:0|2:0,2:0:0:0:
262,261,219371,2,0,P|310:245|361:230,1,80.0000000000001,2|0,2:0|3:0,2:0:0:0:
387,142,219704,2,0,P|435:158|486:173,1,80.0000000000001,2|0,2:0|2:0,2:0:0:0:
421,51,220038,5,6,2:0:0:0:
396,30,220121,1,0,2:0:0:0:
365,23,220204,1,0,2:0:0:0:
335,31,220288,1,0,2:0:0:0:
311,53,220371,2,0,P|304:69|319:98,3,40,8|0|0|0,2:0|2:0|2:0|2:0,2:0:0:0:
412,145,220704,2,0,P|401:130|369:129,3,40,0|0|0|0,2:0|2:0|2:0|2:0,2:0:0:0:
278,189,221038,2,0,P|295:187|312:159,3,40,10|0|0|0,2:0|2:0|2:0|2:0,2:0:0:0:
221,114,221371,5,2,2:0:0:0:
196,93,221454,1,0,2:0:0:0:
166,86,221538,1,0,2:0:0:0:
135,94,221621,1,0,2:0:0:0:
112,116,221704,1,8,2:0:0:0:
88,137,221788,1,0,2:0:0:0:
58,146,221871,1,0,2:0:0:0:
27,139,221954,1,0,2:0:0:0:
3,118,222038,2,0,P|9:95|16:62,3,40,0|0|0|0,2:0|2:0|2:0|2:0,2:0:0:0:
32,218,222371,2,0,P|38:241|45:274,3,40,10|0|0|0,2:0|2:0|2:0|2:0,2:0:0:0:
126,221,222704,5,2,2:0:0:0:
153,192,222788,1,0,2:0:0:0:
191,182,222871,1,0,2:0:0:0:
228,195,222954,1,0,2:0:0:0:
253,226,223038,1,8,2:0:0:0:
257,265,223121,1,0,2:0:0:0:
239,300,223204,2,0,P|224:284|221:249,1,40,2|0,2:0|2:0,2:0:0:0:
331,340,223371,2,0,P|324:360|296:380,3,40,2|0|0|0,2:0|2:0|2:0|2:0,2:0:0:0:
326,238,223704,2,0,P|346:233|378:247,3,40,10|0|0|0,2:0|2:0|2:0|2:0,2:0:0:0:
306,160,224038,5,2,2:0:0:0:
325,135,224121,1,0,2:0:0:0:
331,104,224204,1,0,2:0:0:0:
321,74,224288,1,0,2:0:0:0:
298,52,224371,1,8,2:0:0:0:
267,44,224454,1,0,2:0:0:0:
236,52,224538,1,0,2:0:0:0:
213,74,224621,1,0,2:0:0:0:
203,104,224704,2,0,P|160:116|110:127,1,80.0000000000001,2|0,2:0|2:0,2:0:0:0:
165,274,225038,2,0,P|208:262|258:251,1,80.0000000000001,10|0,2:0|2:0,2:0:0:0:
313,166,225371,5,14,2:0:0:0:
336,145,225454,1,0,2:0:0:0:
367,140,225538,1,0,2:0:0:0:
396,151,225621,1,0,2:0:0:0:
415,176,225704,1,8,2:0:0:0:
418,208,225788,1,0,2:0:0:0:
404,236,225871,1,0,2:0:0:0:
377,252,225954,1,0,2:0:0:0:
345,252,226038,5,10,2:0:0:0:
308,237,226121,1,0,2:0:0:0:
269,245,226204,1,0,2:0:0:0:
242,274,226288,1,0,2:0:0:0:
235,312,226371,1,8,2:0:0:0:
251,348,226454,1,0,2:0:0:0:
284,370,226538,1,0,2:0:0:0:
323,369,226621,1,0,2:0:0:0:
356,346,226704,6,0,P|351:326|341:296,3,40,10|0|0|0,2:0|2:0|2:0|2:0,2:0:0:0:
423,284,227038,2,0,P|428:304|438:334,3,40,8|0|0|0,2:0|2:0|2:0|2:0,2:0:0:0:
485,230,227371,2,0,P|490:209|500:179,3,40,10|0|0|0,2:0|2:0|2:0|2:0,2:0:0:0:
418,167,227704,2,0,P|412:187|402:217,3,40,8|0|0|0,2:0|2:0|2:0|2:0,2:0:0:0:
475,101,228038,5,10,3:2:0:0:
453,58,228121,1,0,3:0:0:0:
411,37,228204,1,0,3:0:0:0:
365,45,228288,1,0,2:0:0:0:
332,79,228371,1,8,3:2:0:0:
310,121,228454,1,0,3:0:0:0:
268,142,228538,1,0,3:0:0:0:
222,134,228621,1,0,2:0:0:0:
189,100,228704,5,8,3:2:0:0:
219,91,228788,1,8,3:0:0:0:
249,98,228871,1,8,3:0:0:0:
272,121,228954,1,0,2:0:0:0:
279,152,229038,1,8,3:2:0:0:
286,174,229121,1,4,3:0:0:0:
303,190,229204,1,4,3:0:0:0:
321,197,229288,1,4,3:0:0:0:
337,195,229371,5,12,3:2:0:0:
