osu file format v14

[General]
AudioFilename: dori.mp3
AudioLeadIn: 0
PreviewTime: 50023
Countdown: 0
SampleSet: Soft
StackLeniency: 0.7
Mode: 2
LetterboxInBreaks: 0
WidescreenStoryboard: 0

[Editor]
Bookmarks: 1063,6287,11680,17242,28029,38815,44209,50950,61737,67130,72523,75051,79939
DistanceSpacing: 1
BeatDivisor: 4
GridSize: 8
TimelineZoom: 1.2

[Metadata]
Title:Dori Dori (TV Size)
TitleUnicode:ドリドリ (TV Size)
Artist:Serena (CV: Makiguchi Mayuki)
ArtistUnicode:セレナ (CV: 牧口 真幸)
Creator:rew0825
Version:Salad
Source:ポケットモンスターXY&Z
Tags:episode 20th Pocket Monsters Pokemon Pokémon XYZ XY and Z Dream 中川 翔子 Shoko Nakagawa anime ed ending female vocalist japanese j-pop jpop Xinely
BeatmapID:2313594
BeatmapSetID:754212

[Difficulty]
HPDrainRate:4
CircleSize:2.8
OverallDifficulty:7
ApproachRate:7
SliderMultiplier:1.35
SliderTickRate:1

[Events]
//Background and Video events
0,0,"cropped-1920-1080-949465.png",0,0
//Break Periods
//Storyboard Layer 0 (Background)
//Storyboard Layer 1 (Fail)
//Storyboard Layer 2 (Pass)
//Storyboard Layer 3 (Foreground)
//Storyboard Layer 4 (Overlay)
//Storyboard Sound Samples

[TimingPoints]
-285,337.078651685393,4,2,1,20,1,0
1063,-100,4,2,1,60,0,0
1400,-100,4,2,1,40,0,0
2243,-100,4,2,1,60,0,0
2411,-100,4,2,1,40,0,0
2580,-100,4,2,1,60,0,0
2917,-100,4,2,1,40,0,0
3759,-100,4,2,1,60,0,0
4097,-100,4,2,1,40,0,0
4939,-100,4,2,1,60,0,0
5108,-100,4,2,1,40,0,0
5276,-100,4,2,1,60,0,0
5613,-100,4,2,1,40,0,0
5782,-100,4,2,1,50,0,0
6288,-100,4,2,1,70,0,0
17074,-100,4,2,2,50,0,0
28029,-100,4,2,2,55,0,0
38816,-100,4,2,1,60,0,0
39827,-100,4,2,1,45,0,0
39995,-100,4,2,1,60,0,0
41175,-100,4,2,1,45,0,0
41344,-100,4,2,1,60,0,0
42523,-100,4,2,1,45,0,0
42692,-100,4,2,1,60,0,0
44209,-100,4,2,1,70,0,0
50950,-100,4,2,1,80,0,1
61063,-100,4,2,1,60,0,1
61231,-100,4,2,1,80,0,1
71512,-100,4,2,1,80,0,0
72523,-100,4,2,1,80,0,1
75052,-100,4,2,1,70,0,0
79434,-100,4,2,1,80,0,0

[Colours]
Combo1 : 255,79,167
Combo2 : 255,26,26
Combo3 : 242,253,43

[HitObjects]
176,192,1063,5,4,2:3:0:0:
80,192,1231,2,0,L|88:120,1,67.5,4|2,2:3|0:0,0:0:0:0:
239,127,1737,2,0,L|231:55,1,67.5,2|2,0:0|0:0,0:0:0:0:
64,56,2243,5,4,0:3:0:0:
232,56,2580,1,4,0:3:0:0:
328,56,2748,1,4,0:3:0:0:
176,56,3085,1,2,0:0:0:0:
96,56,3254,1,0,0:0:0:0:
176,56,3422,1,2,0:0:0:0:
344,56,3759,5,4,0:3:0:0:
448,56,3928,2,0,L|440:128,1,67.5,4|2,0:3|0:0,0:0:0:0:
288,128,4434,2,0,L|296:200,1,67.5,2|2,0:0|0:0,0:0:0:0:
464,200,4939,5,4,0:3:0:0:
296,200,5276,1,4,0:3:0:0:
200,200,5445,1,4,0:3:0:0:
352,200,5782,1,2,0:0:0:0:
433,200,5950,1,2,0:0:0:0:
352,200,6119,1,2,0:0:0:0:
176,200,6288,6,0,P|104:200|88:144,1,135,6|0,1:2|0:0,0:0:0:0:
176,144,6793,1,10,0:0:0:0:
264,144,6962,2,0,P|336:144|352:88,1,135,2|2,0:0|0:0,0:0:0:0:
177,56,7636,6,0,P|105:56|89:112,1,135,2|0,0:0|0:0,0:0:0:0:
177,112,8141,1,10,0:0:0:0:
265,112,8310,2,0,L|401:112,1,135,2|2,0:0|0:0,0:0:0:0:
232,112,8984,6,0,P|184:144|232:176,1,135,2|0,0:0|0:0,0:0:0:0:
328,176,9490,1,10,0:0:0:0:
232,176,9658,2,0,P|168:176|136:232,1,135,2|2,0:0|0:0,0:0:0:0:
408,272,10332,5,2,0:0:0:0:
417,176,10670,1,2,0:0:0:0:
265,176,11007,1,2,0:0:0:0:
97,176,11344,2,0,L|104:248,1,67.5,10|0,0:0|1:2,0:0:0:0:
288,240,11681,6,0,P|360:240|376:184,1,135,4|0,0:0|0:0,0:0:0:0:
288,184,12186,1,10,0:0:0:0:
200,184,12355,1,2,0:0:0:0:
352,184,12692,1,2,0:0:0:0:
184,184,13029,6,0,P|136:144|184:112,1,135,2|2,0:0|0:0,0:0:0:0:
336,112,13703,2,0,P|384:80|336:40,1,135,2|2,0:0|0:0,0:0:0:0:
256,80,14209,2,0,L|200:40,1,67.5,10|2,0:0|0:0,0:0:0:0:
376,40,14546,5,8,3:0:0:0:
440,40,14714,1,10,0:0:0:0:
376,40,14883,1,2,1:2:0:0:
304,40,15052,1,2,1:2:0:0:
456,40,15389,1,2,1:2:0:0:
176,40,15726,5,6,1:2:0:0:
328,40,16063,2,0,L|400:40,2,67.5,2|2|2,0:0|0:0|0:0,0:0:0:0:
256,40,16568,2,0,P|176:40|136:144,1,202.5,2|2,0:0|0:0,0:0:0:0:
320,136,17243,6,0,P|392:136|408:192,1,135,6|8,0:0|0:0,0:0:0:0:
320,192,17748,1,2,0:0:0:0:
168,192,18085,1,2,0:0:0:0:
336,192,18422,6,0,L|344:56,1,135,2|2,0:0|0:0,0:0:0:0:
192,56,19097,2,0,P|120:56|104:112,1,135,2|2,0:0|0:0,0:0:0:0:
256,104,19771,1,2,0:0:0:0:
360,104,19939,6,0,P|408:136|360:176,1,135,10|10,0:0|0:0,0:0:0:0:
280,176,20445,1,2,0:0:0:0:
128,176,20782,1,2,0:0:0:0:
296,176,21119,6,0,L|432:176,2,135,2|2|2,0:0|0:0|0:0,0:0:0:0:
144,176,22130,2,0,P|96:136|144:104,1,135,2|2,0:0|0:0,0:0:0:0:
248,104,22636,6,0,L|384:104,1,135,10|10,0:0|0:0,0:0:0:0:
296,104,23141,1,2,0:0:0:0:
144,104,23479,1,2,0:0:0:0:
312,104,23816,6,0,P|360:136|312:168,1,135,2|2,0:0|0:0,0:0:0:0:
160,168,24490,1,2,0:0:0:0:
312,168,24827,1,2,0:0:0:0:
392,168,24995,1,10,0:0:0:0:
312,168,25164,1,2,0:0:0:0:
208,168,25332,6,0,P|136:168|120:112,1,135,10|10,0:0|0:0,0:0:0:0:
208,112,25838,1,2,0:0:0:0:
360,112,26175,1,2,0:0:0:0:
72,112,26512,5,14,0:0:0:0:
240,112,26849,1,14,0:0:0:0:
72,112,27186,1,14,0:0:0:0:
224,112,27523,2,0,L|216:192,1,67.5,8|8,0:0|3:0,0:0:0:0:
136,176,27861,1,8,3:0:0:0:
304,184,28029,6,0,P|376:184|392:240,1,135,14|8,0:0|0:0,0:0:0:0:
304,240,28535,1,2,0:0:0:0:
152,240,28872,1,2,0:0:0:0:
328,240,29209,6,0,P|376:208|328:168,1,135,2|2,0:0|0:0,0:0:0:0:
160,168,29883,1,2,0:0:0:0:
336,168,30220,2,0,L|192:168,1,135,6|2,0:3|0:0,0:0:0:0:
96,168,30726,6,0,L|240:168,1,135,10|10,0:0|0:0,0:0:0:0:
312,168,31231,1,2,0:0:0:0:
464,168,31568,1,2,0:0:0:0:
296,168,31906,6,0,L|160:168,1,135,2|2,0:0|0:0,0:0:0:0:
328,168,32580,1,2,0:0:0:0:
161,168,32917,2,0,P|113:136|161:96,1,135,6|2,0:3|0:0,0:0:0:0:
345,96,33422,6,0,P|417:96|433:152,1,135,14|10,0:0|0:0,0:0:0:0:
344,152,33928,1,2,0:0:0:0:
192,152,34265,1,2,0:0:0:0:
360,152,34602,6,0,P|400:176|352:224,1,135,2|2,0:0|0:0,0:0:0:0:
184,264,35276,2,0,L|48:264,1,135,2|6,0:0|0:3,0:0:0:0:
120,264,35782,1,8,0:0:0:0:
200,264,35950,1,2,0:0:0:0:
384,264,36119,6,0,P|432:232|384:192,1,135,14|2,0:0|0:3,0:0:0:0:
304,192,36625,2,0,P|256:160|304:120,1,135,2|2,0:0|0:3,0:0:0:0:
384,120,37130,1,2,0:0:0:0:
200,120,37299,5,14,0:0:0:0:
48,120,37636,1,2,0:0:0:0:
128,120,37804,1,2,0:0:0:0:
208,120,37973,1,4,0:3:0:0:
104,120,38141,2,0,P|56:160|104:192,1,135,2|2,0:0|0:0,0:0:0:0:
184,192,38647,1,4,0:3:0:0:
368,192,38816,6,0,P|416:216|368:256,1,135,6|0,1:2|0:0,0:0:0:0:
288,256,39321,1,6,0:3:0:0:
184,256,39490,2,0,L|40:256,2,135,2|10|2,0:0|0:0|1:2,0:0:0:0:
336,256,40501,5,2,0:0:0:0:
416,256,40670,1,6,0:3:0:0:
312,256,40838,2,0,L|176:256,1,135,2|10,0:0|0:0,0:0:0:0:
328,256,41512,6,0,P|376:224|328:184,1,135,2|2,1:2|1:2,0:0:0:0:
232,184,42018,1,6,0:3:0:0:
80,184,42355,1,2,0:0:0:0:
232,184,42692,1,2,0:0:0:0:
320,184,42861,6,0,P|360:160|312:112,1,135,2|2,0:0|0:0,0:0:0:0:
208,112,43366,2,0,P|168:88|216:40,1,135,6|0,0:3|1:0,0:0:0:0:
304,40,43872,2,0,L|376:40,1,67.5,8|10,0:0|0:0,0:0:0:0:
184,40,44209,5,6,1:2:0:0:
96,40,44377,1,2,0:0:0:0:
184,40,44546,1,10,0:0:0:0:
376,40,44714,1,6,1:2:0:0:
376,104,45052,1,2,1:2:0:0:
288,104,45220,1,8,0:0:0:0:
104,104,45389,1,6,1:2:0:0:
104,168,45726,5,2,1:2:0:0:
192,168,45894,1,10,0:0:0:0:
376,168,46063,1,6,1:2:0:0:
224,168,46400,2,0,L|144:168,2,67.5,0|8|2,1:0|0:0|1:2,0:0:0:0:
408,168,46906,6,0,P|456:192|408:232,1,135,14|10,0:0|0:0,0:0:0:0:
320,232,47411,1,2,1:2:0:0:
224,232,47580,2,0,P|240:176|312:176,1,135,10|10,0:0|0:0,0:0:0:0:
128,168,48085,6,0,P|80:144|128:104,1,135,6|2,1:2|1:2,0:0:0:0:
208,104,48591,1,2,1:2:0:0:
360,104,48928,1,2,1:2:0:0:
440,104,49097,1,2,1:2:0:0:
360,104,49265,1,2,1:2:0:0:
256,104,49434,1,2,1:2:0:0:
424,104,49771,5,2,1:2:0:0:
320,104,49939,1,2,1:2:0:0:
80,104,50445,2,0,L|72:176,1,67.5,2|2,0:0|0:0,0:0:0:0:
160,176,50782,1,2,0:0:0:0:
344,176,50950,6,0,P|416:176|432:232,1,135,6|10,1:2|0:0,0:0:0:0:
344,232,51456,2,0,L|208:232,1,135,2|2,0:0|0:0,0:0:0:0:
360,232,52130,1,2,0:0:0:0:
176,232,52299,5,2,1:2:0:0:
104,200,52467,1,2,0:0:0:0:
176,168,52636,1,10,0:0:0:0:
256,168,52804,2,0,L|392:168,1,135,2|2,0:0|0:0,0:0:0:0:
240,168,53479,1,2,0:0:0:0:
56,168,53647,6,0,P|72:112|144:112,1,135,2|10,1:2|0:0,0:0:0:0:
224,112,54153,2,0,L|80:112,1,135,2|2,0:0|0:0,0:0:0:0:
376,112,54827,6,0,P|424:136|376:176,1,135,2|2,0:0|0:0,0:0:0:0:
296,176,55332,1,10,0:0:0:0:
216,176,55501,2,0,P|168:208|216:248,1,135,2|2,0:0|1:2,0:0:0:0:
296,248,56007,2,0,L|368:248,1,67.5,10|2,0:0|1:2,0:0:0:0:
176,248,56344,6,0,P|104:248|88:192,1,135,6|8,0:0|0:0,0:0:0:0:
176,192,56849,2,0,L|312:192,1,135,2|2,0:0|0:0,0:0:0:0:
160,192,57523,1,2,0:0:0:0:
344,192,57692,5,2,1:2:0:0:
416,160,57861,1,2,0:0:0:0:
344,128,58029,1,10,0:0:0:0:
264,128,58198,2,0,L|128:128,1,135,2|2,0:0|0:0,0:0:0:0:
280,128,58872,1,2,0:0:0:0:
464,128,59040,6,0,P|448:184|376:184,1,135,2|10,1:2|0:0,0:0:0:0:
296,184,59546,2,0,P|312:240|384:240,1,135,2|2,0:0|0:0,0:0:0:0:
464,240,60052,1,10,0:0:0:0:
280,240,60220,5,2,1:2:0:0:
112,240,60557,1,2,1:2:0:0:
280,240,60894,1,2,1:2:0:0:
432,240,61231,2,0,L|440:168,1,67.5,2|10,0:0|0:0,0:0:0:0:
352,168,61568,1,2,1:2:0:0:
168,168,61737,5,6,1:2:0:0:
112,136,61906,1,2,0:0:0:0:
168,104,62074,1,10,0:0:0:0:
248,104,62243,2,0,L|384:104,1,135,2|2,0:0|0:0,0:0:0:0:
232,104,62917,1,2,0:0:0:0:
48,104,63085,6,0,P|64:160|136:160,1,135,2|10,1:2|0:0,0:0:0:0:
216,160,63591,2,0,L|72:160,1,135,2|2,0:0|0:0,0:0:0:0:
232,160,64265,1,2,0:0:0:0:
416,160,64434,6,0,P|464:192|416:224,1,135,2|10,1:2|0:0,0:0:0:0:
264,232,65108,1,2,1:2:0:0:
344,232,65276,1,2,0:0:0:0:
408,232,65445,1,8,0:0:0:0:
216,232,65613,6,0,P|168:192|216:160,1,135,2|2,0:0|0:0,0:0:0:0:
296,160,66119,1,10,0:0:0:0:
384,160,66288,2,0,P|456:160|472:104,1,135,2|0,0:0|0:0,0:0:0:0:
384,104,66793,1,10,0:0:0:0:
96,104,67130,6,0,P|48:128|96:168,1,135,6|2,1:2|1:2,0:0:0:0:
176,168,67636,1,0,0:0:0:0:
264,168,67804,1,2,1:2:0:0:
96,168,68141,1,2,1:2:0:0:
384,168,68479,6,0,P|432:192|384:232,1,135,4|2,1:2|1:2,0:0:0:0:
304,232,68984,1,2,0:0:0:0:
216,232,69153,1,0,1:0:0:0:
384,232,69490,1,2,1:2:0:0:
96,232,69827,6,0,P|112:176|184:176,1,135,4|2,1:2|1:2,0:0:0:0:
264,168,70332,2,0,P|248:112|176:112,1,135,10|2,0:0|1:2,0:0:0:0:
96,112,70838,2,0,L|88:40,1,67.5,8|2,0:0|0:0,0:0:0:0:
272,48,71175,5,4,1:2:0:0:
360,48,71344,1,4,1:2:0:0:
272,48,71512,1,4,1:2:0:0:
168,48,71681,1,0,0:0:0:0:
320,48,72018,1,0,0:0:0:0:
408,48,72186,1,0,0:0:0:0:
320,48,72355,1,0,0:0:0:0:
136,48,72523,6,0,L|128:120,1,67.5,6|0,1:2|0:0,0:0:0:0:
216,120,72861,1,10,0:0:0:0:
312,120,73029,1,2,1:2:0:0:
143,120,73366,1,2,1:2:0:0:
432,120,73703,6,0,P|480:152|432:184,1,135,6|0,1:2|1:0,0:0:0:0:
349,184,74209,1,8,0:0:0:0:
160,128,74546,1,10,0:0:0:0:
72,160,74714,1,2,1:2:0:0:
160,200,74883,1,10,0:0:0:0:
344,192,75052,6,0,P|392:160|344:128,1,135,6|0,1:2|0:0,0:0:0:0:
264,128,75557,1,8,0:0:0:0:
168,128,75726,2,0,L|312:128,1,135,2|2,0:0|0:0,0:0:0:0:
136,128,76400,6,0,P|88:152|136:192,1,135,2|2,0:0|0:0,0:0:0:0:
304,192,77074,2,0,L|440:192,1,135,2|2,0:0|0:0,0:0:0:0:
352,192,77580,2,0,L|272:192,1,67.5,8|2,0:0|0:0,0:0:0:0:
96,184,77917,5,4,3:0:0:0:
24,224,78085,1,10,0:0:0:0:
96,256,78254,1,10,1:2:0:0:
200,256,78422,1,2,1:2:0:0:
368,256,78759,1,2,1:2:0:0:
80,256,79097,1,6,1:2:0:0:
248,256,79434,6,0,L|328:256,1,67.5,4|4,0:3|0:3,0:0:0:0:
232,256,79771,1,4,0:3:0:0:
48,256,79939,1,12,0:3:0:0:
