osu file format v14

[General]
AudioFilename: dori.mp3
AudioLeadIn: 0
PreviewTime: 50023
Countdown: 0
SampleSet: Soft
StackLeniency: 0.7
Mode: 2
LetterboxInBreaks: 0
WidescreenStoryboard: 0

[Editor]
Bookmarks: 1063,6287,11680,17242,28029,38815,44209,50950,61737,67130,72523,75051,79939
DistanceSpacing: 1.7
BeatDivisor: 4
GridSize: 8
TimelineZoom: 2.4

[Metadata]
Title:Dori Dori (TV Size)
TitleUnicode:ドリドリ (TV Size)
Artist:Serena (CV: Makiguchi Mayuki)
ArtistUnicode:セレナ (CV: 牧口 真幸)
Creator:rew0825
Version:Rain
Source:ポケットモンスターXY&Z
Tags:episode 20th Pocket Monsters Pokemon Pokémon XYZ XY and Z Dream 中川 翔子 Shoko Nakagawa anime ed ending female vocalist japanese j-pop jpop Xinely
BeatmapID:2310335
BeatmapSetID:754212

[Difficulty]
HPDrainRate:6
CircleSize:3.6
OverallDifficulty:9
ApproachRate:9
SliderMultiplier:1.86
SliderTickRate:2

[Events]
//Background and Video events
0,0,"cropped-1920-1080-949465.png",0,0
//Break Periods
//Storyboard Layer 0 (Background)
//Storyboard Layer 1 (Fail)
//Storyboard Layer 2 (Pass)
//Storyboard Layer 3 (Foreground)
//Storyboard Layer 4 (Overlay)
//Storyboard Sound Samples

[TimingPoints]
-285,337.078651685393,4,2,1,20,1,0
1063,-100,4,2,1,60,0,0
1400,-100,4,2,1,40,0,0
2243,-100,4,2,1,60,0,0
2411,-100,4,2,1,40,0,0
2580,-100,4,2,1,60,0,0
2917,-100,4,2,1,40,0,0
3759,-100,4,2,1,60,0,0
4097,-100,4,2,1,40,0,0
4939,-100,4,2,1,60,0,0
5108,-100,4,2,1,40,0,0
5276,-100,4,2,1,60,0,0
5613,-100,4,2,1,40,0,0
5782,-100,4,2,1,50,0,0
6288,-100,4,2,1,70,0,0
17074,-100,4,2,2,50,0,0
28029,-100,4,2,2,55,0,0
38816,-100,4,2,1,60,0,0
39827,-100,4,2,1,45,0,0
39995,-100,4,2,1,60,0,0
41175,-100,4,2,1,45,0,0
41344,-100,4,2,1,60,0,0
42523,-100,4,2,1,45,0,0
42692,-100,4,2,1,60,0,0
44209,-100,4,2,1,70,0,0
50950,-100,4,2,1,80,0,1
61063,-100,4,2,1,60,0,1
61231,-100,4,2,1,80,0,1
71512,-100,4,2,1,80,0,0
72523,-100,4,2,1,80,0,1
75052,-100,4,2,1,70,0,0
79434,-100,4,2,1,80,0,0

[Colours]
Combo1 : 255,79,167
Combo2 : 255,26,26
Combo3 : 242,253,43

[HitObjects]
239,192,220,6,0,L|216:232,2,46.5,2|0|0,0:0|0:0|0:0,0:0:0:0:
344,192,557,1,2,0:0:0:0:
392,192,641,1,0,0:0:0:0:
408,192,726,1,2,0:0:0:0:
392,192,810,1,0,0:0:0:0:
344,192,894,1,0,0:0:0:0:
191,192,1063,5,4,2:3:0:0:
343,192,1231,2,0,L|247:192,1,93,4|2,2:3|0:0,0:0:0:0:
456,192,1737,2,0,L|360:192,2,93,2|2|0,0:0|0:0|0:0,0:0:0:0:
296,192,2243,6,0,L|292:284,1,93,4|0,0:3|0:0,0:0:0:0:
444,288,2580,1,4,0:3:0:0:
216,288,2748,1,4,0:3:0:0:
104,288,3085,1,2,0:0:0:0:
200,288,3254,1,0,0:0:0:0:
96,288,3422,1,2,0:0:0:0:
192,288,3591,1,0,0:0:0:0:
344,288,3759,5,4,0:3:0:0:
192,288,3928,2,0,L|284:288,1,93,4|2,0:3|0:0,0:0:0:0:
80,288,4434,2,0,L|172:288,2,93,2|2|0,0:0|0:0|0:0,0:0:0:0:
240,288,4939,6,0,L|244:196,1,93,4|0,0:3|0:0,0:0:0:0:
92,192,5276,1,4,0:3:0:0:
328,192,5445,1,4,0:3:0:0:
464,192,5782,1,2,0:0:0:0:
360,192,5950,1,2,0:0:0:0:
464,192,6119,1,2,0:0:0:0:
208,192,6288,6,0,P|148:168|208:100,1,186,6|0,1:2|0:0,0:0:0:0:
360,100,6793,1,10,0:0:0:0:
208,100,6962,2,0,L|200:192,1,93,2|0,0:0|0:0,0:0:0:0:
360,192,7299,2,0,L|368:288,1,93,2|8,0:0|0:0,0:0:0:0:
136,288,7636,6,0,P|168:200|248:200,1,186,2|0,0:0|0:0,0:0:0:0:
96,200,8141,1,10,0:0:0:0:
248,200,8310,2,0,L|344:200,1,93,2|0,0:0|0:0,0:0:0:0:
176,200,8647,2,0,L|80:200,1,93,2|8,0:0|0:0,0:0:0:0:
312,200,8984,6,0,P|392:200|424:112,1,186,2|0,0:0|0:0,0:0:0:0:
272,112,9490,1,10,0:0:0:0:
120,112,9658,2,0,L|216:112,1,93,2|0,0:0|0:0,0:0:0:0:
376,112,9995,2,0,L|280:112,1,93,2|8,0:0|0:0,0:0:0:0:
48,112,10332,6,0,L|40:208,1,93,2|0,0:0|0:0,0:0:0:0:
216,208,10670,2,0,L|224:304,1,93,2|8,0:0|0:0,0:0:0:0:
392,304,11007,2,0,L|384:208,1,93,2|0,0:0|0:0,0:0:0:0:
208,208,11344,1,10,0:0:0:0:
152,208,11428,1,8,0:0:0:0:
120,160,11512,1,0,1:2:0:0:
376,160,11681,6,0,P|432:144|376:72,1,186,4|0,0:0|0:0,0:0:0:0:
224,72,12186,1,10,0:0:0:0:
376,72,12355,2,0,L|280:72,1,93,2|0,0:0|0:0,0:0:0:0:
120,72,12692,2,0,L|112:168,1,93,2|8,0:0|0:0,0:0:0:0:
344,168,13029,6,0,L|352:264,1,93,2|0,0:0|0:0,0:0:0:0:
192,264,13366,2,0,L|96:264,1,93,2|8,0:0|0:0,0:0:0:0:
272,264,13703,2,0,P|352:264|384:176,1,186,2|2,0:0|0:0,0:0:0:0:
224,176,14209,2,0,L|128:176,1,93,10|2,0:0|0:0,0:0:0:0:
368,176,14546,5,8,3:0:0:0:
216,176,14714,1,10,0:0:0:0:
176,136,14799,1,8,0:0:0:0:
216,96,14883,1,2,1:2:0:0:
448,96,15052,2,0,L|440:192,1,93,2|0,1:2|0:0,0:0:0:0:
208,192,15389,2,0,L|216:288,1,93,2|0,1:2|0:0,0:0:0:0:
472,288,15726,5,6,1:2:0:0:
264,288,16063,1,2,0:0:0:0:
168,288,16231,1,2,0:0:0:0:
264,288,16400,1,2,0:0:0:0:
416,288,16568,2,0,P|480:248|416:192,1,186,2|0,0:0|0:0,0:0:0:0:
304,192,17074,1,2,0:0:0:0:
48,192,17243,6,0,P|80:104|160:104,1,186,6|8,0:0|0:0,0:0:0:0:
320,104,17748,2,0,L|312:200,1,93,2|8,0:0|0:0,0:0:0:0:
192,200,18085,2,0,L|200:296,1,93,2|8,0:0|0:0,0:0:0:0:
376,288,18422,6,0,P|440:256|376:200,1,186,2|2,0:0|0:0,0:0:0:0:
264,200,18928,1,8,0:0:0:0:
104,200,19097,2,0,L|112:104,1,93,2|8,0:0|0:0,0:0:0:0:
224,104,19434,2,0,L|216:8,1,93,2|8,0:0|0:0,0:0:0:0:
104,16,19771,1,2,0:0:0:0:
280,16,19939,6,0,P|368:16|392:104,1,186,10|10,0:0|0:0,0:0:0:0:
232,96,20445,2,0,L|224:192,1,93,2|8,0:0|0:0,0:0:0:0:
344,192,20782,2,0,L|352:288,1,93,2|8,0:0|0:0,0:0:0:0:
176,288,21119,6,0,P|96:288|64:200,1,186,2|2,0:0|0:0,0:0:0:0:
176,200,21625,1,8,0:0:0:0:
344,200,21793,2,0,L|352:104,1,93,2|8,0:0|0:0,0:0:0:0:
464,104,22130,2,0,L|456:8,1,93,2|8,0:0|0:0,0:0:0:0:
344,8,22467,1,2,0:0:0:0:
168,8,22636,6,0,P|104:40|168:96,1,186,10|10,0:0|0:0,0:0:0:0:
328,96,23141,2,0,L|320:192,1,93,2|8,0:0|0:0,0:0:0:0:
208,192,23479,2,0,L|216:288,1,93,2|8,0:0|0:0,0:0:0:0:
392,288,23816,6,0,P|360:192|288:192,1,186,2|2,0:0|0:0,0:0:0:0:
400,192,24321,1,8,0:0:0:0:
240,192,24490,2,0,P|184:176|240:104,1,186,2|2,0:0|0:0,0:0:0:0:
352,104,24995,1,10,0:0:0:0:
240,104,25164,1,2,0:0:0:0:
64,104,25332,6,0,P|96:192|176:192,1,186,10|10,0:0|0:0,0:0:0:0:
344,192,25838,2,0,L|336:288,1,93,2|8,0:0|0:0,0:0:0:0:
216,288,26175,2,0,L|224:192,1,93,2|8,0:0|0:0,0:0:0:0:
480,192,26512,6,0,L|384:192,1,93,14|0,0:0|0:0,0:0:0:0:
152,192,26849,2,0,L|56:192,1,93,14|0,0:0|0:0,0:0:0:0:
296,192,27186,2,0,L|392:192,1,93,14|0,0:0|0:0,0:0:0:0:
224,192,27523,1,8,0:0:0:0:
112,192,27692,1,8,3:0:0:0:
224,192,27861,1,8,3:0:0:0:
480,192,28029,6,0,P|464:264|360:264,1,186,14|8,0:0|0:0,0:0:0:0:
192,272,28535,2,0,L|200:176,1,93,2|8,0:0|0:0,0:0:0:0:
320,176,28872,2,0,L|312:80,1,93,2|8,0:0|0:0,0:0:0:0:
136,80,29209,6,0,L|40:80,1,93,2|8,0:0|0:0,0:0:0:0:
208,80,29546,2,0,L|304:80,1,93,2|8,0:0|0:0,0:0:0:0:
152,80,29883,2,0,L|144:176,1,93,2|8,0:0|0:0,0:0:0:0:
376,176,30220,2,0,P|440:208|376:264,1,186,6|2,0:3|0:0,0:0:0:0:
200,264,30726,6,0,P|120:264|88:176,1,186,10|10,0:0|0:0,0:0:0:0:
264,176,31231,2,0,L|272:80,1,93,2|8,0:0|0:0,0:0:0:0:
152,80,31568,2,0,L|144:176,1,93,2|8,0:0|0:0,0:0:0:0:
320,176,31906,6,0,L|416:176,1,93,2|10,0:0|0:0,0:0:0:0:
248,176,32243,2,0,L|152:176,1,93,2|8,0:0|0:0,0:0:0:0:
328,176,32580,2,0,L|336:272,1,93,2|8,0:0|0:0,0:0:0:0:
104,272,32917,2,0,P|40:232|104:176,1,186,6|2,0:3|0:0,0:0:0:0:
360,176,33422,6,0,P|424:136|360:80,1,186,14|10,0:0|0:0,0:0:0:0:
184,80,33928,2,0,L|88:80,1,93,2|8,0:0|0:0,0:0:0:0:
208,176,34265,2,0,L|304:176,1,93,2|8,0:0|0:0,0:0:0:0:
128,176,34602,6,0,L|120:272,1,93,2|8,0:0|0:0,0:0:0:0:
288,272,34939,2,0,L|384:272,1,93,2|8,0:0|0:0,0:0:0:0:
208,272,35276,2,0,L|112:272,1,93,2|8,0:0|0:0,0:0:0:0:
352,272,35613,1,6,0:3:0:0:
464,272,35782,1,8,0:0:0:0:
352,272,35950,1,2,0:0:0:0:
96,272,36119,6,0,P|88:184|168:184,1,186,14|2,0:0|0:3,0:0:0:0:
400,184,36625,2,0,L|408:88,1,93,2|0,0:0|0:0,0:0:0:0:
248,88,36962,2,0,L|240:184,1,93,2|2,0:3|0:0,0:0:0:0:
496,184,37299,6,0,P|464:272|384:272,1,186,14|2,0:0|0:0,0:0:0:0:
272,272,37804,1,2,0:0:0:0:
120,272,37973,1,4,0:3:0:0:
272,272,38141,2,0,L|280:176,1,93,2|4,0:0|0:3,0:0:0:0:
112,176,38479,2,0,L|72:88,1,93,2|4,0:0|0:3,0:0:0:0:
144,80,38731,1,4,0:3:0:0:
328,80,38816,6,0,P|416:80|440:168,1,186,6|0,1:2|0:0,0:0:0:0:
288,160,39321,1,6,0:3:0:0:
136,160,39490,1,2,0:0:0:0:
240,160,39658,1,0,1:0:0:0:
136,160,39827,2,0,L|128:256,1,93,10|0,0:0|0:0,0:0:0:0:
288,256,40164,6,0,L|384:256,2,93,2|0|2,1:2|0:0|0:0,0:0:0:0:
136,256,40670,1,6,0:3:0:0:
288,256,40838,2,0,L|296:160,1,93,2|0,0:0|1:0,0:0:0:0:
184,160,41175,2,0,L|176:64,1,93,10|0,0:0|0:0,0:0:0:0:
344,64,41512,6,0,L|248:64,1,93,2|0,1:2|1:0,0:0:0:0:
96,64,41849,1,2,1:2:0:0:
248,64,42018,2,0,L|344:64,1,93,6|0,0:3|0:0,0:0:0:0:
448,64,42355,2,0,L|440:160,1,93,2|8,0:0|1:2,0:0:0:0:
280,160,42692,1,2,0:0:0:0:
168,160,42861,6,0,L|176:256,1,93,2|0,0:0|0:0,0:0:0:0:
288,256,43198,1,2,0:0:0:0:
112,256,43366,2,0,P|64:200|144:160,1,186,6|0,0:3|1:0,0:0:0:0:
296,160,43872,1,8,0:0:0:0:
400,160,44040,1,10,0:0:0:0:
344,160,44125,1,8,0:0:0:0:
160,160,44209,6,0,L|168:64,1,93,6|2,1:2|0:0,0:0:0:0:
328,64,44546,1,10,0:0:0:0:
72,64,44714,2,0,P|104:152|184:152,1,186,6|2,1:2|1:2,0:0:0:0:
24,152,45220,1,8,0:0:0:0:
280,152,45389,6,0,P|248:240|168:240,1,186,6|2,1:2|1:2,0:0:0:0:
328,240,45894,1,10,0:0:0:0:
72,240,46063,2,0,P|104:152|184:152,1,186,6|0,1:2|1:0,0:0:0:0:
352,152,46568,2,0,P|400:128|408:88,1,93,8|2,0:0|1:2,0:0:0:0:
152,56,46906,6,0,L|56:56,1,93,14|2,0:0|1:2,0:0:0:0:
224,56,47243,2,0,L|320:56,1,93,10|2,0:0|1:2,0:0:0:0:
152,56,47580,2,0,L|56:56,1,93,10|2,0:0|1:2,0:0:0:0:
224,56,47917,1,10,0:0:0:0:
480,56,48085,6,0,P|448:144|368:144,1,186,6|2,1:2|1:2,0:0:0:0:
208,144,48591,2,0,L|200:240,1,93,2|0,1:2|0:0,0:0:0:0:
264,240,48844,1,0,0:0:0:0:
360,240,48928,2,0,L|368:336,1,93,2|2,1:2|1:2,0:0:0:0:
208,336,49265,1,2,1:2:0:0:
440,240,49434,6,0,L|448:144,1,93,2|0,1:2|0:0,0:0:0:0:
288,144,49771,1,2,1:2:0:0:
128,144,49939,1,2,1:2:0:0:
32,144,50108,1,2,0:0:0:0:
128,144,50276,1,2,0:0:0:0:
232,144,50445,1,2,0:0:0:0:
128,144,50613,1,2,0:0:0:0:
32,144,50782,1,2,0:0:0:0:
304,144,50950,6,0,L|312:240,1,93,6|0,1:2|0:0,0:0:0:0:
144,240,51288,1,10,0:0:0:0:
376,240,51456,2,0,L|472:240,1,93,2|0,0:0|1:0,0:0:0:0:
240,240,51793,2,0,L|144:240,1,93,2|8,0:0|0:0,0:0:0:0:
304,240,52130,1,2,0:0:0:0:
48,240,52299,6,0,L|40:144,1,93,2|2,1:2|0:0,0:0:0:0:
200,144,52636,1,10,0:0:0:0:
432,144,52804,2,0,L|336:144,1,93,2|0,0:0|1:0,0:0:0:0:
104,144,53141,2,0,L|200:144,1,93,2|8,0:0|0:0,0:0:0:0:
360,144,53479,1,2,0:0:0:0:
104,144,53647,6,0,L|8:144,1,93,2|0,1:2|0:0,0:0:0:0:
176,144,53984,1,10,0:0:0:0:
408,144,54153,2,0,L|400:240,1,93,2|0,0:0|1:0,0:0:0:0:
240,240,54490,2,0,L|336:240,1,93,2|8,0:0|0:0,0:0:0:0:
96,240,54827,6,0,P|32:200|96:144,1,186,2|2,0:0|0:0,0:0:0:0:
256,144,55332,1,10,0:0:0:0:
24,144,55501,2,0,L|216:144,1,186,2|2,0:0|1:2,0:0:0:0:
376,144,56007,2,0,P|408:96|408:56,1,93,10|2,0:0|1:2,0:0:0:0:
344,48,56259,1,0,1:0:0:0:
160,48,56344,6,0,L|152:144,1,93,6|0,0:0|0:0,0:0:0:0:
312,144,56681,1,8,0:0:0:0:
56,144,56849,2,0,L|48:240,1,93,2|0,0:0|1:0,0:0:0:0:
280,240,57186,2,0,L|184:240,1,93,2|8,0:0|0:0,0:0:0:0:
352,240,57523,1,2,0:0:0:0:
96,240,57692,6,0,L|104:144,1,93,2|2,1:2|0:0,0:0:0:0:
264,144,58029,1,10,0:0:0:0:
32,144,58198,2,0,L|128:144,1,93,2|0,0:0|1:0,0:0:0:0:
360,144,58535,2,0,L|456:144,1,93,2|8,0:0|0:0,0:0:0:0:
288,144,58872,1,2,0:0:0:0:
32,144,59040,6,0,P|64:232|144:232,1,186,2|10,1:2|0:0,0:0:0:0:
376,232,59546,2,0,L|384:136,1,93,2|0,0:0|1:0,0:0:0:0:
272,136,59883,1,2,0:0:0:0:
432,136,60052,1,10,0:0:0:0:
176,136,60220,6,0,L|80:136,1,93,2|0,1:2|0:0,0:0:0:0:
248,136,60557,2,0,L|152:136,1,93,2|10,1:2|0:0,0:0:0:0:
384,136,60894,1,2,1:2:0:0:
232,136,61063,2,0,L|240:232,1,93,4|2,1:2|0:0,0:0:0:0:
400,232,61400,1,10,0:0:0:0:
456,240,61484,1,8,0:0:0:0:
448,288,61568,1,2,1:2:0:0:
392,296,61653,1,0,1:0:0:0:
208,248,61737,6,0,P|168:256|136:296,1,93,6|2,1:2|0:0,0:0:0:0:
304,296,62074,1,10,0:0:0:0:
48,296,62243,2,0,L|40:200,1,93,2|0,0:0|1:0,0:0:0:0:
272,200,62580,2,0,L|176:200,1,93,2|8,0:0|0:0,0:0:0:0:
344,200,62917,1,2,0:0:0:0:
88,200,63085,6,0,L|96:104,1,93,2|0,1:2|0:0,0:0:0:0:
256,104,63422,1,10,0:0:0:0:
24,104,63591,2,0,L|120:104,1,93,2|0,0:0|1:0,0:0:0:0:
352,104,63928,2,0,L|448:104,1,93,2|8,0:0|0:0,0:0:0:0:
280,104,64265,1,2,0:0:0:0:
48,104,64434,6,0,L|40:200,1,93,2|0,1:2|0:0,0:0:0:0:
200,200,64771,2,0,L|208:296,1,93,10|0,0:0|0:0,0:0:0:0:
440,296,65108,1,2,1:2:0:0:
288,296,65276,2,0,L|384:296,1,93,2|8,0:0|0:0,0:0:0:0:
120,296,65613,6,0,L|128:200,1,93,2|0,0:0|1:0,0:0:0:0:
240,200,65950,1,2,0:0:0:0:
80,200,66119,1,10,0:0:0:0:
312,200,66288,2,0,P|368:184|312:112,1,186,2|0,0:0|0:0,0:0:0:0:
80,112,66793,2,0,L|72:208,1,93,10|0,0:0|1:0,0:0:0:0:
136,208,67046,1,0,1:0:0:0:
320,208,67130,6,0,L|328:304,1,93,6|0,1:2|0:0,0:0:0:0:
168,304,67467,2,0,L|264:304,1,93,2|0,1:2|0:0,0:0:0:0:
96,304,67804,2,0,L|88:208,1,93,2|2,1:2|0:0,0:0:0:0:
240,208,68141,1,2,1:2:0:0:
88,208,68310,1,2,0:0:0:0:
344,208,68479,6,0,L|352:112,1,93,4|2,1:2|0:0,0:0:0:0:
192,112,68816,2,0,L|288:112,1,93,2|2,1:2|0:0,0:0:0:0:
448,112,69153,2,0,L|352:112,1,93,0|2,1:0|0:0,0:0:0:0:
200,112,69490,1,2,1:2:0:0:
352,112,69658,1,2,0:0:0:0:
96,112,69827,6,0,L|88:208,1,93,4|0,1:2|0:0,0:0:0:0:
240,208,70164,1,2,1:2:0:0:
88,208,70332,2,0,P|120:296|200:296,1,186,10|2,0:0|1:2,0:0:0:0:
352,296,70838,1,8,0:0:0:0:
200,296,71007,1,2,0:0:0:0:
456,296,71175,5,4,1:2:0:0:
312,296,71344,1,4,1:2:0:0:
456,296,71512,1,4,1:2:0:0:
224,296,71681,2,0,L|416:296,1,186,0|0,0:0|0:0,0:0:0:0:
248,296,72186,2,0,L|152:296,1,93,0|0,0:0|0:0,0:0:0:0:
408,296,72523,5,6,1:2:0:0:
456,288,72608,1,0,0:0:0:0:
480,240,72692,1,0,0:0:0:0:
456,192,72776,1,0,0:0:0:0:
408,184,72861,1,10,0:0:0:0:
176,184,73029,2,0,L|168:88,1,93,2|0,1:2|0:0,0:0:0:0:
400,96,73366,2,0,L|408:0,1,93,2|0,1:2|0:0,0:0:0:0:
128,0,73703,6,0,P|136:56|248:96,1,186,6|0,1:2|1:0,0:0:0:0:
408,96,74209,2,0,L|416:192,1,93,8|0,0:0|1:0,0:0:0:0:
184,192,74546,1,10,0:0:0:0:
72,192,74714,1,2,1:2:0:0:
128,192,74799,1,0,1:0:0:0:
184,192,74883,5,10,0:0:0:0:
439,191,75052,6,0,P|407:103|327:103,1,186,6|0,1:2|0:0,0:0:0:0:
176,104,75557,1,8,0:0:0:0:
328,104,75726,2,0,L|232:104,1,93,2|0,0:0|0:0,0:0:0:0:
72,104,76063,2,0,L|168:104,1,93,2|8,0:0|0:0,0:0:0:0:
400,104,76400,6,0,L|408:200,1,93,2|0,0:0|0:0,0:0:0:0:
248,200,76737,2,0,L|344:200,1,93,2|8,0:0|0:0,0:0:0:0:
168,200,77074,2,0,P|104:240|168:296,1,186,2|2,0:0|0:0,0:0:0:0:
328,296,77580,2,0,L|424:296,1,93,8|2,0:0|0:0,0:0:0:0:
192,296,77917,5,4,3:0:0:0:
343,296,78085,1,10,0:0:0:0:
376,256,78170,1,8,0:0:0:0:
344,216,78254,1,10,1:2:0:0:
112,216,78422,2,0,L|208:216,1,93,2|0,1:2|0:0,0:0:0:0:
440,216,78759,2,0,L|344:216,1,93,2|0,1:2|0:0,0:0:0:0:
88,216,79097,1,6,1:2:0:0:
344,216,79434,6,0,L|352:120,1,93,4|4,0:3|0:3,0:0:0:0:
192,120,79771,1,4,0:3:0:0:
494,120,79939,1,12,0:3:0:0:
