osu file format v14

[General]
AudioFilename: dori.mp3
AudioLeadIn: 0
PreviewTime: 50023
Countdown: 0
SampleSet: Soft
StackLeniency: 0.7
Mode: 2
LetterboxInBreaks: 0
WidescreenStoryboard: 0

[Editor]
Bookmarks: 1063,6287,11680,17242,28029,38815,44209,50950,61737,67130,72523,75051,79939
DistanceSpacing: 1.2
BeatDivisor: 4
GridSize: 8
TimelineZoom: 1.7

[Metadata]
Title:Dori Dori (TV Size)
TitleUnicode:ドリドリ (TV Size)
Artist:Serena (CV: Makiguchi Mayuki)
ArtistUnicode:セレナ (CV: 牧口 真幸)
Creator:rew0825
Version:Nely's Dori Dori Dream
Source:ポケットモンスターXY&Z
Tags:episode 20th Pocket Monsters Pokemon Pokémon XYZ XY and Z Dream 中川 翔子 Shoko Nakagawa anime ed ending female vocalist japanese j-pop jpop Xinely
BeatmapID:2324563
BeatmapSetID:754212

[Difficulty]
HPDrainRate:6
CircleSize:4
OverallDifficulty:9.2
ApproachRate:9.2
SliderMultiplier:2
SliderTickRate:2

[Events]
//Background and Video events
0,0,"cropped-1920-1080-949465.png",0,0
//Break Periods
//Storyboard Layer 0 (Background)
//Storyboard Layer 1 (Fail)
//Storyboard Layer 2 (Pass)
//Storyboard Layer 3 (Foreground)
//Storyboard Layer 4 (Overlay)
//Storyboard Sound Samples

[TimingPoints]
-285,337.078651685393,4,2,1,20,1,0
1063,-100,4,2,1,60,0,0
1400,-100,4,2,1,40,0,0
2243,-100,4,2,1,60,0,0
2411,-100,4,2,1,40,0,0
2580,-100,4,2,1,60,0,0
2917,-100,4,2,1,40,0,0
3759,-100,4,2,1,60,0,0
4097,-100,4,2,1,40,0,0
4939,-100,4,2,1,60,0,0
5108,-100,4,2,1,40,0,0
5276,-100,4,2,1,60,0,0
5613,-100,4,2,1,40,0,0
5782,-100,4,2,1,50,0,0
6288,-100,4,2,1,70,0,0
17074,-100,4,2,2,50,0,0
28029,-100,4,2,2,55,0,0
38816,-100,4,2,1,60,0,0
39827,-100,4,2,1,45,0,0
39995,-100,4,2,1,60,0,0
41175,-100,4,2,1,45,0,0
41344,-100,4,2,1,60,0,0
42523,-100,4,2,1,45,0,0
42692,-100,4,2,1,60,0,0
44209,-100,4,2,1,70,0,0
50950,-100,4,2,1,80,0,1
61063,-100,4,2,1,60,0,1
61231,-100,4,2,1,80,0,1
71512,-100,4,2,1,80,0,0
72523,-100,4,2,1,80,0,1
75052,-100,4,2,1,70,0,0
79434,-100,4,2,1,80,0,0

[Colours]
Combo1 : 255,79,167
Combo2 : 255,26,26
Combo3 : 242,253,43

[HitObjects]
454,223,220,5,2,0:0:0:0:
480,187,304,1,0,0:0:0:0:
472,144,389,1,0,0:0:0:0:
440,136,473,1,0,0:0:0:0:
271,71,557,1,2,0:0:0:0:
227,69,641,1,0,0:0:0:0:
68,72,726,5,2,0:0:0:0:
21,105,810,1,0,0:0:0:0:
18,167,894,1,0,0:0:0:0:
67,210,979,1,0,0:0:0:0:
300,224,1063,5,4,2:3:0:0:
468,256,1231,1,4,2:3:0:0:
312,306,1400,2,0,L|320:191,1,100,2|0,0:0|0:0,0:0:0:0:
466,150,1737,1,2,0:0:0:0:
329,133,1906,1,2,0:0:0:0:
86,112,2243,6,0,L|232:110,1,100,4|0,0:3|0:0,0:0:0:0:
32,171,2580,1,4,0:3:0:0:
301,174,2748,2,0,L|302:284,1,100,4|0,0:3|0:0,0:0:0:0:
190,321,3085,2,0,L|302:319,1,100,2|0,0:0|0:0,0:0:0:0:
106,215,3422,2,0,L|205:213,1,100,2|0,0:0|0:0,0:0:0:0:
454,198,3759,5,4,0:3:0:0:
309,200,3928,1,4,0:3:0:0:
454,198,4097,2,0,L|454:99,1,100,2|0,0:0|0:0,0:0:0:0:
288,105,4434,2,0,L|393:101,1,100,2|2,0:0|0:0,0:0:0:0:
81,184,4939,6,0,L|198:187,1,100,4|0,0:3|0:0,0:0:0:0:
339,184,5276,1,4,0:3:0:0:
91,216,5445,2,0,P|32:256|109:336,1,200,4|2,0:3|0:0,0:0:0:0:
195,314,5950,1,2,0:0:0:0:
97,292,6119,1,2,0:0:0:0:
346,288,6288,6,0,P|401:259|329:171,1,200,6|0,1:2|0:0,0:0:0:0:
183,162,6793,1,10,0:0:0:0:
414,124,6962,2,0,L|517:108,1,100,2|0,0:0|0:0,0:0:0:0:
323,120,7299,2,0,L|190:88,1,100,2|8,0:0|0:0,0:0:0:0:
474,202,7636,6,0,L|263:233,1,200,2|0,0:0|0:0,0:0:0:0:
110,237,8141,1,10,0:0:0:0:
345,217,8310,2,0,L|340:104,1,100,2|0,0:0|0:0,0:0:0:0:
169,117,8647,2,0,L|291:118,1,100,2|8,0:0|0:0,0:0:0:0:
30,188,8984,6,0,P|149:193|241:184,1,200,2|0,0:0|0:0,0:0:0:0:
387,179,9490,1,10,0:0:0:0:
148,187,9658,2,0,L|149:296,1,100,2|0,0:0|0:0,0:0:0:0:
333,281,9995,2,0,L|334:161,1,100,2|8,0:0|0:0,0:0:0:0:
90,91,10332,6,0,P|68:140|93:191,1,100,2|0,0:0|0:0,0:0:0:0:
320,179,10670,2,0,L|446:179,1,100,2|8,0:0|0:0,0:0:0:0:
206,178,11007,2,0,L|205:277,1,100,2|0,0:0|0:0,0:0:0:0:
344,177,11344,2,0,L|414:176,2,50,10|8|0,0:0|0:0|1:2,0:0:0:0:
27,97,11681,6,0,P|111:56|235:82,1,200,4|0,0:0|0:0,0:0:0:0:
366,75,12186,1,10,0:0:0:0:
117,155,12355,2,0,L|118:263,1,100,2|0,0:0|0:0,0:0:0:0:
304,258,12692,2,0,L|303:135,1,100,2|8,0:0|0:0,0:0:0:0:
72,84,13029,6,0,P|144:52|209:39,1,100,2|0,0:0|0:0,0:0:0:0:
340,93,13366,2,0,P|276:56|229:40,1,100,2|8,0:0|0:0,0:0:0:0:
16,133,13703,2,0,L|25:246,1,100,2|0,0:0|0:0,0:0:0:0:
132,242,14040,1,2,0:0:0:0:
322,238,14209,1,10,0:0:0:0:
208,235,14377,1,2,0:0:0:0:
469,123,14546,5,8,3:0:0:0:
313,145,14714,1,10,0:0:0:0:
328,177,14799,1,8,0:0:0:0:
337,204,14883,1,2,1:2:0:0:
104,156,15052,2,0,L|22:98,1,100,2|0,1:2|0:0,0:0:0:0:
267,145,15389,2,0,L|348:87,1,100,2|0,1:2|0:0,0:0:0:0:
92,287,15726,6,0,P|34:248|112:158,1,200,6|2,1:2|0:0,0:0:0:0:
169,156,16231,1,2,0:0:0:0:
106,156,16400,1,2,0:0:0:0:
252,157,16568,2,0,P|351:181|242:257,1,300,2|2,0:0|0:0,0:0:0:0:
4,263,17243,6,0,L|220:264,1,200,6|8,0:0|0:0,0:0:0:0:
373,261,17748,2,0,P|390:185|360:155,1,100,2|8,0:0|0:0,0:0:0:0:
262,165,18085,2,0,L|148:167,1,100,2|8,0:0|0:0,0:0:0:0:
344,225,18422,6,0,L|458:224,1,100,2|8,0:0|0:0,0:0:0:0:
323,226,18759,2,0,L|213:226,1,100,2|8,0:0|0:0,0:0:0:0:
344,225,19097,2,0,L|344:350,1,100,2|8,0:0|0:0,0:0:0:0:
175,315,19434,2,0,L|76:311,2,100,2|8|2,0:0|0:0|0:0,0:0:0:0:
373,267,19939,6,0,P|325:338|192:308,1,200,10|10,0:0|0:0,0:0:0:0:
100,318,20445,2,0,L|207:317,1,100,2|8,0:0|0:0,0:0:0:0:
375,237,20782,2,0,L|373:131,1,100,2|8,0:0|0:0,0:0:0:0:
269,150,21119,6,0,L|271:259,1,100,2|8,0:0|0:0,0:0:0:0:
447,241,21456,2,0,L|443:137,1,100,2|8,0:0|0:0,0:0:0:0:
322,112,21793,2,0,L|426:110,1,100,2|8,0:0|0:0,0:0:0:0:
304,135,22130,2,0,L|185:131,1,100,2|8,0:0|0:0,0:0:0:0:
83,126,22467,1,2,0:0:0:0:
255,226,22636,6,0,P|322:230|470:199,1,200,10|10,0:0|0:0,0:0:0:0:
320,145,23141,2,0,L|199:146,1,100,2|8,0:0|0:0,0:0:0:0:
100,156,23479,2,0,L|216:153,1,100,2|8,0:0|0:0,0:0:0:0:
375,152,23816,6,0,L|373:281,1,100,2|8,0:0|0:0,0:0:0:0:
253,244,24153,2,0,L|260:121,1,100,2|8,0:0|0:0,0:0:0:0:
449,150,24490,2,0,P|505:212|419:291,1,200,2|2,0:0|0:0,0:0:0:0:
323,292,24995,2,0,L|444:299,1,100,10|2,0:0|0:0,0:0:0:0:
222,289,25332,6,0,P|161:227|233:142,1,200,10|10,0:0|0:0,0:0:0:0:
334,150,25838,2,0,L|338:44,1,100,2|8,0:0|0:0,0:0:0:0:
214,44,26175,2,0,L|207:178,1,100,2|8,0:0|0:0,0:0:0:0:
440,216,26512,6,0,P|488:165|416:132,1,150,14|0,0:0|0:0,0:0:0:0:
243,128,26849,2,0,P|195:179|267:212,1,150,14|0,0:0|0:0,0:0:0:0:
441,125,27186,2,0,P|323:81|259:83,1,150,14|0,0:0|0:0,0:0:0:0:
190,78,27523,1,8,0:0:0:0:
331,131,27692,1,8,3:0:0:0:
165,135,27861,1,8,3:0:0:0:
435,169,28029,6,0,P|357:227|262:206,1,200,14|8,0:0|0:0,0:0:0:0:
92,118,28535,2,0,P|138:122|195:161,1,100,2|8,0:0|0:0,0:0:0:0:
304,150,28872,2,0,L|413:141,1,100,2|8,0:0|0:0,0:0:0:0:
218,176,29209,6,0,L|214:54,1,100,2|8,0:0|0:0,0:0:0:0:
100,78,29546,2,0,L|106:190,1,100,2|8,0:0|0:0,0:0:0:0:
223,217,29883,2,0,L|114:210,1,100,2|8,0:0|0:0,0:0:0:0:
388,280,30220,2,0,P|452:222|384:150,1,200,6|2,0:3|0:0,0:0:0:0:
211,133,30726,6,0,L|106:115,2,100,10|0|10,0:0|0:0|0:0,0:0:0:0:
331,139,31231,2,0,L|333:22,1,100,2|8,0:0|0:0,0:0:0:0:
214,59,31568,2,0,L|333:54,1,100,2|8,0:0|0:0,0:0:0:0:
433,69,31906,6,0,L|291:39,1,100,2|10,0:0|0:0,0:0:0:0:
158,77,32243,2,0,L|160:191,1,100,2|8,0:0|0:0,0:0:0:0:
280,177,32580,2,0,L|177:176,1,100,2|8,0:0|0:0,0:0:0:0:
429,133,32917,2,0,P|481:195|414:275,1,200,6|2,0:3|0:0,0:0:0:0:
131,198,33422,6,0,P|215:151|237:142,1,100,14|0,0:0|0:0,0:0:0:0:
338,160,33759,1,10,0:0:0:0:
218,149,33928,2,0,L|215:23,1,100,2|8,0:0|0:0,0:0:0:0:
335,49,34265,2,0,L|339:175,1,100,2|8,0:0|0:0,0:0:0:0:
157,250,34602,6,0,L|22:257,1,100,2|8,0:0|0:0,0:0:0:0:
174,281,34939,2,0,L|299:285,1,100,2|8,0:0|0:0,0:0:0:0:
394,292,35276,2,0,L|392:170,1,100,2|8,0:0|0:0,0:0:0:0:
150,124,35613,2,0,L|28:116,2,100,6|8|2,0:3|0:0|0:0,0:0:0:0:
412,194,36119,6,0,P|474:152|392:84,1,200,14|2,0:0|0:3,0:0:0:0:
214,75,36625,2,0,L|344:71,1,100,2|0,0:0|0:0,0:0:0:0:
489,120,36962,2,0,L|358:133,1,100,2|2,0:3|0:0,0:0:0:0:
129,140,37299,2,0,L|134:257,1,100,14|0,0:0|0:0,0:0:0:0:
316,252,37636,5,2,0:0:0:0:
165,244,37804,1,2,0:0:0:0:
316,252,37973,1,4,0:3:0:0:
60,183,38141,1,2,0:0:0:0:
209,183,38310,1,4,0:3:0:0:
62,252,38479,1,2,0:0:0:0:
215,253,38647,2,4,L|272:237,1,50,4|4,0:3|0:3,0:0:0:0:
98,189,38816,6,0,P|31:179|-11:186,2,100,6|0|0,1:2|0:0|0:0,0:0:0:0:
341,195,39321,2,0,L|463:185,1,100,6|2,0:3|0:0,0:0:0:0:
324,268,39658,2,0,L|201:277,2,100,0|10|0,1:0|0:0|0:0,0:0:0:0:
63,199,40164,6,0,L|276:185,1,200,2|2,1:2|0:0,0:0:0:0:
502,112,40670,2,0,L|387:82,1,100,6|2,0:3|0:0,0:0:0:0:
136,72,41007,1,0,1:0:0:0:
240,126,41175,1,10,0:0:0:0:
134,192,41344,1,0,0:0:0:0:
379,185,41512,6,0,L|265:188,2,100,2|0|2,1:2|1:0|1:2,0:0:0:0:
125,253,42018,2,0,P|86:219|164:127,1,200,6|2,0:3|0:0,0:0:0:0:
404,134,42523,2,0,L|290:129,1,100,8|2,1:2|0:0,0:0:0:0:
122,124,42861,6,0,L|260:127,2,100,2|0|2,0:0|0:0|0:0,0:0:0:0:
351,233,43366,2,0,L|506:86,1,200,6|0,0:3|1:0,0:0:0:0:
262,134,43872,2,0,P|202:123|156:126,1,100,8|10,0:0|0:0,0:0:0:0:
108,128,44125,1,8,0:0:0:0:
306,214,44209,6,0,L|425:194,2,100,6|2|10,1:2|0:0|0:0,0:0:0:0:
72,219,44714,2,0,L|69:118,1,100,6|0,1:2|0:0,0:0:0:0:
211,113,45052,1,2,1:2:0:0:
355,107,45220,1,8,0:0:0:0:
61,225,45389,6,0,L|54:101,1,100,6|0,1:2|0:0,0:0:0:0:
183,118,45726,1,2,1:2:0:0:
51,74,45894,1,10,0:0:0:0:
321,214,46063,6,0,L|325:109,1,100,6|0,1:2|0:0,0:0:0:0:
156,105,46400,1,0,1:0:0:0:
404,120,46568,1,8,0:0:0:0:
204,96,46737,1,2,1:2:0:0:
460,129,46906,6,0,L|330:141,1,100,14|2,0:0|1:2,0:0:0:0:
94,158,47243,2,0,L|216:186,1,100,10|2,0:0|1:2,0:0:0:0:
424,194,47580,2,0,L|423:75,1,100,10|2,0:0|1:2,0:0:0:0:
164,89,47917,1,10,0:0:0:0:
443,215,48085,6,0,P|500:164|427:91,1,200,6|2,1:2|1:2,0:0:0:0:
170,139,48591,2,0,L|165:11,1,100,2|0,1:2|0:0,0:0:0:0:
207,41,48844,1,0,0:0:0:0:
365,45,48928,2,0,L|258:51,1,100,2|2,1:2|1:2,0:0:0:0:
432,152,49265,1,2,1:2:0:0:
150,251,49434,6,0,P|138:210|161:155,1,100,2|0,1:2|0:0,0:0:0:0:
392,128,49771,1,2,1:2:0:0:
88,128,49939,1,2,1:2:0:0:
160,205,50108,5,2,0:0:0:0:
279,204,50276,1,2,0:0:0:0:
356,146,50445,1,2,0:0:0:0:
353,72,50613,1,2,0:0:0:0:
274,36,50782,1,2,0:0:0:0:
24,80,50950,6,0,L|139:82,2,100,6|0|10,1:2|0:0|0:0,0:0:0:0:
304,165,51456,2,0,L|422:166,1,100,2|0,0:0|1:0,0:0:0:0:
151,199,51793,2,0,L|33:192,1,100,2|8,0:0|0:0,0:0:0:0:
191,296,52130,2,0,L|250:292,1,50,2|0,0:0|0:0,0:0:0:0:
408,211,52299,6,0,L|300:206,2,100,2|2|10,1:2|0:0|0:0,0:0:0:0:
161,202,52804,2,0,L|144:86,1,100,2|0,0:0|1:0,0:0:0:0:
390,197,53141,2,0,L|411:100,1,100,2|8,0:0|0:0,0:0:0:0:
219,209,53479,2,0,L|289:203,1,50,2|0,0:0|0:0,0:0:0:0:
472,261,53647,6,0,L|376:302,1,100,2|0,1:2|0:0,0:0:0:0:
192,310,53984,1,10,0:0:0:0:
453,301,54153,2,0,P|472:263|430:197,1,100,2|0,0:0|1:0,0:0:0:0:
254,150,54490,2,0,L|368:151,1,100,2|8,0:0|0:0,0:0:0:0:
94,157,54827,5,2,0:0:0:0:
250,164,54995,2,0,L|250:45,1,100,2|2,1:2|0:0,0:0:0:0:
87,149,55332,1,10,0:0:0:0:
347,139,55501,1,2,0:0:0:0:
187,294,55670,1,0,1:0:0:0:
130,267,55754,1,0,0:0:0:0:
131,203,55838,1,2,1:2:0:0:
191,184,55922,1,0,0:0:0:0:
347,178,56007,2,0,L|347:256,1,50,10|0,0:0|0:0,0:0:0:0:
147,193,56175,2,0,L|152:261,1,50,2|0,1:2|1:0,0:0:0:0:
362,291,56344,6,0,P|418:289|481:262,2,100,6|0|8,0:0|0:0|0:0,0:0:0:0:
124,292,56849,2,0,L|1:291,1,100,2|0,0:0|1:0,0:0:0:0:
270,213,57186,2,0,L|412:215,1,100,2|8,0:0|0:0,0:0:0:0:
113,209,57523,2,0,L|104:134,1,50,2|0,0:0|0:0,0:0:0:0:
344,123,57692,6,0,L|451:115,2,100,2|2|10,1:2|0:0|0:0,0:0:0:0:
99,106,58198,2,0,L|87:233,1,100,2|0,0:0|1:0,0:0:0:0:
333,214,58535,2,0,L|193:211,1,100,2|8,0:0|0:0,0:0:0:0:
1,200,58872,2,0,L|82:211,1,50,2|0,0:0|0:0,0:0:0:0:
250,215,59040,6,0,P|310:192|229:119,1,200,2|10,1:2|0:0,0:0:0:0:
20,103,59546,2,0,L|141:100,1,100,2|0,0:0|1:0,0:0:0:0:
357,161,59883,1,2,0:0:0:0:
152,176,60052,1,10,0:0:0:0:
399,252,60220,6,0,L|522:243,1,100,2|0,1:2|0:0,0:0:0:0:
312,192,60557,1,2,1:2:0:0:
476,181,60726,1,10,0:0:0:0:
180,272,60894,2,0,L|62:280,1,100,2|4,1:2|1:2,0:0:0:0:
282,270,61231,2,0,L|279:349,1,50,2|0,0:0|0:0,0:0:0:0:
87,316,61400,2,0,L|13:313,1,50,10|8,0:0|0:0,0:0:0:0:
244,224,61568,2,0,L|332:224,1,50,2|0,1:2|1:0,0:0:0:0:
93,247,61737,6,0,L|-18:247,2,100,6|2|10,1:2|0:0|0:0,0:0:0:0:
338,238,62243,2,0,L|339:130,1,100,2|0,0:0|1:0,0:0:0:0:
96,156,62580,2,0,L|203:156,1,100,2|8,0:0|0:0,0:0:0:0:
355,154,62917,1,2,0:0:0:0:
99,257,63085,6,0,P|41:230|122:147,1,200,2|10,1:2|0:0,0:0:0:0:
337,141,63591,2,0,L|211:141,1,100,2|0,0:0|1:0,0:0:0:0:
468,135,63928,2,0,L|470:254,1,100,2|8,0:0|0:0,0:0:0:0:
342,239,64265,2,0,L|280:254,1,50,2|0,0:0|0:0,0:0:0:0:
52,199,64434,6,0,L|184:188,1,100,2|0,1:2|0:0,0:0:0:0:
380,163,64771,2,0,L|486:164,2,100,10|0|2,0:0|0:0|1:2,0:0:0:0:
143,90,65276,2,0,L|43:90,1,100,2|8,0:0|0:0,0:0:0:0:
329,166,65613,6,0,P|407:174|449:161,1,100,2|0,0:0|1:0,0:0:0:0:
198,255,65950,2,0,L|82:256,1,100,2|10,0:0|0:0,0:0:0:0:
391,318,66288,2,0,P|444:251|345:176,1,200,2|0,0:0|0:0,0:0:0:0:
129,168,66793,2,0,L|122:89,1,50,10|0,0:0|1:0,0:0:0:0:
317,100,66962,2,0,L|327:175,1,50,0|0,1:0|1:0,0:0:0:0:
112,234,67130,6,0,L|-3:234,1,100,6|0,1:2|0:0,0:0:0:0:
246,242,67467,2,0,L|248:370,1,100,2|0,1:2|0:0,0:0:0:0:
16,236,67804,2,0,L|144:237,1,100,2|2,1:2|0:0,0:0:0:0:
354,232,68141,2,0,L|358:355,1,100,2|2,1:2|0:0,0:0:0:0:
73,153,68479,5,4,1:2:0:0:
207,160,68647,1,2,0:0:0:0:
42,223,68816,1,2,1:2:0:0:
268,219,68984,2,0,L|340:206,1,50,2|0,0:0|0:0,0:0:0:0:
107,275,69153,1,0,1:0:0:0:
221,253,69321,1,2,0:0:0:0:
57,347,69490,1,2,1:2:0:0:
324,345,69658,1,2,0:0:0:0:
23,241,69827,6,0,L|233:196,1,200,4|2,1:2|1:2,0:0:0:0:
456,200,70332,2,0,L|264:142,1,200,10|2,0:0|1:2,0:0:0:0:
30,185,70838,2,0,L|48:303,1,100,8|2,0:0|0:0,0:0:0:0:
340,292,71175,5,4,1:2:0:0:
99,219,71344,1,4,1:2:0:0:
341,161,71512,1,4,1:2:0:0:
309,180,72523,6,0,P|256:152|101:199,1,200,6|10,1:2|0:0,0:0:0:0:
368,187,73029,2,0,L|250:189,1,100,2|0,1:2|0:0,0:0:0:0:
29,203,73366,2,0,L|165:192,1,100,2|0,1:2|0:0,0:0:0:0:
390,278,73703,6,0,P|398:231|375:166,1,100,6|0,1:2|0:0,0:0:0:0:
98,123,74040,1,0,1:0:0:0:
395,87,74209,1,8,0:0:0:0:
203,81,74377,1,0,1:0:0:0:
442,143,74546,1,10,0:0:0:0:
272,141,74714,2,0,L|192:137,2,50,2|0|10,1:2|1:0|0:0,0:0:0:0:
509,189,75052,6,0,P|420:226|294:199,1,200,6|0,1:2|0:0,0:0:0:0:
148,204,75557,1,8,0:0:0:0:
386,192,75726,2,0,L|386:83,1,100,2|0,0:0|0:0,0:0:0:0:
200,84,76063,2,0,L|330:83,1,100,2|8,0:0|0:0,0:0:0:0:
44,169,76400,6,0,L|42:61,1,100,2|0,0:0|0:0,0:0:0:0:
288,69,76737,2,0,L|289:185,1,100,2|8,0:0|0:0,0:0:0:0:
39,70,77074,2,0,L|166:75,1,100,2|0,0:0|0:0,0:0:0:0:
325,73,77411,1,2,0:0:0:0:
146,145,77580,1,8,0:0:0:0:
389,164,77748,6,0,L|504:142,1,100,2|4,0:0|3:0,0:0:0:0:
301,230,78085,1,10,0:0:0:0:
222,228,78170,1,8,0:0:0:0:
63,232,78254,1,10,1:2:0:0:
299,312,78422,2,0,L|436:280,1,100,2|0,1:2|0:0,0:0:0:0:
197,311,78759,2,0,L|85:277,1,100,2|0,1:2|0:0,0:0:0:0:
434,298,79097,6,0,P|441:276|431:181,1,100,6|0,1:2|0:0,0:0:0:0:
167,139,79434,1,4,0:3:0:0:
401,130,79602,1,4,0:3:0:0:
131,202,79771,1,4,0:3:0:0:
442,196,79939,1,12,0:3:0:0:
