osu file format v14

[General]
AudioFilename: dori.mp3
AudioLeadIn: 0
PreviewTime: 50023
Countdown: 0
SampleSet: Soft
StackLeniency: 0.7
Mode: 2
LetterboxInBreaks: 0
WidescreenStoryboard: 0

[Editor]
Bookmarks: 1063,6287,11680,17242,28029,38815,44209,50950,61737,67130,72523,75051,79939
DistanceSpacing: 1.4
BeatDivisor: 8
GridSize: 8
TimelineZoom: 1.2

[Metadata]
Title:Dori Dori (TV Size)
TitleUnicode:ドリドリ (TV Size)
Artist:Serena (CV: Makiguchi Mayuki)
ArtistUnicode:セレナ (CV: 牧口 真幸)
Creator:rew0825
Version:Cup
Source:ポケットモンスターXY&Z
Tags:episode 20th Pocket Monsters Pokemon Pokémon XYZ XY and Z Dream 中川 翔子 Shoko Nakagawa anime ed ending female vocalist japanese j-pop jpop Xinely
BeatmapID:2314656
BeatmapSetID:754212

[Difficulty]
HPDrainRate:3
CircleSize:2.4
OverallDifficulty:6
ApproachRate:6
SliderMultiplier:1.2
SliderTickRate:1

[Events]
//Background and Video events
0,0,"cropped-1920-1080-949465.png",0,0
//Break Periods
//Storyboard Layer 0 (Background)
//Storyboard Layer 1 (Fail)
//Storyboard Layer 2 (Pass)
//Storyboard Layer 3 (Foreground)
//Storyboard Layer 4 (Overlay)
//Storyboard Sound Samples

[TimingPoints]
-285,337.078651685393,4,2,1,20,1,0
1063,-100,4,2,1,60,0,0
1400,-100,4,2,1,40,0,0
2243,-100,4,2,1,60,0,0
2411,-100,4,2,1,40,0,0
2580,-100,4,2,1,60,0,0
2917,-100,4,2,1,40,0,0
3759,-100,4,2,1,60,0,0
4097,-100,4,2,1,40,0,0
4939,-100,4,2,1,60,0,0
5108,-100,4,2,1,40,0,0
5276,-100,4,2,1,60,0,0
5613,-100,4,2,1,40,0,0
5782,-100,4,2,1,50,0,0
6288,-100,4,2,1,70,0,0
17074,-100,4,2,2,50,0,0
28029,-100,4,2,2,55,0,0
38816,-100,4,2,1,60,0,0
39827,-100,4,2,1,45,0,0
39995,-100,4,2,1,60,0,0
41175,-100,4,2,1,45,0,0
41344,-100,4,2,1,60,0,0
42523,-100,4,2,1,45,0,0
42692,-100,4,2,1,60,0,0
44209,-100,4,2,1,70,0,0
50950,-100,4,2,1,80,0,1
61063,-100,4,2,1,60,0,1
61231,-100,4,2,1,80,0,1
71512,-100,4,2,1,80,0,0
72523,-100,4,2,1,80,0,1
75052,-100,4,2,1,70,0,0
79434,-100,4,2,1,80,0,0

[Colours]
Combo1 : 255,79,167
Combo2 : 255,26,26
Combo3 : 242,253,43

[HitObjects]
200,184,1063,6,0,P|144:184|128:128,1,120,4|2,2:3|0:0,0:0:0:0:
264,128,1737,1,2,0:0:0:0:
56,128,2243,5,4,0:3:0:0:
208,128,2580,2,0,L|216:192,1,60,4|4,0:3|0:3,0:0:0:0:
80,192,3085,2,0,L|72:312,1,120,2|2,0:0|0:0,0:0:0:0:
224,312,3759,6,0,P|280:312|296:256,1,120,4|2,0:3|0:0,0:0:0:0:
160,256,4434,1,2,0:0:0:0:
368,256,4939,5,4,0:3:0:0:
216,256,5276,2,0,L|208:192,1,60,4|4,0:3|0:3,0:0:0:0:
360,168,5782,1,2,0:0:0:0:
424,168,5950,1,2,0:0:0:0:
360,168,6119,1,2,0:0:0:0:
256,168,6288,6,0,L|80:128,1,180,6|10,1:2|0:0,0:0:0:0:
150,128,6962,1,2,0:0:0:0:
286,128,7299,1,2,0:0:0:0:
136,128,7636,6,0,P|80:152|136:224,1,180,2|10,0:0|0:0,0:0:0:0:
208,224,8310,1,2,0:0:0:0:
344,224,8647,1,2,0:0:0:0:
496,224,8984,6,0,P|456:160|360:160,1,180,2|10,0:0|0:0,0:0:0:0:
288,224,9658,1,2,0:0:0:0:
152,224,9995,1,2,0:0:0:0:
304,224,10332,6,0,L|320:104,1,120,2|2,0:0|0:0,0:0:0:0:
168,224,11007,2,0,L|152:104,1,120,2|10,0:0|0:0,0:0:0:0:
328,176,11681,6,0,P|424:168|456:96,1,180,4|10,0:0|0:0,0:0:0:0:
384,96,12355,1,2,0:0:0:0:
248,96,12692,1,2,0:0:0:0:
400,96,13029,6,0,L|408:216,1,120,2|2,0:0|0:0,0:0:0:0:
272,216,13703,2,0,L|264:96,1,120,2|2,0:0|0:0,0:0:0:0:
336,96,14209,1,10,0:0:0:0:
328,32,14377,1,2,0:0:0:0:
240,32,14546,6,0,L|112:32,1,120,8|2,3:0|1:2,0:0:0:0:
192,32,15052,1,2,1:2:0:0:
344,32,15389,1,2,1:2:0:0:
160,32,15726,5,6,1:2:0:0:
24,32,16063,2,0,L|16:152,1,120,2|2,0:0|0:0,0:0:0:0:
88,152,16568,1,2,0:0:0:0:
392,272,17243,6,0,P|432:248|392:208,1,120,6|8,0:0|0:0,0:0:0:0:
320,208,17748,1,2,0:0:0:0:
184,208,18085,1,2,0:0:0:0:
336,208,18422,6,0,L|344:88,1,120,2|2,0:0|0:0,0:0:0:0:
208,88,19097,1,2,0:0:0:0:
344,88,19434,1,2,0:0:0:0:
192,88,19771,6,0,L|184:152,1,60,2|10,0:0|0:0,0:0:0:0:
320,152,20276,2,0,L|328:216,1,60,10|2,0:0|0:0,0:0:0:0:
192,216,20782,2,0,P|136:240|152:288,1,120,2|2,0:0|0:0,0:0:0:0:
304,288,21456,6,0,L|424:288,1,120,2|2,0:0|0:0,0:0:0:0:
416,216,22130,1,2,0:0:0:0:
264,216,22467,6,0,L|256:152,1,60,2|10,0:0|0:0,0:0:0:0:
392,160,22973,2,0,L|400:96,1,60,10|2,0:0|0:0,0:0:0:0:
264,96,23479,1,2,0:0:0:0:
112,96,23816,6,0,L|240:96,2,120,2|2|2,0:0|0:0|0:0,0:0:0:0:
248,96,24827,2,0,P|288:120|248:160,1,120,2|2,0:0|0:0,0:0:0:0:
176,160,25332,5,10,0:0:0:0:
40,160,25670,2,0,L|32:224,1,60,10|2,0:0|0:0,0:0:0:0:
168,224,26175,1,2,0:0:0:0:
352,224,26512,5,14,0:0:0:0:
208,224,26849,1,14,0:0:0:0:
352,224,27186,1,14,0:0:0:0:
216,224,27523,2,0,P|160:224|144:168,1,120,8|8,0:0|3:0,0:0:0:0:
232,168,28029,5,14,0:0:0:0:
368,168,28366,2,0,L|304:168,1,60,8|2,0:0|0:0,0:0:0:0:
176,168,28872,1,2,0:0:0:0:
328,168,29209,6,0,P|368:144|328:104,1,120,2|2,0:0|0:0,0:0:0:0:
192,104,29883,1,2,0:0:0:0:
40,104,30220,1,6,0:3:0:0:
192,104,30557,6,0,L|256:104,1,60,2|10,0:0|0:0,0:0:0:0:
392,224,31063,2,0,L|328:224,1,60,10|2,0:0|0:0,0:0:0:0:
192,224,31568,2,0,P|144:240|144:304,1,120,2|2,0:0|0:0,0:0:0:0:
280,232,32243,6,0,P|320:208|280:168,1,120,2|2,0:0|0:0,0:0:0:0:
128,168,32917,1,6,0:3:0:0:
264,168,33254,1,2,0:0:0:0:
352,168,33422,5,14,0:0:0:0:
216,168,33759,1,10,0:0:0:0:
144,168,33928,1,2,0:0:0:0:
280,168,34265,1,2,0:0:0:0:
432,168,34602,6,0,L|312:168,2,120,2|2|2,0:0|0:0|0:0,0:0:0:0:
296,168,35613,2,0,P|256:144|296:104,1,120,6|2,0:3|0:0,0:0:0:0:
384,104,36119,6,0,L|256:104,1,120,14|2,0:0|0:3,0:0:0:0:
192,104,36625,1,2,0:0:0:0:
40,104,36962,1,2,0:3:0:0:
224,104,37299,1,14,0:0:0:0:
360,104,37636,6,0,P|400:128|360:168,1,120,2|4,0:0|0:3,0:0:0:0:
288,168,38141,1,2,0:0:0:0:
152,168,38479,1,2,0:0:0:0:
336,168,38816,6,0,P|392:168|408:224,1,120,6|0,1:2|0:0,0:0:0:0:
344,224,39321,1,6,0:3:0:0:
272,224,39490,1,2,0:0:0:0:
128,224,39827,1,10,0:0:0:0:
272,224,40164,5,2,1:2:0:0:
416,224,40501,1,2,0:0:0:0:
272,224,40838,2,0,L|152:224,1,120,2|10,0:0|0:0,0:0:0:0:
304,224,41512,6,0,L|424:224,1,120,2|2,1:2|1:2,0:0:0:0:
352,224,42018,1,6,0:3:0:0:
216,224,42355,1,2,0:0:0:0:
64,224,42692,6,0,L|72:160,1,60,2|2,0:0|0:0,0:0:0:0:
208,160,43198,1,2,0:0:0:0:
136,160,43366,1,6,0:3:0:0:
344,160,43872,1,8,0:0:0:0:
160,160,44209,6,0,P|120:136|160:96,1,120,6|10,1:2|0:0,0:0:0:0:
248,96,44714,2,0,L|368:96,1,120,6|2,1:2|1:2,0:0:0:0:
296,96,45220,1,8,0:0:0:0:
208,96,45389,6,0,P|168:120|208:160,1,120,6|2,1:2|1:2,0:0:0:0:
288,160,45894,1,10,0:0:0:0:
376,160,46063,2,0,P|416:136|376:96,1,120,6|0,1:2|1:0,0:0:0:0:
296,96,46568,1,8,0:0:0:0:
112,96,46906,6,0,P|72:120|112:160,1,120,14|10,0:0|0:0,0:0:0:0:
176,160,47411,1,2,1:2:0:0:
248,160,47580,1,10,0:0:0:0:
400,160,47917,1,10,0:0:0:0:
312,160,48085,5,6,1:2:0:0:
176,160,48422,2,0,L|168:224,1,60,2|2,1:2|1:2,0:0:0:0:
304,224,48928,1,2,1:2:0:0:
368,224,49097,1,2,1:2:0:0:
304,224,49265,1,2,1:2:0:0:
232,224,49434,1,2,1:2:0:0:
96,224,49771,6,0,L|104:160,1,60,2|2,1:2|1:2,0:0:0:0:
384,144,50613,1,2,0:0:0:0:
208,144,50950,6,0,P|136:144|128:104,1,120,6|10,1:2|0:0,0:0:0:0:
208,104,51456,1,2,0:0:0:0:
360,104,51793,1,2,0:0:0:0:
208,104,52130,1,2,0:0:0:0:
120,104,52299,6,0,P|80:128|120:168,1,120,2|10,1:2|0:0,0:0:0:0:
192,168,52804,1,2,0:0:0:0:
344,168,53141,1,2,0:0:0:0:
192,168,53479,1,2,0:0:0:0:
104,168,53647,6,0,L|224:168,1,120,2|10,1:2|0:0,0:0:0:0:
296,168,54153,1,2,0:0:0:0:
448,168,54490,1,2,0:0:0:0:
264,168,54827,6,0,L|144:168,1,120,2|2,0:0|0:0,0:0:0:0:
208,168,55332,1,10,0:0:0:0:
280,168,55501,1,2,0:0:0:0:
432,168,55838,2,0,L|440:104,1,60,2|10,1:2|0:0,0:0:0:0:
368,104,56175,1,2,1:2:0:0:
280,104,56344,6,0,P|240:128|280:168,1,120,6|8,0:0|0:0,0:0:0:0:
352,168,56849,1,2,0:0:0:0:
200,168,57186,1,2,0:0:0:0:
352,168,57523,1,2,0:0:0:0:
440,168,57692,6,0,P|424:224|368:224,1,120,2|10,1:2|0:0,0:0:0:0:
296,224,58198,1,2,0:0:0:0:
144,224,58535,1,2,0:0:0:0:
296,224,58872,1,2,0:0:0:0:
384,224,59040,6,0,P|424:200|384:160,1,120,2|10,1:2|0:0,0:0:0:0:
312,160,59546,1,2,0:0:0:0:
160,160,59883,1,2,0:0:0:0:
88,160,60052,1,10,0:0:0:0:
176,160,60220,5,2,1:2:0:0:
328,160,60557,1,2,1:2:0:0:
176,160,60894,1,2,1:2:0:0:
24,160,61231,2,0,L|32:96,1,60,2|10,0:0|0:0,0:0:0:0:
104,96,61568,1,2,1:2:0:0:
192,96,61737,6,0,L|64:96,1,120,6|10,1:2|0:0,0:0:0:0:
144,96,62243,1,2,0:0:0:0:
296,96,62580,1,2,0:0:0:0:
448,96,62917,1,2,0:0:0:0:
360,96,63085,6,0,P|320:120|360:160,1,120,2|10,1:2|0:0,0:0:0:0:
432,160,63591,1,2,0:0:0:0:
280,160,63928,1,2,0:0:0:0:
128,160,64265,1,2,0:0:0:0:
40,160,64434,6,0,L|160:160,1,120,2|10,1:2|0:0,0:0:0:0:
312,160,65108,2,0,L|320:96,1,60,2|2,1:2|0:0,0:0:0:0:
136,96,65613,6,0,P|96:120|136:160,1,120,2|2,0:0|0:0,0:0:0:0:
200,160,66119,1,10,0:0:0:0:
272,160,66288,1,2,0:0:0:0:
480,160,66793,1,10,0:0:0:0:
304,160,67130,5,6,1:2:0:0:
168,160,67467,1,2,1:2:0:0:
320,160,67804,1,2,1:2:0:0:
456,160,68141,1,2,1:2:0:0:
272,160,68479,6,0,P|232:136|272:96,1,120,4|2,1:2|1:2,0:0:0:0:
424,96,69153,1,0,1:0:0:0:
272,96,69490,1,2,1:2:0:0:
88,96,69827,5,4,1:2:0:0:
240,96,70164,2,0,L|232:160,1,60,2|10,1:2|0:0,0:0:0:0:
80,152,70670,2,0,L|88:216,1,60,2|8,1:2|0:0,0:0:0:0:
272,216,71175,5,4,1:2:0:0:
336,216,71344,1,4,1:2:0:0:
272,216,71512,1,4,1:2:0:0:
200,216,71681,1,0,0:0:0:0:
336,216,72018,2,0,L|344:152,1,60,0|0,0:0|0:0,0:0:0:0:
160,152,72523,6,0,P|120:128|160:88,1,120,6|10,1:2|0:0,0:0:0:0:
240,88,73029,1,2,1:2:0:0:
392,88,73366,1,2,1:2:0:0:
208,88,73703,6,0,P|128:96|128:184,1,180,6|8,1:2|0:0,0:0:0:0:
280,176,74546,1,10,0:0:0:0:
336,104,74714,1,2,1:2:0:0:
264,104,74883,1,10,0:0:0:0:
160,104,75052,6,0,P|104:128|160:200,1,180,6|8,1:2|0:0,0:0:0:0:
232,200,75726,1,2,0:0:0:0:
368,200,76063,1,2,0:0:0:0:
216,200,76400,6,0,L|96:200,1,120,2|2,0:0|0:0,0:0:0:0:
231,200,77074,2,0,L|360:200,1,120,2|2,0:0|0:0,0:0:0:0:
280,200,77580,1,8,0:0:0:0:
200,200,77748,1,2,0:0:0:0:
112,200,77917,6,0,P|72:176|112:136,1,120,4|10,3:0|1:2,0:0:0:0:
184,136,78422,1,2,1:2:0:0:
320,136,78759,1,2,1:2:0:0:
136,136,79097,1,6,1:2:0:0:
288,136,79434,6,0,L|296:200,1,60,4|4,0:3|0:3,0:0:0:0:
224,200,79771,1,4,0:3:0:0:
312,200,79939,1,12,0:3:0:0:
