osu file format v14

[General]
AudioFilename: audio.mp3
AudioLeadIn: 0
PreviewTime: 0
Countdown: 1
SampleSet: Normal
StackLeniency: 0.7
Mode: 0
LetterboxInBreaks: 0
WidescreenStoryboard: 0

[Editor]
DistanceSpacing: 1.7
BeatDivisor: 4
GridSize: 4
TimelineZoom: 1

[Metadata]
Title:Remove Kebab
TitleUnicode:Remove Kebab
Artist:Seregon
ArtistUnicode:Seregon
Creator:Loli Knight
Version:DJ Daja
Source:
Tags:
BeatmapID:2163238
BeatmapSetID:1034678

[Difficulty]
HPDrainRate:5.6
CircleSize:3.8
OverallDifficulty:7
ApproachRate:9.2
SliderMultiplier:1.7
SliderTickRate:1

[Events]
//Background and Video events
0,0,"unknown.png",0,0
//Break Periods
//Storyboard Layer 0 (Background)
//Storyboard Layer 1 (Fail)
//Storyboard Layer 2 (Pass)
//Storyboard Layer 3 (Foreground)
//Storyboard Layer 4 (Overlay)
//Storyboard Sound Samples

[TimingPoints]
1366,344.827586206897,4,1,0,100,1,0

[Colours]
Combo1 : 0,255,0
Combo2 : 255,128,192
Combo3 : 0,255,255
Combo4 : 255,128,0

[HitObjects]
89,22,1366,5,0,0:0:0:0:
146,74,1452,1,0,0:0:0:0:
165,150,1538,1,0,0:0:0:0:
140,224,1624,1,0,0:0:0:0:
74,268,1710,2,0,P|63:211|62:189,1,42.5
306,79,1883,5,0,0:0:0:0:
232,104,1969,1,0,0:0:0:0:
243,21,2055,2,0,P|284:2|300:0,1,42.5
344,97,2228,2,0,P|324:89|305:78,1,42.5
403,37,2400,2,0,P|430:91|415:142,1,85
306,242,2659,1,0,0:0:0:0:
238,199,2745,2,0,P|277:173|300:172,1,42.5
396,281,2917,5,0,0:0:0:0:
344,331,3003,1,0,0:0:0:0:
271,340,3090,2,0,P|226:336|206:326,1,42.5
60,237,3262,5,0,0:0:0:0:
126,197,3348,1,0,0:0:0:0:
88,304,3434,2,0,P|61:266|59:253,1,42.5
114,139,3607,2,0,P|129:153|139:172,1,42.5
84,330,3779,2,0,P|57:292|55:279,1,42.5
285,119,3952,5,0,0:0:0:0:
315,195,4038,1,0,0:0:0:0:
364,76,4124,5,0,0:0:0:0:
304,35,4210,1,0,0:0:0:0:
232,48,4297,1,0,0:0:0:0:
199,112,4383,1,0,0:0:0:0:
227,178,4469,2,0,P|240:228|239:244,1,42.5
69,67,4641,5,0,0:0:0:0:
142,32,4728,1,0,0:0:0:0:
101,150,4814,2,0,P|53:152|30:136,1,42.5
15,20,4986,2,0,P|36:18|56:24,1,42.5
193,145,5159,2,0,L|196:258,1,85
139,298,5417,1,0,0:0:0:0:
276,214,5503,6,0,B|325:210|314:238|378:244,1,85
431,192,5762,1,0,0:0:0:0:
406,309,5848,2,0,P|356:327|331:324,1,42.5
319,111,6021,5,0,0:0:0:0:
383,65,6107,1,0,0:0:0:0:
452,113,6193,2,0,P|465:66|452:22,1,85
295,60,6452,1,0,0:0:0:0:
309,73,6538,2,0,P|359:81|382:79,1,42.5
205,16,6710,5,0,0:0:0:0:
167,90,6797,1,0,0:0:0:0:
118,17,6883,5,0,0:0:0:0:
46,26,6969,1,0,0:0:0:0:
18,92,7055,1,0,0:0:0:0:
51,156,7141,1,0,0:0:0:0:
123,165,7228,2,0,P|180:173|202:182,1,42.5
313,294,7400,5,0,0:0:0:0:
237,320,7486,1,0,0:0:0:0:
257,231,7572,2,0,P|297:214|319:214,1,42.5
351,310,7745,2,0,P|330:304|312:293,1,42.5
375,145,7917,2,0,P|382:211|366:263,1,85
278,125,8176,1,0,0:0:0:0:
335,65,8262,6,0,P|378:52|416:57,1,42.5
496,190,8434,1,0,0:0:0:0:
470,121,8521,1,0,0:0:0:0:
472,48,8607,2,0,P|487:97|487:113,1,42.5
422,251,8779,1,0,0:0:0:0:
351,271,8866,1,0,0:0:0:0:
281,253,8952,6,0,P|235:238|206:240,1,42.5
184,339,9124,2,0,P|204:333|223:324,1,42.5
292,233,9297,2,0,P|246:218|217:220,1,42.5
186,356,9469,2,0,P|206:350|225:341,1,42.5
79,83,9641,5,0,0:0:0:0:
33,140,9728,1,0,0:0:0:0:
45,210,9814,1,0,0:0:0:0:
103,252,9900,1,0,0:0:0:0:
174,244,9986,2,0,P|181:194|177:163,1,42.5
192,27,10159,5,0,0:0:0:0:
218,107,10245,1,0,0:0:0:0:
273,42,10331,2,0,P|324:31|345:35,1,42.5
366,137,10503,2,0,P|345:133|325:125,1,42.5
428,67,10676,2,0,P|458:115|451:163,1,85
416,217,10934,1,0,0:0:0:0:
304,238,11021,6,0,P|345:224|401:256,1,85
421,323,11279,1,0,0:0:0:0:
347,357,11366,2,0,P|300:348|281:337,1,42.5
172,202,11538,1,0,0:0:0:0:
193,277,11624,1,0,0:0:0:0:
154,347,11710,2,0,P|144:297|154:271,1,42.5
276,199,11883,2,0,P|273:220|265:239,1,42.5
97,165,12055,6,0,P|147:122|188:125,1,85
247,106,12314,1,0,0:0:0:0:
306,23,12400,5,0,0:0:0:0:
376,10,12486,1,0,0:0:0:0:
441,39,12572,1,0,0:0:0:0:
466,107,12659,1,0,0:0:0:0:
453,178,12745,2,0,P|447:235|447:255,1,42.5
374,330,12917,1,0,0:0:0:0:
314,267,13003,1,0,0:0:0:0:
280,349,13090,6,0,P|233:360|218:359,1,42.5
183,260,13262,2,0,P|203:263|223:270,1,42.5
118,319,13434,6,0,P|96:271|105:222,1,85
159,169,13693,1,0,0:0:0:0:
217,235,13779,2,0,P|173:264|145:271,1,42.5
79,117,13952,1,0,0:0:0:0:
155,80,14038,1,0,0:0:0:0:
229,121,14124,2,0,P|270:132|286:131,1,42.5
426,57,14297,5,0,0:0:0:0:
372,117,14383,1,0,0:0:0:0:
381,198,14469,2,0,P|390:150|386:127,1,42.5
298,19,14641,2,0,P|300:40|307:60,1,42.5
366,215,14814,2,0,P|375:167|371:144,1,42.5
274,5,14986,5,0,0:0:0:0:
192,14,15072,1,0,0:0:0:0:
169,100,15159,5,0,0:0:0:0:
153,26,15245,1,0,0:0:0:0:
78,11,15331,1,0,0:0:0:0:
22,57,15417,1,0,0:0:0:0:
30,133,15503,2,0,P|32:186|32:204,1,42.5
11,312,15676,1,0,0:0:0:0:
79,253,15762,1,0,0:0:0:0:
141,336,15848,6,0,P|85:349|66:346,1,42.5
168,250,16021,2,0,P|188:254|208:262,1,42.5
314,350,16193,2,0,P|300:289|305:231,1,85
355,133,16452,1,0,0:0:0:0:
277,179,16538,6,0,P|231:172|216:161,1,42.5
342,103,16710,2,0,P|362:97|383:98,1,42.5
270,204,16883,2,0,P|224:197|209:186,1,42.5
128,32,17055,5,0,0:0:0:0:
157,97,17141,1,0,0:0:0:0:
139,167,17228,2,0,P|166:116|216:88,1,85
302,85,17486,1,0,0:0:0:0:
276,76,17572,2,0,P|267:34|272:12,1,42.5
456,15,17745,5,0,0:0:0:0:
482,82,17831,1,0,0:0:0:0:
471,153,17917,5,0,0:0:0:0:
418,103,18003,1,0,0:0:0:0:
345,107,18090,1,0,0:0:0:0:
301,164,18176,1,0,0:0:0:0:
327,231,18262,2,0,P|339:283|337:306,1,42.5
160,328,18434,5,0,0:0:0:0:
208,273,18521,1,0,0:0:0:0:
232,340,18607,2,0,P|180:355|158:350,1,42.5
93,223,18779,2,0,P|113:227|132:237,1,42.5
251,358,18952,2,0,P|199:373|177:368,1,42.5
228,124,19124,5,0,0:0:0:0:
205,192,19210,1,0,0:0:0:0:
187,60,19297,2,0,P|234:49|258:61,1,42.5
387,95,19469,1,0,0:0:0:0:
319,138,19555,1,0,0:0:0:0:
307,4,19641,2,0,P|324:55|324:75,1,42.5
356,241,19814,5,0,0:0:0:0:
406,176,19900,1,0,0:0:0:0:
486,162,19986,2,0,P|501:207|501:223,1,42.5
426,324,20159,2,0,P|431:303|440:284,1,42.5
498,154,20331,2,0,P|513:199|513:215,1,42.5
405,325,20503,2,0,P|410:304|419:285,1,42.5
301,161,20676,5,0,0:0:0:0:
242,203,20762,1,0,0:0:0:0:
169,200,20848,1,0,0:0:0:0:
109,159,20934,1,0,0:0:0:0:
105,86,21021,2,0,P|104:141|94:162,1,42.5
76,324,21193,5,0,0:0:0:0:
44,256,21279,1,0,0:0:0:0:
154,312,21366,2,0,P|147:356|134:372,1,42.5
5,361,21538,2,0,P|-1:340|0:319,1,42.5
241,217,21710,6,0,P|184:226|139:223,1,85
109,159,21969,1,0,0:0:0:0:
239,352,22055,6,0,P|230:311|231:281,1,42.5
335,207,22228,2,0,P|332:228|325:248,1,42.5
255,123,22400,6,0,P|295:97|366:103,1,85
413,138,22659,1,0,0:0:0:0:
234,202,22745,2,0,P|194:177|186:149,1,42.5
154,23,22917,2,0,P|174:29|190:42,1,42.5
95,268,23090,2,0,L|96:163,1,85
96,93,23348,1,0,0:0:0:0:
71,105,23434,1,0,0:0:0:0:
