osu file format v14

[General]
AudioFilename: audio.mp3
AudioLeadIn: 0
PreviewTime: 194530
Countdown: 0
SampleSet: Soft
StackLeniency: 0.5
Mode: 0
LetterboxInBreaks: 0
WidescreenStoryboard: 0

[Editor]
Bookmarks: 31764,42136,52349,72774,93200,121285,146817,164689,174902,195328,223413,233625,256604,273762,317007,337592
DistanceSpacing: 1.5
BeatDivisor: 4
GridSize: 4
TimelineZoom: 2

[Metadata]
Title:Resurrection
TitleUnicode:Resurrection
Artist:Seraph
ArtistUnicode:Seraph
Creator:Atalanta
Version:Resurgence
Source:
Tags:Reflection 海紅 Kaiko Japanese jrock rock j-rock
BeatmapID:1742470
BeatmapSetID:831738

[Difficulty]
HPDrainRate:6
CircleSize:4
OverallDifficulty:9
ApproachRate:9.4
SliderMultiplier:2
SliderTickRate:1

[Events]
//Background and Video events
0,0,"wing_dragon_girl_thing.jpg",0,0
//Break Periods
2,147017,152660
//Storyboard Layer 0 (Background)
//Storyboard Layer 1 (Fail)
//Storyboard Layer 2 (Pass)
//Storyboard Layer 3 (Foreground)
//Storyboard Layer 4 (Overlay)
//Storyboard Sound Samples

[TimingPoints]
535,352.941176470588,3,2,1,60,1,0
21711,319.148936170213,4,2,1,60,1,0
30647,-100,4,2,2,60,0,0
30806,-100,4,2,1,60,0,0
30966,-100,4,2,2,60,0,0
31125,-100,4,2,3,60,0,0
31285,-100,4,2,4,60,0,0
31524,-100,4,2,4,5,0,0
31764,-100,4,2,7,75,0,0
40939,-100,4,2,2,75,0,0
41019,-100,4,2,1,75,0,0
41179,-100,4,2,3,75,0,0
41338,-100,4,2,4,75,0,0
41498,-100,4,2,1,60,0,0
51870,-100,4,2,2,60,0,0
52030,-100,4,2,3,60,0,0
52189,-100,4,2,4,60,0,0
52349,-100,4,2,1,60,0,0
62562,-100,4,2,1,65,0,0
72296,-100,4,2,2,60,0,0
72455,-100,4,2,3,60,0,0
72615,-100,4,2,4,60,0,0
72774,-133.333333333333,4,2,1,60,0,0
87934,-133.333333333333,4,2,4,60,0,0
88093,-100,4,2,1,75,0,0
90008,-100,4,2,2,75,0,0
90328,-100,4,2,3,75,0,0
90487,-100,4,2,4,75,0,0
90647,-100,4,2,1,75,0,0
93200,-100,4,2,1,90,0,0
98466,-100,4,2,2,90,0,0
98625,-100,4,2,1,90,0,0
99104,-100,4,2,3,90,0,0
99264,-100,4,2,1,90,0,0
99742,-100,4,2,4,90,0,0
99902,-100,4,2,1,90,0,0
102774,-100,4,2,4,90,0,0
102934,-100,4,2,1,90,0,0
108679,-100,4,2,2,90,0,0
108838,-100,4,2,1,90,0,0
109317,-100,4,2,3,90,0,0
109476,-100,4,2,1,90,0,0
109955,-100,4,2,4,90,0,0
110115,-100,4,2,1,90,0,0
110753,-100,4,2,2,90,0,0
110833,-100,4,2,3,90,0,0
110913,-100,4,2,4,90,0,0
111072,-100,4,2,1,90,0,0
112987,-100,4,2,4,90,0,0
113147,-100,4,2,1,90,0,0
113625,-100,4,2,7,90,0,0
120647,-200,4,2,1,60,0,0
121285,-100,4,2,1,60,0,0
126072,-100,4,2,4,60,0,0
126232,-100,4,2,1,60,0,0
136285,-100,4,2,2,60,0,0
136445,-100,4,2,3,60,0,0
136604,-100,4,2,1,60,0,0
146498,-200,4,2,4,60,0,0
146817,-200,4,2,1,60,0,0
153200,-100,4,2,1,60,0,0
164157,-100,4,2,2,60,0,0
164370,-100,4,2,3,60,0,0
164583,-100,4,2,4,60,0,0
164689,-133.333333333333,4,2,1,50,0,0
174370,-133.333333333333,4,2,2,60,0,0
174583,-133.333333333333,4,2,3,60,0,0
174796,-133.333333333333,4,2,4,60,0,0
174902,-133.333333333333,4,2,1,60,0,0
190221,-100,4,2,1,75,0,0
192136,-100,4,2,2,75,0,0
192455,-100,4,2,3,75,0,0
192615,-100,4,2,4,75,0,0
192774,-100,4,2,1,75,0,0
195328,-100,4,2,1,90,0,0
200593,-100,4,2,2,90,0,0
200753,-100,4,2,1,90,0,0
201232,-100,4,2,3,90,0,0
201391,-100,4,2,1,90,0,0
201870,-100,4,2,3,90,0,0
202030,-100,4,2,1,90,0,0
204902,-100,4,2,4,90,0,0
205062,-100,4,2,1,90,0,0
210806,-100,4,2,2,90,0,0
210966,-100,4,2,1,90,0,0
211445,-100,4,2,3,90,0,0
211604,-100,4,2,1,90,0,0
212083,-100,4,2,4,90,0,0
212242,-100,4,2,1,90,0,0
212881,-100,4,2,2,90,0,0
213040,-100,4,2,3,90,0,0
213120,-100,4,2,4,90,0,0
213200,-100,4,2,1,90,0,0
215115,-100,4,2,4,90,0,0
215274,-100,4,2,1,90,0,0
215753,-100,4,2,7,90,0,0
220859,-100,4,2,1,90,0,0
222455,-200,4,2,1,60,0,0
223413,-100,4,2,1,60,0,0
232349,-100,4,2,4,60,0,0
232508,-100,4,2,2,60,0,0
232668,-100,4,2,3,60,0,0
232828,-100,4,2,4,60,0,0
232987,-100,4,2,1,60,0,0
233466,-100,4,2,1,75,0,0
241445,-100,4,2,2,75,0,0
241604,-100,4,2,1,75,0,0
242083,-100,4,2,3,75,0,0
242242,-100,4,2,1,75,0,0
242721,-100,4,2,4,75,0,0
242881,-100,4,2,1,75,0,0
243838,-100,4,2,7,75,0,0
248945,-100,4,2,1,75,0,0
251498,-100,4,2,4,75,0,0
251657,-100,4,2,1,75,0,0
255966,-100,4,2,1,5,0,0
256604,352.941176470588,3,2,7,50,1,0
256604,-133.333333333333,3,2,7,50,0,0
272486,319.148936170213,4,2,1,80,1,0
279028,-100,4,2,2,90,0,0
279188,-100,4,2,1,90,0,0
279666,-100,4,2,3,90,0,0
279826,-100,4,2,1,90,0,0
280305,-100,4,2,4,90,0,0
280465,-100,4,2,1,90,0,0
283337,-100,4,2,4,90,0,0
283497,-100,4,2,1,90,0,0
289241,-100,4,2,2,90,0,0
289401,-100,4,2,1,90,0,0
289879,-100,4,2,3,90,0,0
290039,-100,4,2,1,90,0,0
290517,-100,4,2,4,90,0,0
290677,-100,4,2,1,90,0,0
291315,-100,4,2,2,90,0,0
291475,-100,4,2,3,90,0,0
291555,-100,4,2,4,90,0,0
291634,-100,4,2,1,90,0,0
293549,-100,4,2,4,90,0,0
293709,-100,4,2,1,90,0,0
294188,-100,4,2,7,90,0,0
303443,-100,4,2,1,90,0,0
304241,-100,4,2,7,90,0,0
309507,-100,4,2,1,90,0,0
312698,-100,4,2,2,90,0,0
313017,-100,4,2,3,90,0,0
313177,-100,4,2,4,90,0,0
313337,-100,4,2,1,90,0,0
313656,-200,4,2,1,60,0,0
315890,-100,4,2,4,75,0,0
316049,-100,4,2,1,75,0,0
316209,-100,4,2,2,75,0,0
316368,-100,4,2,3,75,0,0
316528,-100,4,2,1,75,0,0
316767,-100,4,2,1,5,0,0
317007,-100,4,2,7,75,0,0
326422,-100,4,2,2,75,0,0
326581,-100,4,2,3,75,0,0
326741,-100,4,2,1,75,0,0
329294,-100,4,2,4,75,0,0
329454,-100,4,2,1,75,0,0
332246,-100,4,2,2,75,0,0
332326,-100,4,2,3,75,0,0
332406,-100,4,2,4,75,0,0
332486,-100,4,2,1,75,0,0
333283,-100,4,2,2,75,0,0
333443,-100,4,2,1,75,0,0
333922,-100,4,2,3,75,0,0
334082,-100,4,2,1,75,0,0
334720,-100,4,2,2,75,0,0
334879,-100,4,2,3,75,0,0
335039,-100,4,2,1,75,0,0
336634,-100,4,2,2,75,0,0
336794,-100,4,2,1,75,0,0
337592,-100,4,2,1,60,0,0
341262,-100,4,2,4,60,0,0
341422,-100,4,2,3,60,0,0
341581,-100,4,2,1,60,0,0
341741,-100,4,2,2,60,0,0
341900,-100,4,2,1,60,0,0
342220,-100,4,2,4,60,0,0
342379,-100,4,2,1,60,0,0
343975,-100,4,2,1,50,0,0
344613,-100,4,2,1,40,0,0
345251,-100,4,2,1,30,0,0
345890,-100,4,2,1,20,0,0
346528,-100,4,2,1,10,0,0
347326,-100,4,2,1,5,0,0

[Colours]
Combo1 : 213,213,0
Combo2 : 192,192,192
Combo3 : 128,128,64
Combo4 : 149,74,0
Combo5 : 255,128,0
Combo6 : 213,0,0

[HitObjects]
16,288,21711,37,4,1:2:0:0:
56,190,21870,1,0,1:2:0:0:
132,287,22030,2,0,B|183:263|248:269|248:269,1,100,8|0,0:2|0:2,0:2:0:0:
240,144,22349,2,0,B|189:168|124:162|124:162,1,100,0|0,0:2|1:2,0:2:0:0:
176,64,22668,1,0,1:2:0:0:
224,240,22828,1,0,1:2:0:0:
320,176,22987,5,8,0:2:0:0:
320,176,23147,2,0,L|432:192,1,100,0|0,1:2|0:2,0:2:0:0:
448,288,23466,1,0,1:2:0:0:
448,288,23546,1,0,0:2:0:0:
448,288,23625,1,2,0:2:0:0:
377,355,23785,1,0,0:2:0:0:
288,349,23945,1,2,0:2:0:0:
224,274,24104,70,0,L|259:65,1,200,2|0,0:2|0:2,0:2:0:0:
330,190,24583,2,0,L|348:289,1,100,2|0,0:2|0:2,0:2:0:0:
158,151,24902,2,0,L|140:52,1,100,2|0,0:2|0:2,0:2:0:0:
7,224,25221,2,0,B|57:207|114:215|114:215,1,100,2|0,0:2|0:2,0:2:0:0:
181,353,25540,5,2,0:2:0:0:
75,370,25700,1,0,0:2:0:0:
113,241,25859,1,2,0:2:0:0:
216,225,26019,1,0,0:2:0:0:
306,361,26179,2,0,B|249:372|202:351|202:351,1,100,2|0,0:2|0:2,0:2:0:0:
407,248,26498,2,0,B|350:237|303:258|303:258,1,100,2|0,0:2|0:2,0:2:0:0:
441,355,26817,69,4,1:2:0:0:
512,250,26976,1,0,1:2:0:0:
490,130,27136,1,8,0:2:0:0:
490,130,27296,2,0,B|492:130|396:180|296:148,1,200,0|0,0:2|1:2,0:2:0:0:
377,55,27774,1,8,0:2:0:0:
328,245,27934,1,0,1:2:0:0:
208,172,28093,5,8,0:2:0:0:
208,172,28253,2,0,L|96:152,1,100,0|0,0:2|0:2,0:2:0:0:
16,296,28572,1,0,1:2:0:0:
16,296,28652,1,0,0:2:0:0:
16,296,28732,1,2,0:2:0:0:
112,360,28891,1,0,0:2:0:0:
144,224,29051,1,2,0:2:0:0:
32,152,29211,70,0,B|-8:68|56:-12|168:36,1,200,2|0,0:2|0:2,0:2:0:0:
252,76,29689,1,2,0:2:0:0:
212,164,29849,1,0,0:2:0:0:
260,308,30008,1,2,0:2:0:0:
300,220,30168,1,0,0:2:0:0:
152,248,30328,1,2,0:2:0:0:
300,304,30487,1,0,0:2:0:0:
360,136,30647,6,0,L|340:60,1,50,8|0,0:2|0:2,0:2:0:0:
508,132,30806,1,8,0:2:0:0:
504,172,30886,1,8,0:2:0:0:
500,212,30966,1,8,0:2:0:0:
472,244,31046,1,8,0:2:0:0:
460,280,31125,1,8,0:2:0:0:
468,320,31205,1,8,0:2:0:0:
484,356,31285,2,0,L|408:376,1,50,8|0,0:2|0:2,0:2:0:0:
272,356,31445,2,0,L|252:280,1,50,8|0,0:2|0:2,0:2:0:0:
57,117,31764,54,0,B|157:182|251:112|251:112,1,200,4|2,1:2|0:2,0:2:0:0:
349,63,32163,1,0,1:2:0:0:
349,63,32242,2,0,B|362:115|349:168|349:168,1,100,8|0,0:2|0:2,0:2:0:0:
257,227,32562,1,2,1:2:0:0:
245,115,32721,1,2,1:2:0:0:
347,263,32881,1,8,0:2:0:0:
187,382,33040,54,0,B|124:337|123:251|175:214,1,150,2|0,1:2|0:2,0:2:0:0:
146,249,33359,1,2,1:2:0:0:
293,336,33519,2,0,B|340:359|403:350|403:350,1,100,8|0,0:2|0:2,0:2:0:0:
241,177,33838,1,2,1:2:0:0:
229,293,33998,1,2,1:2:0:0:
347,263,34157,1,8,0:2:0:0:
456,96,34317,22,0,L|283:126,1,150,2|0,1:2|0:2,0:2:0:0:
308,121,34636,1,2,1:2:0:0:
159,20,34796,2,0,L|270:51,1,100,8|0,0:2|0:2,0:2:0:0:
206,165,35115,1,2,1:2:0:0:
109,191,35274,1,2,1:2:0:0:
135,94,35434,1,8,0:2:0:0:
253,253,35593,54,0,L|56:288,1,200,2|0,1:2|1:2,0:2:0:0:
199,359,36072,2,0,B|254:375|325:370|325:370,1,100,8|2,0:2|0:2,0:2:0:0:
352,265,36312,1,2,1:2:0:0:
352,265,36391,2,0,B|297:249|226:254|226:254,1,100,2|2,1:2|1:2,0:2:0:0:
253,253,36631,1,2,1:2:0:0:
253,253,36711,1,8,0:2:0:0:
430,365,36870,2,0,L|441:290,1,50,2|2,0:2|0:2,0:2:0:0:
455,186,37030,21,2,1:2:0:0:
259,174,37189,2,0,L|249:115,1,50,2|0,1:2|1:2,1:2:0:0:
281,24,37349,1,8,0:2:0:0:
512,79,37508,2,0,B|453:36|353:54|340:179,1,200,6|0,1:2|1:2,0:2:0:0:
488,260,37987,1,8,0:2:0:0:
357,354,38147,54,0,L|366:136,1,200,4|0,1:2|1:2,0:2:0:0:
357,354,38625,1,0,1:2:0:0:
220,172,38785,2,0,L|237:382,1,200,4|2,1:2|1:2,0:2:0:0:
236,371,39184,1,2,1:2:0:0:
236,371,39264,1,8,0:2:0:0:
316,236,39423,1,2,1:2:0:0:
316,236,39583,22,0,B|332:192|328:132|328:132,1,100,2|0,1:2|0:2,0:2:0:0:
136,268,39902,2,0,B|120:312|124:372|124:372,1,100,8|0,0:2|0:2,0:2:0:0:
123,366,40221,1,2,1:2:0:0:
236,332,40381,1,2,1:2:0:0:
52,235,40540,1,8,0:2:0:0:
148,144,40700,1,8,0:2:0:0:
148,144,40780,1,8,0:2:0:0:
148,144,40859,54,0,L|200:124,1,50,8|0,0:2|0:2,0:2:0:0:
364,240,41019,2,0,L|312:260,1,50,8|8,0:2|0:2,0:2:0:0:
304,72,41179,2,0,B|316:100|320:136,1,50,8|8,0:2|0:2,0:2:0:0:
208,312,41338,2,0,B|196:284|192:248,1,50,8|8,0:2|0:2,0:2:0:0:
360,144,41498,21,8,1:2:0:0:
340,320,41657,1,4,1:2:0:0:
164,300,41817,1,0,1:2:0:0:
184,124,41976,1,0,1:2:0:0:
184,124,42136,6,0,B|198:66|158:22|158:22,1,100,4|2,1:2|0:2,0:2:0:0:
88,100,42455,2,0,B|74:158|114:202|114:202,1,100,8|2,0:2|1:2,0:2:0:0:
280,250,42774,2,0,L|176:230,1,100,0|2,1:2|0:2,0:2:0:0:
181,231,43093,1,8,0:2:0:0:
124,352,43253,6,0,L|332:332,1,200,2|2,1:2|0:2,0:2:0:0:
328,188,43732,1,8,0:2:0:0:
181,231,43891,1,2,1:2:0:0:
364,344,44051,1,0,1:2:0:0:
340,260,44211,1,2,0:2:0:0:
416,204,44370,1,8,0:2:0:0:
480,260,44530,1,2,0:2:0:0:
364,344,44689,70,0,L|340:232,1,100,4|0,1:2|0:2,0:2:0:0:
264,86,45008,2,0,L|244:184,1,100,8|2,0:2|0:2,0:2:0:0:
456,112,45328,1,0,1:2:0:0:
456,112,45487,2,0,B|392:124|336:104|336:104,1,100,2|8,0:2|0:2,0:2:0:0:
168,12,45806,6,0,L|192:228,1,200,2|2,1:2|1:2,0:2:0:0:
92,144,46285,1,8,0:2:0:0:
264,100,46445,1,2,0:2:0:0:
308,272,46604,1,0,1:2:0:0:
136,316,46764,1,2,1:2:0:0:
179,233,46923,1,8,0:2:0:0:
222,362,47083,1,2,0:2:0:0:
308,272,47242,70,0,B|359:258|423:261|423:261,1,100,4|0,1:2|0:2,0:2:0:0:
448,120,47562,2,0,B|463:119|399:122|348:108,1,100,8|2,0:2|0:2,0:2:0:0:
224,36,47881,1,0,1:2:0:0:
224,36,48040,2,0,L|208:148,1,100,2|8,1:2|0:2,0:2:0:0:
32,270,48359,6,0,B|110:189|235:244|235:244,1,200,2|2,1:2|1:2,0:2:0:0:
170,137,48838,1,8,0:2:0:0:
136,313,48998,1,2,0:2:0:0:
312,347,49157,1,0,1:2:0:0:
346,171,49317,1,2,1:2:0:0:
388,278,49476,1,8,0:2:0:0:
251,268,49636,1,2,0:2:0:0:
196,356,49796,70,0,B|138:327|65:334|65:334,1,100,4|0,1:2|0:2,0:2:0:0:
47,208,50115,2,0,B|105:237|178:230|178:230,1,100,8|0,0:2|1:2,0:2:0:0:
143,230,50354,1,0,1:2:0:0:
143,230,50434,1,8,0:2:0:0:
122,126,50593,1,2,1:2:0:0:
60,320,50753,1,8,0:2:0:0:
226,308,50913,6,0,L|260:109,1,200,4|0,1:2|1:2,0:2:0:0:
259,110,51312,1,0,1:2:0:0:
259,110,51391,1,8,0:2:0:0:
352,252,51551,1,0,1:2:0:0:
352,252,51631,1,0,1:2:0:0:
352,252,51711,1,8,0:2:0:0:
160,336,51870,1,8,0:2:0:0:
253,194,52030,1,8,0:2:0:0:
304,352,52189,1,8,0:2:0:0:
432,296,52349,70,0,B|444:224|424:192|424:192,1,100,4|0,1:2|0:2,0:2:0:0:
336,148,52668,1,8,0:2:0:0:
348,248,52828,1,2,0:2:0:0:
420,96,52987,1,0,1:2:0:0:
268,24,53147,1,2,0:2:0:0:
196,176,53306,1,8,0:2:0:0:
196,176,53466,54,0,L|224:284,1,100,2|0,1:2|0:2,0:2:0:0:
92,352,53785,1,2,1:2:0:0:
92,352,53945,2,0,L|117:255,1,100,8|2,0:2|0:2,0:2:0:0:
308,248,54264,1,0,1:2:0:0:
204,288,54423,1,2,1:2:0:0:
204,136,54583,1,8,0:2:0:0:
308,96,54742,1,2,0:2:0:0:
396,264,54902,21,0,1:2:0:0:
396,264,55062,1,2,0:2:0:0:
452,168,55221,1,8,0:2:0:0:
352,172,55381,1,2,0:2:0:0:
352,172,55540,2,0,B|288:156|232:164|232:164,1,100,0|2,1:2|0:2,0:2:0:0:
152,228,55859,1,8,0:2:0:0:
188,312,56019,54,0,B|252:328|308:320|308:320,1,100,2|0,1:2|0:2,0:2:0:0:
287,321,56338,1,2,1:2:0:0:
388,368,56498,1,8,0:2:0:0:
380,256,56657,1,2,0:2:0:0:
188,284,56817,1,0,1:2:0:0:
204,120,56976,1,2,1:2:0:0:
324,100,57136,1,8,0:2:0:0:
308,264,57296,1,2,0:2:0:0:
172,200,57455,21,4,1:2:0:0:
120,92,57615,1,2,0:2:0:0:
36,204,57774,2,0,L|44:316,1,100,8|2,0:2|0:2,0:2:0:0:
180,383,58093,2,0,L|187:283,1,100,0|2,1:2|0:2,0:2:0:0:
132,192,58413,1,8,0:2:0:0:
232,60,58572,54,0,B|344:16|436:116|436:116,1,200,2|2,1:2|1:2,0:2:0:0:
299,237,59051,1,8,0:2:0:0:
208,140,59211,1,2,0:2:0:0:
305,49,59370,1,0,1:2:0:0:
396,146,59530,1,2,1:2:0:0:
220,218,59689,1,8,0:2:0:0:
293,151,59849,1,2,0:2:0:0:
378,256,60008,21,4,1:2:0:0:
305,323,60168,1,2,0:2:0:0:
221,254,60328,2,0,B|173:220|105:239|105:239,1,100,8|2,0:2|0:2,0:2:0:0:
157,323,60647,1,0,1:2:0:0:
193,159,60806,1,2,0:2:0:0:
42,229,60966,1,8,0:2:0:0:
42,229,61125,1,2,1:2:0:0:
256,348,61445,37,0,0:2:0:0:
288,268,61604,1,0,0:2:0:0:
224,204,61764,1,0,0:2:0:0:
280,136,61923,1,0,0:2:0:0:
56,156,62083,1,8,0:2:0:0:
56,156,62163,1,8,1:2:0:0:
56,156,62242,1,12,0:2:0:0:
168,36,62402,1,0,0:2:0:0:
328,204,62562,37,4,1:2:0:0:
428,112,62721,1,0,0:2:0:0:
316,36,62881,2,0,B|268:24|216:28|216:28,1,100,8|2,0:2|0:2,0:2:0:0:
268,132,63200,1,0,1:2:0:0:
416,20,63359,1,2,0:2:0:0:
444,200,63519,1,8,0:2:0:0:
372,264,63679,70,0,L|172:212,1,200,2|2,1:2|1:2,0:2:0:0:
312,156,64157,2,0,L|412:128,1,100,8|2,0:2|0:2,0:2:0:0:
264,328,64476,2,0,L|164:356,1,100,0|2,1:2|1:2,0:2:0:0:
48,232,64796,2,0,P|72:168|148:136,1,150,8|0,0:2|0:2,0:2:0:0:
142,135,65115,5,0,1:2:0:0:
136,268,65274,1,2,0:2:0:0:
32,148,65434,1,8,0:2:0:0:
200,80,65593,1,2,0:2:0:0:
32,12,65753,1,0,1:2:0:0:
116,132,65913,1,2,0:2:0:0:
220,0,66072,1,8,0:2:0:0:
308,80,66232,70,0,B|340:204|256:276|256:276,1,200,2|2,1:2|1:2,0:2:0:0:
100,364,66711,2,0,B|48:340|-16:348|-16:348,1,100,8|2,0:2|0:2,0:2:0:0:
104,176,67030,2,0,B|156:200|220:192|220:192,1,100,0|2,1:2|1:2,0:2:0:0:
296,38,67349,2,0,L|276:136,1,100,8|2,0:2|0:2,0:2:0:0:
323,316,67668,5,4,1:2:0:0:
390,124,67828,1,2,0:2:0:0:
188,67,67987,1,8,0:2:0:0:
121,259,68147,1,2,0:2:0:0:
384,240,68306,1,0,1:2:0:0:
264,32,68466,1,2,0:2:0:0:
232,264,68625,1,8,0:2:0:0:
96,188,68785,70,0,B|28:80|144:4|144:4,1,200,2|2,1:2|1:2,0:2:0:0:
296,128,69264,2,0,L|180:140,1,100,8|2,0:2|0:2,0:2:0:0:
264,44,69583,1,0,1:2:0:0:
316,204,69742,1,2,1:2:0:0:
248,248,69902,2,0,L|232:352,1,100,8|2,0:2|0:2,0:2:0:0:
432,360,70221,6,0,L|384:152,1,200,4|8,1:2|0:2,0:2:0:0:
460,64,70700,1,0,1:2:0:0:
460,64,70780,1,0,1:2:0:0:
460,64,70859,1,8,0:2:0:0:
392,284,71019,1,2,1:2:0:0:
220,96,71179,1,0,0:2:0:0:
116,212,71338,70,0,B|84:344|236:384|236:384,1,200,4|0,1:2|1:2,0:2:0:0:
316,360,71737,1,0,1:2:0:0:
316,360,71817,2,0,B|364:344|432:352|432:352,1,100,8|0,0:2|0:2,0:2:0:0:
323,158,72136,1,8,0:2:0:0:
300,269,72296,1,8,0:2:0:0:
138,268,72455,1,8,0:2:0:0:
224,193,72615,1,8,0:2:0:0:
356,68,72774,70,0,L|156:88,1,187.500007152558,4|0,1:2|1:2,0:2:0:0:
169,86,73253,1,0,1:2:0:0:
169,86,73333,1,0,1:2:0:0:
169,86,73413,1,12,0:2:0:0:
84,276,73732,5,2,0:2:0:0:
156,324,73891,2,0,B|196:344|256:324|256:324,1,75.0000028610231,8|0,0:2|1:2,0:2:0:0:
276,224,74211,2,0,B|236:204|176:224|176:224,1,75.0000028610231,8|0,0:2|0:2,0:2:0:0:
202,217,74530,1,0,1:2:0:0:
344,384,74689,1,8,0:2:0:0:
412,192,75008,1,0,1:2:0:0:
320,148,75168,1,8,0:2:0:0:
248,304,75328,70,0,L|444:276,1,187.500007152558,4|0,1:2|1:2,0:2:0:0:
433,277,75806,1,0,1:2:0:0:
433,277,75886,1,0,1:2:0:0:
433,277,75966,1,12,0:2:0:0:
432,104,76285,5,2,0:2:0:0:
340,172,76445,2,0,L|236:156,1,75.0000028610231,8|0,0:2|1:2,0:2:0:0:
216,56,76764,2,0,L|320:40,1,75.0000028610231,8|0,0:2|0:2,0:2:0:0:
290,44,77083,1,0,1:2:0:0:
136,244,77242,1,12,0:2:0:0:
52,36,77562,1,0,1:2:0:0:
0,105,77721,1,8,0:2:0:0:
88,155,77881,70,0,B|192:88|257:197|257:197,1,187.500007152558,4|0,1:2|1:2,0:2:0:0:
251,189,78359,1,0,1:2:0:0:
251,189,78439,1,0,1:2:0:0:
251,189,78519,1,12,0:2:0:0:
252,384,78838,5,2,0:2:0:0:
189,315,78998,1,8,0:2:0:0:
189,315,79078,1,8,0:2:0:0:
189,315,79157,2,0,B|183:252|195:213|195:213,1,75.0000028610231,0|8,1:2|0:2,0:2:0:0:
320,160,79476,2,0,B|326:223|314:262|314:262,1,75.0000028610231,0|0,0:2|1:2,0:2:0:0:
436,320,79796,2,0,L|344:312,1,75.0000028610231,8|0,0:2|0:2,0:2:0:0:
416,208,80115,1,0,1:2:0:0:
416,208,80274,1,8,0:2:0:0:
376,104,80434,69,4,1:2:0:0:
376,104,80593,2,0,L|264:119,1,112.500004291535,8|0,0:2|1:2,0:2:0:0:
264,119,80913,1,0,1:2:0:0:
264,119,80992,1,0,1:2:0:0:
264,119,81072,1,12,0:2:0:0:
104,240,81391,5,2,0:2:0:0:
28,160,81551,1,8,0:2:0:0:
28,160,81631,1,8,0:2:0:0:
28,160,81711,2,0,B|16:124|32:60|32:60,1,75.0000028610231,0|0,1:2|1:2,0:2:0:0:
152,32,82030,2,0,B|164:68|148:132|148:132,1,75.0000028610231,0|0,0:2|1:2,0:2:0:0:
96,236,82349,2,0,B|68:336|168:372|168:372,1,150.000005722046,12|0,0:2|1:2,0:2:0:0:
252,304,82828,1,8,0:2:0:0:
360,364,82987,70,0,L|376:148,1,187.500007152558,4|0,1:2|1:2,0:2:0:0:
373,177,83466,1,0,1:2:0:0:
373,177,83546,1,0,1:2:0:0:
373,177,83625,1,12,0:2:0:0:
260,40,83945,5,2,0:2:0:0:
192,104,84104,2,0,B|172:160|176:208|176:208,1,75.0000028610231,8|0,0:2|1:2,0:2:0:0:
320,280,84423,2,0,B|340:224|336:176|336:176,1,75.0000028610231,8|0,0:2|0:2,0:2:0:0:
335,206,84742,1,0,1:2:0:0:
172,288,84902,1,8,0:2:0:0:
380,384,85221,1,0,1:2:0:0:
356,296,85381,1,0,1:2:0:0:
192,376,85540,69,4,1:2:0:0:
140,280,85700,2,0,L|160:180,1,75.0000028610231,8|0,0:2|0:2,0:2:0:0:
80,136,86019,1,0,1:2:0:0:
80,136,86179,2,0,L|65:62,1,75.0000028610231,8|0,0:2|0:2,0:2:0:0:
200,30,86498,1,0,1:2:0:0:
230,107,86657,6,0,B|282:135|334:112|334:112,1,75.0000028610231,8|0,0:2|1:2,0:2:0:0:
346,253,86976,2,0,B|294:225|242:248|242:248,1,75.0000028610231,8|0,0:2|0:2,0:2:0:0:
297,336,87296,1,0,1:2:0:0:
297,336,87375,1,0,1:2:0:0:
297,336,87455,1,12,0:2:0:0:
397,230,87615,1,0,1:2:0:0:
220,132,87774,1,8,0:2:0:0:
120,238,87934,1,8,0:2:0:0:
188,368,88093,37,4,1:2:0:0:
116,140,88253,1,0,1:2:0:0:
336,176,88413,2,0,L|452:152,1,100,2|0,0:2|1:2,0:2:0:0:
328,48,88652,1,0,1:2:0:0:
328,48,88732,2,0,L|230:68,1,100,8|0,0:2|1:2,0:2:0:0:
150,230,89051,1,8,0:2:0:0:
140,43,89211,6,0,B|121:99|121:99|139:126|139:126|130:183|130:183|149:229,1,200,4|0,1:2|1:2,0:2:0:0:
150,230,89609,1,0,1:2:0:0:
150,230,89689,1,8,0:2:0:0:
96,340,89849,1,0,0:2:0:0:
49,194,90008,1,8,0:2:0:0:
208,152,90168,1,8,0:2:0:0:
268,276,90328,1,8,0:2:0:0:
364,296,90487,1,8,0:2:0:0:
380,108,90647,70,0,B|348:156|344:204|344:204,1,100,4|0,1:2|1:2,0:2:0:0:
132,276,90966,2,0,B|164:228|168:180|168:180,1,100,8|0,0:2|1:2,0:2:0:0:
256,48,91285,1,8,0:2:0:0:
256,332,91445,1,0,1:2:0:0:
424,196,91604,1,8,0:2:0:0:
200,112,91764,1,0,1:2:0:0:
200,112,91843,1,0,1:2:0:0:
200,112,91923,6,0,L|136:88,1,50,8|0,0:2|0:2,0:2:0:0:
120,236,92083,2,0,L|184:260,1,50,0|0,1:2|1:2,0:2:0:0:
336,128,92242,1,8,0:2:0:0:
360,324,92402,1,8,0:2:0:0:
152,60,92562,69,8,0:2:0:0:
176,256,92721,1,8,0:2:0:0:
376,224,92881,1,8,0:2:0:0:
136,352,93040,1,8,0:2:0:0:
136,104,93200,6,0,B|191:48|287:60|327:112,1,200,4|8,1:2|0:2,0:2:0:0:
231,293,93679,1,2,1:2:0:0:
340,248,93838,2,0,L|456:272,1,100,8|2,0:2|1:2,0:2:0:0:
416,136,94078,1,0,1:2:0:0:
416,136,94157,2,0,L|300:112,1,100,8|2,0:2|1:2,0:2:0:0:
106,353,94476,22,0,B|72:269|107:221|107:221,1,100,8|2,0:2|0:2,0:2:0:0:
142,198,94716,1,0,1:2:0:0:
142,198,94796,1,8,0:2:0:0:
258,198,94955,1,2,1:2:0:0:
342,357,95115,2,0,L|242:345,1,100,8|2,0:2|1:2,0:2:0:0:
157,312,95354,1,0,1:2:0:0:
157,312,95434,2,0,B|111:298|37:315|37:315,1,100,8|2,0:2|1:2,0:2:0:0:
104,96,95753,54,0,B|149:109|224:93|224:93,1,100,8|2,0:2|1:2,0:2:0:0:
352,16,96072,1,8,0:2:0:0:
324,156,96232,1,2,1:2:0:0:
440,248,96391,1,8,0:2:0:0:
464,108,96551,1,2,1:2:0:0:
464,108,96631,1,0,1:2:0:0:
464,108,96711,1,8,0:2:0:0:
324,156,96870,1,2,1:2:0:0:
344,256,97030,22,0,B|352:336|336:380|336:380,1,100,8|2,0:2|1:2,0:2:0:0:
168,128,97349,2,0,B|160:48|176:4|176:4,1,100,8|2,0:2|1:2,0:2:0:0:
356,52,97668,2,0,L|244:80,1,100,4|8,1:2|0:2,0:2:0:0:
340,172,97907,1,8,0:2:0:0:
340,172,97987,1,8,0:2:0:0:
340,172,98067,1,8,0:2:0:0:
340,172,98147,1,8,0:2:0:0:
340,172,98226,1,8,0:2:0:0:
340,172,98306,54,0,L|456:192,1,100,4|8,1:2|0:2,0:2:0:0:
256,340,98625,1,8,0:2:0:0:
96,300,98785,2,0,B|8:208|88:96|88:96,1,200,4|8,1:2|0:2,0:2:0:0:
96,300,99264,1,8,0:2:0:0:
352,208,99423,22,0,B|240:148|148:152|148:152,1,200,4|8,1:2|0:2,0:2:0:0:
352,208,99902,1,8,0:2:0:0:
212,352,100062,2,0,L|420:308,1,200,4|0,1:2|1:2,0:2:0:0:
407,310,100461,1,0,1:2:0:0:
407,310,100540,1,8,0:2:0:0:
464,172,100700,1,8,0:2:0:0:
324,64,100859,53,0,1:2:0:0:
376,248,101019,1,2,0:2:0:0:
188,320,101179,1,8,0:2:0:0:
136,136,101338,1,2,1:2:0:0:
380,148,101498,21,0,1:2:0:0:
316,352,101657,1,2,0:2:0:0:
132,236,101817,1,12,0:2:0:0:
196,32,101976,1,2,1:2:0:0:
384,232,102136,54,0,B|404:286|384:344|384:344,1,100,12|0,0:2|1:2,0:2:0:0:
188,371,102375,1,0,1:2:0:0:
188,371,102455,2,0,B|168:317|188:259|188:259,1,100,12|0,0:2|1:2,0:2:0:0:
303,126,102774,2,0,L|353:155,1,50,8|0,0:2|0:2,0:2:0:0:
224,48,102934,1,8,0:2:0:0:
187,31,103014,1,8,0:2:0:0:
146,31,103093,1,8,0:2:0:0:
107,43,103173,1,8,0:2:0:0:
87,77,103253,1,8,0:2:0:0:
81,116,103333,1,8,0:2:0:0:
100,150,103413,22,0,B|146:211|135:292|57:351,1,200,4|8,1:2|0:2,0:2:0:0:
16,200,103891,1,2,1:2:0:0:
194,305,104051,1,8,0:2:0:0:
240,120,104211,1,2,1:2:0:0:
100,150,104370,1,8,0:2:0:0:
304,332,104530,1,2,1:2:0:0:
400,216,104689,54,0,B|412:144|404:96|404:96,1,100,8|2,0:2|1:2,0:2:0:0:
208,32,104929,1,0,1:2:0:0:
208,32,105008,2,0,B|196:104|204:152|204:152,1,100,8|2,0:2|1:2,0:2:0:0:
311,310,105328,1,8,0:2:0:0:
309,146,105487,1,2,1:2:0:0:
161,298,105647,2,0,L|46:328,1,100,8|2,0:2|1:2,0:2:0:0:
64,168,105886,1,0,1:2:0:0:
64,168,105966,22,0,L|271:222,1,200,8|8,0:2|0:2,0:2:0:0:
388,317,106445,1,2,1:2:0:0:
508,188,106604,1,8,0:2:0:0:
464,104,106764,1,2,1:2:0:0:
333,63,106923,2,0,B|321:129|331:182|331:182,1,100,8|2,0:2|1:2,0:2:0:0:
383,289,107242,54,0,L|281:267,1,100,8|2,0:2|1:2,0:2:0:0:
129,95,107562,2,0,L|231:117,1,100,8|2,0:2|1:2,0:2:0:0:
449,15,107881,2,0,B|454:67|439:142|439:142,1,100,4|8,1:2|0:2,0:2:0:0:
330,171,108120,1,8,0:2:0:0:
330,171,108200,1,8,0:2:0:0:
330,171,108280,1,8,0:2:0:0:
330,171,108359,1,8,0:2:0:0:
330,171,108439,1,8,0:2:0:0:
330,171,108519,22,0,B|325:119|340:44|340:44,1,100,4|8,1:2|0:2,0:2:0:0:
84,160,108838,1,8,0:2:0:0:
185,199,108998,2,0,B|227:244|211:347|148:369,1,200,4|8,1:2|0:2,0:2:0:0:
185,199,109476,1,8,0:2:0:0:
335,349,109636,54,0,L|374:139,1,200,4|8,1:2|0:2,0:2:0:0:
335,349,110115,1,8,0:2:0:0:
236,69,110274,2,0,L|265:274,1,200,12|0,0:2|1:2,0:2:0:0:
159,350,110673,1,0,1:2:0:0:
159,350,110753,2,0,L|172:266,1,50,8|8,0:2|0:2,0:2:0:0:
361,173,110913,2,0,L|348:257,1,50,8|8,0:2|0:2,0:2:0:0:
426,357,111072,22,0,B|527:288|463:172|463:172,1,200,4|8,1:2|0:2,0:2:0:0:
356,86,111551,1,2,1:2:0:0:
330,269,111711,1,0,1:2:0:0:
156,298,111870,1,2,1:2:0:0:
182,115,112030,1,12,0:2:0:0:
330,269,112189,1,2,1:2:0:0:
156,298,112349,38,0,B|79:306|15:287|15:287,1,100,12|0,0:2|1:2,0:2:0:0:
98,143,112588,1,0,1:2:0:0:
98,143,112668,2,0,B|175:135|239:154|239:154,1,100,12|0,0:2|0:2,0:2:0:0:
281,298,112987,2,0,L|299:368,1,50,8|0,0:2|0:2,0:2:0:0:
419,265,113147,1,8,0:2:0:0:
438,230,113226,1,8,0:2:0:0:
442,190,113306,1,8,0:2:0:0:
437,150,113386,1,8,0:2:0:0:
420,113,113466,1,8,0:2:0:0:
389,86,113546,1,8,0:2:0:0:
350,75,113625,6,0,L|213:105,1,100,4|0,1:2|1:2,0:2:0:0:
162,309,113945,2,0,L|299:279,1,100,8|0,0:2|0:2,0:2:0:0:
184,32,114264,1,2,1:2:0:0:
96,132,114423,2,0,B|80:196|112:256|112:256,1,100,2|8,1:2|0:2,0:2:0:0:
360,268,114742,70,0,B|380:124|236:100|236:100,1,200,2|0,1:2|1:2,0:2:0:0:
76,216,115221,2,0,B|152:232|192:208|192:208,1,100,8|0,0:2|0:2,0:2:0:0:
152,64,115540,1,2,1:2:0:0:
108,312,115700,1,2,1:2:0:0:
356,356,115859,1,8,0:2:0:0:
400,108,116019,6,0,L|172:145,1,200,2|0,1:2|1:2,0:2:0:0:
363,212,116498,1,8,0:2:0:0:
347,20,116657,1,2,0:2:0:0:
272,204,116817,1,2,1:2:0:0:
444,172,116976,1,2,1:2:0:0:
256,40,117136,1,8,0:2:0:0:
356,208,117296,70,0,B|408:328|300:392|300:392,1,200,2|0,1:2|1:2,0:2:0:0:
96,192,117774,2,0,B|160:176|204:184|204:184,1,100,8|0,0:2|1:2,0:2:0:0:
268,280,118014,1,0,1:2:0:0:
268,280,118093,2,0,B|204:296|160:288|160:288,1,100,2|0,1:2|1:2,0:2:0:0:
40,112,118413,2,0,L|64:0,1,100,12|0,0:2|0:2,0:2:0:0:
256,76,118732,5,2,1:2:0:0:
264,360,118891,1,2,0:2:0:0:
132,108,119051,1,8,0:2:0:0:
360,160,119211,1,2,1:2:0:0:
392,40,119370,1,2,1:2:0:0:
216,176,119530,1,2,1:2:0:0:
312,288,119689,2,0,L|424:296,1,100,8|0,0:2|1:2,0:2:0:0:
252,28,120008,69,8,1:2:0:0:
88,356,120168,1,8,1:2:0:0:
253,359,120647,22,0,L|261:309,1,50,2|0,0:2|0:2,0:2:0:0:
261,309,120966,2,0,L|249:242,1,50,2|0,0:2|0:2,0:2:0:0:
120,280,121285,21,4,1:2:0:0:
64,208,121445,1,0,1:2:0:0:
160,184,121604,2,0,B|184:132|180:84|180:84,1,100,8|0,0:2|1:2,0:2:0:0:
180,86,122083,5,0,1:2:0:0:
312,60,122242,1,12,0:2:0:0:
312,60,122402,1,0,1:2:0:0:
368,136,122562,2,0,B|344:188|348:236|348:236,1,100,8|0,0:2|1:2,0:2:0:0:
347,233,123040,69,2,1:2:0:0:
347,233,123120,1,2,0:2:0:0:
347,233,123200,1,2,0:2:0:0:
360,342,123359,1,0,0:2:0:0:
260,384,123519,1,2,0:2:0:0:
180,317,123679,6,0,L|211:105,1,200,2|0,0:2|0:2,0:2:0:0:
273,257,124157,2,0,L|295:357,1,100,2|0,0:2|0:2,0:2:0:0:
108,226,124476,2,0,L|86:126,1,100,2|0,0:2|0:2,0:2:0:0:
201,27,124796,2,0,B|219:73|197:146|197:146,1,100,2|0,0:2|0:2,0:2:0:0:
312,168,125115,70,0,B|301:127|316:49|316:49,1,100,2|0,0:2|0:2,0:2:0:0:
396,8,125434,1,2,0:2:0:0:
472,192,125593,1,0,1:2:0:0:
472,192,125673,1,0,1:2:0:0:
472,192,125753,2,0,L|356:220,1,100,14|0,0:2|0:2,0:2:0:0:
158,344,126072,2,0,L|256:368,1,100,8|0,0:2|0:2,0:2:0:0:
420,328,126391,5,4,1:2:0:0:
374,215,126551,1,0,0:2:0:0:
296,272,126711,2,0,B|248:280|196:264|196:264,1,100,0|0,0:2|1:2,0:2:0:0:
197,264,126950,1,0,1:2:0:0:
197,264,127030,1,8,0:2:0:0:
142,167,127189,1,0,0:2:0:0:
77,263,127349,1,0,0:2:0:0:
133,367,127508,1,8,0:2:0:0:
133,367,127588,1,8,0:2:0:0:
133,367,127668,69,4,1:2:0:0:
252,182,127828,1,8,0:2:0:0:
252,182,127907,1,8,0:2:0:0:
252,182,127987,2,0,L|251:73,1,100,0|0,1:2|1:2,0:2:0:0:
352,116,128306,1,8,0:2:0:0:
320,236,128466,1,0,0:2:0:0:
128,244,128625,1,0,1:2:0:0:
160,124,128785,1,8,0:2:0:0:
220,236,128945,6,0,B|232:292|212:356|212:356,1,100,4|0,1:2|1:2,0:2:0:0:
332,368,129264,2,0,B|320:312|340:248|340:248,1,100,0|0,0:2|1:2,0:2:0:0:
334,268,129503,1,0,1:2:0:0:
334,268,129583,1,8,0:2:0:0:
423,208,129742,1,0,0:2:0:0:
443,313,129902,1,0,0:2:0:0:
334,268,130062,1,8,0:2:0:0:
334,268,130221,70,0,L|345:143,1,100,4|8,1:2|0:2,0:2:0:0:
305,65,130540,1,0,0:2:0:0:
212,115,130700,1,0,1:2:0:0:
101,11,130859,2,0,L|124:190,1,150,12|0,0:2|0:2,0:2:0:0:
120,159,131179,1,0,1:2:0:0:
61,295,131338,1,8,0:2:0:0:
143,355,131498,5,4,1:2:0:0:
198,262,131657,1,0,0:2:0:0:
198,262,131817,2,0,B|212:220|205:149|205:149,1,100,0|0,0:2|1:2,0:2:0:0:
205,162,132056,1,0,1:2:0:0:
205,162,132136,1,8,0:2:0:0:
323,259,132296,1,0,0:2:0:0:
315,358,132455,1,0,0:2:0:0:
411,323,132615,1,8,0:2:0:0:
411,323,132695,1,8,0:2:0:0:
411,323,132774,69,0,1:2:0:0:
236,304,132934,1,8,0:2:0:0:
236,304,133014,1,8,0:2:0:0:
236,304,133093,1,0,1:2:0:0:
162,366,133253,1,0,1:2:0:0:
96,293,133413,2,0,L|83:182,1,100,8|0,0:2|0:2,0:2:0:0:
196,108,133732,1,0,1:2:0:0:
184,204,133891,1,8,0:2:0:0:
98,31,134051,6,0,B|50:15|-2:19|-2:19,1,100,4|8,1:2|0:2,0:2:0:0:
72,159,134370,1,0,0:2:0:0:
192,96,134530,1,0,1:2:0:0:
192,96,134609,1,0,1:2:0:0:
192,96,134689,2,0,B|248:56|336:76|336:76,1,150,8|0,0:2|0:2,0:2:0:0:
336,76,135008,1,0,1:2:0:0:
392,163,135168,1,8,0:2:0:0:
325,239,135328,69,4,1:2:0:0:
325,239,135487,2,0,B|263:226|208:232|208:232,1,100,8|0,0:2|1:2,0:2:0:0:
120,360,135806,1,0,1:2:0:0:
120,360,135886,1,0,1:2:0:0:
120,360,135966,2,0,B|182:373|237:367|237:367,1,100,12|0,0:2|1:2,0:2:0:0:
219,368,136285,1,8,0:2:0:0:
256,280,136445,1,8,0:2:0:0:
156,176,136604,6,0,B|140:112|148:72|148:72,1,100,4|0,1:2|0:2,0:2:0:0:
244,120,136923,1,10,0:2:0:0:
156,176,137083,1,0,1:2:0:0:
59,132,137242,1,2,1:2:0:0:
147,76,137402,1,0,1:2:0:0:
76,224,137562,2,0,L|64:348,1,100,10|0,0:2|1:2,0:2:0:0:
224,352,137881,70,0,L|214:252,1,100,2|0,1:2|1:2,0:2:0:0:
328,184,138200,1,10,0:2:0:0:
320,312,138359,1,0,1:2:0:0:
464,372,138519,1,2,1:2:0:0:
456,244,138679,1,0,1:2:0:0:
456,244,138838,2,0,B|448:176|480:136|480:136,1,100,10|0,0:2|1:2,0:2:0:0:
368,24,139157,6,0,B|376:92|344:132|344:132,1,100,2|0,1:2|1:2,0:2:0:0:
172,80,139476,2,0,L|280:52,1,100,10|0,0:2|1:2,0:2:0:0:
180,184,139796,1,2,1:2:0:0:
88,140,139955,1,0,1:2:0:0:
40,232,140115,2,0,B|28:292|36:340|36:340,1,100,10|0,0:2|1:2,0:2:0:0:
192,376,140434,70,0,B|204:316|196:268|196:268,1,100,2|0,1:2|1:2,0:2:0:0:
336,216,140753,2,0,L|300:312,1,100,10|0,0:2|1:2,0:2:0:0:
176,168,141072,2,0,L|212:72,1,100,2|0,1:2|1:2,0:2:0:0:
211,74,141391,1,10,0:2:0:0:
300,309,141551,1,0,1:2:0:0:
336,216,141711,6,0,B|396:192|452:204|452:204,1,100,4|0,1:2|1:2,0:2:0:0:
488,84,142030,2,0,B|428:108|372:96|372:96,1,100,10|0,0:2|1:2,0:2:0:0:
284,72,142349,1,2,1:2:0:0:
356,0,142508,1,0,1:2:0:0:
316,160,142668,2,0,L|332:264,1,100,10|0,0:2|1:2,0:2:0:0:
180,352,142987,70,0,L|195:253,1,100,2|0,1:2|1:2,0:2:0:0:
68,120,143306,2,0,B|56:184|76:232|76:232,1,100,10|0,0:2|1:2,0:2:0:0:
184,160,143625,1,2,1:2:0:0:
156,48,143785,1,0,1:2:0:0:
264,80,143945,2,0,L|392:52,1,100,10|0,0:2|1:2,0:2:0:0:
492,184,144264,6,0,B|428:200|380:176|380:176,1,100,2|0,1:2|1:2,0:2:0:0:
444,92,144583,1,10,0:2:0:0:
492,184,144742,1,0,1:2:0:0:
345,273,144902,1,2,1:2:0:0:
393,181,145062,1,0,1:2:0:0:
484,284,145221,2,0,L|476:392,1,100,10|0,0:2|1:2,0:2:0:0:
328,352,145540,69,2,1:2:0:0:
328,352,145700,2,0,L|288:124,1,200,12|0,0:2|1:2,0:2:0:0:
293,155,146099,1,0,1:2:0:0:
293,155,146179,1,12,0:2:0:0:
396,256,146338,1,0,1:2:0:0:
236,316,146498,2,0,L|157:304,1,75,8|0,0:2|0:2,0:2:0:0:
161,305,146817,53,4,1:2:0:0:
112,140,153200,21,0,1:2:0:0:
200,84,153359,2,0,L|176:300,1,200,12|0,0:2|1:2,0:2:0:0:
332,352,153838,2,0,L|316:236,1,100,12|8,0:2|0:2,0:2:0:0:
329,213,154078,1,8,0:2:0:0:
360,188,154157,1,8,0:2:0:0:
398,178,154237,1,8,0:2:0:0:
424,147,154317,1,8,0:2:0:0:
432,107,154397,1,8,0:2:0:0:
432,67,154476,6,0,B|376:44|317:51|317:51,1,100,4|2,1:2|0:2,0:2:0:0:
262,171,154796,2,0,B|318:194|377:187|377:187,1,100,8|2,0:2|1:2,0:2:0:0:
334,50,155115,1,0,1:2:0:0:
225,59,155274,1,2,0:2:0:0:
261,171,155434,2,0,B|274:244|241:296|241:296,1,100,8|2,0:2|0:2,0:2:0:0:
141,321,155753,70,0,B|128:248|161:196|161:196,1,100,0|2,0:2|1:2,0:2:0:0:
253,269,156072,1,8,0:2:0:0:
58,233,156232,1,2,1:2:0:0:
94,38,156391,1,0,1:2:0:0:
289,74,156551,1,2,0:2:0:0:
172,132,156711,1,8,0:2:0:0:
200,8,156870,1,2,0:2:0:0:
289,74,157030,6,0,L|408:52,1,100,4|0,1:2|0:2,0:2:0:0:
480,180,157349,2,0,L|361:202,1,100,8|2,0:2|0:2,0:2:0:0:
308,364,157668,2,0,B|300:304|312:260|312:260,1,100,0|2,1:2|0:2,0:2:0:0:
192,184,157987,2,0,B|200:244|188:288|188:288,1,100,8|2,0:2|1:2,0:2:0:0:
84,360,158306,69,0,0:2:0:0:
104,236,158466,1,2,1:2:0:0:
264,304,158625,1,8,0:2:0:0:
408,148,158785,1,2,0:2:0:0:
248,80,158945,1,0,1:2:0:0:
264,304,159104,1,2,1:2:0:0:
376,256,159264,1,8,0:2:0:0:
280,180,159423,1,2,0:2:0:0:
176,232,159583,6,0,B|120:220|72:220|72:220,1,100,4|0,1:2|0:2,0:2:0:0:
32,92,159902,2,0,B|88:104|136:104|136:104,1,100,8|2,0:2|0:2,0:2:0:0:
256,24,160221,2,0,L|360:40,1,100,0|2,1:2|1:2,0:2:0:0:
316,168,160540,2,0,L|212:152,1,100,8|2,0:2|1:2,0:2:0:0:
416,128,160859,69,0,0:2:0:0:
400,236,161019,1,2,1:2:0:0:
217,152,161179,1,8,0:2:0:0:
440,327,161338,1,2,0:2:0:0:
241,351,161498,1,0,1:2:0:0:
279,260,161657,1,2,1:2:0:0:
316,168,161817,2,0,B|328:108|312:64|312:64,1,100,8|2,0:2|0:2,0:2:0:0:
118,133,162136,6,0,L|216:151,1,100,4|0,1:2|0:2,0:2:0:0:
224,304,162455,2,0,L|125:322,1,100,8|0,0:2|1:2,0:2:0:0:
40,296,162695,1,0,1:2:0:0:
40,296,162774,2,0,B|8:237|67:161|67:161,1,100,8|2,0:2|1:2,0:2:0:0:
118,133,163093,1,8,0:2:0:0:
260,228,163253,70,0,L|456:264,1,200,4|0,1:2|1:2,0:2:0:0:
456,264,163652,1,0,1:2:0:0:
456,264,163732,1,4,1:2:0:0:
328,136,163891,1,0,1:2:0:0:
328,136,163971,1,0,1:2:0:0:
328,136,164051,2,0,B|301:79|310:37|310:37,1,66.6666666666667,8|8,0:2|0:2,0:2:0:0:
184,136,164264,1,8,0:2:0:0:
184,136,164370,2,0,B|211:79|202:37|202:37,1,66.6666666666667,8|8,0:2|0:2,0:2:0:0:
256,176,164583,1,8,0:2:0:0:
256,216,164689,53,4,0:2:0:0:
256,216,164849,1,0,1:2:0:0:
34,209,165168,1,0,1:2:0:0:
64,292,165328,2,0,L|218:315,1,150.000005722046,8|0,0:2|1:2,0:2:0:0:
256,216,165806,2,0,L|156:230,1,75.0000028610231,0|2,1:2|0:2,0:2:0:0:
181,226,166125,1,0,1:2:0:0:
302,358,166445,1,0,1:2:0:0:
385,304,166604,2,0,B|427:233|374:144|374:144,1,150.000005722046,8|8,0:2|0:2,0:2:0:0:
256,32,167242,5,2,0:2:0:0:
256,32,167402,1,0,1:2:0:0:
24,104,167721,1,0,1:2:0:0:
127,80,167881,2,0,B|80:160|138:240|138:240,1,150.000005722046,8|0,0:2|1:2,0:2:0:0:
244,260,168359,2,0,B|240:204|212:188|212:188,1,75.0000028610231,0|2,1:2|0:2,0:2:0:0:
216,191,168679,1,0,1:2:0:0:
48,384,168998,1,0,1:2:0:0:
96,308,169157,2,0,B|146:283|174:299|174:299,1,75.0000028610231,8|0,0:2|0:2,0:2:0:0:
248,344,169476,2,0,B|298:368|326:352|326:352,1,75.0000028610231,8|0,0:2|0:2,0:2:0:0:
424,192,169796,69,4,0:2:0:0:
424,192,169955,1,0,1:2:0:0:
383,8,170274,1,0,1:2:0:0:
304,51,170434,2,0,L|333:222,1,150.000005722046,8|0,0:2|1:2,0:2:0:0:
227,279,170913,2,0,L|236:180,1,75.0000028610231,0|2,1:2|0:2,0:2:0:0:
233,204,171232,1,0,1:2:0:0:
33,216,171551,1,0,1:2:0:0:
55,136,171711,2,0,B|109:75|193:101|193:101,1,150.000005722046,8|8,0:2|0:2,0:2:0:0:
143,207,172189,1,0,1:2:0:0:
143,207,172269,1,0,1:2:0:0:
143,207,172349,6,0,L|123:363,1,150.000005722046,8|8,0:2|0:2,0:2:0:0:
123,355,172748,1,8,0:2:0:0:
123,355,172828,1,0,1:2:0:0:
308,328,172987,1,12,0:2:0:0:
336,200,173147,1,0,1:2:0:0:
208,296,173306,1,8,0:2:0:0:
208,296,173386,1,8,0:2:0:0:
208,296,173466,1,12,0:2:0:0:
208,296,173546,1,8,0:2:0:0:
208,296,173625,5,8,0:2:0:0:
404,324,173785,1,0,1:2:0:0:
404,324,173865,1,0,1:2:0:0:
404,324,173945,2,0,L|496:300,2,50.0000019073487,8|8|8,0:2|0:2|0:2,0:2:0:0:
320,240,174264,2,0,L|228:216,2,50.0000019073487,8|8|8,0:2|0:2|0:2,0:2:0:0:
392,148,174583,2,0,L|484:124,2,50.0000019073487,8|8|8,0:2|0:2|0:2,0:2:0:0:
296,76,174902,54,0,B|192:20|104:84|104:84,1,187.500007152558,4|0,1:2|1:2,0:2:0:0:
116,76,175381,1,0,1:2:0:0:
116,76,175461,1,0,1:2:0:0:
116,76,175540,1,12,0:2:0:0:
84,288,175859,5,2,0:2:0:0:
174,247,176019,2,0,B|193:194|184:143|184:143,1,75.0000028610231,8|0,0:2|1:2,0:2:0:0:
338,137,176338,2,0,B|318:189|327:240|327:240,1,75.0000028610231,8|0,0:2|0:2,0:2:0:0:
392,292,176657,1,0,1:2:0:0:
508,136,176817,1,8,0:2:0:0:
256,44,177136,1,0,1:2:0:0:
320,120,177296,1,8,0:2:0:0:
240,192,177455,70,0,L|204:388,1,187.500007152558,4|0,1:2|1:2,0:2:0:0:
206,376,177934,1,0,1:2:0:0:
206,376,178014,1,0,1:2:0:0:
206,376,178093,1,12,0:2:0:0:
72,288,178413,5,2,0:2:0:0:
136,232,178572,2,0,L|128:140,1,75.0000028610231,8|0,0:2|1:2,0:2:0:0:
304,300,178891,2,0,L|312:392,1,75.0000028610231,8|0,0:2|0:2,0:2:0:0:
206,376,179211,1,0,1:2:0:0:
272,191,179370,2,0,L|299:43,1,150.000005722046,8|0,0:2|1:2,0:2:0:0:
390,15,179849,1,8,0:2:0:0:
199,102,180008,70,0,B|70:126|32:47|32:47,1,187.500007152558,4|0,1:2|1:2,0:2:0:0:
32,47,180487,1,0,1:2:0:0:
32,47,180567,1,0,1:2:0:0:
32,47,180647,1,12,0:2:0:0:
28,188,180966,5,2,0:2:0:0:
80,271,181125,1,8,0:2:0:0:
80,271,181205,1,8,0:2:0:0:
80,271,181285,2,0,B|128:285|176:275|176:275,1,75.0000028610231,0|8,1:2|0:2,0:2:0:0:
244,212,181604,1,0,0:2:0:0:
244,212,181764,1,0,1:2:0:0:
336,264,181923,2,0,L|348:356,1,75.0000028610231,8|0,0:2|0:2,0:2:0:0:
432,232,182242,2,0,L|441:157,1,75.0000028610231,0|8,1:2|0:2,0:2:0:0:
204,48,182562,1,4,1:2:0:0:
236,128,182721,70,0,B|312:148|376:136|376:136,1,112.500004291535,8|0,0:2|1:2,0:2:0:0:
347,139,183040,1,0,1:2:0:0:
347,139,183120,1,0,1:2:0:0:
347,139,183200,1,12,0:2:0:0:
468,304,183519,5,2,0:2:0:0:
376,352,183679,2,0,L|292:336,1,75.0000028610231,8|0,0:2|1:2,0:2:0:0:
240,244,183998,2,0,L|324:228,1,75.0000028610231,0|0,1:2|0:2,0:2:0:0:
313,229,184317,1,0,1:2:0:0:
184,376,184476,1,8,0:2:0:0:
88,148,184796,1,0,1:2:0:0:
12,212,184955,1,8,0:2:0:0:
56,56,185115,70,0,B|128:-4|244:40|244:40,1,187.500007152558,4|0,1:2|1:2,0:2:0:0:
235,37,185593,1,0,1:2:0:0:
235,37,185673,1,0,1:2:0:0:
235,37,185753,1,12,0:2:0:0:
304,240,186072,5,2,0:2:0:0:
208,216,186232,2,0,B|176:172|184:124|184:124,1,75.0000028610231,8|0,0:2|1:2,0:2:0:0:
328,96,186551,2,0,B|360:140|352:188|352:188,1,75.0000028610231,8|0,0:2|0:2,0:2:0:0:
304,240,186870,1,0,1:2:0:0:
496,364,187030,1,8,0:2:0:0:
440,128,187349,1,0,1:2:0:0:
512,196,187508,1,0,1:2:0:0:
408,280,187668,69,4,1:2:0:0:
408,280,187828,2,0,L|316:264,1,75.0000028610231,8|0,0:2|0:2,0:2:0:0:
240,336,188147,1,0,1:2:0:0:
240,336,188306,2,0,L|148:352,1,75.0000028610231,8|0,0:2|0:2,0:2:0:0:
68,307,188625,1,0,1:2:0:0:
63,195,188785,1,8,0:2:0:0:
138,120,188945,6,0,B|145:71|136:18|136:18,1,75.0000028610231,0|8,1:2|0:2,0:2:0:0:
248,108,189264,2,0,B|241:157|250:210|250:210,1,75.0000028610231,0|0,0:2|1:2,0:2:0:0:
304,251,189503,1,0,1:2:0:0:
304,251,189583,2,0,L|400:235,1,75.0000028610231,8|0,0:2|1:2,0:2:0:0:
434,124,189902,1,8,0:2:0:0:
325,44,190062,1,8,0:2:0:0:
218,261,190221,37,4,1:2:0:0:
434,124,190381,1,0,1:2:0:0:
190,28,190540,2,0,B|137:13|73:23|73:23,1,100,2|0,0:2|1:2,0:2:0:0:
216,164,190780,1,0,1:2:0:0:
216,164,190859,2,0,B|269:179|333:169|333:169,1,100,8|0,0:2|1:2,0:2:0:0:
499,52,191179,1,8,0:2:0:0:
455,315,191338,6,0,B|434:273|434:273|446:233|446:233|428:84,1,200,4|0,1:2|1:2,0:2:0:0:
433,123,191737,1,0,1:2:0:0:
433,123,191817,1,8,0:2:0:0:
356,242,191976,1,0,0:2:0:0:
312,68,192136,1,8,0:2:0:0:
196,196,192296,1,8,0:2:0:0:
169,300,192455,1,8,0:2:0:0:
252,364,192615,1,8,0:2:0:0:
196,196,192774,70,0,B|135:164|72:192|72:192,1,100,4|0,1:2|1:2,0:2:0:0:
316,348,193093,2,0,B|377:380|440:352|440:352,1,100,8|0,0:2|1:2,0:2:0:0:
344,108,193413,1,8,0:2:0:0:
168,336,193572,1,0,1:2:0:0:
168,108,193732,1,8,0:2:0:0:
376,276,193891,1,0,1:2:0:0:
376,276,193971,1,0,1:2:0:0:
376,276,194051,6,0,L|424:244,1,50,8|0,0:2|0:2,0:2:0:0:
488,136,194211,2,0,L|440:104,1,50,0|0,1:2|1:2,0:2:0:0:
292,32,194370,1,8,0:2:0:0:
96,156,194530,1,8,0:2:0:0:
220,352,194689,69,8,0:2:0:0:
416,228,194849,1,8,0:2:0:0:
168,52,195008,1,8,0:2:0:0:
116,280,195168,1,8,0:2:0:0:
344,332,195328,6,0,B|416:244|336:136|336:136,1,200,4|8,1:2|0:2,0:2:0:0:
96,104,195806,1,2,1:2:0:0:
116,208,195966,2,0,L|240:232,1,100,8|2,0:2|1:2,0:2:0:0:
252,348,196205,1,0,1:2:0:0:
252,348,196285,2,0,L|128:324,1,100,8|2,0:2|1:2,0:2:0:0:
244,32,196604,22,0,B|320:104|301:150|301:150,1,100,8|2,0:2|0:2,0:2:0:0:
282,185,196843,1,0,1:2:0:0:
282,185,196923,1,8,0:2:0:0:
212,38,197083,1,2,1:2:0:0:
96,104,197242,1,8,0:2:0:0:
8,272,197402,1,2,1:2:0:0:
8,272,197482,1,0,1:2:0:0:
8,272,197562,1,8,0:2:0:0:
0,152,197721,1,2,1:2:0:0:
148,292,197881,54,0,B|216:308|256:300|256:300,1,100,8|2,0:2|1:2,0:2:0:0:
364,92,198200,2,0,B|296:76|256:84|256:84,1,100,8|2,0:2|1:2,0:2:0:0:
336,288,198519,1,8,0:2:0:0:
452,160,198679,1,2,1:2:0:0:
452,160,198758,1,0,1:2:0:0:
452,160,198838,1,8,0:2:0:0:
264,82,198998,1,2,1:2:0:0:
340,224,199157,22,0,B|368:284|368:336|368:336,1,100,8|2,0:2|1:2,0:2:0:0:
172,160,199476,2,0,B|144:100|144:48|144:48,1,100,8|2,0:2|1:2,0:2:0:0:
368,32,199796,2,0,L|256:64,1,100,4|8,1:2|0:2,0:2:0:0:
380,144,200035,1,8,0:2:0:0:
380,144,200115,1,8,0:2:0:0:
380,144,200195,1,8,0:2:0:0:
380,144,200274,1,8,0:2:0:0:
380,144,200354,1,8,0:2:0:0:
380,144,200434,54,0,L|492:176,1,100,4|8,1:2|0:2,0:2:0:0:
366,319,200753,1,8,0:2:0:0:
152,316,200913,2,0,B|60:212|156:92|156:92,1,200,4|8,1:2|0:2,0:2:0:0:
256,208,201391,1,8,0:2:0:0:
396,76,201551,22,0,L|440:284,1,200,4|8,1:2|0:2,0:2:0:0:
280,356,202030,1,8,0:2:0:0:
256,208,202189,2,0,L|300:0,1,200,4|0,1:2|1:2,0:2:0:0:
297,12,202588,1,0,1:2:0:0:
297,12,202668,1,8,0:2:0:0:
145,96,202828,1,8,0:2:0:0:
180,296,202987,53,0,1:2:0:0:
360,268,203147,1,2,0:2:0:0:
332,88,203306,1,8,0:2:0:0:
152,116,203466,1,2,1:2:0:0:
232,20,203625,21,0,1:2:0:0:
428,168,203785,1,2,0:2:0:0:
280,364,203945,1,12,0:2:0:0:
84,216,204104,1,2,1:2:0:0:
348,252,204264,54,0,L|324:360,1,100,12|0,0:2|1:2,0:2:0:0:
164,132,204583,2,0,L|188:24,1,100,12|0,0:2|1:2,0:2:0:0:
160,316,204902,2,0,L|100:332,1,50,8|0,0:2|0:2,0:2:0:0:
241,174,205062,1,8,0:2:0:0:
277,154,205141,1,8,0:2:0:0:
317,146,205221,1,8,0:2:0:0:
353,158,205301,1,8,0:2:0:0:
385,182,205381,1,8,0:2:0:0:
417,206,205461,1,8,0:2:0:0:
457,206,205540,22,0,B|538:91|436:-6|436:-6,1,200,4|8,1:2|0:2,0:2:0:0:
288,72,206019,1,2,1:2:0:0:
288,72,206099,1,0,1:2:0:0:
288,72,206179,1,8,0:2:0:0:
346,247,206338,1,2,1:2:0:0:
224,312,206498,1,8,0:2:0:0:
166,137,206657,1,2,1:2:0:0:
346,247,206817,54,0,B|424:264|476:264|476:264,1,100,8|2,0:2|1:2,0:2:0:0:
386,87,207056,1,0,1:2:0:0:
386,87,207136,2,0,B|308:70|256:70|256:70,1,100,8|2,0:2|1:2,0:2:0:0:
176,232,207455,1,8,0:2:0:0:
104,52,207615,1,2,1:2:0:0:
24,192,207774,2,0,B|4:244|28:296|28:296,1,100,8|2,0:2|1:2,0:2:0:0:
177,329,208014,1,0,1:2:0:0:
177,329,208093,22,0,B|197:277|173:225|173:225,1,100,8|2,0:2|1:2,0:2:0:0:
28,150,208413,2,0,L|143:138,1,100,8|2,0:2|1:2,0:2:0:0:
256,60,208652,1,0,1:2:0:0:
256,60,208732,2,0,L|355:70,1,100,8|2,0:2|1:2,0:2:0:0:
472,176,209051,1,8,0:2:0:0:
408,320,209211,1,2,1:2:0:0:
256,108,209370,53,8,0:2:0:0:
340,192,209530,1,2,1:2:0:0:
256,276,209689,1,8,0:2:0:0:
172,192,209849,1,2,1:2:0:0:
172,192,209929,1,0,1:2:0:0:
172,192,210008,1,4,1:2:0:0:
140,300,210168,1,8,0:2:0:0:
72,136,210328,1,8,0:2:0:0:
72,136,210407,1,8,0:2:0:0:
72,136,210487,1,8,0:2:0:0:
72,136,210567,1,8,0:2:0:0:
72,136,210647,21,4,1:2:0:0:
36,240,210806,1,8,0:2:0:0:
140,300,210966,1,8,0:2:0:0:
256,108,211125,2,0,L|456:148,1,200,4|8,1:2|0:2,0:2:0:0:
256,108,211604,1,8,0:2:0:0:
450,320,211764,54,0,L|242:272,1,200,4|8,1:2|0:2,0:2:0:0:
255,275,212163,1,8,0:2:0:0:
255,275,212242,1,8,0:2:0:0:
146,383,212402,2,0,B|104:322|149:244|149:244,1,100,12|0,0:2|0:2,0:2:0:0:
296,200,212721,1,0,1:2:0:0:
296,200,212801,1,0,1:2:0:0:
296,200,212881,2,0,L|344:211,1,50,8|8,0:2|0:2,0:2:0:0:
436,56,213040,2,0,L|387:44,1,50,8|8,0:2|0:2,0:2:0:0:
256,84,213200,22,0,L|76:108,1,150,4|0,1:2|0:2,0:2:0:0:
107,103,213519,1,8,0:2:0:0:
152,268,213679,1,2,1:2:0:0:
332,296,213838,1,0,1:2:0:0:
256,84,213998,1,2,1:2:0:0:
204,352,214157,1,12,0:2:0:0:
463,264,214317,1,2,1:2:0:0:
164,188,214476,38,0,B|88:196|48:192|48:192,1,100,12|0,0:2|1:2,0:2:0:0:
112,24,214716,1,0,1:2:0:0:
112,24,214796,2,0,B|188:16|228:20|228:20,1,100,12|0,0:2|0:2,0:2:0:0:
368,104,215115,2,0,L|424:88,1,50,8|0,0:2|0:2,0:2:0:0:
496,208,215274,1,8,0:2:0:0:
506,246,215354,1,8,0:2:0:0:
509,285,215434,1,8,0:2:0:0:
491,321,215514,1,8,0:2:0:0:
461,346,215593,1,8,0:2:0:0:
423,360,215673,1,8,0:2:0:0:
382,359,215753,6,0,L|282:335,1,100,4|0,1:2|1:2,0:2:0:0:
130,25,216072,2,0,L|230:49,1,100,8|0,0:2|0:2,0:2:0:0:
227,48,216391,1,2,1:2:0:0:
160,272,216551,1,2,1:2:0:0:
373,235,216711,1,8,0:2:0:0:
152,112,216870,70,0,B|65:130|34:256|96:298,1,200,2|0,1:2|1:2,0:2:0:0:
256,372,217349,2,0,B|272:300|260:244|260:244,1,100,8|0,0:2|0:2,0:2:0:0:
263,272,217668,1,2,1:2:0:0:
464,372,217828,1,2,1:2:0:0:
448,160,217987,1,8,0:2:0:0:
337,151,218147,6,0,L|137:209,1,200,2|0,1:2|1:2,0:2:0:0:
108,28,218625,1,8,0:2:0:0:
228,52,218785,1,2,0:2:0:0:
144,206,218945,1,2,1:2:0:0:
24,230,219104,1,2,1:2:0:0:
152,112,219264,1,8,0:2:0:0:
204,292,219423,70,0,B|220:384|320:396|372:360,1,200,2|0,1:2|1:2,0:2:0:0:
472,264,219902,2,0,B|488:192|476:128|476:128,1,100,8|0,0:2|1:2,0:2:0:0:
320,120,220141,1,0,1:2:0:0:
320,120,220221,2,0,B|304:192|316:256|316:256,1,100,2|0,1:2|1:2,0:2:0:0:
312,219,220461,1,0,1:2:0:0:
312,219,220540,1,12,0:2:0:0:
388,292,220700,1,0,0:2:0:0:
152,320,220859,5,2,1:2:0:0:
192,124,221019,1,2,0:2:0:0:
360,64,221179,1,8,0:2:0:0:
320,260,221338,1,2,1:2:0:0:
192,124,221498,1,2,1:2:0:0:
388,148,221657,2,0,B|448:160|496:136|496:136,1,100,2|8,1:2|0:2,0:2:0:0:
456,16,221976,1,0,1:2:0:0:
328,352,222136,69,8,1:2:0:0:
256,24,222296,1,8,1:2:0:0:
257,114,222455,22,0,L|264:163,1,50,2|0,0:2|0:2,0:2:0:0:
264,163,222774,2,0,L|256:212,1,50,2|0,0:2|0:2,0:2:0:0:
256,212,223093,2,0,L|263:261,1,50,2|0,0:2|0:2,0:2:0:0:
143,384,223413,21,4,1:2:0:0:
166,285,223572,1,0,1:2:0:0:
242,361,223732,2,0,B|285:393|366:371|366:371,1,100,8|0,0:2|1:2,0:2:0:0:
394,272,224051,2,0,B|351:240|270:262|270:262,1,100,0|0,0:2|1:2,0:2:0:0:
242,361,224370,1,12,0:2:0:0:
179,199,224530,1,0,1:2:0:0:
270,23,224689,5,12,0:2:0:0:
333,185,224849,1,0,1:2:0:0:
333,185,225008,2,0,L|303:293,1,100,0|0,0:2|1:2,0:2:0:0:
432,244,225328,2,0,L|458:147,1,100,0|0,0:2|0:2,0:2:0:0:
368,60,225647,1,0,0:2:0:0:
280,112,225806,70,0,B|168:168|64:64|64:64,1,200,2|0,0:2|0:2,0:2:0:0:
48,264,226285,2,0,B|64:196|48:152|48:152,1,100,0|0,0:2|0:2,0:2:0:0:
160,204,226604,2,0,B|144:272|160:316|160:316,1,100,0|0,0:2|0:2,0:2:0:0:
256,372,226923,1,0,0:2:0:0:
256,372,227083,1,0,0:2:0:0:
336,256,227242,5,2,0:2:0:0:
320,112,227402,1,0,0:2:0:0:
176,128,227562,1,2,0:2:0:0:
192,272,227721,1,0,0:2:0:0:
336,256,227881,2,0,B|360:200|356:160|356:160,1,100,2|0,0:2|0:2,0:2:0:0:
176,128,228200,2,0,B|152:184|156:224|156:224,1,100,2|0,0:2|0:2,0:2:0:0:
356,376,228519,69,4,1:2:0:0:
336,256,228679,1,0,1:2:0:0:
248,328,228838,2,0,L|144:348,1,100,8|0,0:2|1:2,0:2:0:0:
57,206,229157,2,0,L|161:226,1,100,0|0,0:2|1:2,0:2:0:0:
248,328,229476,1,12,0:2:0:0:
336,256,229636,1,0,1:2:0:0:
424,184,229796,5,8,0:2:0:0:
318,144,229955,1,4,1:2:0:0:
318,144,230115,2,0,B|312:80|328:40|328:40,1,100,0|0,0:2|1:2,0:2:0:0:
326,44,230354,1,0,1:2:0:0:
326,44,230434,1,0,1:2:0:0:
424,104,230593,1,0,0:2:0:0:
184,40,230753,1,2,0:2:0:0:
184,40,230913,70,0,L|216:260,1,200,2|0,0:2|0:2,0:2:0:0:
112,160,231391,2,0,L|56:40,1,100,2|0,0:2|0:2,0:2:0:0:
292,140,231711,2,0,L|348:260,1,100,4|0,0:2|0:2,0:2:0:0:
208,328,232030,2,0,B|280:308|332:320|332:320,1,100,4|0,0:2|0:2,0:2:0:0:
416,120,232349,6,0,L|436:64,1,50,8|0,0:2|0:2,0:2:0:0:
496,212,232508,1,8,0:2:0:0:
456,220,232588,1,8,0:2:0:0:
432,252,232668,1,8,0:2:0:0:
428,292,232748,1,8,0:2:0:0:
436,332,232828,1,8,0:2:0:0:
472,348,232907,1,8,0:2:0:0:
508,328,232987,2,0,L|488:384,1,50,8|0,0:2|0:2,0:2:0:0:
306,316,233147,2,0,L|326:260,1,50,8|0,0:2|0:2,0:2:0:0:
132,340,233306,1,8,0:2:0:0:
132,340,233386,1,8,0:2:0:0:
132,340,233466,70,0,L|112:132,1,200,4|0,1:2|1:2,0:2:0:0:
137,58,233865,1,0,1:2:0:0:
137,58,233945,2,0,B|183:39|234:37|234:37,1,100,10|0,0:2|0:2,0:2:0:0:
340,148,234264,1,2,1:2:0:0:
304,252,234423,1,0,1:2:0:0:
268,356,234583,1,10,0:2:0:0:
172,260,234742,70,0,L|68:224,1,100,4|2,1:2|0:2,0:2:0:0:
10,321,235062,1,0,1:2:0:0:
10,321,235141,1,0,1:2:0:0:
10,321,235221,1,10,0:2:0:0:
23,128,235381,1,0,1:2:0:0:
23,128,235461,1,0,1:2:0:0:
23,128,235540,1,2,1:2:0:0:
202,118,235700,1,0,1:2:0:0:
202,118,235780,1,0,1:2:0:0:
202,118,235859,1,10,0:2:0:0:
328,228,236019,2,0,L|336:288,1,50,4|0,1:2|1:2,0:2:0:0:
172,364,236179,6,0,L|208:220,1,100,2|0,0:2|1:2,0:2:0:0:
316,120,236498,1,10,0:2:0:0:
328,228,236657,1,0,0:2:0:0:
240,292,236817,1,2,1:2:0:0:
328,228,236976,1,0,1:2:0:0:
427,271,237136,1,10,0:2:0:0:
474,146,237296,70,0,B|479:0|331:24|331:24,1,200,4|0,1:2|1:2,0:2:0:0:
250,143,237774,1,10,0:2:0:0:
250,143,237934,1,0,0:2:0:0:
152,98,238093,2,0,L|139:-6,1,100,2|0,1:2|0:2,0:2:0:0:
53,121,238413,1,10,0:2:0:0:
117,291,238572,1,4,1:2:0:0:
117,291,238652,1,0,1:2:0:0:
117,291,238732,6,0,B|174:278|226:288|226:288,1,100,0|0,1:2|1:2,0:2:0:0:
300,360,239051,1,10,0:2:0:0:
372,248,239211,2,0,L|348:116,1,100,0|2,0:2|1:2,0:2:0:0:
408,40,239530,1,0,1:2:0:0:
476,136,239689,1,10,0:2:0:0:
296,56,239849,70,0,B|236:40|176:44|176:44,1,100,4|0,1:2|0:2,0:2:0:0:
140,196,240168,1,0,1:2:0:0:
260,308,240328,1,10,0:2:0:0:
372,188,240487,1,0,0:2:0:0:
252,76,240647,1,2,1:2:0:0:
140,196,240806,1,0,1:2:0:0:
140,196,240886,1,0,1:2:0:0:
140,196,240966,2,0,B|168:292|110:357|110:357,1,150,12|0,0:2|0:2,0:2:0:0:
225,370,241285,6,0,L|337:346,1,100,4|8,1:2|0:2,0:2:0:0:
322,349,241524,1,8,0:2:0:0:
322,349,241604,1,8,0:2:0:0:
449,242,241764,2,0,L|237:205,1,200,12|8,0:2|0:2,0:2:0:0:
252,208,242242,1,8,0:2:0:0:
50,145,242402,70,0,B|43:6|204:21|204:21,1,200,4|8,1:2|0:2,0:2:0:0:
260,128,242881,1,8,0:2:0:0:
404,88,243040,1,4,1:2:0:0:
175,21,243200,1,0,0:2:0:0:
144,120,243359,1,0,1:2:0:0:
144,120,243439,1,0,1:2:0:0:
144,120,243519,1,8,0:2:0:0:
200,212,243679,1,0,0:2:0:0:
416,368,243838,6,0,B|460:308|440:236|368:188,1,200,4|10,1:2|0:2,0:2:0:0:
256,260,244317,1,0,1:2:0:0:
208,360,244476,1,2,1:2:0:0:
88,212,244636,1,0,1:2:0:0:
256,180,244796,1,10,0:2:0:0:
424,148,244955,1,0,1:2:0:0:
340,164,245115,69,2,1:2:0:0:
256,28,245274,1,0,1:2:0:0:
132,108,245434,1,10,1:2:0:0:
132,108,245514,1,0,1:2:0:0:
132,108,245593,2,0,L|164:160,1,50,0|0,1:2|1:2,0:2:0:0:
140,248,245753,5,2,1:2:0:0:
120,284,245833,1,0,1:2:0:0:
124,324,245913,1,0,1:2:0:0:
148,356,245992,1,0,1:2:0:0:
188,368,246072,2,0,L|248:356,1,50,10|0,1:2|1:2,0:2:0:0:
288,280,246232,2,0,L|337:289,1,50,0|0,1:2|1:2,0:2:0:0:
448,368,246391,69,2,1:2:0:0:
436,329,246471,1,0,1:2:0:0:
436,288,246551,1,0,1:2:0:0:
459,255,246631,1,0,1:2:0:0:
485,224,246711,1,10,1:2:0:0:
470,186,246790,1,0,1:2:0:0:
436,164,246870,1,0,1:2:0:0:
409,133,246950,1,0,1:2:0:0:
416,93,247030,1,2,1:2:0:0:
416,93,247109,1,0,1:2:0:0:
416,93,247189,1,0,1:2:0:0:
416,93,247269,1,0,1:2:0:0:
416,93,247349,2,0,L|483:74,1,50,10|0,1:2|1:2,0:2:0:0:
324,168,247508,2,0,L|257:149,1,50,0|0,1:2|1:2,0:2:0:0:
160,168,247668,6,0,B|153:99|181:42|181:42,1,100,2|0,1:2|1:2,0:2:0:0:
332,92,247987,1,10,0:2:0:0:
352,216,248147,2,0,B|358:284|330:341|330:341,1,100,0|10,1:2|0:2,0:2:0:0:
128,260,248466,1,0,1:2:0:0:
128,260,248546,1,0,1:2:0:0:
128,260,248625,2,0,B|184:184|268:208|268:208,1,150,12|0,0:2|0:2,0:2:0:0:
200,120,248945,70,0,L|-4:96,1,200,4|10,1:2|0:2,0:2:0:0:
96,340,249423,1,0,0:2:0:0:
184,200,249583,1,2,1:2:0:0:
272,60,249742,1,0,1:2:0:0:
324,288,249902,1,10,0:2:0:0:
184,200,250062,1,0,0:2:0:0:
44,112,250221,5,2,1:2:0:0:
140,116,250381,1,0,1:2:0:0:
184,200,250540,1,10,0:2:0:0:
272,60,250700,1,0,0:2:0:0:
364,56,250859,1,2,1:2:0:0:
416,136,251019,1,0,1:2:0:0:
416,136,251099,1,0,1:2:0:0:
416,136,251179,2,0,L|400:240,1,100,12|0,0:2|1:2,0:2:0:0:
96,248,251498,70,0,L|112:144,1,100,8|0,0:2|1:2,0:2:0:0:
111,149,251737,1,0,1:2:0:0:
111,149,251817,1,8,0:2:0:0:
111,149,251897,1,8,0:2:0:0:
111,149,251976,1,0,1:2:0:0:
244,312,252136,1,2,0:2:0:0:
122,354,252296,1,0,1:2:0:0:
8,296,252455,1,2,0:2:0:0:
24,48,252615,5,4,1:2:0:0:
256,192,252695,12,0,255966,0:2:0:0:
80,256,256604,54,0,L|168:248,1,75.0000028610231,2|0,0:2|0:2,0:2:0:0:
188,148,256956,2,0,L|113:141,1,75.0000028610231,2|0,0:2|0:2,0:2:0:0:
20,188,257309,1,2,0:2:0:0:
308,280,257662,6,0,B|340:204|288:132|288:132,1,150.000005722046,2|0,0:2|0:2,0:2:0:0:
291,136,258368,1,2,0:2:0:0:
291,136,258545,1,2,0:2:0:0:
344,64,258721,70,0,B|396:56|432:64|432:64,1,75.0000028610231,2|0,0:2|0:2,0:2:0:0:
472,164,259074,2,0,B|420:172|384:164|384:164,1,75.0000028610231,2|0,0:2|0:2,0:2:0:0:
291,136,259427,1,2,0:2:0:0:
112,40,259780,6,0,L|132:192,1,150.000005722046,2|0,0:2|0:2,0:2:0:0:
131,188,260486,1,2,0:2:0:0:
104,268,260662,1,2,0:2:0:0:
168,336,260839,70,0,L|344:304,1,150.000005722046,2|0,0:2|0:2,0:2:0:0:
315,309,261545,2,0,B|327:253|315:209|315:209,1,75.0000028610231,2|0,0:2|0:2,0:2:0:0:
192,236,261898,6,0,B|180:292|192:336|192:336,1,75.0000028610231,2|0,0:2|0:2,0:2:0:0:
280,376,262251,2,0,L|380:356,1,75.0000028610231,2|0,0:2|0:2,0:2:0:0:
424,280,262604,2,0,L|416:192,1,75.0000028610231,2|0,0:2|0:2,0:2:0:0:
352,128,262956,70,0,B|284:64|208:88|208:88,1,150.000005722046,2|0,0:2|0:2,0:2:0:0:
213,86,263662,1,2,0:2:0:0:
120,148,263839,1,2,0:2:0:0:
120,148,263927,1,2,0:2:0:0:
120,148,264015,6,0,L|108:240,1,75.0000028610231,2|0,0:2|0:2,0:2:0:0:
232,236,264368,1,2,0:2:0:0:
232,236,264545,2,0,L|244:144,1,75.0000028610231,2|0,0:2|0:2,0:2:0:0:
241,161,264898,1,2,0:2:0:0:
364,236,265074,70,0,B|420:248|448:240|448:240,1,75.0000028610231,2|0,0:2|0:2,0:2:0:0:
432,136,265427,2,0,B|376:124|348:132|348:132,1,75.0000028610231,2|0,0:2|0:2,0:2:0:0:
276,236,265780,1,2,0:2:0:0:
104,328,266133,6,0,L|272:368,1,150.000005722046,2|0,0:2|0:2,0:2:0:0:
249,362,266839,1,2,0:2:0:0:
292,280,267015,1,2,0:2:0:0:
240,196,267192,70,0,B|236:144|252:112|252:112,1,75.0000028610231,2|0,0:2|0:2,0:2:0:0:
360,120,267545,2,0,B|364:172|348:204|348:204,1,75.0000028610231,2|0,0:2|0:2,0:2:0:0:
292,280,267898,1,2,0:2:0:0:
111,155,268251,6,0,B|123:59|215:39|215:39,1,150.000005722046,2|0,0:2|0:2,0:2:0:0:
200,44,268956,1,2,0:2:0:0:
200,44,269133,1,2,0:2:0:0:
276,100,269309,70,0,L|244:264,1,150.000005722046,2|0,0:2|0:2,0:2:0:0:
352,360,270368,6,0,B|400:300|368:200|368:200,2,150.000005722046,2|0|0,0:2|0:2|0:2,0:2:0:0:
160,360,271427,2,0,B|112:300|144:200|144:200,1,150.000005722046,2|0,0:2|0:2,0:2:0:0:
139,216,272133,1,2,0:2:0:0:
256,192,272309,1,2,0:2:0:0:
256,376,272486,37,0,1:2:0:0:
256,12,272645,1,0,1:2:0:0:
456,200,272964,1,0,1:2:0:0:
456,200,273044,1,0,1:2:0:0:
456,200,273124,5,8,0:2:0:0:
240,332,273283,1,0,1:2:0:0:
172,64,273443,1,0,1:2:0:0:
384,108,273603,2,0,L|436:92,1,50,0|0,1:2|1:2,0:2:0:0:
128,276,273762,22,0,B|48:212|92:88|92:88,1,200,4|8,1:2|0:2,0:2:0:0:
360,148,274241,1,2,1:2:0:0:
304,248,274400,2,0,B|252:272|180:240|180:240,1,100,8|2,0:2|1:2,0:2:0:0:
172,108,274640,1,0,1:2:0:0:
172,108,274720,2,0,B|224:84|296:116|296:116,1,100,8|2,0:2|1:2,0:2:0:0:
400,240,275039,54,0,L|380:368,1,100,8|2,0:2|1:2,0:2:0:0:
385,338,275278,1,0,1:2:0:0:
385,338,275358,1,8,0:2:0:0:
206,248,275517,1,2,1:2:0:0:
271,107,275677,1,8,0:2:0:0:
304,212,275837,1,2,1:2:0:0:
304,212,275916,1,0,1:2:0:0:
304,212,275996,1,8,0:2:0:0:
348,328,276156,1,2,1:2:0:0:
206,248,276315,22,0,L|106:232,1,100,8|2,0:2|1:2,0:2:0:0:
64,64,276634,2,0,L|164:80,1,100,8|2,0:2|1:2,0:2:0:0:
304,172,276954,1,8,0:2:0:0:
412,68,277113,1,2,1:2:0:0:
412,68,277193,1,0,1:2:0:0:
412,68,277273,1,8,0:2:0:0:
280,16,277432,1,2,1:2:0:0:
128,184,277592,54,0,B|104:228|130:301|130:301,1,100,8|2,0:2|1:2,0:2:0:0:
384,200,277911,2,0,B|408:156|381:82|381:82,1,100,8|2,0:2|1:2,0:2:0:0:
184,88,278230,2,0,L|124:56,1,50,4|0,1:2|0:2,0:2:0:0:
270,235,278390,1,8,0:2:0:0:
280,267,278470,1,8,0:2:0:0:
299,294,278549,1,8,0:2:0:0:
324,315,278629,1,8,0:2:0:0:
355,327,278709,1,8,0:2:0:0:
388,327,278789,1,8,0:2:0:0:
419,314,278868,21,4,1:2:0:0:
335,165,279028,1,8,0:2:0:0:
92,314,279188,1,8,0:2:0:0:
176,164,279347,2,0,B|208:80|120:16|27:55,1,200,4|8,1:2|0:2,0:2:0:0:
16,136,279826,1,8,0:2:0:0:
120,292,279986,54,0,L|328:244,1,200,4|8,1:2|0:2,0:2:0:0:
392,328,280464,1,8,0:2:0:0:
392,92,280624,2,0,L|184:140,1,200,4|0,1:2|1:2,0:2:0:0:
198,136,281023,1,0,1:2:0:0:
198,136,281103,1,8,0:2:0:0:
120,296,281262,1,8,0:2:0:0:
120,296,281342,1,0,1:2:0:0:
120,296,281422,21,0,1:2:0:0:
268,212,281581,1,2,0:2:0:0:
424,228,281741,1,8,0:2:0:0:
220,360,281900,1,2,1:2:0:0:
88,156,282060,1,0,1:2:0:0:
292,24,282220,1,2,0:2:0:0:
192,256,282379,2,0,L|68:296,1,100,12|2,0:2|1:2,0:2:0:0:
152,32,282698,53,12,0:2:0:0:
416,88,282858,1,0,1:2:0:0:
416,88,282938,1,0,1:2:0:0:
416,88,283017,1,12,0:2:0:0:
424,228,283177,1,0,1:2:0:0:
268,120,283337,22,0,L|204:108,1,50,8|0,0:2|0:2,0:2:0:0:
56,192,283496,1,8,0:2:0:0:
60,232,283576,1,8,0:2:0:0:
88,260,283656,1,8,0:2:0:0:
128,272,283736,1,8,0:2:0:0:
164,260,283815,1,8,0:2:0:0:
204,252,283895,1,8,0:2:0:0:
244,260,283975,54,0,B|291:329|385:333|451:247,1,200,4|8,1:2|0:2,0:2:0:0:
424,84,284454,1,2,1:2:0:0:
256,128,284613,1,8,0:2:0:0:
88,4,284773,1,2,1:2:0:0:
256,48,284932,1,8,0:2:0:0:
212,216,285092,1,2,1:2:0:0:
44,172,285251,21,8,0:2:0:0:
184,324,285411,1,2,1:2:0:0:
184,324,285491,1,0,1:2:0:0:
184,324,285571,1,8,0:2:0:0:
328,200,285730,1,2,1:2:0:0:
172,72,285890,1,8,0:2:0:0:
44,228,286049,1,2,1:2:0:0:
232,316,286209,2,0,B|324:324|364:304|364:304,1,100,8|2,0:2|1:2,0:2:0:0:
372,100,286448,1,0,1:2:0:0:
372,100,286528,54,0,B|280:92|240:112|240:112,1,100,8|2,0:2|1:2,0:2:0:0:
152,236,286847,1,8,0:2:0:0:
76,56,287007,1,2,1:2:0:0:
328,200,287166,1,8,0:2:0:0:
252,20,287326,1,2,1:2:0:0:
108,144,287486,1,8,0:2:0:0:
152,236,287645,1,2,1:2:0:0:
372,152,287805,22,0,L|392:28,1,100,8|2,0:2|1:2,0:2:0:0:
140,232,288124,2,0,L|120:356,1,100,8|2,0:2|1:2,0:2:0:0:
240,352,288363,1,0,1:2:0:0:
240,352,288443,2,0,B|296:324|368:336|368:336,1,100,4|8,1:2|0:2,0:2:0:0:
488,288,288762,1,8,0:2:0:0:
508,252,288842,1,8,0:2:0:0:
504,212,288922,1,8,0:2:0:0:
488,176,289001,1,8,0:2:0:0:
456,152,289081,53,4,1:2:0:0:
310,245,289241,1,8,0:2:0:0:
252,20,289400,1,8,0:2:0:0:
80,132,289560,2,0,L|308:160,1,200,4|8,1:2|0:2,0:2:0:0:
368,100,290039,1,8,0:2:0:0:
440,352,290198,22,0,B|368:384|276:360|236:284,1,200,4|8,1:2|0:2,0:2:0:0:
278,156,290677,1,8,0:2:0:0:
24,264,290837,2,0,L|252:236,1,200,12|0,0:2|1:2,0:2:0:0:
388,220,291236,1,0,1:2:0:0:
388,220,291315,2,0,L|408:296,1,50,8|8,0:2|0:2,0:2:0:0:
484,120,291475,2,0,L|504:44,1,50,8|8,0:2|0:2,0:2:0:0:
312,8,291634,54,0,L|296:216,1,200,4|8,1:2|0:2,0:2:0:0:
252,348,292113,1,2,1:2:0:0:
100,188,292273,1,0,1:2:0:0:
260,36,292432,1,2,1:2:0:0:
412,196,292592,1,12,0:2:0:0:
252,348,292751,1,2,1:2:0:0:
252,348,292831,1,0,1:2:0:0:
252,348,292911,22,0,L|136:332,1,100,12|0,0:2|1:2,0:2:0:0:
96,160,293150,1,0,1:2:0:0:
96,160,293230,2,0,L|212:176,1,100,12|0,0:2|0:2,0:2:0:0:
292,264,293470,1,0,1:2:0:0:
292,264,293549,54,0,L|348:244,1,50,8|0,0:2|0:2,0:2:0:0:
448,148,293709,1,8,0:2:0:0:
455,108,293789,1,8,0:2:0:0:
444,69,293868,1,8,0:2:0:0:
416,39,293948,1,8,0:2:0:0:
376,30,294028,1,8,0:2:0:0:
335,28,294108,1,8,0:2:0:0:
298,44,294188,70,0,L|316:165,1,100,4|0,1:2|1:2,0:2:0:0:
214,340,294507,2,0,L|196:219,1,100,8|0,0:2|0:2,0:2:0:0:
400,152,294826,1,2,1:2:0:0:
296,336,294986,1,2,1:2:0:0:
112,232,295145,1,8,0:2:0:0:
216,48,295305,6,0,B|288:48|336:136|304:216,1,200,2|0,1:2|1:2,0:2:0:0:
112,232,295783,2,0,B|96:160|144:104|144:104,1,100,8|0,0:2|0:2,0:2:0:0:
400,152,296103,2,0,B|416:224|368:280|368:280,1,100,2|2,1:2|1:2,0:2:0:0:
148,360,296422,1,8,0:2:0:0:
228,128,296581,70,0,L|268:344,1,200,2|0,1:2|1:2,0:2:0:0:
392,356,297060,1,8,0:2:0:0:
484,262,297220,1,2,0:2:0:0:
449,136,297379,1,2,1:2:0:0:
322,104,297539,1,2,1:2:0:0:
484,262,297698,1,8,0:2:0:0:
230,197,297858,6,0,L|23:250,1,200,2|0,1:2|1:2,0:2:0:0:
110,142,298337,2,0,L|177:58,1,100,8|0,0:2|1:2,0:2:0:0:
169,294,298656,2,0,L|102:378,1,100,2|0,1:2|1:2,0:2:0:0:
36,246,298975,1,8,0:2:0:0:
362,288,299134,70,0,B|414:173|307:92|307:92,1,200,4|0,1:2|1:2,0:2:0:0:
150,155,299613,2,0,B|209:173|263:170|263:170,1,100,10|0,0:2|0:2,0:2:0:0:
263,31,299932,2,0,B|204:13|150:16|150:16,1,100,2|0,1:2|1:2,0:2:0:0:
57,178,300251,1,10,0:2:0:0:
98,281,300411,6,0,L|303:253,1,200,4|0,1:2|1:2,0:2:0:0:
359,365,300890,2,0,L|230:341,1,100,10|0,0:2|0:2,0:2:0:0:
136,152,301209,2,0,L|265:176,1,100,2|0,1:2|1:2,0:2:0:0:
376,248,301528,1,10,0:2:0:0:
468,84,301688,70,0,B|440:8|336:0|276:52,1,200,4|0,1:2|1:2,0:2:0:0:
152,196,302166,1,10,0:2:0:0:
204,348,302326,1,0,0:2:0:0:
360,188,302486,1,2,1:2:0:0:
308,36,302645,1,0,1:2:0:0:
152,196,302805,1,10,0:2:0:0:
328,308,302964,6,0,L|456:280,1,100,2|0,1:2|0:2,0:2:0:0:
368,104,303283,1,0,1:2:0:0:
168,80,303443,1,10,0:2:0:0:
144,280,303603,1,0,1:2:0:0:
344,304,303762,1,10,0:2:0:0:
368,104,303922,1,0,1:2:0:0:
368,104,304001,1,0,1:2:0:0:
368,104,304081,1,8,0:2:0:0:
116,184,304241,70,0,B|88:96|168:32|252:52,1,200,4|0,1:2|1:2,0:2:0:0:
368,104,304640,1,0,1:2:0:0:
368,104,304720,2,0,B|372:168|360:224|360:224,1,100,10|0,0:2|1:2,0:2:0:0:
176,336,305039,1,10,0:2:0:0:
216,140,305198,1,0,1:2:0:0:
366,273,305358,1,10,0:2:0:0:
271,372,305517,6,0,L|290:153,1,200,4|0,1:2|1:2,0:2:0:0:
193,67,305916,1,0,1:2:0:0:
193,67,305996,2,0,B|154:116|154:187|154:187,1,100,10|0,0:2|1:2,0:2:0:0:
156,158,306236,1,0,1:2:0:0:
156,158,306315,1,10,0:2:0:0:
388,244,306475,1,0,1:2:0:0:
360,8,306634,1,10,0:2:0:0:
496,112,306794,70,0,B|536:180|516:264|452:316,1,200,4|0,1:2|1:2,0:2:0:0:
340,332,307193,1,0,1:2:0:0:
340,332,307273,2,0,B|288:308|239:313|239:313,1,100,10|0,0:2|1:2,0:2:0:0:
242,312,307512,1,0,1:2:0:0:
242,312,307592,1,10,0:2:0:0:
68,356,307751,1,0,1:2:0:0:
24,182,307911,1,10,0:2:0:0:
176,88,308071,6,0,L|148:308,1,200,4|0,1:2|1:2,0:2:0:0:
336,372,308549,2,0,L|433:350,1,100,10|0,0:2|1:2,0:2:0:0:
432,352,308789,1,0,1:2:0:0:
432,352,308868,1,8,0:2:0:0:
392,120,309028,1,0,1:2:0:0:
392,120,309108,1,0,1:2:0:0:
392,120,309188,1,10,0:2:0:0:
212,160,309347,1,0,1:2:0:0:
340,292,309507,69,4,1:2:0:0:
356,108,309666,1,0,0:2:0:0:
172,92,309826,1,10,0:2:0:0:
156,276,309986,1,0,1:2:0:0:
416,204,310145,5,0,1:2:0:0:
268,32,310305,1,0,1:2:0:0:
96,180,310464,1,10,0:2:0:0:
244,352,310624,1,0,1:2:0:0:
328,200,310783,69,0,1:2:0:0:
184,184,310943,1,0,1:2:0:0:
264,120,311103,1,10,0:2:0:0:
248,264,311262,1,0,1:2:0:0:
116,24,311422,5,12,0:2:0:0:
396,360,311581,1,0,1:2:0:0:
396,24,311741,69,12,0:2:0:0:
116,360,311900,1,0,1:2:0:0:
116,360,311980,1,0,1:2:0:0:
116,360,312060,5,12,0:2:0:0:
96,180,312220,1,0,0:2:0:0:
96,180,312379,1,8,0:2:0:0:
256,356,312539,1,12,0:2:0:0:
416,180,312698,69,8,0:2:0:0:
416,180,312778,1,8,0:2:0:0:
416,180,312858,2,0,L|480:164,1,50,8|0,0:2|0:2,0:2:0:0:
360,48,313017,2,0,L|296:32,1,50,8|0,0:2|0:2,0:2:0:0:
224,164,313177,1,8,0:2:0:0:
224,164,313257,1,8,0:2:0:0:
224,164,313337,6,0,L|160:180,1,50,8|0,0:2|0:2,0:2:0:0:
28,48,313496,1,0,1:2:0:0:
16,192,313656,6,0,L|84:200,1,50,2|0,0:2|0:2,0:2:0:0:
65,197,313975,2,0,L|114:191,1,50,2|0,0:2|0:2,0:2:0:0:
114,191,314294,2,0,L|163:196,1,50,2|0,0:2|0:2,0:2:0:0:
255,246,314533,1,2,0:2:0:0:
255,246,314613,5,2,0:2:0:0:
302,231,314772,1,0,0:2:0:0:
257,138,314932,1,2,0:2:0:0:
209,152,315091,1,2,0:2:0:0:
359,166,315251,1,2,0:2:0:0:
364,91,315410,1,2,0:2:0:0:
152,217,315571,1,2,0:2:0:0:
147,292,315730,1,2,0:2:0:0:
296,348,315890,6,0,L|352:364,1,50,0|0,0:2|0:2,0:2:0:0:
392,264,316049,1,8,0:2:0:0:
408,228,316129,1,8,0:2:0:0:
448,216,316209,1,8,0:2:0:0:
476,188,316289,1,8,0:2:0:0:
492,152,316368,1,8,0:2:0:0:
484,112,316448,1,8,0:2:0:0:
464,76,316528,6,0,L|512:62,1,50,8|0,0:2|0:2,0:2:0:0:
308,16,316688,2,0,L|259:2,1,50,8|0,0:2|0:2,0:2:0:0:
104,212,317007,54,0,B|96:312|196:336|196:336,1,150,4|0,1:2|0:2,0:2:0:0:
178,329,317326,1,2,0:2:0:0:
310,249,317486,2,0,L|409:264,1,100,8|0,0:2|0:2,0:2:0:0:
280,83,317805,1,2,1:2:0:0:
202,135,317964,2,0,L|103:120,1,100,2|8,1:2|0:2,0:2:0:0:
41,263,318283,54,0,L|233:223,1,150,2|0,1:2|0:2,0:2:0:0:
187,233,318603,1,2,1:2:0:0:
317,347,318762,2,0,B|341:281|335:241|335:241,1,100,8|0,0:2|0:2,0:2:0:0:
284,52,319081,1,2,1:2:0:0:
195,37,319241,2,0,B|171:103|177:143|177:143,1,100,2|8,1:2|0:2,0:2:0:0:
404,208,319560,22,0,B|468:88|356:8|356:8,1,200,2|2,1:2|1:2,0:2:0:0:
304,212,320039,2,0,L|328:312,1,100,8|0,0:2|0:2,0:2:0:0:
188,268,320358,1,2,1:2:0:0:
180,124,320517,1,2,1:2:0:0:
324,116,320677,1,8,0:2:0:0:
188,268,320837,54,0,L|-12:220,1,200,2|0,1:2|1:2,0:2:0:0:
122,132,321315,2,0,L|230:108,1,100,8|2,0:2|0:2,0:2:0:0:
146,20,321555,1,2,1:2:0:0:
146,20,321634,2,0,L|38:44,1,100,2|2,1:2|1:2,0:2:0:0:
48,41,321874,1,2,1:2:0:0:
48,41,321954,1,8,0:2:0:0:
96,240,322113,1,2,0:2:0:0:
96,240,322193,1,2,0:2:0:0:
96,240,322273,21,2,1:2:0:0:
212,328,322432,1,2,1:2:0:0:
347,272,322592,1,8,0:2:0:0:
428,88,322751,2,0,B|296:32|240:144|240:144,1,200,6|0,1:2|1:2,0:2:0:0:
249,129,323230,1,8,0:2:0:0:
368,360,323390,54,0,L|396:140,1,200,4|0,1:2|1:2,0:2:0:0:
393,161,323868,1,8,0:2:0:0:
292,284,324028,2,0,B|232:304|184:296|184:296,1,100,4|0,1:2|1:2,0:2:0:0:
193,297,324267,1,0,1:2:0:0:
193,297,324347,1,2,1:2:0:0:
228,192,324507,1,8,0:2:0:0:
144,104,324666,1,2,1:2:0:0:
144,104,324746,1,0,1:0:0:0:
144,104,324826,22,0,L|36:96,1,100,2|0,1:2|0:2,0:2:0:0:
368,280,325145,2,0,L|476:288,1,100,10|0,0:2|1:2,0:2:0:0:
368,124,325464,2,0,B|376:48|360:0|360:0,1,100,2|0,1:2|0:2,0:2:0:0:
144,260,325783,2,0,B|136:336|152:384|152:384,1,100,10|0,0:2|1:2,0:2:0:0:
368,280,326103,53,2,1:2:0:0:
144,104,326262,1,8,0:2:0:0:
144,104,326342,1,8,0:2:0:0:
144,104,326422,2,0,L|156:24,1,50,8|8,0:2|0:2,0:2:0:0:
344,80,326581,1,8,0:2:0:0:
344,80,326661,1,8,0:2:0:0:
344,80,326741,22,0,L|424:92,1,50,0|0,1:2|0:2,0:2:0:0:
168,304,326900,1,12,0:2:0:0:
256,40,327060,1,0,1:2:0:0:
456,208,327220,54,0,L|252:232,1,200,4|0,1:2|1:2,0:2:0:0:
257,231,327618,1,0,1:2:0:0:
257,231,327698,1,10,0:2:0:0:
276,136,327858,1,0,0:2:0:0:
344,304,328017,1,2,1:2:0:0:
176,372,328177,1,0,1:2:0:0:
108,204,328337,1,10,0:2:0:0:
344,304,328496,22,0,B|410:315|452:309|452:309,1,100,4|0,1:2|0:2,0:2:0:0:
401,202,328815,1,0,1:2:0:0:
314,143,328975,2,0,L|297:21,1,100,10|0,0:2|1:2,0:2:0:0:
222,178,329294,1,8,0:2:0:0:
405,102,329454,1,8,0:2:0:0:
405,102,329533,1,8,0:2:0:0:
405,102,329613,1,10,0:2:0:0:
204,48,329773,54,0,B|55:20|54:190|54:190,1,200,4|0,1:2|1:2,0:2:0:0:
128,304,330251,2,0,B|144:240|136:200|136:200,1,100,10|0,0:2|1:2,0:2:0:0:
136,204,330571,1,2,1:2:0:0:
24,240,330730,1,0,1:2:0:0:
216,336,330890,1,10,0:2:0:0:
328,372,331049,22,0,L|296:164,1,200,0|0,1:2|1:2,0:2:0:0:
297,174,331448,1,0,1:2:0:0:
297,174,331528,1,10,0:2:0:0:
408,80,331688,1,0,1:2:0:0:
408,80,331767,1,0,1:2:0:0:
408,80,331847,54,0,L|400:144,1,50,8|0,0:2|0:2,0:2:0:0:
252,84,332007,1,0,1:2:0:0:
252,84,332087,1,0,1:2:0:0:
252,84,332166,2,0,L|244:20,1,50,8|8,0:2|0:2,0:2:0:0:
112,144,332326,1,8,0:2:0:0:
112,144,332406,1,8,0:2:0:0:
112,144,332486,21,4,1:2:0:0:
256,212,332645,1,0,1:2:0:0:
400,144,332805,1,10,0:2:0:0:
428,236,332964,2,0,B|432:312|372:368|284:348,1,200,4|8,1:2|0:2,0:2:0:0:
212,288,333443,1,8,0:2:0:0:
96,104,333603,54,0,L|136:320,1,200,12|8,0:2|0:2,0:2:0:0:
48,348,334081,1,8,0:2:0:0:
196,160,334241,2,0,L|404:192,1,200,4|8,1:2|0:2,0:2:0:0:
400,292,334640,1,8,0:2:0:0:
400,292,334720,1,8,0:2:0:0:
400,292,334799,1,8,0:2:0:0:
400,292,334879,1,8,0:2:0:0:
400,292,334959,1,8,0:2:0:0:
400,292,335039,22,0,L|268:324,1,100,4|0,1:2|0:2,0:2:0:0:
96,172,335358,1,8,0:2:0:0:
112,92,335517,2,0,L|244:60,1,100,2|0,1:2|1:2,0:2:0:0:
301,139,335837,1,2,1:2:0:0:
285,255,335996,1,8,0:2:0:0:
177,299,336156,1,2,1:2:0:0:
256,56,336315,53,4,1:2:0:0:
392,192,336475,1,8,0:2:0:0:
392,192,336555,1,8,0:2:0:0:
392,192,336634,2,0,L|416:268,1,50,8|0,0:2|0:2,0:2:0:0:
120,192,336794,2,0,L|96:116,1,50,8|0,0:2|0:2,0:2:0:0:
256,56,336954,21,4,1:2:0:0:
256,328,337113,1,8,0:2:0:0:
120,192,337273,1,2,0:2:0:0:
392,192,337432,1,2,0:2:0:0:
344,280,337592,5,4,1:2:0:0:
284,184,337751,1,0,1:2:0:0:
392,192,337911,2,0,B|416:136|388:76|388:76,1,100,8|0,0:2|1:2,0:2:0:0:
286,85,338230,2,0,B|262:141|290:201|290:201,1,100,0|0,0:2|1:2,0:2:0:0:
368,292,338549,1,12,0:2:0:0:
492,232,338708,1,0,1:2:0:0:
288,356,338868,6,0,L|48:387,1,200,8|0,0:2|0:2,0:2:0:0:
12,328,339347,1,2,1:2:0:0:
12,328,339427,1,2,0:2:0:0:
12,328,339507,1,2,0:2:0:0:
0,228,339666,1,0,0:2:0:0:
64,156,339826,1,2,0:2:0:0:
160,160,339986,70,0,B|204:224|192:308|128:340,1,200,2|0,0:2|0:2,0:2:0:0:
64,156,340464,2,0,B|60:96|96:48|96:48,1,100,2|0,0:2|0:2,0:2:0:0:
264,40,340783,2,0,B|268:100|232:148|232:148,1,100,2|2,0:2|0:2,0:2:0:0:
239,135,341023,1,2,0:2:0:0:
239,135,341103,1,2,0:2:0:0:
151,223,341262,1,8,0:2:0:0:
367,331,341422,5,8,0:2:0:0:
440,220,341581,1,12,0:2:0:0:
260,240,341741,1,8,0:2:0:0:
260,240,341821,1,8,0:2:0:0:
260,240,341900,2,0,L|240:308,1,50,8|0,0:2|0:2,0:2:0:0:
120,368,342060,69,12,0:2:0:0:
84,184,342220,2,0,L|68:92,1,50,8|0,0:2|0:2,0:2:0:0:
252,7,342379,1,8,0:2:0:0:
269,49,342459,1,8,0:2:0:0:
250,79,342539,1,8,0:2:0:0:
264,99,342618,1,8,0:2:0:0:
257,112,342698,53,4,1:2:0:0:
256,192,342778,12,0,347326,0:2:0:0:
