osu file format v14

[General]
AudioFilename: audio.mp3
AudioLeadIn: 0
PreviewTime: 111695
Countdown: 0
SampleSet: Soft
StackLeniency: 0.7
Mode: 0
LetterboxInBreaks: 0
WidescreenStoryboard: 0

[Editor]
Bookmarks: 11353,21300,31563,41669,61721,71826,82090,92195,102300,112247,122353,132458,142721,152669,162932,173037,183142,193090,203195,213458,223563,233669,243616,253721,263984,274090,284195,304405,314511,324458,334563,344669,354774,365037,375063
DistanceSpacing: 1.1
BeatDivisor: 4
GridSize: 8
TimelineZoom: 2.499999

[Metadata]
Title:Guilty Grimoire
TitleUnicode:Guilty Grimoire
Artist:Seraph
ArtistUnicode:Seraph
Creator:Hinsvar
Version:Mystique
Source:
Tags:Japanese Rock J-Rock JRock gothic symphonic Black Dahlia 海紅 Irori LifeRubato Featured Artist FA Mappers' Guild MPG
BeatmapID:3510639
BeatmapSetID:1717874

[Difficulty]
HPDrainRate:5
CircleSize:4.3
OverallDifficulty:9
ApproachRate:9.3
SliderMultiplier:1.76
SliderTickRate:1

[Events]
//Background and Video events
0,0,"guilty.jpg",0,0
//Break Periods
2,41869,59904
2,216184,221904
2,286721,303851
//Storyboard Layer 0 (Background)
//Storyboard Layer 1 (Fail)
//Storyboard Layer 2 (Pass)
//Storyboard Layer 3 (Foreground)
//Storyboard Layer 4 (Overlay)
//Storyboard Sound Samples

[TimingPoints]
1248,315.78947368421,4,2,2,60,1,0
11353,-200,4,2,2,60,0,0
16405,-133.333333333333,4,2,2,65,0,0
21300,-100,4,2,1,75,0,0
31563,-133.333333333333,4,2,1,70,0,0
61721,-100,4,2,2,65,0,0
82090,-133.333333333333,4,2,1,70,0,0
92195,-200,4,2,1,55,0,0
101353,-133.333333333333,4,2,1,65,0,0
102300,-100,4,2,1,70,0,0
112247,-80,4,2,1,85,0,1
132458,-100,4,2,1,75,0,0
142721,-100,4,2,2,60,0,0
162932,-133.333333333333,4,2,1,70,0,0
173037,-200,4,2,1,55,0,0
182195,-133.333333333333,4,2,1,65,0,0
183142,-100,4,2,1,70,0,0
193090,-80,4,2,1,85,0,1
213458,-200,4,2,1,65,0,0
223563,-133.333333333333,4,2,1,70,0,0
233669,-100,4,2,1,75,0,0
243616,-100,4,2,1,70,0,0
263984,-133.333333333333,4,2,1,65,0,0
274090,-100,4,2,1,70,0,0
304405,-400,4,2,1,50,0,0
322090,-200,4,2,1,60,0,0
323353,-100,4,2,1,70,0,0
324458,-80,4,2,1,85,0,1
344669,-100,4,2,1,75,0,0
354774,-100,4,2,1,80,0,0
365037,-133.333333333333,4,2,1,70,0,0
374826,-66.6666666666667,4,2,1,80,0,0

[Colours]
Combo1 : 129,239,234
Combo2 : 112,152,197
Combo3 : 233,214,103
Combo4 : 100,123,193

[HitObjects]
96,347,11353,6,0,L|88:292,1,44,4|0,0:0|0:0,0:0:0:0:
173,249,11669,2,0,L|181:304,1,44,2|0,0:0|0:0,0:0:0:0:
104,355,11984,2,0,L|96:300,1,44,2|0,0:0|0:0,0:0:0:0:
181,257,12300,1,2,0:0:0:0:
252,356,12458,5,0,3:0:0:0:
258,334,12537,1,0,3:0:0:0:
264,312,12616,1,10,0:0:0:0:
318,96,12774,1,10,0:0:0:0:
318,96,13879,6,0,P|309:65|288:41,1,44,4|0,0:0|0:0,0:0:0:0:
210,194,14195,2,0,P|240:201|271:195,1,44,2|0,0:0|0:0,0:0:0:0:
180,50,14511,2,0,P|157:72|147:102,1,44,2|0,0:0|0:0,0:0:0:0:
237,115,14826,1,2,0:0:0:0:
404,101,14984,5,0,3:0:0:0:
425,99,15063,1,0,3:0:0:0:
446,97,15142,1,10,0:0:0:0:
463,306,15300,1,10,0:0:0:0:
108,101,15616,5,0,3:0:0:0:
87,99,15695,1,0,3:0:0:0:
66,97,15774,1,10,0:0:0:0:
49,306,15932,1,0,3:0:0:0:
49,198,16090,2,0,L|93:203,1,44,10|0,0:0|0:0,0:0:0:0:
308,294,16405,6,0,P|344:282|372:253,1,66.0000025177003,4|0,0:0|0:0,0:0:0:0:
347,121,16721,1,10,0:0:0:0:
303,47,16879,1,0,3:0:0:0:
285,38,16958,1,0,3:0:0:0:
265,34,17037,2,0,P|229:46|201:75,1,66.0000025177003,10|0,0:0|0:0,0:0:0:0:
125,40,17353,2,0,P|99:68|90:107,1,66.0000025177003,2|0,0:0|0:0,0:0:0:0:
164,362,17669,6,0,L|176:295,1,66.0000025177003,4|2,3:2|0:0,0:0:0:0:
98,222,17984,2,0,L|242:201,1,132.000005035401,0|10,0:0|0:0,0:0:0:0:
264,124,18458,1,0,3:0:0:0:
441,71,18616,1,10,0:0:0:0:
473,255,18774,1,0,3:0:0:0:
375,174,18932,5,6,0:0:0:0:
375,174,19721,1,0,0:0:0:0:
373,164,19800,1,0,0:0:0:0:
378,155,19879,1,2,3:2:0:0:
414,127,19958,1,0,3:0:0:0:
459,138,20037,1,0,3:0:0:0:
479,180,20116,1,0,3:0:0:0:
458,221,20195,6,0,L|463:295,1,66.0000025177003,12|0,0:0|0:0,0:0:0:0:
467,372,20511,1,2,0:0:0:0:
301,223,20669,1,4,0:0:0:0:
309,373,20826,2,0,L|305:308,1,66.0000025177003,2|2,0:0|0:0,0:0:0:0:
432,30,21142,1,10,0:0:0:0:
423,48,21221,1,10,0:0:0:0:
413,63,21300,6,0,P|328:60|232:23,1,176,6|0,3:2|3:0,0:0:0:0:
40,74,21774,2,0,P|61:109|81:152,1,88,10|2,0:0|0:0,0:0:0:0:
80,151,22011,1,2,0:0:0:0:
80,151,22090,1,2,3:2:0:0:
256,238,22247,2,10,P|276:201|303:162,1,88,0|10,3:0|0:0,0:0:0:0:
38,277,22563,5,2,0:0:0:0:
38,277,22642,1,2,0:0:0:0:
38,277,22721,2,0,L|128:266,1,88,2|0,3:2|0:0,0:0:0:0:
343,292,23037,1,8,0:0:0:0:
189,96,23195,5,2,0:0:0:0:
189,96,23274,1,2,0:0:0:0:
189,96,23353,1,2,3:2:0:0:
332,195,23511,1,0,3:0:0:0:
452,69,23669,1,10,0:0:0:0:
410,339,23826,6,0,P|341:294|221:272,1,176,6|0,3:2|3:0,0:0:0:0:
84,79,24300,1,10,0:0:0:0:
282,48,24458,1,2,0:0:0:0:
282,48,24537,1,2,0:0:0:0:
282,48,24616,2,0,P|301:84|310:149,1,88,2|0,3:2|3:0,0:0:0:0:
486,116,24932,2,0,P|448:138|419:171,1,88,10|0,0:0|0:0,0:0:0:0:
332,241,25247,6,0,L|278:375,1,132,2|0,3:2|0:0,0:0:0:0:
282,363,25563,1,8,0:0:0:0:
12,267,25721,5,2,0:0:0:0:
12,267,25800,1,2,0:0:0:0:
12,267,25879,1,2,3:2:0:0:
132,82,26037,1,0,3:0:0:0:
233,277,26195,1,10,0:0:0:0:
38,162,26353,6,0,P|135:172|213:190,1,176,6|0,3:2|3:0,0:0:0:0:
335,21,26826,2,0,P|346:65|348:114,1,88,10|2,0:0|0:0,0:0:0:0:
348,107,27063,1,2,0:0:0:0:
348,107,27142,1,2,3:2:0:0:
423,343,27300,2,0,P|425:299|436:256,1,88,0|10,3:0|0:0,0:0:0:0:
216,295,27616,5,2,0:0:0:0:
216,295,27695,1,2,0:0:0:0:
216,295,27774,2,0,P|259:293|302:282,1,88,2|0,3:2|0:0,0:0:0:0:
356,111,28090,1,8,0:0:0:0:
87,173,28247,5,2,0:0:0:0:
87,173,28326,1,2,0:0:0:0:
87,173,28405,1,2,3:2:0:0:
256,192,28563,1,0,3:0:0:0:
425,211,28721,1,10,0:0:0:0:
203,384,28879,6,0,P|190:290|167:211,1,176,6|0,3:2|3:0,0:0:0:0:
356,32,29353,1,10,0:0:0:0:
421,109,29511,1,2,0:0:0:0:
421,109,29590,1,2,0:0:0:0:
421,109,29669,2,0,P|384:122|327:127,1,88,2|0,3:2|3:0,0:0:0:0:
127,122,29984,1,10,0:0:0:0:
12,15,30142,6,0,P|74:19|158:34,1,132,2|0,3:2|0:0,0:0:0:0:
142,30,30458,1,0,3:0:0:0:
180,30,30537,1,0,3:0:0:0:
214,26,30616,2,0,L|218:73,1,44,14|0,0:0|0:0,0:0:0:0:
117,268,30774,2,0,L|113:221,1,44,2|0,3:2|0:0,0:0:0:0:
22,125,30932,1,2,3:2:0:0:
22,125,31011,1,2,0:0:0:0:
22,125,31090,1,2,0:0:0:0:
230,201,31247,1,10,0:0:0:0:
240,207,31326,1,0,3:0:0:0:
252,212,31405,1,0,3:0:0:0:
263,217,31484,1,0,3:0:0:0:
276,220,31563,6,0,P|296:174|296:149,1,66.0000025177003,6|2,3:2|0:0,0:0:0:0:
296,158,31800,1,2,0:0:0:0:
296,158,31879,1,2,0:0:0:0:
353,14,32037,1,0,3:0:0:0:
359,39,32116,1,0,3:0:0:0:
369,62,32195,1,14,0:0:0:0:
475,85,32353,1,2,0:0:0:0:
487,226,32511,1,2,0:0:0:0:
419,276,32669,5,0,3:0:0:0:
419,276,32747,1,0,3:0:0:0:
419,276,32826,2,0,P|368:289|326:359,1,132.000005035401,6|0,3:2|3:0,0:0:0:0:
38,217,33458,1,14,0:0:0:0:
105,300,33616,2,0,P|117:330|121:373,1,66.0000025177003,0|2,3:0|0:0,0:0:0:0:
237,204,33932,5,0,3:0:0:0:
237,204,34011,1,0,3:0:0:0:
237,204,34090,2,0,P|248:136|249:66,1,132.000005035401,6|0,3:2|0:0,0:0:0:0:
10,0,34563,1,0,3:0:0:0:
16,25,34642,1,0,3:0:0:0:
22,50,34721,2,0,L|96:59,1,66.0000025177003,14|0,0:0|0:0,0:0:0:0:
115,139,35037,2,0,L|41:130,1,66.0000025177003,2|0,0:0|3:0,0:0:0:0:
16,347,35353,5,14,3:2:0:0:
107,216,35511,1,0,3:0:0:0:
232,310,35669,2,0,P|265:319|290:294,1,66.0000025177003,2|0,3:2|0:0,0:0:0:0:
6,373,35984,5,14,0:0:0:0:
85,198,36142,1,0,3:0:0:0:
253,283,36300,1,2,0:0:0:0:
375,353,36458,5,0,3:0:0:0:
375,353,36537,1,0,3:0:0:0:
375,353,36616,2,0,P|366:306|369:277,1,66.0000025177003,6|2,3:2|0:0,0:0:0:0:
367,288,36853,1,2,0:0:0:0:
367,288,36932,1,2,0:0:0:0:
230,88,37090,1,0,3:0:0:0:
234,113,37169,1,0,3:0:0:0:
239,138,37247,1,14,0:0:0:0:
291,205,37405,1,2,0:0:0:0:
333,34,37563,1,2,0:0:0:0:
393,109,37721,5,0,3:0:0:0:
393,109,37800,1,0,3:0:0:0:
393,109,37879,2,0,L|465:118,2,66.0000025177003,6|0|0,3:2|0:0|3:0,0:0:0:0:
115,235,38511,2,0,L|180:226,1,66.0000025177003,14|0,0:0|0:0,0:0:0:0:
215,357,38826,1,2,0:0:0:0:
60,324,38984,1,0,3:0:0:0:
109,105,39142,6,0,P|170:103|232:139,1,132.000005035401,6|0,3:2|0:0,0:0:0:0:
360,28,39616,1,0,3:0:0:0:
382,41,39695,1,0,3:0:0:0:
398,61,39774,2,0,P|406:94|406:130,1,66.0000025177003,14|0,0:0|0:0,0:0:0:0:
480,171,40090,1,2,0:0:0:0:
449,286,40247,1,0,3:0:0:0:
304,219,40405,6,0,P|308:186|318:155,1,66.0000025177003,6|0,3:2|0:0,0:0:0:0:
169,305,40721,2,0,P|173:337|183:368,1,66.0000025177003,2|0,0:0|3:0,0:0:0:0:
23,195,41037,5,14,0:0:0:0:
109,210,41195,1,0,3:0:0:0:
29,328,41353,5,10,0:0:0:0:
217,227,41511,1,8,0:0:0:0:
72,72,41669,1,2,0:0:0:0:
419,368,60458,6,0,P|427:318|424:249,1,99.0000037765504,0|0,3:0|0:0,0:0:0:0:
426,269,60774,1,0,3:0:0:0:
403,283,60853,1,0,3:0:0:0:
376,286,60932,1,8,0:0:0:0:
275,339,61090,1,0,3:0:0:0:
107,373,61247,6,0,P|68:348|65:295,1,99.0000037765504,14|0,0:0|0:0,0:0:0:0:
63,298,61563,1,8,0:0:0:0:
90,288,61642,1,8,0:0:0:0:
110,271,61721,6,0,P|122:188|126:94,1,176,6|0,3:2|3:0,0:0:0:0:
16,22,62195,2,0,P|14:70|32:112,1,88,10|0,0:0|0:0,0:0:0:0:
238,187,62511,1,2,3:2:0:0:
343,172,62669,1,0,3:0:0:0:
453,29,62826,1,8,0:0:0:0:
282,82,62984,6,0,P|198:69|126:17,1,176,2|0,3:2|3:0,0:0:0:0:
65,190,63458,2,0,P|107:175|156:166,1,88,10|0,0:0|0:0,0:0:0:0:
297,268,63774,1,2,3:2:0:0:
228,362,63932,1,0,3:0:0:0:
139,288,64090,1,8,0:0:0:0:
386,342,64247,6,0,P|471:331|508:247,1,176,2|0,3:2|3:0,0:0:0:0:
445,23,64721,1,10,0:0:0:0:
445,23,65037,1,2,3:2:0:0:
488,99,65195,1,0,3:0:0:0:
360,171,65353,1,8,0:0:0:0:
188,19,65511,6,0,P|167:98|229:181,1,176,2|0,3:2|3:0,0:0:0:0:
367,262,65984,2,0,P|351:317|277:356,1,132,10|0,0:0|0:0,0:0:0:0:
290,355,66300,1,2,3:2:0:0:
156,295,66458,1,0,3:0:0:0:
25,367,66616,1,8,0:0:0:0:
165,381,66774,6,0,P|156:292|135:206,1,176,2|0,3:2|3:0,0:0:0:0:
123,13,67247,1,10,0:0:0:0:
123,13,67563,1,2,3:2:0:0:
190,69,67721,1,0,3:0:0:0:
74,144,67879,1,8,0:0:0:0:
274,229,68037,6,0,P|362:249|471:255,1,176,2|0,3:2|3:0,0:0:0:0:
482,97,68511,2,0,P|442:101|377:162,1,132,10|0,0:0|0:0,0:0:0:0:
377,161,68826,1,2,3:2:0:0:
352,342,68984,1,0,3:0:0:0:
192,224,69142,1,8,0:0:0:0:
274,147,69300,6,0,P|255:63|185:6,1,176,2|0,3:2|3:0,0:0:0:0:
33,109,69774,2,0,P|69:137|118:156,1,88,10|0,0:0|0:0,0:0:0:0:
270,230,70090,1,2,3:2:0:0:
201,341,70247,1,0,3:0:0:0:
114,359,70405,1,8,0:0:0:0:
11,90,70563,6,0,P|20:182|56:258,1,176,2|0,3:2|3:0,0:0:0:0:
154,212,71037,1,8,0:0:0:0:
276,27,71195,2,0,P|255:81|244:163,1,132,2|0,3:2|0:0,0:0:0:0:
244,153,71511,1,0,3:0:0:0:
393,310,71669,5,10,0:0:0:0:
425,298,71747,1,8,0:0:0:0:
450,273,71826,2,0,P|473:202|487:99,1,176,6|0,3:2|3:0,0:0:0:0:
365,10,72300,2,0,P|375:52|405:89,1,88,10|0,0:0|0:0,0:0:0:0:
384,236,72616,1,2,3:2:0:0:
252,251,72774,1,0,3:0:0:0:
186,365,72932,1,8,0:0:0:0:
96,208,73090,6,0,P|168:164|226:79,1,176,2|0,3:2|3:0,0:0:0:0:
36,54,73563,2,0,P|79:49|128:24,1,88,10|0,0:0|0:0,0:0:0:0:
316,15,73879,1,2,3:2:0:0:
450,67,74037,1,0,3:0:0:0:
367,97,74195,1,8,0:0:0:0:
339,178,74353,6,0,P|345:283|362:368,1,176,2|0,3:2|3:0,0:0:0:0:
490,372,74826,1,10,0:0:0:0:
490,372,75142,1,2,3:2:0:0:
424,257,75300,1,0,3:0:0:0:
486,140,75458,1,8,0:0:0:0:
343,33,75616,6,0,P|264:38|161:3,1,176,2|0,3:2|3:0,0:0:0:0:
200,190,76090,2,0,P|259:170|342:162,1,132,10|0,0:0|0:0,0:0:0:0:
327,161,76405,1,2,3:2:0:0:
280,373,76563,1,0,3:0:0:0:
197,294,76721,1,8,0:0:0:0:
109,111,76879,6,0,P|64:184|63:283,1,176,2|0,3:2|3:0,0:0:0:0:
27,29,77353,1,10,0:0:0:0:
27,29,77669,1,2,3:2:0:0:
109,111,77826,1,0,3:0:0:0:
260,67,77984,1,8,0:0:0:0:
306,247,78142,6,0,P|391:259|436:185,1,176,2|0,3:2|3:0,0:0:0:0:
362,21,78616,2,0,P|297:18|260:83,1,132,10|0,0:0|0:0,0:0:0:0:
260,67,78932,1,2,3:2:0:0:
189,251,79090,1,0,3:0:0:0:
86,91,79247,1,8,0:0:0:0:
183,151,79405,6,0,P|267:166|368:173,1,176,2|0,3:2|3:0,0:0:0:0:
492,364,79879,1,10,0:0:0:0:
492,364,80195,1,2,3:2:0:0:
366,254,80353,1,0,3:0:0:0:
473,271,80511,1,8,0:0:0:0:
306,342,80669,6,0,P|231:317|141:381,1,176,6|0,3:2|0:0,0:0:0:0:
43,161,81142,2,0,P|121:156|192:241,1,176,10|0,0:0|3:0,0:0:0:0:
187,220,81774,1,8,0:0:0:0:
195,207,81853,1,0,3:0:0:0:
199,194,81932,1,0,3:0:0:0:
203,181,82011,1,0,3:0:0:0:
207,168,82090,6,0,L|202:89,2,66.0000025177003,4|0|2,3:2|0:0|0:0,0:0:0:0:
386,338,82563,1,0,3:0:0:0:
367,319,82642,1,0,3:0:0:0:
348,300,82721,1,10,0:0:0:0:
305,148,82879,1,0,3:0:0:0:
404,24,83037,1,10,0:0:0:0:
447,176,83195,1,6,3:2:0:0:
447,176,83511,6,0,L|402:190,2,33.0000012588501,2|0|0,0:0|0:0|0:0,0:0:0:0:
455,263,83826,1,0,3:0:0:0:
272,229,83984,2,0,L|261:305,1,66.0000025177003,10|0,0:0|3:0,0:0:0:0:
185,374,84300,1,8,0:0:0:0:
183,360,84379,1,0,3:0:0:0:
181,346,84458,1,0,3:0:0:0:
179,332,84537,1,0,3:0:0:0:
177,318,84616,6,0,P|117:311|59:259,1,132.000005035401,6|2,3:2|0:0,0:0:0:0:
46,86,85090,1,0,3:0:0:0:
55,61,85169,1,0,3:0:0:0:
65,36,85247,1,10,0:0:0:0:
95,179,85405,1,0,3:0:0:0:
234,27,85563,1,10,0:0:0:0:
191,241,85721,6,0,P|259:223|334:221,1,132.000005035401,6|0,3:2|3:0,0:0:0:0:
319,206,86116,1,0,3:0:0:0:
317,192,86195,2,0,L|319:148,1,33.0000012588501,2|0,0:0|0:0,0:0:0:0:
487,235,86353,2,0,L|485:279,1,33.0000012588501,0|0,3:0|0:0,0:0:0:0:
398,275,86511,2,0,P|401:226|415:172,1,99.0000037765504,14|0,0:0|0:0,0:0:0:0:
412,177,86826,1,10,0:0:0:0:
492,137,86984,1,10,0:0:0:0:
367,74,87142,6,0,L|381:9,2,66.0000025177003,6|0|2,3:2|0:0|0:0,0:0:0:0:
207,69,87616,1,0,3:0:0:0:
203,42,87695,1,0,3:0:0:0:
200,15,87774,1,10,0:0:0:0:
288,122,87932,1,0,3:0:0:0:
79,93,88090,1,10,0:0:0:0:
136,301,88247,1,6,3:2:0:0:
136,301,88563,6,0,L|138:261,2,33.0000012588501,2|0|0,0:0|0:0|0:0,0:0:0:0:
221,349,88879,1,0,3:0:0:0:
41,244,89037,2,0,L|36:318,1,66.0000025177003,10|0,0:0|0:0,0:0:0:0:
218,216,89353,1,8,0:0:0:0:
215,202,89432,1,0,3:0:0:0:
212,188,89511,1,0,3:0:0:0:
209,174,89590,1,0,3:0:0:0:
206,160,89669,6,0,L|223:24,1,132.000005035401,6|2,3:2|0:0,0:0:0:0:
392,80,90142,1,0,3:0:0:0:
366,85,90221,1,0,3:0:0:0:
340,90,90300,1,10,0:0:0:0:
490,18,90458,1,0,3:0:0:0:
379,172,90616,1,10,0:0:0:0:
222,29,90774,6,0,P|158:18|111:81,1,132.000005035401,6|0,3:2|3:0,0:0:0:0:
112,75,91169,1,0,3:0:0:0:
110,87,91247,2,0,L|68:94,1,33.0000012588501,10|0,0:0|0:0,0:0:0:0:
11,210,91405,1,6,3:2:0:0:
162,286,91563,1,0,3:0:0:0:
260,233,91721,1,0,3:0:0:0:
346,304,91879,1,10,0:0:0:0:
345,317,91958,1,0,3:0:0:0:
344,330,92037,1,0,3:0:0:0:
343,343,92116,1,0,3:0:0:0:
342,356,92195,6,0,P|366:354|387:342,1,44,4|0,0:0|0:0,0:0:0:0:
344,222,92511,2,0,P|320:224|299:236,1,44,2|0,0:0|0:0,0:0:0:0:
244,300,92826,2,0,P|246:323|258:344,1,44,2|0,0:0|0:0,0:0:0:0:
443,282,93142,2,0,P|441:258|429:237,1,44,2|0,0:0|0:0,0:0:0:0:
409,154,93458,2,0,P|411:130|423:109,2,44,2|0|2,0:0|0:0|0:0,0:0:0:0:
190,121,94090,2,0,P|183:75|156:34,1,88,2|2,0:0|0:0,0:0:0:0:
75,20,94563,1,0,0:0:0:0:
12,81,94721,6,0,P|19:127|91:175,1,132,2|0,0:0|0:0,0:0:0:0:
50,249,95353,2,0,P|69:258|99:258,1,44,2|0,0:0|0:0,0:0:0:0:
137,335,95669,2,0,P|157:333|183:318,1,44,2|0,0:0|0:0,0:0:0:0:
56,364,95984,2,0,P|34:362|14:353,2,44,2|0|2,0:0|0:0|0:0,0:0:0:0:
258,360,96616,2,0,P|282:343|297:282,1,88,2|2,0:0|0:0,0:0:0:0:
220,246,97090,1,0,0:0:0:0:
172,172,97247,6,0,P|180:148|195:133,1,44,2|0,0:0|0:0,0:0:0:0:
222,51,97563,2,0,P|244:39|265:39,1,44,2|0,0:0|0:0,0:0:0:0:
106,105,97879,2,0,P|119:83|138:73,1,44,2|0,0:0|0:0,0:0:0:0:
278,127,98195,2,0,P|302:121|323:127,1,44,2|0,0:0|0:0,0:0:0:0:
404,97,98511,2,0,P|425:110|435:129,2,44,2|0|2,0:0|0:0|0:0,0:0:0:0:
396,370,99142,2,0,P|422:335|438:291,1,88,2|2,0:0|0:0,0:0:0:0:
452,206,99616,1,0,0:0:0:0:
364,211,99774,6,0,P|318:251|288:317,1,132,2|0,0:0|0:0,0:0:0:0:
216,367,100405,2,0,P|198:357|170:350,1,44,2|0,0:0|0:0,0:0:0:0:
66,334,100721,2,0,P|83:323|103:302,1,44,2|0,0:0|3:0,0:0:0:0:
170,221,101037,2,0,P|170:241|178:269,1,44,2|0,0:0|0:0,0:0:0:0:
19,154,101353,6,0,P|19:88|43:13,1,132.000005035401,14|2,0:0|0:0,0:0:0:0:
37,25,101984,1,10,0:0:0:0:
50,37,102063,1,8,0:0:0:0:
61,43,102142,1,8,0:0:0:0:
73,46,102221,1,8,0:0:0:0:
86,46,102300,6,0,P|133:33|173:12,1,88,4|2,3:2|0:0,0:0:0:0:
255,319,102616,2,0,P|212:294|169:281,1,88,8|2,0:0|0:0,0:0:0:0:
65,170,102932,1,2,3:2:0:0:
222,155,103090,1,0,3:0:0:0:
379,141,103247,2,0,L|390:52,1,88,8|2,0:0|0:0,0:0:0:0:
285,11,103563,5,2,3:2:0:0:
491,114,103721,1,0,3:0:0:0:
317,231,103879,2,0,L|345:373,1,132,10|0,0:0|0:0,0:0:0:0:
342,360,104195,1,2,3:2:0:0:
421,318,104353,1,0,3:0:0:0:
246,290,104511,2,0,L|153:271,1,88,8|2,0:0|0:0,0:0:0:0:
159,272,104747,1,2,0:0:0:0:
159,272,104826,5,2,3:2:0:0:
102,92,104984,1,0,3:0:0:0:
0,210,105142,2,0,P|45:221|80:197,1,88,8|2,0:0|0:0,0:0:0:0:
286,27,105458,1,2,3:2:0:0:
339,233,105616,1,0,3:0:0:0:
441,115,105774,2,0,P|396:104|361:128,1,88,8|2,0:0|0:0,0:0:0:0:
212,214,106090,5,2,3:2:0:0:
170,135,106247,1,0,3:0:0:0:
248,94,106405,1,10,0:0:0:0:
289,171,106563,1,0,3:0:0:0:
84,151,106721,5,2,3:2:0:0:
282,14,106879,1,0,3:0:0:0:
298,254,107037,2,0,L|306:344,1,88,10|0,0:0|3:0,0:0:0:0:
458,370,107353,5,10,0:0:0:0:
479,98,107511,1,10,0:0:0:0:
438,264,107669,5,2,3:2:0:0:
442,268,107826,1,0,3:0:0:0:
498,200,107984,1,10,0:0:0:0:
411,184,108142,1,0,3:0:0:0:
376,190,108221,1,0,3:0:0:0:
341,196,108300,1,10,0:0:0:0:
43,26,108458,6,0,L|179:51,1,132,6|0,3:2|0:0,0:0:0:0:
172,49,108774,1,0,3:0:0:0:
179,84,108853,1,0,3:0:0:0:
186,118,108932,2,0,P|182:163|165:216,1,88,14|0,0:0|3:0,0:0:0:0:
394,294,109247,2,0,P|398:249|415:196,1,88,6|0,3:2|3:0,0:0:0:0:
105,305,109563,5,0,3:0:0:0:
142,347,109642,1,0,3:0:0:0:
197,362,109721,1,0,3:0:0:0:
249,338,109800,1,0,3:0:0:0:
286,293,109879,2,0,P|294:219|286:155,1,132,6|0,3:2|0:0,0:0:0:0:
287,162,110195,1,14,0:0:0:0:
430,17,110353,2,0,L|333:44,1,88,2|0,0:0|0:0,0:0:0:0:
83,75,110669,2,0,L|167:99,1,88,10|0,0:0|0:0,0:0:0:0:
469,285,110984,6,0,P|398:223|379:139,1,176,14|4,0:0|3:2,0:0:0:0:
154,33,111458,1,2,3:2:0:0:
106,64,111537,1,0,3:0:0:0:
74,111,111616,1,0,3:0:0:0:
63,167,111695,1,0,3:0:0:0:
69,223,111774,2,0,P|77:244|84:228,2,44,2|0|2,3:2|0:0|0:0,0:0:0:0:
510,108,112247,6,0,P|400:67|282:37,1,220,6|0,3:2|3:0,0:0:0:0:
210,234,112721,2,0,P|278:186|358:173,1,165,10|0,0:0|0:0,0:0:0:0:
357,172,113037,1,2,3:2:0:0:
195,361,113195,1,0,3:0:0:0:
195,361,113274,1,0,3:0:0:0:
195,361,113353,1,10,0:0:0:0:
249,108,113511,1,0,3:0:0:0:
278,349,113669,5,2,3:2:0:0:
219,278,113826,1,0,3:0:0:0:
305,263,113984,1,10,0:0:0:0:
242,27,114300,1,2,3:2:0:0:
450,54,114458,1,0,3:0:0:0:
450,54,114537,1,0,3:0:0:0:
450,54,114616,1,10,0:0:0:0:
131,13,114774,6,0,P|111:93|104:245,1,220,6|0,3:2|3:0,0:0:0:0:
380,183,115247,2,0,P|375:105|347:14,1,165,10|0,0:0|0:0,0:0:0:0:
350,22,115563,1,2,3:2:0:0:
283,120,115721,1,0,3:0:0:0:
460,97,115879,1,10,0:0:0:0:
389,272,116037,5,0,3:0:0:0:
389,272,116116,1,0,3:0:0:0:
389,272,116195,1,2,3:2:0:0:
201,374,116353,2,0,P|144:369|82:332,1,110,0|8,3:0|0:0,0:0:0:0:
1,179,116669,2,0,P|113:177|185:264,1,220,2|0,0:0|3:0,0:0:0:0:
336,355,117142,1,10,0:0:0:0:
495,260,117300,5,0,3:0:0:0:
489,275,117379,1,0,3:0:0:0:
484,290,117458,2,0,L|454:118,1,165,6|0,3:2|0:0,0:0:0:0:
456,128,117774,1,10,0:0:0:0:
442,41,117932,1,0,3:0:0:0:
323,222,118090,1,2,3:2:0:0:
277,17,118247,5,0,3:0:0:0:
277,17,118326,1,0,3:0:0:0:
277,17,118405,2,0,P|206:78|125:51,1,165,10|0,0:0|0:0,0:0:0:0:
6,128,118721,2,0,P|85:119|140:176,1,165,2|0,3:2|0:0,0:0:0:0:
140,176,119037,1,10,0:0:0:0:
65,21,119195,1,0,3:0:0:0:
65,21,119274,1,0,3:0:0:0:
65,21,119353,1,2,3:2:0:0:
268,147,119511,1,0,3:0:0:0:
186,347,119669,2,0,P|101:349|12:375,1,165,10|0,0:0|0:0,0:0:0:0:
11,223,119984,6,0,P|94:272|165:191,1,220,6|10,3:2|0:0,0:0:0:0:
317,62,120458,1,0,3:0:0:0:
317,62,120537,1,0,3:0:0:0:
317,62,120616,1,2,3:2:0:0:
486,144,120774,1,0,3:0:0:0:
466,347,120932,1,10,0:0:0:0:
297,265,121090,1,2,0:0:0:0:
494,253,121247,6,0,P|406:205|291:155,1,220,2|10,3:2|0:0,0:0:0:0:
114,31,121721,1,0,3:0:0:0:
114,31,121800,1,0,3:0:0:0:
114,31,121879,2,0,P|109:58|79:86,1,55,2|0,3:2|0:0,0:0:0:0:
167,188,122037,2,0,P|146:170|136:130,1,55,0|0,3:0|0:0,0:0:0:0:
3,156,122195,2,0,P|28:146|68:158,1,55,10|0,0:0|0:0,0:0:0:0:
68,367,122353,6,0,P|156:319|271:269,1,220,6|0,3:2|3:0,0:0:0:0:
480,170,122826,2,0,P|469:92|447:0,1,165,10|0,0:0|0:0,0:0:0:0:
450,7,123142,1,2,3:2:0:0:
291,189,123300,1,0,3:0:0:0:
291,189,123379,1,0,3:0:0:0:
291,189,123458,1,10,0:0:0:0:
186,17,123616,1,0,3:0:0:0:
357,29,123774,5,2,3:2:0:0:
357,118,123932,1,0,3:0:0:0:
280,73,124090,1,10,0:0:0:0:
13,129,124405,1,2,3:2:0:0:
35,24,124563,1,0,3:0:0:0:
35,24,124642,1,0,3:0:0:0:
35,24,124721,1,10,0:0:0:0:
251,147,124879,6,0,P|263:232|252:377,1,220,6|0,3:2|3:0,0:0:0:0:
506,187,125353,2,0,P|430:193|345:173,1,165,10|0,0:0|0:0,0:0:0:0:
344,172,125669,1,2,3:2:0:0:
414,285,125826,1,0,3:0:0:0:
506,187,125984,1,10,0:0:0:0:
431,116,126142,5,0,3:0:0:0:
431,116,126221,1,0,3:0:0:0:
431,116,126300,1,2,3:2:0:0:
224,86,126458,2,0,P|279:68|312:6,1,110,0|8,3:0|0:0,0:0:0:0:
310,255,126774,2,0,P|208:263|157:365,1,220,2|0,0:0|3:0,0:0:0:0:
245,354,127247,1,10,0:0:0:0:
22,120,127405,5,0,3:0:0:0:
34,108,127484,1,0,3:0:0:0:
46,96,127563,2,0,P|114:107|170:197,1,165,6|0,3:2|0:0,0:0:0:0:
168,181,127879,1,10,0:0:0:0:
36,237,128037,1,0,3:0:0:0:
146,328,128195,1,2,3:2:0:0:
397,271,128353,5,0,3:0:0:0:
397,271,128432,1,0,3:0:0:0:
397,271,128511,2,0,P|411:195|416:94,1,165,10|0,0:0|0:0,0:0:0:0:
416,107,128826,1,2,3:2:0:0:
482,287,128984,1,0,3:0:0:0:
302,352,129142,1,10,0:0:0:0:
302,352,129458,5,2,3:2:0:0:
411,369,129616,1,0,3:0:0:0:
482,287,129774,1,10,0:0:0:0:
361,227,129932,1,0,3:0:0:0:
361,227,130011,1,0,3:0:0:0:
361,227,130090,2,0,P|283:129|302:29,1,220,2|10,3:2|0:0,0:0:0:0:
440,25,130563,5,0,3:0:0:0:
440,25,130642,1,0,3:0:0:0:
440,25,130721,1,2,3:2:0:0:
418,147,130879,1,0,3:0:0:0:
163,61,131037,2,0,P|173:110|178:170,1,110,10|0,0:0|0:0,0:0:0:0:
290,356,131353,5,2,3:2:0:0:
358,202,131511,1,0,3:0:0:0:
469,323,131669,1,10,0:0:0:0:
374,298,131826,5,0,3:0:0:0:
374,298,131905,1,0,3:0:0:0:
374,298,131984,1,2,3:2:0:0:
200,269,132142,1,0,3:0:0:0:
32,323,132300,1,10,0:0:0:0:
206,352,132458,6,0,P|221:273|198:181,1,176,6|0,3:2|3:0,0:0:0:0:
28,114,132932,2,0,P|34:72|61:24,1,88,10|2,0:0|0:0,0:0:0:0:
54,31,133169,1,2,0:0:0:0:
54,31,133247,1,2,3:2:0:0:
327,65,133405,2,0,P|300:31|253:4,1,88,0|10,3:0|0:0,0:0:0:0:
352,238,133721,5,2,3:2:0:0:
352,238,133800,1,2,0:0:0:0:
352,238,133879,2,0,L|452:217,1,88,2|0,0:0|3:0,0:0:0:0:
416,375,134195,1,8,0:0:0:0:
382,145,134353,5,2,0:0:0:0:
382,145,134432,1,2,0:0:0:0:
382,145,134511,1,2,3:2:0:0:
499,314,134669,1,0,3:0:0:0:
276,294,134826,1,8,0:0:0:0:
296,71,134984,6,0,P|220:60|153:154,1,176,6|0,3:2|3:0,0:0:0:0:
14,226,135458,1,10,0:0:0:0:
103,310,135616,1,2,0:0:0:0:
103,310,135695,1,2,0:0:0:0:
103,310,135774,2,0,P|143:331|153:383,1,88,2|0,3:2|3:0,0:0:0:0:
315,208,136090,2,0,P|307:253|340:294,1,88,10|0,0:0|3:0,0:0:0:0:
163,160,136405,6,0,P|146:94|137:27,1,132,2|0,0:0|0:0,0:0:0:0:
137,30,136721,1,8,0:0:0:0:
210,269,136879,5,2,0:0:0:0:
210,269,136958,1,2,0:0:0:0:
210,269,137037,1,2,3:2:0:0:
391,178,137195,1,0,3:0:0:0:
379,380,137353,1,10,0:0:0:0:
474,93,137511,6,0,P|408:77|313:128,1,176,6|0,3:2|3:0,0:0:0:0:
407,298,137984,2,0,P|447:282|483:250,1,88,10|2,0:0|0:0,0:0:0:0:
480,252,138221,1,2,0:0:0:0:
480,252,138300,1,2,3:2:0:0:
274,312,138458,2,0,P|290:272|293:224,1,88,0|10,3:0|0:0,0:0:0:0:
178,58,138774,5,2,3:2:0:0:
178,58,138853,1,2,0:0:0:0:
178,58,138932,2,0,L|189:153,1,88,2|0,0:0|3:0,0:0:0:0:
201,281,139247,1,8,0:0:0:0:
57,168,139405,5,2,0:0:0:0:
57,168,139484,1,2,0:0:0:0:
57,168,139563,1,2,3:2:0:0:
263,211,139721,1,0,3:0:0:0:
470,169,139879,1,10,0:0:0:0:
413,3,140037,6,0,P|371:55|364:164,1,176,6|0,3:2|3:0,0:0:0:0:
88,11,140511,1,10,0:0:0:0:
184,33,140669,1,2,0:0:0:0:
184,33,140747,1,2,0:0:0:0:
184,33,140826,2,0,P|204:66|210:124,1,88,2|0,3:2|3:0,0:0:0:0:
294,245,141142,1,10,0:0:0:0:
379,297,141300,6,0,P|340:328|255:351,1,132,2|0,3:2|0:0,0:0:0:0:
262,350,141616,1,0,3:0:0:0:
234,328,141695,1,0,3:0:0:0:
210,301,141774,2,0,P|200:277|198:246,1,44,14|0,0:0|0:0,0:0:0:0:
365,121,141932,2,0,P|378:166|383:216,1,88,2|0,3:2|0:0,0:0:0:0:
137,192,142247,1,2,3:2:0:0:
153,105,142405,1,10,0:0:0:0:
335,35,142563,1,6,3:2:0:0:
459,146,142721,6,0,P|473:104|479:61,1,88,2|0,3:2|3:0,0:0:0:0:
296,182,143037,1,10,0:0:0:0:
296,182,143353,1,2,3:2:0:0:
249,77,143511,1,0,3:0:0:0:
149,20,143669,1,8,0:0:0:0:
48,152,143826,6,0,P|104:209|202:230,1,176,2|0,3:2|3:0,0:0:0:0:
293,304,144300,2,0,P|249:306|192:320,1,88,10|0,0:0|0:0,0:0:0:0:
8,346,144616,1,2,3:2:0:0:
77,290,144774,1,0,3:0:0:0:
91,376,144932,1,8,0:0:0:0:
187,233,145090,6,0,P|253:188|353:188,1,176,2|0,3:2|3:0,0:0:0:0:
512,345,145563,2,0,P|440:328|392:273,1,132,10|0,0:0|0:0,0:0:0:0:
400,288,145879,1,2,3:2:0:0:
431,166,146037,1,0,3:0:0:0:
285,323,146195,1,8,0:0:0:0:
246,148,146353,6,0,P|193:70|131:1,1,176,2|0,3:2|3:0,0:0:0:0:
25,100,146826,2,0,P|65:109|123:101,1,88,10|0,0:0|0:0,0:0:0:0:
355,34,147142,1,2,3:2:0:0:
268,29,147300,1,0,3:0:0:0:
165,170,147458,1,8,0:0:0:0:
339,189,147616,6,0,P|353:274|362:365,1,176,2|0,3:2|3:0,0:0:0:0:
459,343,148090,2,0,P|467:272|485:204,1,132,10|0,0:0|0:0,0:0:0:0:
481,213,148405,1,2,3:2:0:0:
253,162,148563,1,0,3:0:0:0:
354,276,148721,1,8,0:0:0:0:
235,367,148879,6,0,P|157:337|86:386,1,176,2|0,3:2|3:0,0:0:0:0:
97,186,149353,2,0,P|139:194|185:171,1,88,10|0,0:0|0:0,0:0:0:0:
57,285,149669,1,2,3:2:0:0:
37,103,149826,1,0,3:0:0:0:
218,83,149984,1,8,0:0:0:0:
236,265,150142,5,2,3:2:0:0:
236,265,150458,1,0,3:0:0:0:
348,283,150616,1,10,0:0:0:0:
252,346,150774,1,0,3:0:0:0:
140,328,150932,1,2,3:2:0:0:
303,208,151090,1,0,3:0:0:0:
422,369,151247,1,8,0:0:0:0:
470,201,151405,6,0,P|426:196|380:206,2,88,0|2|0,3:0|0:0|3:0,0:0:0:0:
418,97,151879,1,10,0:0:0:0:
283,124,152037,2,0,P|248:96|222:56,2,88,0|2|0,3:0|0:0|3:0,0:0:0:0:
34,78,152511,1,8,0:0:0:0:
18,108,152590,1,8,0:0:0:0:
22,143,152669,6,0,P|95:166|142:92,1,176,6|0,3:2|3:0,0:0:0:0:
165,276,153142,2,0,P|128:249|88:266,1,88,10|0,0:0|0:0,0:0:0:0:
19,369,153458,1,2,3:2:0:0:
245,347,153616,1,0,3:0:0:0:
133,357,153774,1,8,0:0:0:0:
261,264,153932,6,0,P|306:197|393:204,1,176,2|0,3:2|3:0,0:0:0:0:
397,354,154405,2,0,P|351:354|323:318,1,88,10|0,0:0|0:0,0:0:0:0:
193,128,154721,1,2,3:2:0:0:
301,177,154879,1,0,3:0:0:0:
357,76,155037,1,8,0:0:0:0:
216,16,155195,6,0,P|130:6|30:3,1,176,2|0,3:2|3:0,0:0:0:0:
40,245,155669,1,10,0:0:0:0:
40,245,155984,1,2,3:2:0:0:
194,208,156142,1,0,3:0:0:0:
149,360,156300,1,8,0:0:0:0:
128,274,156458,6,0,P|112:196|100:100,1,176,2|0,3:2|3:0,0:0:0:0:
327,20,156932,2,0,P|304:74|284:159,1,132,10|0,0:0|0:0,0:0:0:0:
286,144,157247,1,2,3:2:0:0:
202,82,157405,1,0,3:0:0:0:
268,232,157563,1,8,0:0:0:0:
397,133,157721,6,0,P|467:173|448:256,1,176,2|0,3:2|3:0,0:0:0:0:
334,371,158195,1,10,0:0:0:0:
334,371,158511,1,2,3:2:0:0:
352,283,158669,1,0,3:0:0:0:
176,240,158826,1,8,0:0:0:0:
192,326,158984,6,0,P|111:339|14:372,1,176,2|0,3:2|0:0,0:0:0:0:
6,218,159458,2,0,P|46:268|92:230,1,132,10|0,0:0|0:0,0:0:0:0:
90,235,159774,1,2,3:2:0:0:
271,96,159932,1,0,3:0:0:0:
187,113,160090,1,8,0:0:0:0:
381,22,160247,6,0,P|368:92|360:197,1,176,2|0,3:2|3:0,0:0:0:0:
176,199,160721,1,10,0:0:0:0:
176,199,161037,1,2,3:2:0:0:
187,113,161195,1,0,3:0:0:0:
8,23,161353,1,8,0:0:0:0:
23,152,161511,6,0,P|84:107|113:13,1,176,6|0,3:2|3:0,0:0:0:0:
345,129,161984,2,0,P|284:174|255:268,1,176,10|0,0:0|3:0,0:0:0:0:
254,266,162616,1,8,0:0:0:0:
261,282,162695,1,0,3:0:0:0:
265,294,162774,1,0,3:0:0:0:
269,306,162853,1,0,3:0:0:0:
273,318,162932,6,0,L|259:390,2,66.0000025177003,6|0|2,3:2|0:0|0:0,0:0:0:0:
139,311,163405,1,0,3:0:0:0:
162,322,163484,1,0,3:0:0:0:
185,333,163563,1,10,0:0:0:0:
355,307,163721,1,0,3:0:0:0:
222,198,163879,1,10,0:0:0:0:
52,224,164037,1,6,3:2:0:0:
52,224,164353,6,0,L|47:174,2,33.0000012588501,2|0|0,0:0|0:0|0:0,0:0:0:0:
138,207,164669,1,0,3:0:0:0:
90,33,164826,2,0,L|138:85,1,66.0000025177003,10|0,0:0|3:0,0:0:0:0:
340,161,165142,1,8,0:0:0:0:
350,153,165221,1,0,3:0:0:0:
361,145,165300,1,0,3:0:0:0:
372,137,165379,1,0,3:0:0:0:
383,130,165458,6,0,L|444:12,1,132.000005035401,6|2,3:2|0:0,0:0:0:0:
417,297,165932,1,0,3:0:0:0:
395,281,166011,1,0,3:0:0:0:
373,265,166090,1,10,0:0:0:0:
244,152,166247,1,0,3:0:0:0:
220,234,166405,1,10,0:0:0:0:
69,118,166563,6,0,P|80:184|84:264,1,132.000005035401,6|0,3:2|3:0,0:0:0:0:
81,262,166958,1,0,3:0:0:0:
78,275,167037,2,0,P|60:279|46:279,1,33.0000012588501,2|0,0:0|0:0,0:0:0:0:
193,224,167195,2,0,P|211:220|225:220,1,33.0000012588501,0|0,3:0|0:0,0:0:0:0:
142,326,167353,2,0,P|108:357|52:366,1,99.0000037765504,14|0,0:0|0:0,0:0:0:0:
57,366,167669,1,10,0:0:0:0:
230,307,167826,1,10,0:0:0:0:
290,133,167984,6,0,P|292:100|286:56,2,66.0000025177003,6|0|2,3:2|0:0|0:0,0:0:0:0:
144,41,168458,1,0,3:0:0:0:
169,34,168537,1,0,3:0:0:0:
194,27,168616,1,10,0:0:0:0:
389,93,168774,1,0,3:0:0:0:
486,154,168932,1,10,0:0:0:0:
291,220,169090,1,6,3:2:0:0:
291,220,169405,6,0,L|298:257,2,33.0000012588501,2|0|0,0:0|0:0|0:0,0:0:0:0:
372,312,169721,1,0,3:0:0:0:
219,159,169879,2,0,L|207:91,1,66.0000025177003,10|0,0:0|3:0,0:0:0:0:
33,220,170195,1,8,0:0:0:0:
43,211,170274,1,0,3:0:0:0:
53,203,170353,1,0,3:0:0:0:
63,195,170432,1,0,3:0:0:0:
73,187,170511,6,0,L|90:57,1,132.000005035401,6|2,3:2|0:0,0:0:0:0:
195,255,170984,1,0,3:0:0:0:
168,258,171063,1,0,3:0:0:0:
141,262,171142,1,10,0:0:0:0:
78,342,171300,1,0,3:0:0:0:
1,116,171458,1,10,0:0:0:0:
233,177,171616,6,0,P|270:119|331:85,1,132.000005035401,6|0,3:2|3:0,0:0:0:0:
320,100,172011,1,0,3:0:0:0:
324,113,172090,2,0,P|348:114|362:108,1,33.0000012588501,10|0,0:0|0:0,0:0:0:0:
408,16,172247,1,6,3:2:0:0:
237,48,172405,1,0,3:0:0:0:
130,14,172563,1,0,3:0:0:0:
31,67,172721,1,10,0:0:0:0:
34,79,172800,1,0,3:0:0:0:
37,91,172879,1,0,3:0:0:0:
40,103,172958,1,0,3:0:0:0:
43,114,173037,6,0,P|34:130|26:160,1,44,4|0,0:0|0:0,0:0:0:0:
160,107,173353,2,0,P|144:116|122:138,1,44,2|0,0:0|0:0,0:0:0:0:
263,165,173669,2,0,P|244:165|214:173,1,44,2|0,0:0|0:0,0:0:0:0:
328,262,173984,2,0,P|312:253|282:245,1,44,2|0,0:0|0:0,0:0:0:0:
200,255,174300,2,0,P|191:275|183:305,2,44,2|0|2,0:0|0:0|0:0,0:0:0:0:
460,203,174932,2,0,P|477:242|487:296,1,88,2|2,0:0|0:0,0:0:0:0:
439,361,175405,1,0,0:0:0:0:
351,366,175563,6,0,P|297:338|294:272,1,132,2|0,0:0|0:0,0:0:0:0:
361,204,176195,2,0,P|339:199|311:188,1,44,2|0,0:0|0:0,0:0:0:0:
261,114,176511,2,0,P|283:109|311:98,1,44,2|0,0:0|0:0,0:0:0:0:
398,118,176826,2,0,P|393:96|382:68,2,44,2|0|2,0:0|0:0|0:0,0:0:0:0:
176,21,177458,2,0,P|164:62|159:121,1,88,2|2,0:0|0:0,0:0:0:0:
113,182,177932,1,0,0:0:0:0:
34,142,178090,6,0,P|20:114|5:99,1,44,2|0,0:0|0:0,0:0:0:0:
71,301,178405,2,0,P|73:270|67:249,1,44,2|0,0:0|0:0,0:0:0:0:
113,182,178721,2,0,P|123:152|122:131,1,44,2|0,0:0|0:0,0:0:0:0:
122,378,179037,2,0,P|145:357|155:339,1,44,2|0,0:0|0:0,0:0:0:0:
162,258,179353,2,0,P|192:252|210:241,2,44,2|0|2,0:0|0:0|0:0,0:0:0:0:
290,52,179984,2,0,P|333:39|394:37,1,88,2|2,0:0|0:0,0:0:0:0:
439,96,180458,1,0,0:0:0:0:
429,183,180616,6,0,P|375:208|297:207,1,132,2|0,0:0|0:0,0:0:0:0:
258,134,181247,2,0,P|234:126|212:104,1,44,2|0,0:0|0:0,0:0:0:0:
141,29,181563,2,0,P|146:53|138:83,1,44,2|0,0:0|3:0,0:0:0:0:
110,182,181879,2,0,P|128:165|158:157,1,44,2|0,0:0|0:0,0:0:0:0:
383,98,182195,6,0,P|412:150|412:230,1,132.000005035401,14|2,0:0|0:0,0:0:0:0:
414,221,182826,1,8,0:0:0:0:
405,229,182905,1,8,0:0:0:0:
396,239,182984,1,8,0:0:0:0:
389,250,183063,1,8,0:0:0:0:
385,262,183142,6,0,P|373:306|372:354,1,88,4|2,3:2|0:0,0:0:0:0:
111,297,183458,2,0,P|123:253|124:205,1,88,8|2,0:0|0:0,0:0:0:0:
272,373,183774,1,2,3:2:0:0:
262,258,183932,1,0,3:0:0:0:
260,143,184090,2,0,P|232:107|186:84,1,88,8|2,0:0|0:0,0:0:0:0:
103,17,184405,5,2,3:2:0:0:
267,11,184563,1,0,3:0:0:0:
364,142,184721,2,0,P|400:96|467:64,1,132,10|0,0:0|0:0,0:0:0:0:
465,64,185037,1,2,3:2:0:0:
409,235,185195,1,0,3:0:0:0:
396,335,185353,2,0,P|432:364|483:376,1,88,10|2,0:0|0:0,0:0:0:0:
471,375,185590,1,2,0:0:0:0:
471,375,185669,5,2,3:2:0:0:
282,262,185826,1,0,3:0:0:0:
133,357,185984,2,0,P|148:316|157:261,1,88,8|2,0:0|0:0,0:0:0:0:
237,82,186300,1,2,3:2:0:0:
325,152,186458,1,0,3:0:0:0:
433,114,186616,2,0,P|425:70|405:18,1,88,8|2,0:0|0:0,0:0:0:0:
227,70,186932,5,2,3:2:0:0:
204,154,187090,1,0,3:0:0:0:
119,131,187247,1,10,0:0:0:0:
141,46,187405,1,0,3:0:0:0:
55,68,187563,5,2,3:2:0:0:
226,232,187721,1,0,3:0:0:0:
284,5,187879,2,0,P|330:10|351:57,1,88,10|0,0:0|3:0,0:0:0:0:
478,97,188195,5,10,0:0:0:0:
217,126,188353,1,10,0:0:0:0:
393,147,188511,5,2,3:2:0:0:
393,147,188669,1,0,3:0:0:0:
333,83,188826,1,10,0:0:0:0:
312,168,188984,1,0,3:0:0:0:
322,201,189063,1,0,3:0:0:0:
332,234,189142,1,10,0:0:0:0:
118,235,189300,6,0,P|107:303|82:378,1,132,6|0,3:2|0:0,0:0:0:0:
88,363,189616,1,0,3:0:0:0:
53,366,189695,1,0,3:0:0:0:
23,347,189774,2,0,P|28:305|40:257,1,88,14|0,0:0|3:0,0:0:0:0:
160,86,190090,1,6,3:2:0:0:
259,175,190247,1,0,3:0:0:0:
262,187,190326,1,0,3:0:0:0:
264,200,190405,1,0,3:0:0:0:
319,211,190484,1,0,3:0:0:0:
370,189,190563,1,0,3:0:0:0:
400,141,190642,1,0,3:0:0:0:
397,86,190721,6,0,P|356:87|304:76,1,88,6|0,3:2|3:0,0:0:0:0:
282,55,190958,1,0,3:0:0:0:
267,22,191037,1,14,0:0:0:0:
104,150,191195,2,0,P|137:179|176:201,1,88,2|0,0:0|0:0,0:0:0:0:
358,377,191511,2,0,P|335:339|321:297,1,88,10|0,0:0|0:0,0:0:0:0:
454,200,191826,6,0,P|491:121|496:66,1,132,6|0,3:2|0:0,0:0:0:0:
496,77,192142,1,6,3:2:0:0:
465,59,192221,1,2,3:2:0:0:
445,29,192300,1,2,3:2:0:0:
368,147,192458,2,0,P|332:166|283:159,2,88,2|2|2,0:0|3:2|0:0,0:0:0:0:
79,276,193090,6,0,P|41:204|28:62,1,220,6|0,3:2|3:0,0:0:0:0:
135,358,193563,2,0,P|177:298|201:201,1,165,10|0,0:0|0:0,0:0:0:0:
200,210,193879,1,2,3:2:0:0:
136,23,194037,1,0,3:0:0:0:
136,23,194116,1,0,3:0:0:0:
136,23,194195,1,10,0:0:0:0:
228,123,194353,1,0,3:0:0:0:
476,67,194511,5,2,3:2:0:0:
289,189,194669,1,0,3:0:0:0:
381,366,194826,1,8,0:0:0:0:
381,18,195142,1,2,3:2:0:0:
489,175,195300,1,0,3:0:0:0:
489,175,195379,1,0,3:0:0:0:
489,175,195458,1,10,0:0:0:0:
257,235,195616,6,0,P|156:213|65:143,1,220,6|0,3:2|3:0,0:0:0:0:
255,15,196090,2,0,P|325:41|394:99,1,165,10|0,0:0|0:0,0:0:0:0:
393,98,196405,1,2,3:2:0:0:
213,140,196563,1,0,3:0:0:0:
190,309,196721,1,10,0:0:0:0:
370,356,196879,5,0,3:0:0:0:
370,356,196958,1,0,3:0:0:0:
370,356,197037,1,2,3:2:0:0:
466,312,197195,2,0,P|474:261|496:201,1,110,0|8,3:0|0:0,0:0:0:0:
273,232,197511,2,0,P|239:122|171:31,1,220,2|0,0:0|3:0,0:0:0:0:
71,63,197984,1,10,0:0:0:0:
28,271,198142,5,0,3:0:0:0:
22,255,198221,1,0,3:0:0:0:
25,238,198300,2,0,P|104:248|192:286,1,165,6|0,3:2|0:0,0:0:0:0:
182,280,198616,1,10,0:0:0:0:
358,94,198774,1,0,3:0:0:0:
379,296,198932,1,2,3:2:0:0:
484,177,199090,5,0,3:0:0:0:
484,177,199169,1,0,3:0:0:0:
484,177,199247,2,0,L|315:200,1,165,10|0,0:0|0:0,0:0:0:0:
348,370,199563,2,0,L|412:212,1,165,2|0,3:2|0:0,0:0:0:0:
249,153,199879,1,10,0:0:0:0:
387,298,200037,1,0,3:0:0:0:
387,298,200116,1,0,3:0:0:0:
387,298,200195,1,2,3:2:0:0:
480,93,200353,1,0,3:0:0:0:
230,46,200511,2,0,P|151:64|84:10,1,165,10|0,0:0|0:0,0:0:0:0:
47,167,200826,6,0,P|121:113|247:129,1,220,6|10,3:2|0:0,0:0:0:0:
321,365,201300,1,0,3:0:0:0:
321,365,201379,1,0,3:0:0:0:
321,365,201458,1,2,3:2:0:0:
307,193,201616,1,0,3:0:0:0:
135,207,201774,1,10,0:0:0:0:
149,379,201932,1,2,0:0:0:0:
233,354,202090,6,0,P|222:254|226:120,1,220,2|10,3:2|0:0,0:0:0:0:
451,66,202563,1,0,3:0:0:0:
451,66,202642,1,0,3:0:0:0:
451,66,202721,2,0,P|467:88|495:110,1,55,2|0,3:2|0:0,0:0:0:0:
347,70,202879,2,0,P|358:45|363:9,1,55,0|0,3:0|0:0,0:0:0:0:
407,149,203037,2,0,P|379:151|346:165,1,55,10|0,0:0|0:0,0:0:0:0:
92,167,203195,6,0,P|182:196|274:305,1,220,6|0,3:2|3:0,0:0:0:0:
78,371,203669,2,0,P|38:314|30:213,1,165,10|0,0:0|0:0,0:0:0:0:
31,225,203984,1,2,3:2:0:0:
138,284,204142,1,0,3:0:0:0:
138,284,204221,1,0,3:0:0:0:
138,284,204300,1,10,0:0:0:0:
181,39,204458,1,0,3:0:0:0:
3,134,204616,5,2,3:2:0:0:
175,169,204774,1,0,3:0:0:0:
339,109,204932,1,10,0:0:0:0:
507,382,205247,1,2,3:2:0:0:
473,284,205405,1,0,3:0:0:0:
473,284,205484,1,0,3:0:0:0:
473,284,205563,1,10,0:0:0:0:
252,220,205721,6,0,P|221:307|100:361,1,220,6|0,3:2|3:0,0:0:0:0:
42,157,206195,2,0,P|116:159|162:244,1,165,10|0,0:0|0:0,0:0:0:0:
162,230,206511,1,2,3:2:0:0:
123,71,206669,1,0,3:0:0:0:
253,17,206826,1,10,0:0:0:0:
386,86,206984,5,0,3:0:0:0:
386,86,207063,1,0,3:0:0:0:
386,86,207142,1,2,3:2:0:0:
292,257,207300,2,0,P|284:200|279:145,1,110,0|8,3:0|0:0,0:0:0:0:
509,191,207616,2,0,P|448:290|399:383,1,220,2|0,0:0|3:0,0:0:0:0:
268,341,208090,1,10,0:0:0:0:
83,204,208247,5,0,3:0:0:0:
67,197,208326,1,0,3:0:0:0:
51,192,208405,2,0,P|104:269|135:343,1,165,6|0,3:2|0:0,0:0:0:0:
132,334,208721,1,10,0:0:0:0:
178,219,208879,1,0,3:0:0:0:
25,317,209037,1,2,3:2:0:0:
245,376,209195,5,0,3:0:0:0:
245,376,209274,1,0,3:0:0:0:
245,376,209353,2,0,P|306:329|308:238,1,165,10|0,0:0|0:0,0:0:0:0:
311,246,209669,1,2,3:2:0:0:
512,367,209826,1,0,3:0:0:0:
400,235,209984,1,10,0:0:0:0:
400,235,210300,5,2,3:2:0:0:
430,14,210458,1,0,3:0:0:0:
499,99,210616,1,10,0:0:0:0:
331,150,210774,1,0,3:0:0:0:
331,150,210853,1,0,3:0:0:0:
331,150,210932,2,0,P|237:125|118:97,1,220,2|10,3:2|0:0,0:0:0:0:
88,275,211405,5,0,3:0:0:0:
88,275,211484,1,0,3:0:0:0:
88,275,211563,1,2,3:2:0:0:
222,222,211721,1,0,3:0:0:0:
324,13,211879,2,0,P|370:44|422:69,1,110,10|0,0:0|0:0,0:0:0:0:
504,270,212195,5,2,3:2:0:0:
296,343,212353,1,0,3:0:0:0:
277,124,212511,1,10,0:0:0:0:
428,220,212669,5,0,3:0:0:0:
428,220,212747,1,0,3:0:0:0:
428,220,212826,1,2,3:2:0:0:
343,193,212984,1,0,3:0:0:0:
408,125,213142,2,0,L|430:12,1,110,10|0,0:0|0:0,0:0:0:0:
360,276,213458,5,6,3:2:0:0:
256,192,213616,12,0,215984,0:0:0:0:
437,363,222458,6,0,P|455:339|467:312,1,44,2|0,0:0|0:0,0:0:0:0:
469,186,222774,1,0,3:0:0:0:
447,192,222853,1,0,3:0:0:0:
430,206,222932,2,0,P|412:230|400:257,1,44,14|0,0:0|0:0,0:0:0:0:
339,300,223247,2,0,P|343:329|353:357,1,44,2|0,0:0|0:0,0:0:0:0:
222,175,223563,6,0,P|228:141|246:109,2,66.0000025177003,6|0|2,3:2|0:0|0:0,0:0:0:0:
170,354,224037,1,0,3:0:0:0:
160,329,224116,1,0,3:0:0:0:
150,304,224195,1,10,0:0:0:0:
13,237,224353,1,0,3:0:0:0:
7,44,224511,1,10,0:0:0:0:
144,111,224669,1,6,3:2:0:0:
144,111,224984,6,0,L|188:101,2,33.0000012588501,2|0|0,0:0|0:0|0:0,0:0:0:0:
146,25,225300,1,0,3:0:0:0:
279,166,225458,2,0,L|304:96,1,66.0000025177003,10|0,0:0|3:0,0:0:0:0:
451,246,225774,1,10,0:0:0:0:
449,232,225853,1,0,3:0:0:0:
447,218,225932,1,0,3:0:0:0:
446,204,226011,1,0,3:0:0:0:
445,190,226090,6,0,P|419:142|420:57,1,132.000005035401,6|2,3:2|0:0,0:0:0:0:
221,9,226563,1,0,3:0:0:0:
204,29,226642,1,0,3:0:0:0:
187,49,226721,1,10,0:0:0:0:
317,130,226879,1,0,3:0:0:0:
236,260,227037,1,10,0:0:0:0:
105,340,227195,6,0,P|79:285|24:229,1,132.000005035401,6|0,3:2|3:0,0:0:0:0:
26,220,227590,1,0,3:0:0:0:
26,206,227669,2,0,P|41:199|59:184,1,33.0000012588501,2|0,0:0|0:0,0:0:0:0:
188,16,227826,2,0,P|172:22|155:38,1,33.0000012588501,0|0,3:0|0:0,0:0:0:0:
56,89,227984,2,0,P|105:107|146:136,1,99.0000037765504,14|0,0:0|0:0,0:0:0:0:
143,133,228300,1,10,0:0:0:0:
157,218,228458,1,10,0:0:0:0:
342,246,228616,6,0,L|358:176,2,66.0000025177003,6|0|2,3:2|0:0|0:0,0:0:0:0:
466,331,229090,1,0,3:0:0:0:
439,335,229169,1,0,3:0:0:0:
413,339,229247,1,10,0:0:0:0:
282,362,229405,1,0,3:0:0:0:
461,247,229563,1,10,0:0:0:0:
254,193,229721,1,6,3:2:0:0:
254,193,230037,6,0,L|250:150,2,33.0000012588501,2|0|0,0:0|0:0|0:0,0:0:0:0:
296,269,230353,1,0,3:0:0:0:
108,193,230511,2,0,L|164:251,1,66.0000025177003,10|0,0:0|3:0,0:0:0:0:
371,200,230826,1,10,0:0:0:0:
375,187,230905,1,0,3:0:0:0:
379,174,230984,1,0,3:0:0:0:
383,161,231063,1,0,3:0:0:0:
387,148,231142,6,0,L|380:1,1,132.000005035401,6|2,3:2|0:0,0:0:0:0:
269,76,231616,1,0,3:0:0:0:
278,51,231695,1,0,3:0:0:0:
287,26,231774,1,10,0:0:0:0:
78,187,231932,1,0,3:0:0:0:
185,156,232090,1,10,0:0:0:0:
168,23,232247,6,0,P|98:12|29:8,1,132.000005035401,6|0,3:2|3:0,0:0:0:0:
35,21,232642,1,0,3:0:0:0:
35,34,232721,2,0,P|52:38|74:37,1,33.0000012588501,10|0,0:0|0:0,0:0:0:0:
257,19,232879,1,2,3:2:0:0:
308,297,233037,1,14,0:0:0:0:
233,217,233195,5,2,3:2:0:0:
250,119,233353,1,10,0:0:0:0:
326,183,233511,1,10,0:0:0:0:
32,149,233669,5,6,3:2:0:0:
32,149,233984,1,10,0:0:0:0:
221,138,234142,1,0,3:0:0:0:
137,379,234300,1,10,0:0:0:0:
126,190,234458,1,0,3:0:0:0:
375,5,234616,1,10,0:0:0:0:
386,194,234774,6,0,L|469:222,1,88,2|8,3:2|0:0,0:0:0:0:
210,306,235090,2,0,L|127:278,1,88,2|8,3:2|0:0,0:0:0:0:
197,220,235405,1,2,3:2:0:0:
389,109,235563,5,10,0:0:0:0:
357,271,235721,1,0,3:0:0:0:
197,220,235879,1,10,0:0:0:0:
165,57,236037,1,0,3:0:0:0:
281,138,236195,5,10,0:0:0:0:
281,138,236511,1,10,0:0:0:0:
105,150,236669,1,0,3:0:0:0:
276,355,236826,1,10,0:0:0:0:
452,343,236984,1,0,3:0:0:0:
440,167,237142,1,10,0:0:0:0:
365,215,237300,6,0,L|355:304,1,88,2|8,3:2|0:0,0:0:0:0:
156,302,237616,2,0,L|147:215,1,88,2|8,3:2|0:0,0:0:0:0:
288,7,237932,5,2,3:2:0:0:
288,7,238011,1,2,3:2:0:0:
288,7,238090,1,10,0:0:0:0:
361,144,238247,1,0,3:0:0:0:
221,219,238405,1,10,0:0:0:0:
147,79,238563,1,0,3:0:0:0:
392,51,238721,5,10,0:0:0:0:
392,51,239037,1,10,0:0:0:0:
201,11,239195,1,0,3:0:0:0:
344,154,239353,1,8,0:3:0:0:
150,181,239511,1,0,3:0:0:0:
336,261,239669,1,10,0:0:0:0:
162,351,239826,6,0,P|125:331|108:287,1,88,2|8,3:2|0:0,0:0:0:0:
197,105,240142,2,0,P|234:125|251:169,1,88,2|8,3:2|0:0,0:0:0:0:
227,251,240458,1,2,3:2:0:0:
98,55,240616,5,10,0:0:0:0:
250,13,240774,1,0,3:0:0:0:
303,230,240932,1,10,0:0:0:0:
455,188,241090,1,0,3:0:0:0:
365,103,241247,5,10,0:0:0:0:
365,103,241405,1,10,0:0:0:0:
365,103,242037,1,0,3:0:0:0:
372,68,242116,1,0,3:0:0:0:
379,33,242195,1,8,0:0:0:0:
207,138,242353,6,0,P|282:190|376:196,1,176,6|2,0:0|0:0,0:0:0:0:
486,270,242826,1,2,0:0:0:0:
304,322,242984,1,6,3:2:0:0:
237,264,243142,1,2,0:0:0:0:
223,351,243300,1,2,0:0:0:0:
26,270,243458,5,2,3:2:0:0:
27,283,243537,1,2,3:2:0:0:
28,296,243616,2,0,P|48:234|50:150,1,132,6|0,3:2|0:0,0:0:0:0:
51,167,243932,1,2,3:2:0:0:
41,80,244090,1,8,0:0:0:0:
184,232,244247,1,2,0:0:0:0:
261,47,244405,2,0,P|299:25|342:17,1,88,2|0,3:2|3:0,0:0:0:0:
173,125,244721,1,10,0:0:0:0:
355,146,244879,5,0,3:0:0:0:
355,146,244958,1,0,3:0:0:0:
355,146,245037,2,0,P|348:192|345:258,1,88,2|0,0:0|3:0,0:0:0:0:
512,364,245353,2,0,P|508:320|502:276,1,88,10|0,0:0|0:0,0:0:0:0:
268,227,245669,1,2,3:2:0:0:
416,288,245826,1,0,3:0:0:0:
512,161,245984,1,10,0:0:0:0:
292,75,246142,5,6,3:2:0:0:
219,22,246300,2,0,P|206:63|204:107,2,88,2|0|8,0:0|3:0|0:0,0:0:0:0:
370,90,246774,1,2,0:0:0:0:
141,212,246932,1,2,3:2:0:0:
218,316,247090,1,0,3:0:0:0:
271,194,247247,1,10,0:0:0:0:
25,80,247405,5,0,3:0:0:0:
32,88,247484,1,0,3:0:0:0:
32,88,247563,2,0,P|69:108|125:116,1,88,2|0,0:0|3:0,0:0:0:0:
389,230,247879,2,0,P|352:210|296:202,1,88,10|0,0:0|0:0,0:0:0:0:
183,15,248195,2,0,P|191:56|221:104,1,88,2|0,3:2|3:0,0:0:0:0:
238,302,248511,1,10,0:0:0:0:
370,130,248669,6,0,P|399:71|445:24,1,132,6|0,3:2|0:0,0:0:0:0:
445,24,248984,1,2,3:2:0:0:
477,116,249142,1,8,0:0:0:0:
288,162,249300,1,2,0:0:0:0:
229,93,249458,2,0,P|220:51|194:11,1,88,2|0,3:2|3:0,0:0:0:0:
53,54,249774,1,10,0:0:0:0:
215,229,249932,5,0,3:0:0:0:
215,229,250011,1,0,3:0:0:0:
215,229,250090,2,0,L|195:321,1,88,2|0,0:0|3:0,0:0:0:0:
12,226,250405,2,0,L|32:134,1,88,10|0,0:0|0:0,0:0:0:0:
161,114,250721,1,2,3:2:0:0:
79,337,250879,1,0,3:0:0:0:
79,337,250958,1,0,3:0:0:0:
79,337,251037,1,10,0:0:0:0:
348,291,251195,5,6,3:2:0:0:
221,362,251353,2,0,P|243:307|230:186,1,176,2|10,0:0|0:0,0:0:0:0:
466,369,251826,1,2,3:2:0:0:
449,282,251984,2,0,P|442:241|440:191,1,88,2|0,0:0|3:0,0:0:0:0:
298,32,252300,1,10,0:0:0:0:
315,119,252458,5,0,3:0:0:0:
315,119,252537,1,0,3:0:0:0:
315,119,252616,2,0,P|322:160|324:210,1,88,2|0,0:0|3:0,0:0:0:0:
169,258,252932,1,10,0:0:0:0:
81,250,253090,1,0,3:0:0:0:
67,248,253169,1,0,3:0:0:0:
53,247,253247,1,10,0:0:0:0:
187,355,253405,1,0,3:0:0:0:
4,337,253563,1,10,0:0:0:0:
22,154,253721,6,0,P|77:125|89:61,1,132,6|0,3:2|0:0,0:0:0:0:
88,60,254037,1,2,3:2:0:0:
263,7,254195,1,8,0:0:0:0:
437,50,254353,1,2,0:0:0:0:
186,141,254511,2,0,P|225:120|276:112,1,88,2|0,3:2|3:0,0:0:0:0:
408,184,254826,1,10,0:0:0:0:
273,235,254984,5,0,3:0:0:0:
273,235,255063,1,0,3:0:0:0:
273,235,255142,2,0,L|292:333,1,88,2|0,0:0|3:0,0:0:0:0:
512,285,255458,2,0,L|487:381,1,88,10|0,0:0|0:0,0:0:0:0:
387,371,255774,1,2,3:2:0:0:
396,284,255932,1,2,0:0:0:0:
348,135,256090,1,10,0:0:0:0:
447,11,256247,6,0,P|366:28|263:17,1,176,2|0,3:2|3:0,0:0:0:0:
18,58,256721,1,10,0:0:0:0:
18,58,256800,1,2,0:0:0:0:
18,58,256879,1,2,0:0:0:0:
75,124,257037,2,0,P|117:125|161:113,1,88,2|0,3:2|3:0,0:0:0:0:
416,161,257353,1,10,0:0:0:0:
301,106,257511,5,0,3:0:0:0:
301,106,257590,1,0,3:0:0:0:
301,106,257669,2,0,L|287:207,1,88,2|0,0:0|3:0,0:0:0:0:
397,353,257984,2,0,L|316:290,1,88,10|0,0:0|0:0,0:0:0:0:
132,313,258300,1,2,3:2:0:0:
214,280,258458,1,0,3:0:0:0:
214,280,258537,1,0,3:0:0:0:
214,280,258616,1,10,0:0:0:0:
36,142,258774,6,0,P|36:186|54:232,2,88,6|2|0,3:2|0:0|3:0,0:0:0:0:
133,314,259247,2,0,L|38:352,1,88,8|2,0:0|0:0,0:0:0:0:
245,363,259563,1,2,3:2:0:0:
275,237,259721,1,0,3:0:0:0:
479,213,259879,1,10,0:0:0:0:
449,339,260037,5,0,3:0:0:0:
449,339,260116,1,0,3:0:0:0:
449,339,260195,2,0,P|418:318|393:276,1,88,2|0,0:0|3:0,0:0:0:0:
462,31,260511,2,0,P|424:52|399:88,1,88,10|0,0:0|0:0,0:0:0:0:
258,190,260826,1,2,3:2:0:0:
112,207,260984,1,0,3:0:0:0:
112,207,261063,1,0,3:0:0:0:
112,207,261142,2,0,L|22:187,1,88,10|0,0:0|0:0,0:0:0:0:
112,15,261458,5,6,3:2:0:0:
319,47,261616,2,0,L|306:92,1,44,2|2,0:0|0:0,0:0:0:0:
287,158,261774,1,8,0:0:0:0:
238,356,261932,1,2,3:2:0:0:
227,322,262011,1,2,0:0:0:0:
216,288,262090,1,2,0:0:0:0:
437,208,262247,2,0,P|404:240|356:263,1,88,2|8,3:2|0:0,0:0:0:0:
193,102,262563,5,6,3:2:0:0:
176,19,262721,1,2,0:0:0:0:
125,167,262879,1,0,3:0:0:0:
280,136,263037,1,10,0:0:0:0:
280,136,263116,1,2,0:0:0:0:
280,136,263195,1,2,0:0:0:0:
410,363,263353,5,2,3:2:0:0:
323,339,263511,1,0,3:0:0:0:
347,254,263669,1,2,3:2:0:0:
431,276,263826,1,0,3:0:0:0:
184,360,263984,6,0,P|133:288|30:247,1,198.000007553101,6|2,0:0|3:2,0:0:0:0:
36,274,264537,1,0,3:0:0:0:
59,286,264616,2,0,P|130:235|171:132,1,198.000007553101,14|2,0:0|0:0,0:0:0:0:
89,19,265247,6,0,P|101:52|106:90,1,66.0000025177003,6|0,0:0|0:0,0:0:0:0:
235,82,265563,2,0,P|240:49|251:18,1,66.0000025177003,2|0,3:2|0:0,0:0:0:0:
73,168,265879,1,6,0:0:0:0:
73,168,266037,1,0,3:0:0:0:
255,227,266195,2,0,P|260:194|272:164,1,66.0000025177003,2|0,0:0|0:0,0:0:0:0:
434,30,266511,6,0,P|482:112|500:219,1,198.000007553101,6|0,0:0|3:0,0:0:0:0:
382,142,267142,2,0,P|372:211|353:277,1,132.000005035401,14|0,0:0|3:0,0:0:0:0:
298,336,267616,1,2,0:0:0:0:
438,322,267774,6,0,P|416:342|375:349,1,66.0000025177003,6|0,0:0|0:0,0:0:0:0:
258,240,268090,2,0,P|228:238|194:214,1,66.0000025177003,2|0,3:2|0:0,0:0:0:0:
207,369,268405,6,0,P|177:372|140:353,1,66.0000025177003,14|0,0:0|3:0,0:0:0:0:
108,194,268721,2,0,P|84:175|71:135,1,66.0000025177003,2|0,0:0|0:0,0:0:0:0:
236,17,269037,5,6,3:2:0:0:
319,45,269195,2,0,P|323:81|320:124,1,66.0000025177003,2|2,0:0|0:0,0:0:0:0:
204,287,269511,1,0,3:0:0:0:
200,313,269590,1,0,3:0:0:0:
193,339,269669,2,0,P|185:272|192:198,1,132.000005035401,14|0,0:0|3:0,0:0:0:0:
249,145,270142,1,2,0:0:0:0:
403,102,270300,6,0,P|437:99|473:99,1,66.0000025177003,6|0,0:0|0:0,0:0:0:0:
468,285,270616,2,0,P|435:284|403:282,1,66.0000025177003,2|0,3:2|0:0,0:0:0:0:
326,10,270932,1,14,0:0:0:0:
326,10,271090,1,0,3:0:0:0:
391,193,271247,2,0,P|358:192|325:189,1,66.0000025177003,2|0,0:0|0:0,0:0:0:0:
100,96,271563,6,0,P|167:30|255:81,1,198.000007553101,6|0,0:0|3:0,0:0:0:0:
260,94,272116,1,0,3:0:0:0:
255,120,272195,2,0,P|188:186|100:135,1,198.000007553101,14|2,0:0|0:0,0:0:0:0:
18,301,272826,6,0,P|37:272|46:238,1,66.0000025177003,6|0,0:0|0:0,0:0:0:0:
149,289,273142,2,0,P|130:318|121:352,1,66.0000025177003,2|0,3:2|0:0,0:0:0:0:
390,347,273458,6,0,P|381:316|363:289,1,66.0000025177003,14|0,0:0|0:0,0:0:0:0:
466,242,273774,1,2,0:0:0:0:
256,309,273932,1,2,0:0:0:0:
255,282,274011,1,2,0:0:0:0:
256,254,274090,6,0,L|267:164,1,88,4|2,3:2|0:0,0:0:0:0:
49,110,274405,2,0,L|59:22,1,88,8|2,0:0|0:0,0:0:0:0:
305,73,274721,2,0,L|217:83,1,88,2|0,3:2|3:0,0:0:0:0:
10,203,275037,1,8,0:0:0:0:
105,200,275195,5,2,0:0:0:0:
105,200,275274,1,2,0:0:0:0:
105,200,275353,1,2,3:2:0:0:
313,367,275511,1,0,3:0:0:0:
200,196,275669,2,0,P|194:238|199:293,1,88,10|0,0:0|0:0,0:0:0:0:
426,322,275984,2,0,P|432:280|427:225,1,88,2|0,3:2|3:0,0:0:0:0:
288,54,276300,2,0,P|300:116|311:200,1,132,10|0,0:0|0:0,0:0:0:0:
309,184,276616,6,0,P|350:159|395:145,1,88,2|0,3:2|3:0,0:0:0:0:
195,74,276932,2,0,P|153:59|115:37,1,88,8|2,0:0|0:0,0:0:0:0:
373,64,277247,1,2,3:2:0:0:
447,16,277405,1,0,3:0:0:0:
233,150,277563,2,0,P|213:189|202:232,1,88,8|2,0:0|0:0,0:0:0:0:
382,366,277879,5,2,3:2:0:0:
240,320,278037,1,0,3:0:0:0:
240,320,278116,1,0,3:0:0:0:
240,320,278195,1,10,0:0:0:0:
82,346,278353,1,2,0:0:0:0:
49,178,278511,2,0,P|64:214|75:268,1,88,2|0,3:2|3:0,0:0:0:0:
136,34,278826,1,10,0:0:0:0:
187,245,278984,5,0,3:0:0:0:
187,245,279063,1,0,3:0:0:0:
187,245,279142,2,0,P|221:171|249:125,1,132,6|0,3:2|0:0,0:0:0:0:
247,127,279458,1,8,0:0:0:0:
136,131,279616,2,0,P|93:114|64:79,1,88,2|0,0:0|3:0,0:0:0:0:
307,57,279932,1,2,3:2:0:0:
373,111,280090,2,0,P|433:95|469:32,1,132,8|0,0:0|0:0,0:0:0:0:
468,38,280405,5,2,3:2:0:0:
438,189,280563,1,0,3:0:0:0:
241,118,280721,2,0,P|257:153|290:193,1,88,10|0,0:0|0:0,0:0:0:0:
405,270,281037,1,2,3:2:0:0:
172,374,281195,1,0,3:0:0:0:
172,374,281274,1,0,3:0:0:0:
172,374,281353,2,0,P|210:316|224:248,1,132,10|0,0:0|0:0,0:0:0:0:
223,255,281669,5,2,3:2:0:0:
180,105,281826,1,2,0:0:0:0:
180,105,281905,1,2,0:0:0:0:
180,105,281984,1,10,0:0:0:0:
21,207,282142,2,0,P|64:205|116:186,1,88,0|2,3:0|0:0,0:0:0:0:
328,32,282458,2,0,P|286:18|242:16,1,88,0|10,3:0|0:0,0:0:0:0:
52,119,282774,1,0,3:0:0:0:
344,159,282932,5,2,0:0:0:0:
371,294,283090,1,0,3:2:0:0:
250,366,283247,1,10,0:0:0:0:
145,271,283405,1,2,0:0:0:0:
202,143,283563,1,2,0:0:0:0:
254,261,283721,5,2,3:2:0:0:
276,247,283879,1,8,0:0:0:0:
254,234,284037,1,2,3:2:0:0:
41,290,284195,5,6,0:0:0:0:
256,192,284353,12,6,285458,3:2:0:0:
219,17,304405,6,0,P|258:155|292:376,1,352,2|2,3:2|0:0,0:0:0:0:
369,308,307563,5,2,0:0:0:0:
364,222,308195,2,0,P|399:136|457:69,1,176,2|2,0:0|0:0,0:0:0:0:
452,73,310405,5,2,0:0:0:0:
452,73,310721,2,0,P|407:74|359:52,1,88,2|2,0:0|0:0,0:0:0:0:
286,24,311984,2,0,P|217:24|130:104,1,176,2|2,0:0|0:0,0:0:0:0:
40,302,314511,6,0,P|109:302|196:382,1,176,2|2,0:0|0:0,0:0:0:0:
189,366,316090,1,2,0:0:0:0:
189,366,316405,1,2,0:0:0:0:
268,327,317037,2,0,P|286:242|289:150,1,176,2|2,0:0|0:0,0:0:0:0:
265,68,318932,1,2,0:0:0:0:
290,155,319563,6,0,P|336:229|395:294,1,176,2|2,0:0|0:0,0:0:0:0:
472,336,321458,1,2,0:0:0:0:
469,247,322090,5,2,0:0:0:0:
469,247,322405,1,2,0:0:0:0:
487,163,322721,1,2,0:0:0:0:
470,76,323037,5,0,3:0:0:0:
459,67,323116,1,0,3:0:0:0:
468,57,323195,1,0,3:0:0:0:
479,66,323274,1,0,3:0:0:0:
469,68,323353,1,14,0:0:0:0:
274,27,323511,5,0,3:0:0:0:
274,27,323590,1,0,3:0:0:0:
274,27,323669,1,10,0:0:0:0:
96,62,323826,1,6,3:2:0:0:
16,186,323984,5,10,0:0:0:0:
142,250,324142,1,0,3:0:0:0:
142,250,324221,1,0,3:0:0:0:
142,250,324300,1,10,0:0:0:0:
279,350,324458,6,0,P|271:241|267:119,1,220,6|0,3:2|3:0,0:0:0:0:
498,90,324932,2,0,P|499:171|490:268,1,165,10|0,0:0|0:0,0:0:0:0:
491,254,325247,1,2,3:2:0:0:
276,41,325405,1,0,3:0:0:0:
276,41,325484,1,0,3:0:0:0:
276,41,325563,1,10,0:0:0:0:
384,218,325721,1,0,3:0:0:0:
97,178,325879,5,2,3:2:0:0:
266,131,326037,1,0,3:0:0:0:
220,301,326195,1,10,0:0:0:0:
35,25,326511,1,2,3:2:0:0:
166,93,326669,1,0,3:0:0:0:
166,93,326747,1,0,3:0:0:0:
166,93,326826,1,10,0:0:0:0:
395,29,326984,6,0,P|322:63|315:203,1,220,6|0,3:2|3:0,0:0:0:0:
99,242,327458,2,0,P|166:269|143:365,1,165,10|0,0:0|0:0,0:0:0:0:
160,350,327774,1,2,3:2:0:0:
345,268,327932,1,0,3:0:0:0:
512,375,328090,1,10,0:0:0:0:
293,360,328247,5,0,3:0:0:0:
293,360,328326,1,0,3:0:0:0:
293,360,328405,1,2,3:2:0:0:
223,171,328563,2,0,P|209:116|204:58,1,110,0|10,3:0|0:0,0:0:0:0:
305,21,328879,1,0,3:0:0:0:
483,77,329037,2,0,P|428:82|375:95,1,110,2|0,3:2|3:0,0:0:0:0:
216,268,329353,1,10,0:0:0:0:
32,143,329511,5,0,3:0:0:0:
28,159,329590,1,0,3:0:0:0:
24,174,329669,2,0,P|75:84|91:16,1,165,6|0,3:2|0:0,0:0:0:0:
89,24,329984,1,10,0:0:0:0:
138,235,330142,1,0,3:0:0:0:
295,160,330300,1,2,3:2:0:0:
241,370,330458,1,0,3:0:0:0:
241,370,330537,1,0,3:0:0:0:
241,370,330616,1,10,0:0:0:0:
319,238,330774,1,2,0:0:0:0:
502,313,330932,6,0,P|416:257|404:192,1,165,2|0,3:2|0:0,0:0:0:0:
403,200,331247,1,10,0:0:0:0:
211,278,331405,1,0,3:0:0:0:
211,278,331484,1,0,3:0:0:0:
211,278,331563,1,2,3:2:0:0:
388,111,331721,1,0,3:0:0:0:
187,180,331879,2,0,P|168:100|212:27,1,165,10|0,0:0|0:0,0:0:0:0:
253,94,332195,6,0,P|142:96|48:45,1,220,6|10,0:0|0:0,0:0:0:0:
129,247,332669,1,0,3:0:0:0:
129,247,332747,1,0,3:0:0:0:
129,247,332826,1,2,3:2:0:0:
297,196,332984,1,0,3:0:0:0:
458,270,333142,1,10,0:0:0:0:
279,357,333300,1,2,0:0:0:0:
52,376,333458,6,0,P|40:325|38:266,1,110,2|0,3:2|3:0,0:0:0:0:
45,76,333774,1,10,0:0:0:0:
207,15,333932,1,0,3:0:0:0:
207,15,334011,1,0,3:0:0:0:
207,15,334090,2,0,P|179:34|158:60,1,55,2|0,3:2|0:0,0:0:0:0:
298,82,334247,2,0,P|295:48|283:17,1,55,0|0,3:0|0:0,0:0:0:0:
194,130,334405,2,0,P|224:144|257:149,1,55,10|0,0:0|0:0,0:0:0:0:
346,239,334563,6,0,P|431:186|447:70,1,220,6|0,3:2|3:0,0:0:0:0:
133,218,335037,2,0,P|147:276|245:319,1,165,10|0,0:0|0:0,0:0:0:0:
236,320,335353,1,2,3:2:0:0:
408,223,335511,1,0,3:0:0:0:
408,223,335590,1,0,3:0:0:0:
408,223,335669,1,10,0:0:0:0:
298,2,335826,1,0,3:0:0:0:
128,64,335984,5,2,3:2:0:0:
302,84,336142,1,0,3:0:0:0:
473,47,336300,1,10,0:0:0:0:
18,115,336616,1,2,3:2:0:0:
220,22,336774,1,0,3:0:0:0:
220,22,336853,1,0,3:0:0:0:
220,22,336932,1,10,0:0:0:0:
405,118,337090,6,0,P|432:215|448:338,1,220,6|0,3:2|3:0,0:0:0:0:
237,276,337563,2,0,P|205:199|165:127,1,165,10|0,0:0|0:0,0:0:0:0:
165,127,337879,1,2,3:2:0:0:
129,259,338037,1,0,3:0:0:0:
254,371,338195,1,10,0:0:0:0:
346,238,338353,5,0,3:0:0:0:
346,238,338432,1,0,3:0:0:0:
346,238,338511,1,2,3:2:0:0:
441,37,338669,2,0,P|395:63|326:76,1,110,0|10,3:0|0:0,0:0:0:0:
268,157,338984,1,0,3:0:0:0:
38,120,339142,2,0,P|83:146|129:200,1,110,2|0,3:2|3:0,0:0:0:0:
236,22,339458,1,10,0:0:0:0:
345,192,339616,5,0,3:0:0:0:
352,205,339695,1,0,3:0:0:0:
360,218,339774,2,0,P|411:144|427:69,1,165,6|0,3:2|0:0,0:0:0:0:
427,72,340090,1,10,0:0:0:0:
456,251,340247,1,0,3:0:0:0:
255,190,340405,1,2,3:2:0:0:
52,224,340563,5,0,3:0:0:0:
52,224,340642,1,0,3:0:0:0:
52,224,340721,2,0,P|56:164|68:111,1,110,10|0,0:0|3:0,0:0:0:0:
201,29,341037,1,2,3:2:0:0:
336,112,341195,1,0,3:0:0:0:
264,326,341353,1,10,0:0:0:0:
264,326,341669,5,2,3:2:0:0:
119,164,341826,1,0,3:0:0:0:
201,29,341984,1,10,0:0:0:0:
351,222,342142,1,0,3:0:0:0:
351,222,342221,1,0,3:0:0:0:
351,222,342300,2,0,P|234:224|149:286,1,220,2|10,3:2|0:0,0:0:0:0:
289,68,342774,5,0,3:0:0:0:
289,68,342853,1,0,3:0:0:0:
289,68,342932,1,2,3:2:0:0:
416,139,343090,1,0,3:0:0:0:
388,375,343247,2,0,P|429:338|482:325,1,110,10|0,0:0|0:0,0:0:0:0:
495,194,343563,5,2,3:2:0:0:
287,320,343721,1,0,3:0:0:0:
156,114,343879,1,10,0:0:0:0:
39,248,344037,5,0,3:0:0:0:
39,248,344116,1,0,3:0:0:0:
39,248,344195,1,2,3:2:0:0:
187,198,344353,1,0,3:0:0:0:
340,227,344511,1,10,0:0:0:0:
484,199,344669,6,0,P|477:106|485:21,1,176,6|0,3:2|3:0,0:0:0:0:
264,61,345142,2,0,P|268:105|280:148,1,88,10|2,0:0|0:0,0:0:0:0:
279,147,345379,1,2,0:0:0:0:
279,147,345458,1,2,3:2:0:0:
424,368,345616,2,0,P|420:324|408:281,1,88,0|10,3:0|0:0,0:0:0:0:
226,212,345932,5,2,0:0:0:0:
226,212,346011,1,2,0:0:0:0:
226,212,346090,2,0,L|135:197,1,88,2|0,3:2|0:0,0:0:0:0:
173,283,346405,1,8,0:0:0:0:
27,149,346563,5,2,0:0:0:0:
27,149,346642,1,2,0:0:0:0:
27,149,346721,1,2,3:2:0:0:
225,115,346879,1,0,3:0:0:0:
124,369,347037,1,10,0:0:0:0:
386,341,347195,6,0,P|363:273|340:146,1,176,6|0,3:2|3:0,0:0:0:0:
462,32,347669,1,10,0:0:0:0:
478,157,347826,1,2,0:0:0:0:
478,157,347905,1,2,0:0:0:0:
478,157,347984,2,0,P|471:200|456:245,1,88,2|0,3:2|3:0,0:0:0:0:
196,331,348300,2,0,P|235:311|271:286,1,88,10|0,0:0|0:0,0:0:0:0:
165,86,348616,6,0,P|165:157|201:235,1,132,2|0,3:2|0:0,0:0:0:0:
186,212,348932,1,8,0:0:0:0:
379,319,349090,5,2,0:0:0:0:
379,319,349169,1,2,0:0:0:0:
379,319,349247,1,2,3:2:0:0:
343,65,349405,1,0,3:0:0:0:
431,80,349563,1,10,0:0:0:0:
291,304,349721,6,0,P|280:229|251:130,1,176,6|0,3:2|3:0,0:0:0:0:
80,70,350195,2,0,P|54:99|27:146,1,88,10|2,0:0|0:0,0:0:0:0:
29,141,350432,1,2,0:0:0:0:
29,141,350511,1,2,3:2:0:0:
139,315,350669,2,0,P|164:285|191:238,1,88,0|10,3:0|0:0,0:0:0:0:
164,112,350984,5,2,0:0:0:0:
164,112,351063,1,2,0:0:0:0:
164,112,351142,2,0,P|207:103|264:97,1,88,2|0,3:2|0:0,0:0:0:0:
456,202,351458,1,8,0:0:0:0:
447,297,351616,5,2,0:0:0:0:
447,297,351695,1,2,0:0:0:0:
447,297,351774,1,2,3:2:0:0:
346,355,351932,1,0,3:0:0:0:
207,305,352090,1,10,0:0:0:0:
11,364,352247,6,0,P|26:276|28:168,1,176,6|0,3:2|3:0,0:0:0:0:
230,21,352721,1,10,0:0:0:0:
171,189,352879,1,2,0:0:0:0:
171,189,352958,1,2,0:0:0:0:
171,189,353037,2,0,P|157:145|135:105,1,88,2|0,3:2|3:0,0:0:0:0:
45,37,353353,1,10,0:0:0:0:
294,128,353511,6,0,P|307:191|309:277,1,132,2|0,3:2|0:0,0:0:0:0:
310,258,353826,1,0,3:0:0:0:
301,292,353905,1,0,3:0:0:0:
298,327,353984,2,0,P|309:349|328:371,1,44,14|0,0:0|0:0,0:0:0:0:
468,317,354142,1,0,3:0:0:0:
468,317,354221,1,0,3:0:0:0:
468,317,354300,1,10,0:0:0:0:
486,103,354458,1,10,0:0:0:0:
305,181,354616,1,10,0:0:0:0:
106,80,354774,6,0,P|144:31|211:29,1,132,4|0,3:2|0:0,0:0:0:0:
209,28,355090,1,2,3:2:0:0:
242,51,355169,1,2,3:2:0:0:
252,84,355247,2,0,P|226:116|180:125,1,88,14|2,0:0|0:0,0:0:0:0:
15,41,355563,1,2,3:2:0:0:
43,153,355721,1,0,3:0:0:0:
234,211,355879,2,0,L|277:216,1,44,10|0,0:0|0:0,0:0:0:0:
189,347,356037,6,0,L|326:338,1,132,6|0,3:2|0:0,0:0:0:0:
320,338,356353,1,0,3:0:0:0:
350,356,356432,1,0,3:0:0:0:
379,374,356511,2,0,L|394:285,1,88,14|2,0:0|0:0,0:0:0:0:
502,293,356826,1,2,3:2:0:0:
299,234,356984,1,0,3:0:0:0:
293,199,357063,1,0,3:0:0:0:
288,164,357142,1,10,0:0:0:0:
488,124,357300,6,0,P|507:71|468:10,1,132,6|0,3:2|0:0,0:0:0:0:
469,10,357616,1,2,3:2:0:0:
434,5,357695,1,2,3:2:0:0:
404,23,357774,2,0,P|395:66|410:111,1,88,14|2,0:0|0:0,0:0:0:0:
270,363,358090,1,2,3:2:0:0:
183,335,358247,1,0,3:0:0:0:
342,232,358405,2,0,P|324:214|307:191,1,44,10|0,0:0|0:0,0:0:0:0:
166,173,358563,5,6,3:2:0:0:
207,45,358721,2,0,P|236:13|278:3,1,88,2|0,3:2|3:0,0:0:0:0:
65,93,359037,1,10,0:0:0:0:
56,102,359116,1,0,3:0:0:0:
48,113,359195,1,0,3:0:0:0:
43,125,359274,1,0,3:0:0:0:
40,138,359353,1,2,3:2:0:0:
89,212,359511,1,0,3:0:0:0:
179,375,359669,1,10,0:0:0:0:
263,351,359826,6,0,P|268:299|283:208,1,132,2|0,3:2|0:0,0:0:0:0:
280,220,360142,1,6,3:2:0:0:
495,142,360300,1,10,0:0:0:0:
452,339,360458,1,0,3:0:0:0:
418,330,360537,1,0,3:0:0:0:
384,321,360616,1,2,3:2:0:0:
371,233,360774,1,0,3:0:0:0:
454,58,360932,2,0,P|469:42|480:22,1,44,14|0,0:0|0:0,0:0:0:0:
328,115,361090,6,0,P|263:109|212:64,1,132,6|0,3:2|0:0,0:0:0:0:
213,66,361405,1,0,3:0:0:0:
229,35,361484,1,0,3:0:0:0:
259,15,361563,2,0,P|283:22|299:41,1,44,14|0,0:0|0:0,0:0:0:0:
322,265,361721,1,0,3:0:0:0:
322,265,361800,1,0,3:0:0:0:
322,265,361879,1,2,3:2:0:0:
412,161,362037,1,0,3:0:0:0:
178,199,362195,1,10,0:0:0:0:
143,190,362274,1,0,3:0:0:0:
108,181,362353,6,0,P|103:122|88:49,1,132,6|0,3:2|0:0,0:0:0:0:
88,50,362669,1,2,3:2:0:0:
53,50,362747,1,2,3:2:0:0:
23,68,362826,2,0,P|22:90|28:117,1,44,8|0,0:1|0:0,0:0:0:0:
107,265,362984,1,2,0:0:0:0:
224,47,363142,2,0,P|223:69|229:96,1,44,8|0,0:1|0:0,0:0:0:0:
308,244,363300,1,2,3:2:0:0:
423,26,363458,2,0,P|422:48|428:75,1,44,8|0,0:1|0:0,0:0:0:0:
495,218,363616,5,6,3:2:0:0:
379,313,363774,1,0,3:0:0:0:
391,345,363853,1,0,3:0:0:0:
420,362,363932,1,0,3:0:0:0:
456,364,364011,1,0,3:0:0:0:
488,352,364090,2,0,P|497:330|498:306,1,44,14|0,0:0|0:0,0:0:0:0:
360,153,364247,1,2,0:0:0:0:
116,365,364405,6,0,L|159:356,1,44,8|0,0:1|0:0,0:0:0:0:
150,118,364563,2,0,L|106:126,1,44,8|0,0:1|0:0,0:0:0:0:
256,258,364721,2,0,L|247:214,1,44,8|0,0:1|0:0,0:0:0:0:
9,223,364879,2,0,L|17:266,1,44,8|0,0:1|0:0,0:0:0:0:
163,234,365037,6,0,L|94:260,1,66.0000025177003,6|2,3:2|0:0,0:0:0:0:
101,257,365274,1,2,0:0:0:0:
101,257,365353,1,2,0:0:0:0:
306,343,365511,1,0,3:0:0:0:
331,349,365590,1,0,3:0:0:0:
356,355,365669,1,10,0:0:0:0:
341,167,365826,1,0,3:0:0:0:
472,159,365984,1,10,0:0:0:0:
487,347,366142,1,6,3:2:0:0:
487,347,366458,6,0,L|451:326,2,33.0000012588501,2|0|0,0:0|0:0|0:0,0:0:0:0:
411,253,366774,1,0,3:0:0:0:
356,77,366932,2,0,L|292:52,1,66.0000025177003,10|0,0:0|3:0,0:0:0:0:
140,13,367247,1,8,0:0:0:0:
137,26,367326,1,0,3:0:0:0:
135,39,367405,1,0,3:0:0:0:
133,52,367484,1,0,3:0:0:0:
131,65,367563,6,0,P|94:88|17:159,1,132.000005035401,6|2,3:2|0:0,0:0:0:0:
109,358,368037,1,0,3:0:0:0:
103,332,368116,1,0,3:0:0:0:
97,306,368195,1,10,0:0:0:0:
130,171,368353,1,0,3:0:0:0:
300,248,368511,1,10,0:0:0:0:
472,170,368669,6,0,P|476:101|489:40,1,132.000005035401,6|0,3:2|0:0,0:0:0:0:
481,28,369063,1,0,0:0:0:0:
470,20,369142,2,0,P|455:18|433:31,1,33.0000012588501,2|0,0:0|0:0,0:0:0:0:
356,130,369300,2,0,P|341:132|319:119,1,33.0000012588501,0|0,3:0|0:0,0:0:0:0:
144,7,369458,2,0,P|173:27|204:90,1,99.0000037765504,14|0,0:0|0:0,0:0:0:0:
202,82,369774,1,10,0:0:0:0:
212,171,369932,1,10,0:0:0:0:
85,306,370090,6,0,P|51:321|18:347,1,66.0000025177003,6|2,3:2|0:0,0:0:0:0:
27,338,370326,1,2,0:0:0:0:
27,338,370405,1,2,0:0:0:0:
52,178,370563,1,0,3:0:0:0:
75,189,370642,1,0,3:0:0:0:
99,199,370721,1,10,0:0:0:0:
205,360,370879,1,0,3:0:0:0:
354,372,371037,1,10,0:0:0:0:
460,211,371195,1,6,3:2:0:0:
460,211,371511,6,0,P|459:230|469:256,2,33.0000012588501,2|0|0,0:0|0:0|0:0,0:0:0:0:
406,301,371826,1,0,3:0:0:0:
383,104,371984,2,0,P|389:73|400:41,1,66.0000025177003,10|0,0:0|3:0,0:0:0:0:
262,158,372300,1,8,0:0:0:0:
262,170,372379,1,0,3:0:0:0:
257,182,372458,1,0,3:0:0:0:
251,193,372537,1,0,3:0:0:0:
242,202,372616,6,0,P|184:173|171:109,1,132.000005035401,6|2,3:2|0:0,0:0:0:0:
216,345,373090,1,0,3:0:0:0:
211,318,373169,1,0,3:0:0:0:
207,292,373247,1,10,0:0:0:0:
85,160,373405,1,0,3:0:0:0:
226,14,373563,1,10,0:0:0:0:
348,146,373721,6,0,P|405:117|418:53,1,132.000005035401,6|0,3:2|3:0,0:0:0:0:
409,30,374116,1,0,3:0:0:0:
384,19,374195,2,0,P|359:40|350:79,1,66.0000025177003,14|0,0:0|0:0,0:0:0:0:
501,180,374511,5,10,0:0:0:0:
230,146,374669,1,2,3:2:0:0:
230,146,374747,1,2,3:2:0:0:
230,146,374826,2,0,L|253:210,1,66.0000025177003,10|0,0:0|0:0,0:0:0:0:
336,362,374984,2,0,L|379:310,1,66.0000025177003,10|0,0:0|0:0,0:0:0:0:
