osu file format v14

[General]
AudioFilename: audio.mp3
AudioLeadIn: 0
PreviewTime: 190
Countdown: 0
SampleSet: Soft
StackLeniency: 0.7
Mode: 0
LetterboxInBreaks: 0
WidescreenStoryboard: 1

[Editor]
Bookmarks: 53685,63523,89357,164190
DistanceSpacing: 1
BeatDivisor: 4
GridSize: 4
TimelineZoom: 2.2

[Metadata]
Title:Sugar Boo
TitleUnicode:シュガーブー
Artist:Serani Poji
ArtistUnicode:セラニポージ
Creator:Kaine
Version:Normal
Source:
Tags:渋谷系 shibuya-kei shibuya kei メリーゴーラウンドジェイルハウス merry go round jailhouse japanese j-pop picopop
BeatmapID:4077688
BeatmapSetID:1766654

[Difficulty]
HPDrainRate:3
CircleSize:3
OverallDifficulty:4
ApproachRate:5
SliderMultiplier:1.1
SliderTickRate:1

[Events]
//Background and Video events
0,0,"boba.jpg",0,0
//Break Periods
2,89523,92139
2,94852,97472
2,100018,103805
2,164190,167805
//Storyboard Layer 0 (Background)
//Storyboard Layer 1 (Fail)
//Storyboard Layer 2 (Pass)
//Storyboard Layer 3 (Foreground)
//Storyboard Layer 4 (Overlay)
//Storyboard Sound Samples

[TimingPoints]
1007,333.333333333333,4,2,1,63,1,0
4590,-100,4,2,1,5,0,0
4673,-100,4,2,1,63,0,0
5256,-100,4,2,1,5,0,0
5340,-100,4,2,1,63,0,0
5923,-100,4,2,1,5,0,0
6006,-100,4,2,1,63,0,0
6340,-100,4,2,1,34,0,0
7006,-100,4,2,1,63,0,0
7673,-100,4,2,1,79,0,0
8340,-100,4,2,1,63,0,0
9006,333.333333333333,4,2,1,63,1,0
25756,-100,4,2,1,5,0,0
25840,-100,4,2,1,63,0,0
57005,-100,4,2,1,63,0,1
84005,-100,4,2,1,63,0,0
89506,-100,4,2,0,63,0,0
104590,-100,4,2,0,5,0,0
104673,-100,4,2,0,63,0,0
106340,-100,4,2,1,63,0,0
169005,-100,4,2,1,63,0,1
195672,-100,4,2,1,63,0,0

[Colours]
Combo1 : 202,197,181
Combo2 : 222,78,186
Combo3 : 118,129,154
Combo4 : 193,63,30

[HitObjects]
32,66,1006,6,0,B|91:66|63:115|148:111,1,110,0|0,3:0|1:0,0:0:0:0:
220,51,1672,1,0,3:0:0:0:
297,128,2005,1,0,1:0:0:0:
261,232,2339,2,0,P|252:280|270:346,1,110,0|0,3:0|1:0,0:0:0:0:
371,369,3005,1,0,3:0:0:0:
465,311,3339,1,0,1:0:0:0:
450,202,3672,6,0,L|219:232,1,220,2|2,0:1|0:1,0:0:0:0:
162,315,4672,1,2,0:1:0:0:
59,275,5005,2,2,L|76:162,1,110,2|2,0:1|0:1,0:1:0:0:
90,57,5672,1,2,0:1:0:0:
198,72,6005,1,2,0:1:0:0:
256,192,6339,12,2,8339,0:0:0:0:
27,179,9005,6,0,L|152:162,1,110,4|0,3:2|1:0,0:0:0:0:
200,253,9672,1,0,3:0:0:0:
307,229,10005,1,0,1:0:0:0:
308,118,10339,2,0,P|325:83|490:87,1,220,0|0,3:0|3:0,0:0:0:0:
499,186,11339,1,0,1:0:0:0:
463,290,11672,2,0,L|342:273,1,110,2|0,3:0|1:0,0:0:0:0:
256,326,12339,1,0,3:0:0:0:
153,281,12672,1,0,1:0:0:0:
70,353,13005,1,0,3:0:0:0:
10,264,13339,6,0,L|28:151,2,110,2|2|0,1:2|3:2|1:2,0:2:0:0:
66,358,14339,1,0,3:0:0:0:
147,286,14672,2,0,L|146:214,2,55,0|0|0,1:0|3:0|3:0,0:0:0:0:
224,363,15339,1,0,1:0:0:0:
314,299,15672,2,0,P|347:300|408:351,1,110,0|0,3:0|1:0,0:0:0:0:
460,348,16172,1,0,0:0:0:0:
476,295,16339,2,0,P|461:265|471:180,1,110,0|0,3:0|1:0,0:0:0:0:
468,80,17005,6,0,P|428:45|289:112,1,220,0|0,3:0|3:0,0:0:0:0:
252,204,18005,1,0,1:0:0:0:
169,130,18339,1,0,3:0:0:0:
72,178,18672,1,2,1:2:0:0:
66,287,19005,1,2,3:2:0:0:
155,351,19339,1,0,1:0:0:0:
253,302,19672,1,0,3:0:0:0:
262,192,20005,6,0,L|386:208,1,110,0|0,1:0|3:0,0:0:0:0:
476,236,20672,1,0,1:0:0:0:
385,298,21005,2,0,L|266:339,1,110,0|0,3:0|1:0,0:0:0:0:
181,285,21672,2,0,L|68:264,1,110,0|0,3:0|1:0,0:0:0:0:
6,174,22339,5,2,3:2:0:0:
85,98,22672,2,0,L|77:28,2,55,2|2|0,1:2|0:2|3:0,0:0:0:0:
173,163,23339,1,0,1:0:0:0:
254,89,23672,2,0,L|374:102,1,110,0|0,3:0|1:0,0:0:0:0:
456,41,24339,6,0,P|492:59|501:142,1,110,0|0,3:0|1:0,0:0:0:0:
472,163,24839,1,0,0:0:0:0:
433,202,25005,2,0,P|421:229|443:322,1,110,0|0,3:0|1:0,0:0:0:0:
333,356,25672,2,0,P|292:318|217:320,1,110,0|0,3:0|1:0,0:0:0:0:
150,248,26339,6,0,L|90:275,2,55,0|0|0,3:0|0:0|1:0,0:0:0:0:
195,220,26839,1,0,0:0:0:0:
237,185,27005,2,0,L|305:210,2,55,0|0|0,3:0|3:0|1:0,0:0:0:0:
196,148,27505,1,0,3:0:0:0:
148,120,27672,1,0,3:0:0:0:
219,34,28005,6,0,L|334:37,1,110,0|0,1:0|3:0,0:0:0:0:
435,9,28672,1,0,1:0:0:0:
512,86,29005,1,0,3:0:0:0:
473,189,29339,1,0,1:0:0:0:
368,222,29672,2,0,L|360:282,2,55,0|0|0,3:0|1:0|0:0,0:0:0:0:
311,126,30339,5,4,3:2:0:0:
207,163,30672,1,0,1:0:0:0:
175,117,30839,1,0,0:0:0:0:
136,78,31005,2,0,P|92:66|35:95,1,110,0|0,3:0|1:0,2:0:0:0:
11,142,31505,5,2,0:0:0:0:
18,251,31839,1,2,0:0:0:0:
122,284,32172,2,0,P|139:310|218:326,1,110,0|0,3:0|0:0,0:0:0:0:
278,238,32839,1,0,0:0:0:0:
327,261,33005,6,0,L|452:268,1,110,2|0,3:0|1:0,0:0:0:0:
475,228,33505,1,2,0:0:0:0:
460,118,33839,1,2,0:0:0:0:
360,71,34172,1,2,0:0:0:0:
210,141,34672,5,2,1:2:0:0:
100,135,35005,2,0,P|38:125|-11:162,2,110,2|0|0,3:2|1:0|3:0,0:0:0:0:
169,220,36005,1,0,1:0:0:0:
116,317,36339,1,0,3:0:0:0:
214,366,36672,1,0,1:0:0:0:
320,338,37005,6,0,L|333:222,1,110,0|0,3:0|1:0,0:0:0:0:
259,145,37672,1,0,3:0:0:0:
247,35,38005,1,0,1:0:0:0:
359,27,38339,2,0,P|415:28|479:166,1,220,0|0,3:0|3:0,0:0:0:0:
428,254,39339,1,0,1:0:0:0:
322,222,39672,1,0,3:0:0:0:
269,125,40005,6,0,P|274:72|322:13,2,110,2|2|0,1:2|3:2|1:2,0:2:0:0:
199,210,41005,1,0,3:0:0:0:
165,104,41339,2,0,P|108:109|50:102,1,110,0|0,1:0|3:0,0:0:0:0:
9,202,42005,1,0,1:0:0:0:
59,299,42339,1,0,3:0:0:0:
160,256,42672,1,0,1:0:0:0:
244,325,43005,1,0,3:0:0:0:
345,281,43339,1,0,1:0:0:0:
440,334,43672,6,0,P|471:308|481:230,1,110,0|0,3:0|1:0,0:0:0:0:
414,157,44339,1,0,3:0:0:0:
312,221,44672,1,0,1:0:0:0:
230,147,45005,6,0,P|200:124|117:139,1,110,0|0,3:0|1:0,0:0:0:0:
90,165,45505,1,0,0:0:0:0:
58,210,45672,2,0,L|77:322,1,110,0|0,3:0|1:0,0:0:0:0:
177,366,46339,5,0,3:0:0:0:
262,297,46672,1,0,1:0:0:0:
235,190,47005,1,0,3:0:0:0:
125,176,47339,1,0,1:0:0:0:
40,105,47672,6,0,P|35:60|80:8,1,110,0|0,3:0|1:0,0:0:0:0:
175,51,48339,2,0,L|298:46,1,110,0|0,3:0|1:0,0:0:0:0:
394,39,49005,1,0,3:0:0:0:
463,124,49339,1,0,1:0:0:0:
488,230,49672,1,0,3:0:0:0:
450,270,49839,2,0,L|376:261,1,55,2|0,0:0|1:0,0:0:0:0:
346,288,50172,1,2,0:0:0:0:
296,263,50339,6,0,P|258:245|184:267,1,110,0|0,3:0|1:0,0:0:0:0:
98,314,51005,2,0,L|22:317,2,55,0|0|0,3:0|1:0|3:0,0:0:0:0:
134,355,51505,1,0,3:0:0:0:
183,380,51672,6,0,L|302:361,1,110,4|0,0:2|1:0,0:0:0:0:
396,327,52339,1,0,3:0:0:0:
491,381,52672,1,0,1:0:0:0:
469,273,53005,2,0,L|477:159,1,110,0|0,3:0|1:0,0:0:0:0:
494,54,53672,2,0,P|442:34|381:47,1,110,0|0,3:0|1:0,0:0:0:0:
328,134,54339,1,0,3:0:0:0:
250,55,54672,1,0,1:0:0:0:
141,71,55005,6,0,P|94:63|28:84,1,110,0|0,3:0|1:0,0:0:0:0:
3,127,55505,1,2,3:2:0:0:
10,236,55839,1,2,3:2:0:0:
116,280,56172,1,0,0:0:0:0:
116,280,56339,1,2,3:2:0:0:
205,216,56672,1,2,1:2:0:0:
313,236,57005,6,0,P|360:231|394:178,1,110,6|0,3:2|1:0,0:0:0:0:
382,128,57504,1,2,3:2:0:0:
348,84,57672,2,0,P|291:69|244:119,1,110,0|0,0:0|1:0,0:0:0:0:
207,197,58339,6,0,P|164:216|107:189,1,110,2|0,3:3|1:0,0:0:0:0:
92,140,58839,1,0,3:0:0:0:
99,85,59005,2,0,P|140:42|206:61,1,110,0|0,3:0|1:0,0:0:0:0:
294,23,59672,6,0,L|412:44,1,110,2|0,3:2|1:0,0:0:0:0:
436,85,60172,1,2,3:2:0:0:
409,133,60339,2,0,L|425:251,1,110,0|0,3:0|1:0,0:0:0:0:
460,347,61005,6,0,P|424:318|350:315,1,110,0|0,3:0|1:0,0:0:0:0:
321,349,61505,1,0,0:0:0:0:
268,333,61672,2,0,L|188:320,1,55,0|0,3:0|3:0,0:0:0:0:
169,290,62005,2,0,L|94:274,1,55,0|0,1:0|3:0,0:0:0:0:
64,300,62339,6,0,P|32:291|-1:213,1,110,2|0,3:2|1:2,0:0:0:0:
15,175,62839,1,2,3:2:0:0:
44,128,63005,2,0,P|101:119|139:172,1,110,0|2,3:0|1:3,0:0:0:0:
190,248,63672,5,2,3:3:0:0:
264,167,64005,2,0,L|254:103,2,55,0|0|0,1:0|0:0|3:0,0:0:0:0:
357,225,64672,1,0,1:0:0:0:
454,174,65005,6,0,P|449:123|400:65,1,110,4|0,3:2|1:0,0:0:0:0:
311,39,65672,2,0,P|255:38|209:91,1,110,0|0,3:0|1:0,0:0:0:0:
113,33,66339,1,0,3:0:0:0:
53,125,66672,2,0,L|-19:112,2,55,0|0|0,1:0|3:0|3:0,0:0:0:0:
110,219,67339,1,0,1:0:0:0:
206,166,67672,6,0,P|265:150|311:178,1,110,6|0,3:2|1:2,0:0:0:0:
326,222,68172,1,2,0:2:0:0:
345,273,68339,2,0,P|373:294|459:280,1,110,0|0,3:0|1:2,0:0:0:0:
503,197,69005,6,0,P|499:155|440:106,1,110,2|0,3:0|1:0,0:0:0:0:
399,125,69505,1,0,3:0:0:0:
347,143,69672,2,0,L|221:132,1,110,0|0,3:0|1:0,0:0:0:0:
139,82,70339,6,0,P|88:77|35:120,1,110,2|0,3:2|1:2,0:0:0:0:
29,162,70839,1,2,0:2:0:0:
49,212,71005,2,0,P|82:229|161:210,1,110,0|0,3:0|1:2,0:0:0:0:
242,154,71672,1,0,3:0:0:0:
344,192,72005,1,0,1:0:0:0:
345,302,72339,1,0,3:0:0:0:
239,331,72672,1,0,1:0:0:0:
129,342,73005,6,0,P|89:317|68:245,1,110,2|0,3:2|1:2,0:0:0:0:
64,205,73505,1,2,0:2:0:0:
71,150,73672,2,0,L|56:87,1,55,0|0,3:0|0:2,0:0:0:0:
46,42,74005,1,2,1:3:0:0:
155,26,74339,1,2,3:3:0:0:
264,13,74672,6,0,L|385:23,1,110,0|0,1:2|3:0,0:0:0:0:
486,28,75339,1,4,1:2:0:0:
498,137,75672,1,4,3:2:0:0:
413,207,76005,1,0,1:0:0:0:
316,264,76339,2,0,P|290:223|212:215,1,110,0|0,3:0|1:0,0:0:0:0:
181,227,76839,1,0,0:0:0:0:
135,257,77005,1,0,3:0:0:0:
31,219,77339,1,0,1:0:0:0:
47,327,77672,6,0,P|13:334|-7:342,2,55,2|2|2,3:2|0:2|1:2,0:0:0:0:
93,356,78172,2,0,L|217:333,1,110,2|0,0:0|0:0,0:0:0:0:
256,333,78672,2,0,L|322:351,1,55,2|2,1:2|0:2,0:0:0:0:
367,362,79005,1,2,3:2:0:0:
367,362,79172,1,2,0:2:0:0:
458,301,79505,2,0,P|473:265|458:178,1,110,2|2,0:1|0:1,0:0:0:0:
432,152,80005,1,2,1:1:0:0:
439,44,80339,6,0,P|479:35|494:44,2,55,0|0|0,3:0|0:0|1:0,0:0:0:0:
384,44,80839,2,0,L|260:67,1,110
224,80,81339,2,0,L|158:62,1,55,2|2,1:2|0:2,0:0:0:0:
119,48,81672,1,2,3:2:0:0:
119,48,81839,1,2,0:2:0:0:
28,109,82172,2,0,P|13:145|28:232,1,110,2|2,0:1|0:1,0:0:0:0:
54,258,82672,1,2,1:1:0:0:
109,258,82839,1,0,3:0:0:0:
151,223,83005,6,0,L|216:229,1,55,0|2,3:0|0:0,0:0:0:0:
305,275,83505,1,4,3:2:0:0:
256,192,84172,12,6,89005,3:2:0:0:
239,131,93339,5,2,0:0:0:0:
145,189,93672,2,0,L|84:186,1,55,2|2,0:0|0:0,0:0:0:0:
31,279,94172,1,2,0:0:0:0:
273,131,98672,5,2,0:0:0:0:
367,189,99005,2,0,L|428:186,1,55,2|2,0:0|0:0,0:0:0:0:
481,279,99505,1,2,0:0:0:0:
483,188,105005,6,0,L|360:168,1,110,4|0,3:2|1:0,0:0:0:0:
324,194,105505,1,4,0:0:0:0:
235,127,105839,1,4,0:0:0:0:
172,217,106172,1,4,0:0:0:0:
114,229,106339,6,0,P|73:214|44:146,1,110,0|0,3:0|1:0,0:0:0:0:
64,106,106839,1,0,3:0:0:0:
84,55,107005,2,0,P|70:30|41:17,2,55,0|0|0,3:0|3:0|1:0,0:0:0:0:
134,77,107505,1,0,3:0:0:0:
182,103,107672,1,0,3:0:0:0:
268,35,108005,6,0,P|332:40|343:40,1,55,2|2,0:1|0:1,0:0:0:0:
375,56,108339,1,2,0:1:0:0:
423,31,108505,1,0,0:0:0:0:
477,126,108839,1,2,0:1:0:0:
465,179,109005,6,0,P|437:178|364:220,1,110,0|0,3:0|1:0,0:0:0:0:
339,264,109505,1,0,3:0:0:0:
283,260,109672,2,0,B|268:257|268:257|259:262|259:262|247:257|247:257|234:260|234:260|221:255|221:255|212:264|211:264|195:257|195:257|194:265|193:265|178:261|178:261|171:265,1,110,4|0,0:0|3:0,0:0:0:0:
97,330,110339,6,0,P|61:328|22:254,1,110,4|0,1:2|3:0,0:0:0:0:
27,217,110839,1,0,3:0:0:0:
37,163,111005,2,0,L|26:99,1,55,2|0,3:0|0:0,0:0:0:0:
19,53,111339,1,2,1:3:0:0:
127,35,111672,5,2,3:2:0:0:
196,119,112005,1,2,1:3:0:0:
241,149,112172,1,2,3:0:0:0:
285,181,112339,2,0,L|351:190,1,55,2|2,3:0|0:0,0:0:0:0:
385,157,112672,2,0,L|458:166,1,55,2|2,1:2|3:0,0:0:0:0:
494,167,113005,1,2,3:0:0:0:
508,221,113172,1,0,0:0:0:0:
477,266,113339,2,0,P|447:263|360:294,1,110,2|0,1:2|3:0,0:0:0:0:
293,363,114005,5,0,1:0:0:0:
247,331,114172,1,2,3:3:0:0:
195,313,114339,2,0,L|77:329,1,110,2|2,3:3|1:1,0:0:0:0:
4,253,115005,1,2,3:1:0:0:
55,155,115339,1,0,0:0:0:0:
147,213,115672,6,0,P|181:228|267:209,1,110,0|0,3:0|1:0,0:0:0:0:
288,178,116172,1,0,3:0:0:0:
351,88,116505,1,0,0:0:0:0:
439,153,116839,6,0,B|428:197|428:197|433:207|433:207|422:268,1,110,2|0,0:0|0:0,0:0:0:0:
410,313,117339,1,2,1:2:0:0:
359,334,117505,1,0,3:0:0:0:
287,249,117839,5,0,0:0:0:0:
236,270,118005,2,0,L|117:257,1,110,0|0,1:0|3:0,0:0:0:0:
88,297,118505,1,0,0:0:0:0:
34,284,118672,2,0,P|8:261|2:238,1,55,0|0,1:0|3:0,0:0:0:0:
15,188,119005,2,0,P|32:160|39:130,1,55,0|0,3:0|0:0,0:0:0:0:
15,88,119339,1,0,1:0:0:0:
98,16,119672,5,0,3:0:0:0:
172,96,120005,1,2,1:0:0:0:
266,39,120339,2,0,B|288:32|288:32|307:39|307:39|323:33|323:33|338:39|338:39|350:33|350:33|369:39|369:39|380:36,1,110,6|0,3:1|1:2,1:0:0:0:
459,100,121005,6,0,P|464:144|442:219,1,110,4|0,3:2|1:0,0:0:0:0:
400,234,121505,1,0,0:0:0:0:
345,226,121672,2,0,L|269:241,1,55,0|0,3:0|0:0,0:0:0:0:
237,251,122005,1,0,1:0:0:0:
147,186,122339,6,0,P|103:176|43:214,1,110,0|0,3:0|1:0,0:0:0:0:
33,259,122839,1,0,3:0:0:0:
33,313,123005,2,0,P|61:336|92:348,1,55,0|0,3:0|0:0,0:0:0:0:
130,360,123339,2,0,P|163:351|199:351,1,55,0|0,1:0|3:0,0:0:0:0:
236,364,123672,1,0,3:0:0:0:
324,298,124005,1,0,1:0:0:0:
420,350,124339,1,0,3:0:0:0:
502,277,124672,1,0,1:0:0:0:
481,169,125005,6,0,P|453:148|366:157,1,110,0|0,3:0|1:0,0:0:0:0:
339,184,125505,1,0,3:0:0:0:
292,212,125672,2,0,L|170:203,1,110,0|0,3:0|1:0,0:0:0:0:
135,232,126172,1,0,3:0:0:0:
87,259,126339,1,2,3:2:0:0:
6,183,126672,1,0,1:0:0:0:
0,128,126839,2,0,P|5:99|79:57,1,110,2|0,0:0|0:0,0:0:0:0:
118,78,127339,1,2,1:2:0:0:
214,85,127672,6,0,L|332:107,1,110,0|0,3:0|1:0,0:0:0:0:
373,84,128172,1,0,3:0:0:0:
422,60,128339,2,0,P|464:59|506:131,1,110,0|0,3:0|1:0,0:0:0:0:
498,161,128839,1,0,3:0:0:0:
445,182,129005,1,0,3:0:0:0:
390,174,129172,2,0,P|376:201|368:232,1,55,0|0,0:0|1:0,0:0:0:0:
353,277,129505,1,2,3:2:0:0:
247,244,129839,1,2,3:2:0:0:
196,265,130005,6,0,L|124:257,1,55,0|0,1:0|0:0,0:0:0:0:
96,291,130339,1,0,3:0:0:0:
6,226,130672,1,0,1:0:0:0:
30,118,131005,1,0,3:0:0:0:
84,107,131172,1,8,1:2:0:0:
138,98,131339,1,0,1:0:0:0:
184,197,131672,1,4,3:2:0:0:
228,297,132005,6,0,P|265:319|342:307,1,110,2|2,1:1|0:1,0:1:0:0:
369,275,132505,1,2,0:1:0:0:
312,180,132839,2,0,P|306:135|344:68,1,110,2|2,0:1|0:1,0:1:0:0:
382,54,133339,1,0,0:0:0:0:
432,74,133505,1,2,0:1:0:0:
492,166,133839,5,0,0:1:0:0:
503,219,134005,2,0,P|503:253|466:324,1,110,0|0,1:1|3:1,0:0:0:0:
362,296,134672,2,0,L|245:315,1,110,2|2,1:1|0:1,0:1:0:0:
210,348,135172,1,2,0:1:0:0:
101,333,135505,1,2,0:1:0:0:
55,232,135839,2,2,P|67:193|78:160,1,55,2|0,0:1|0:0,0:1:0:0:
99,132,136172,1,2,0:1:0:0:
153,124,136339,1,2,0:1:0:0:
245,183,136672,1,2,1:1:0:0:
305,91,137005,6,0,P|343:65|429:75,1,110,2|0,0:2|1:0,0:0:0:0:
488,136,137672,2,0,P|498:169|483:249,1,110
398,308,138339,1,0,0:0:0:0:
207,91,139672,6,0,P|169:65|83:75,1,110,2|0,0:2|0:0,0:0:0:0:
24,136,140339,2,0,P|14:169|29:249,1,110
114,308,141005,1,0,0:0:0:0:
302,372,142339,6,0,P|317:334|301:251,1,110,2|0,0:2|0:2,0:2:0:0:
213,212,143005,2,0,P|205:178|230:98,1,110,0|2,0:0|0:3,0:0:0:0:
299,27,143672,1,2,0:3:0:0:
395,79,144005,6,2,P|439:75|501:31,2,110,2|2|2,1:1|3:1|1:1,3:1:0:0:
293,35,145005,2,0,P|235:36|170:39,1,110,2|0,3:1|1:0,0:0:0:0:
73,22,145672,1,2,3:1:0:0:
29,123,146005,1,0,1:0:0:0:
39,183,146172,1,2,0:1:0:0:
78,221,146339,5,0,3:0:0:0:
165,162,146672,2,0,P|215:157|236:156,1,55,0|0,1:0|3:0,0:0:0:0:
274,158,147005,1,0,3:0:0:0:
327,254,147339,1,0,1:0:0:0:
254,336,147672,6,0,P|223:346|141:317,1,110,2|0,3:2|1:0,0:0:0:0:
42,342,148339,2,0,P|24:303|33:218,1,110,0|0,3:0|1:0,0:0:0:0:
85,145,149005,1,2,3:2:0:0:
258,48,150339,6,0,P|288:37|371:67,1,110,2|0,3:2|1:2,0:2:0:0:
470,42,151005,2,0,P|488:81|479:166,1,110,0|0,3:0|1:0,0:0:0:0:
427,239,151672,1,2,3:2:0:0:
46,155,153005,6,0,P|75:130|154:132,1,110,2|0,3:2|1:2,0:2:0:0:
218,208,153672,2,0,P|257:225|342:209,1,110,0|2,3:0|1:3,0:0:0:0:
419,165,154339,1,2,3:3:0:0:
428,55,154672,6,2,P|404:34|324:44,1,110,2|2,1:1|3:1,0:1:0:0:
248,112,155339,1,2,1:1:0:0:
168,187,155672,2,0,P|135:207|59:195,1,110,2|0,3:1|1:0,0:0:0:0:
40,92,156339,2,0,P|71:61|148:63,1,110,2|0,3:1|1:0,0:0:0:0:
178,89,156839,1,2,0:1:0:0:
277,41,157172,5,2,0:1:0:0:
326,17,157339,2,0,P|361:23|401:39,1,55,2|0,1:1|0:0,0:0:0:0:
429,52,157672,2,0,P|463:46|495:34,2,55,2|2|2,3:1|0:1|1:1,0:0:0:0:
393,94,158172,1,2,0:1:0:0:
353,132,158339,1,0,0:0:0:0:
264,66,158672,6,0,P|214:59|165:97,1,110,2|2,1:2|3:2,0:0:0:0:
142,140,159172,1,2,0:2:0:0:
34,161,159505,2,0,P|22:201|22:285,1,110,2|2,0:2|0:2,0:0:0:0:
53,311,160005,1,2,1:2:0:0:
148,256,160339,2,0,P|152:224|152:184,2,55,2|2|2,3:1|0:1|1:1,0:0:0:0:
178,301,160839,1,2,0:1:0:0:
213,342,161005,1,0,0:0:0:0:
297,271,161339,6,0,P|325:260|412:277,1,110,2|2,1:2|3:2,0:0:0:0:
442,308,161839,1,2,3:2:0:0:
490,209,162172,1,2,0:0:0:0:
427,118,162505,1,2,0:0:0:0:
375,136,162672,2,0,L|308:133,1,55,2|2,1:2|3:1,0:0:0:0:
266,122,163005,1,2,3:1:0:0:
183,194,163339,1,2,1:1:0:0:
81,150,163672,1,0,3:0:0:0:
34,131,169005,6,0,P|50:91|127:68,1,110,4|0,3:2|1:0,0:0:0:0:
158,88,169505,1,2,3:2:0:0:
196,127,169672,2,0,P|230:137|306:107,1,110,0|0,3:0|1:0,0:0:0:0:
381,41,170339,6,0,P|437:42|480:90,1,110,0|0,3:0|1:0,0:0:0:0:
476,132,170839,1,0,0:0:0:0:
441,174,171005,2,0,P|429:206|425:286,1,110,0|0,3:0|1:0,0:0:0:0:
342,355,171672,6,0,P|314:328|238:318,1,110,2|0,3:2|1:0,0:0:0:0:
201,348,172172,1,2,0:2:0:0:
149,367,172339,2,0,P|128:333|123:257,1,110,0|0,3:0|1:0,0:0:0:0:
165,163,173005,5,2,3:0:0:0:
269,128,173339,1,2,1:0:0:0:
337,213,173672,1,2,3:0:0:0:
284,309,174005,2,0,L|348:317,1,55,2|0,1:0|0:0,0:0:0:0:
385,345,174339,6,0,P|441:348|483:300,1,110,2|0,3:2|1:0,0:0:0:0:
495,261,174839,1,2,0:2:0:0:
489,206,175005,2,0,P|450:164|383:170,1,110,0|2,3:0|0:3,0:0:0:0:
312,228,175672,5,2,3:3:0:0:
210,185,176005,2,0,L|92:207,1,110,2|2,0:1|0:1,0:0:0:0:
17,134,176672,1,2,0:1:0:0:
66,35,177005,6,0,P|90:21|168:53,1,110,4|8,3:2|1:3,0:0:0:0:
197,88,177505,1,4,3:0:0:0:
227,134,177672,2,4,P|254:143|331:111,1,110,4|0,3:0|1:3,3:0:0:0:
357,69,178172,1,0,3:0:0:0:
393,27,178339,2,0,P|443:23|490:75,1,110,4|8,3:0|1:3,0:0:0:0:
460,110,178839,1,0,0:0:0:0:
431,156,179005,2,0,L|443:277,1,110,4|8,3:3|1:3,0:0:0:0:
358,338,179672,6,0,P|330:320|238:328,1,110,6|0,3:2|1:0,0:0:0:0:
213,354,180172,1,2,0:0:0:0:
157,354,180339,2,0,P|113:342|39:334,1,110,0|0,3:0|1:0,0:0:0:0:
0,235,181005,6,0,P|43:220|118:219,1,110,0|0,3:0|1:0,0:0:0:0:
153,253,181505,1,0,0:0:0:0:
204,272,181672,2,0,P|217:232|213:148,1,110,0|0,3:0|1:0,0:0:0:0:
145,80,182339,6,0,P|153:42|221:3,1,110,2|2,3:3|1:2,0:0:0:0:
257,30,182839,1,2,0:3:0:0:
305,55,183005,2,0,P|337:64|420:49,1,110,0|2,3:0|1:3,0:0:0:0:
500,118,183672,6,0,P|480:144|465:175,1,55,2|2,3:0|0:0,0:0:0:0:
463,218,184005,1,2,1:0:0:0:
360,257,184339,1,2,3:0:0:0:
251,241,184672,1,2,1:0:0:0:
147,278,185005,6,0,P|74:278|29:240,1,110,0|0,3:0|1:0,0:0:0:0:
26,207,185505,1,0,0:0:0:0:
31,152,185672,2,0,P|56:124|141:113,1,110,0|2,3:0|1:3,0:0:0:0:
211,175,186339,1,2,3:3:0:0:
269,81,186672,1,2,1:2:0:0:
378,69,187005,1,2,3:2:0:0:
441,158,187339,1,2,1:2:0:0:
414,264,187672,6,0,P|377:286|309:266,1,110,4|0,3:2|1:0,0:0:0:0:
283,225,188172,1,0,0:0:0:0:
242,187,188339,2,0,P|197:175|143:211,1,110,0|0,3:0|1:0,0:0:0:0:
98,305,189005,1,0,3:0:0:0:
187,369,189339,1,0,1:0:0:0:
281,312,189672,6,0,P|314:326|332:346,2,55,2|2|2,3:2|3:2|1:2,0:0:0:0:
228,300,190172,2,0,L|114:293,1,110,2|0,0:2|0:0,0:0:0:0:
63,302,190672,2,0,P|35:275|29:246,1,55,2|2,1:1|0:1,0:0:0:0:
40,206,191005,1,2,3:1:0:0:
90,184,191172,1,0,0:0:0:0:
189,231,191505,2,0,P|232:224|308:226,1,110,2|2,1:0|3:1,0:0:0:0:
349,244,192005,1,2,1:1:0:0:
447,293,192339,6,0,P|456:331|458:356,2,55,2|2|2,1:2|0:2|3:2,0:0:0:0:
434,239,192839,2,0,P|433:190|440:110,1,110,2|0,0:2|0:0,0:0:0:0:
468,83,193339,2,0,P|477:44|468:26,1,55,2|2,1:1|0:1,0:0:0:0:
419,13,193672,1,2,3:1:0:0:
419,13,193839,1,2,0:1:0:0:
322,65,194172,2,0,P|278:68|194:63,1,110,2|2,0:1|0:0,0:0:0:0:
161,44,194672,1,2,1:2:0:0:
54,70,195005,6,0,P|23:109|23:177,1,110,2|0,3:2|1:2,0:0:0:0:
90,251,195672,1,4,3:2:0:0:
256,192,196339,12,6,201005,0:2:0:0:
