osu file format v14

[General]
AudioFilename: audio.mp3
AudioLeadIn: 0
PreviewTime: 190
Countdown: 0
SampleSet: Soft
StackLeniency: 0.7
Mode: 0
LetterboxInBreaks: 0
WidescreenStoryboard: 1

[Editor]
Bookmarks: 63523,89357,164190
DistanceSpacing: 1.1
BeatDivisor: 8
GridSize: 4
TimelineZoom: 2.2

[Metadata]
Title:Sugar Boo
TitleUnicode:シュガーブー
Artist:Serani Poji
ArtistUnicode:セラニポージ
Creator:Kaine
Version:Hard
Source:
Tags:渋谷系 shibuya-kei shibuya kei メリーゴーラウンドジェイルハウス merry go round jailhouse japanese j-pop picopop
BeatmapID:4072237
BeatmapSetID:1766654

[Difficulty]
HPDrainRate:5
CircleSize:4
OverallDifficulty:7
ApproachRate:8
SliderMultiplier:1.4
SliderTickRate:1

[Events]
//Background and Video events
0,0,"boba.jpg",0,0
//Break Periods
2,89538,92589
2,94372,97922
2,99705,103589
2,164038,168254
//Storyboard Layer 0 (Background)
//Storyboard Layer 1 (Fail)
//Storyboard Layer 2 (Pass)
//Storyboard Layer 3 (Foreground)
//Storyboard Layer 4 (Overlay)
//Storyboard Sound Samples

[TimingPoints]
1007,333.333333333333,4,2,1,63,1,0
4590,-100,4,2,1,5,0,0
4673,-100,4,2,1,63,0,0
5256,-100,4,2,1,5,0,0
5340,-100,4,2,1,63,0,0
5923,-100,4,2,1,5,0,0
6006,-100,4,2,1,63,0,0
6340,-100,4,2,1,34,0,0
7006,-100,4,2,1,63,0,0
7673,-100,4,2,1,79,0,0
8340,-100,4,2,1,63,0,0
9006,333.333333333333,4,2,1,63,1,0
25756,-100,4,2,1,5,0,0
25840,-100,4,2,1,63,0,0
89506,-100,4,2,0,63,0,0
104590,-100,4,2,0,5,0,0
104673,-100,4,2,0,63,0,0
106340,-100,4,2,1,63,0,0
111090,-100,4,2,1,63,0,0
111340,-100,4,2,1,63,0,0
111506,-100,4,2,1,63,0,0
111756,-100,4,2,1,63,0,0
112006,-100,4,2,1,63,0,0
112256,-100,4,2,1,5,0,0
112340,-100,4,2,1,63,0,0
112506,-100,4,2,1,63,0,0
112673,-100,4,2,1,63,0,0
112840,-100,4,2,1,63,0,0
113006,-100,4,2,1,63,0,0
113173,-100,4,2,1,63,0,0
113340,-100,4,2,1,63,0,0
114173,-100,4,2,1,63,0,0
169005,-100,4,2,1,63,0,1
176005,-100,4,2,1,63,0,0
179672,-100,4,2,1,63,0,1
186672,-100,4,2,1,63,0,0
205006,-100,4,2,1,5,0,0

[Colours]
Combo1 : 202,197,181
Combo2 : 222,78,186
Combo3 : 118,129,154
Combo4 : 193,63,30

[HitObjects]
0,41,1006,6,0,P|38:33|116:99,1,140,0|0,3:0|1:0,0:0:0:0:
125,165,1505,1,0,3:0:0:0:
125,165,1672,2,0,P|162:192|262:155,1,140,0|0,3:0|1:0,0:0:0:0:
306,113,2172,1,0,3:0:0:0:
306,113,2339,2,0,P|358:82|430:126,1,140,0|0,3:0|1:0,0:0:0:0:
471,181,2839,1,0,0:0:0:0:
471,181,3005,5,0,3:0:0:0:
491,257,3172,2,0,L|511:330,2,70,0|0|0,3:0|1:0|3:0,0:0:0:0:
417,280,3672,2,0,P|385:250|290:278,1,140,2|0,0:1|0:0,0:0:0:0:
241,320,4172,1,2,0:1:0:0:
169,291,4339,2,2,L|81:284,1,70,2|0,0:1|0:0,0:1:0:0:
84,208,4672,2,0,L|0:198,1,70,2|0,0:1|0:0,0:0:0:0:
16,122,5005,6,2,P|50:66|128:68,1,140,2|2,0:1|0:1,0:1:0:0:
182,106,5505,1,0,0:0:0:0:
226,43,5672,2,2,P|271:8|351:47,1,140,2|2,0:1|0:1,0:1:0:0:
392,93,6172,1,0,0:0:0:0:
458,54,6339,6,0,L|491:131,3,70,0|0|0|0,1:0|1:0|1:0|1:0,1:0:0:0:
414,147,7005,2,0,L|390:229,3,70,0|0|0|0,1:0|1:0|1:0|1:0,1:0:0:0:
464,246,7672,2,0,L|489:324,1,70,0|0,1:0|1:0,1:0:0:0:
408,317,8005,2,0,L|429:389,1,70,0|0,1:0|1:0,1:0:0:0:
350,376,8339,6,0,L|303:371,3,35,2|0|0|0,0:0|0:0|0:0|0:0,0:0:0:0:
287,345,8672,2,0,L|237:338,3,35
230,307,9005,2,0,P|183:301|121:369,1,140,4|0,3:2|1:0,0:0:0:0:
46,376,9505,1,0,1:0:0:0:
12,306,9672,2,0,L|4:219,2,70,0|0|0,3:0|3:0|1:0,0:0:0:0:
88,299,10172,1,0,3:0:0:0:
138,240,10339,6,0,L|216:247,1,70,0|0,3:0|0:0,0:0:0:0:
258,188,10672,2,0,L|339:194,1,70,0|0,1:0|0:0,0:0:0:0:
383,139,11005,1,0,3:0:0:0:
458,156,11172,2,0,P|477:200|475:231,2,70,0|0|0,0:0|1:0|0:0,0:0:0:0:
440,80,11672,2,0,P|382:53|316:91,1,140,2|0,3:0|1:0,0:0:0:0:
276,150,12172,2,0,L|298:220,1,70,0|0,3:0|0:0,0:0:0:0:
320,290,12505,1,2,0:3:0:0:
179,354,12839,1,2,0:3:0:0:
32,203,13339,6,0,P|45:142|59:117,1,70,2|0,1:2|0:2,0:2:0:0:
90,71,13672,2,0,P|130:113|146:134,2,70,2|2|0,3:2|0:2|1:2,0:2:0:0:
18,41,14172,2,0,P|57:2|143:15,1,140,2|0,0:2|0:2,0:2:0:0:
290,14,14839,6,0,P|334:15|385:20,2,70,0|0|0,3:0|3:0|0:0,0:0:0:0:
222,51,15339,1,0,1:0:0:0:
225,127,15505,2,0,P|238:164|270:200,1,70,0|0,0:0|3:0,0:0:0:0:
305,248,15839,2,0,P|347:235|377:211,1,70,0|0,0:0|1:0,0:0:0:0:
444,242,16172,2,0,P|455:184|435:148,1,70,0|0,0:0|3:0,0:0:0:0:
480,103,16505,2,0,B|405:79|418:129|332:111,1,140
282,65,17005,6,0,P|228:51|167:112,1,140,0|0,3:0|1:0,0:0:0:0:
97,130,17505,1,0,0:0:0:0:
37,179,17672,2,0,P|31:217|29:329,1,140,0|0,3:0|1:0,0:0:0:0:
98,350,18172,1,0,0:0:0:0:
171,373,18339,1,0,3:0:0:0:
257,245,18672,6,0,P|296:251|332:242,1,70,2|0,1:2|0:0,0:0:0:0:
393,285,19005,2,0,P|413:240|412:205,2,70,2|2|0,3:2|0:2|1:0,0:0:0:0:
326,324,19505,1,2,0:0:0:0:
111,356,20005,5,0,1:0:0:0:
36,337,20172,1,0,0:0:0:0:
57,262,20339,1,0,3:0:0:0:
131,280,20505,2,0,L|203:266,1,70,0|0,0:0|1:0,0:0:0:0:
277,273,20839,5,0,0:0:0:0:
187,148,21172,2,0,P|140:157|105:147,1,70,0|0,0:0|1:0,0:0:0:0:
48,121,21505,1,0,0:0:0:0:
160,14,21839,2,0,P|200:8|240:18,1,70
292,57,22172,1,0,0:0:0:0:
348,109,22339,6,0,P|400:111|469:44,1,140,2|2,3:2|1:2,0:0:0:0:
392,29,22839,2,0,P|401:90|451:169,1,140,2|2,0:2|0:2,0:0:0:0:
458,232,23339,2,0,P|411:224|358:221,1,70,0|0,1:0|0:0,0:0:0:0:
335,277,23672,1,0,3:0:0:0:
199,220,24005,5,0,1:0:0:0:
122,211,24172,1,0,0:0:0:0:
93,279,24339,2,0,P|94:325|111:361,1,70,0|0,3:0|0:0,0:0:0:0:
182,372,24672,2,0,P|233:372|260:358,1,70,0|0,1:0|0:0,0:0:0:0:
304,310,25005,6,0,P|376:290|418:341,1,140,0|0,3:0|1:0,0:0:0:0:
487,368,25505,2,0,P|471:317|504:232,1,140
433,198,26005,2,0,L|419:120,1,70,0|0,1:0|0:0,0:0:0:0:
475,73,26339,5,0,3:0:0:0:
327,38,26672,2,0,L|237:24,1,70,0|0,1:0|0:0,0:0:0:0:
184,2,27005,1,0,3:0:0:0:
123,50,27172,1,0,3:0:0:0:
133,127,27339,1,0,1:0:0:0:
201,163,27505,1,0,3:0:0:0:
255,108,27672,2,0,L|328:118,1,70,0|0,3:0|0:0,0:0:0:0:
389,76,28005,5,0,1:0:0:0:
461,102,28172,1,0,0:0:0:0:
454,179,28339,2,0,P|461:223|468:258,2,70,0|0|0,3:0|0:0|1:0,0:0:0:0:
467,102,28839,1,0,0:0:0:0:
502,33,29005,1,0,3:0:0:0:
349,11,29339,1,0,1:0:0:0:
285,53,29505,1,0,0:0:0:0:
220,30,29672,2,0,P|181:23|145:26,1,70,0|0,3:0|1:0,0:0:0:0:
104,86,30005,1,0,0:0:0:0:
25,222,30339,5,4,3:2:0:0:
100,358,30672,1,0,1:0:0:0:
176,365,30839,1,0,3:0:0:0:
228,308,31005,2,0,P|290:296|342:357,1,140,0|0,3:0|1:0,2:0:0:0:
414,365,31505,1,0,3:0:0:0:
394,290,31672,2,0,P|388:240|454:176,1,140,0|0,3:0|1:0,2:0:0:0:
492,114,32172,1,0,0:0:0:0:
428,70,32339,2,0,L|350:64,1,70,0|0,3:0|0:0,0:0:0:0:
302,117,32672,2,0,L|221:109,1,70,0|0,1:0|0:0,0:0:0:0:
167,67,33005,6,0,P|114:68|66:141,1,140,2|0,3:0|1:0,0:0:0:0:
23,198,33505,1,2,3:0:0:0:
100,319,33839,1,2,3:0:0:0:
213,215,34172,1,2,3:0:0:0:
299,214,34339,2,0,L|368:207,1,70
452,225,34672,6,0,P|480:254|485:307,1,70,2|0,1:2|0:2,0:2:0:0:
458,353,35005,1,2,3:2:0:0:
390,316,35172,1,0,0:0:0:0:
240,354,35505,2,0,P|186:367|102:339,1,140,2|0,0:2|0:2,0:2:0:0:
30,349,36005,1,0,1:0:0:0:
5,275,36172,1,0,0:0:0:0:
63,224,36339,2,0,L|56:139,2,70,0|0|0,3:0|3:0|1:0,0:0:0:0:
122,273,36839,6,0,L|195:286,1,70,0|0,0:0|3:0,0:0:0:0:
254,241,37172,2,0,L|335:255,1,70,0|0,0:0|1:0,0:0:0:0:
377,307,37505,1,0,0:0:0:0:
490,203,37839,2,0,P|504:173|471:69,1,140
419,126,38339,6,0,L|338:141,1,70,0|0,3:0|0:0,0:0:0:0:
297,82,38672,1,0,1:0:0:0:
247,23,38839,2,0,L|150:12,1,70,0|0,0:0|3:0,0:0:0:0:
100,6,39172,1,0,0:0:0:0:
167,144,39505,1,0,0:0:0:0:
4,308,40005,6,0,L|15:378,1,70,2|0,1:2|0:2,0:2:0:0:
83,340,40339,1,2,3:2:0:0:
158,328,40505,2,0,L|236:348,1,70,2|0,0:2|1:2,0:0:0:0:
300,366,40839,2,0,P|331:336|306:239,1,140,2|0,0:2|0:2,0:2:0:0:
247,214,41339,2,0,P|227:172|237:139,1,70,0|0,1:0|0:0,0:0:0:0:
294,99,41672,1,0,3:0:0:0:
368,118,41839,2,0,L|450:131,1,70,0|0,0:0|1:0,0:0:0:0:
491,183,42172,1,0,0:0:0:0:
453,33,42505,1,0,0:0:0:0:
337,135,42839,5,0,0:0:0:0:
276,87,43005,1,0,0:0:0:0:
217,137,43172,2,0,P|165:138|145:119,1,70
96,75,43505,1,0,0:0:0:0:
19,84,43672,2,0,L|0:240,1,140,0|0,3:0|1:0,0:0:0:0:
78,199,44172,2,0,P|130:203|152:227,1,70,0|0,3:0|3:0,0:0:0:0:
190,273,44505,2,0,P|223:253|276:251,1,70,0|0,3:0|1:0,0:0:0:0:
323,280,44839,1,0,3:0:0:0:
385,323,45005,6,0,P|441:329|507:269,1,140,0|0,0:0|1:0,0:0:0:0:
494,202,45505,1,0,0:0:0:0:
463,130,45672,2,0,L|492:52,1,70,0|0,3:0|3:0,0:0:0:0:
410,64,46005,2,0,L|334:71,1,70,0|0,1:0|0:0,0:0:0:0:
266,94,46339,5,0,3:0:0:0:
113,73,46672,1,0,1:0:0:0:
118,149,46839,1,0,0:0:0:0:
16,264,47172,1,0,0:0:0:0:
131,365,47505,1,0,0:0:0:0:
197,325,47672,6,0,L|298:347,2,70,0|0|0,3:0|3:0|1:0,0:0:0:0:
140,273,48172,1,0,3:0:0:0:
83,220,48339,2,0,L|8:240,2,70,0|0|0,3:0|3:0|1:0,0:0:0:0:
141,169,48839,1,0,3:0:0:0:
207,207,49005,1,0,3:0:0:0:
296,81,49339,6,0,P|330:64|367:66,1,70,2|0,1:2|0:0,0:0:0:0:
392,135,49672,1,2,3:2:0:0:
336,189,49839,1,2,0:2:0:0:
444,254,50172,2,0,P|483:272|481:371,1,140,2|0,0:0|3:0,0:0:0:0:
414,351,50672,5,0,1:0:0:0:
339,372,50839,1,0,3:0:0:0:
287,315,51005,1,0,3:0:0:0:
220,353,51172,1,0,1:0:0:0:
145,333,51339,2,0,L|70:337,1,70,0|0,3:0|3:0,0:0:0:0:
10,294,51672,1,4,0:2:0:0:
12,140,52005,6,0,P|38:108|86:90,1,70,0|2,1:0|0:0,0:0:0:0:
127,137,52339,1,0,3:0:0:0:
183,85,52505,1,2,0:0:0:0:
121,38,52672,1,0,1:0:0:0:
62,88,52839,2,0,L|43:167,1,70,2|0,0:1|3:0,0:0:0:0:
100,210,53172,2,0,L|126:284,1,70,2|0,0:1|1:0,0:0:0:0:
146,349,53505,2,0,P|183:327|272:352,1,140,2|0,0:1|0:0,0:0:0:0:
342,381,54005,1,0,1:0:0:0:
397,327,54172,1,0,3:0:0:0:
397,327,54255,1,0,3:0:0:0:
397,327,54339,1,0,3:0:0:0:
391,173,54672,6,0,L|405:88,2,70,0|2|0,1:0|3:2|3:0,0:0:0:0:
328,218,55172,1,2,3:2:0:0:
259,181,55339,1,0,1:0:0:0:
197,226,55505,2,0,P|141:231|118:224,1,70,2|0,0:1|3:0,0:0:0:0:
78,287,55839,2,0,P|42:257|31:164,1,140,2|2,0:1|0:1,0:0:0:0:
4,95,56339,2,0,P|46:78|79:82,1,70,2|2,3:1|0:0,0:0:0:0:
123,23,56672,2,0,P|146:52|157:94,1,70,2|2,1:0|0:0,0:0:0:0:
139,158,57005,5,6,3:2:0:0:
272,235,57339,1,0,1:0:0:0:
325,180,57505,1,2,3:2:0:0:
476,206,57839,1,2,3:2:0:0:
451,133,58005,1,0,1:0:0:0:
378,106,58172,1,2,0:0:0:0:
318,155,58339,6,0,B|230:168|263:114|166:141,1,140,2|0,3:3|1:0,0:0:0:0:
108,171,58839,1,0,3:0:0:0:
88,245,59005,2,0,P|106:280|137:301,1,70,0|0,3:0|3:0,0:0:0:0:
183,354,59339,2,0,P|245:341|264:324,1,70,0|0,1:0|3:1,0:0:0:0:
320,307,59672,5,2,3:2:0:0:
463,252,60005,1,0,3:0:0:0:
496,321,60172,1,2,3:2:0:0:
346,284,60505,1,2,3:2:0:0:
316,212,60672,1,0,3:0:0:0:
375,162,60839,1,2,0:0:0:0:
449,178,61005,6,0,P|449:133|428:105,1,70,0|0,3:0|0:0,0:0:0:0:
386,53,61339,2,0,B|305:44|347:91|242:88,1,140,0|0,1:0|3:0,0:0:0:0:
186,51,61839,1,0,3:0:0:0:
115,81,62005,2,0,L|39:87,1,70,0|0,1:0|3:0,0:0:0:0:
9,155,62339,5,2,3:2:0:0:
54,302,62672,1,0,1:2:0:0:
118,260,62839,1,2,3:2:0:0:
242,350,63172,1,2,3:2:0:0:
299,298,63339,2,0,P|321:303|367:317,1,70,2|0,1:3|0:0,0:0:0:0:
401,247,63672,2,0,P|431:253|476:267,1,70,2|0,3:3|0:0,0:0:0:0:
465,187,64005,6,0,P|465:131|452:111,1,70,0|0,1:0|0:0,0:0:0:0:
414,56,64339,2,0,P|375:80|340:78,1,70,0|0,3:0|0:0,0:0:0:0:
345,161,64672,2,0,P|306:148|268:155,1,70,0|0,1:0|0:0,0:0:0:0:
234,81,65005,2,0,P|139:76|110:127,1,140,4|0,3:2|1:0,0:0:0:0:
67,164,65505,1,0,0:0:0:0:
128,210,65672,2,0,P|168:236|249:182,1,140,0|0,3:0|1:0,0:0:0:0:
290,136,66172,1,0,3:0:0:0:
361,106,66339,6,0,L|430:120,1,70,0|0,3:0|0:0,0:0:0:0:
467,187,66672,1,0,1:0:0:0:
457,263,66839,1,0,3:0:0:0:
383,284,67005,2,0,L|308:297,1,70,0|0,3:0|3:0,0:0:0:0:
254,345,67339,1,0,1:0:0:0:
103,314,67672,5,6,3:2:0:0:
39,173,68005,1,0,1:2:0:0:
68,101,68172,1,2,0:2:0:0:
201,27,68505,1,2,0:2:0:0:
277,38,68672,1,0,1:2:0:0:
271,114,68839,1,2,0:2:0:0:
194,110,69005,6,0,P|181:153|164:255,1,140,2|0,3:0|1:0,0:0:0:0:
174,323,69505,1,0,3:0:0:0:
247,346,69672,2,0,L|332:358,1,70,0|0,3:0|3:0,0:0:0:0:
357,290,70005,2,0,L|453:302,1,70,0|0,1:0|3:0,0:0:0:0:
486,347,70339,5,2,3:2:0:0:
445,198,70672,1,0,1:2:0:0:
471,125,70839,1,2,0:2:0:0:
345,35,71172,1,2,0:2:0:0:
269,18,71339,1,0,1:2:0:0:
251,92,71505,1,2,0:2:0:0:
326,105,71672,6,0,P|338:150|341:191,1,70,0|0,3:0|0:0,0:0:0:0:
266,193,72005,2,0,P|250:231|228:352,1,140,0|0,1:0|3:0,0:0:0:0:
162,365,72505,1,0,3:0:0:0:
95,325,72672,2,0,L|22:344,1,70,0|0,3:0|3:0,0:0:0:0:
3,269,73005,5,2,3:2:0:0:
58,125,73339,1,0,1:2:0:0:
127,92,73505,1,2,0:2:0:0:
222,213,73839,1,0,0:2:0:0:
297,225,74005,2,0,P|331:234|376:237,1,70,2|0,1:3|0:3,0:3:0:0:
417,177,74339,2,0,P|459:183|493:182,1,70,2|0,3:3|0:3,0:3:0:0:
504,107,74672,6,0,P|472:73|379:111,1,140,0|0,1:2|3:0,0:0:0:0:
334,146,75172,1,0,3:0:0:0:
263,115,75339,2,0,P|208:108|168:106,1,70,4|0,1:2|0:0,0:0:0:0:
119,84,75672,2,0,P|77:88|17:189,1,140,4|0,3:2|1:0,0:0:0:0:
35,233,76172,1,0,0:0:0:0:
61,305,76339,2,0,L|49:380,2,70,0|0|0,3:0|0:0|1:0,0:0:0:0:
109,245,76839,2,0,P|152:219|236:257,1,140,0|0,0:0|3:0,0:0:0:0:
274,312,77339,1,0,0:0:0:0:
427,312,77672,6,0,P|452:278|459:245,2,70,2|2|2,3:2|0:2|1:2,0:0:0:0:
349,315,78172,2,0,P|303:313|230:377,1,140,2|0,0:0|0:0,0:0:0:0:
156,361,78672,1,2,1:2:0:0:
81,342,78839,1,2,0:2:0:0:
101,268,79005,1,2,3:2:0:0:
176,285,79172,2,0,L|251:266,1,70,2|2,0:2|1:2,0:0:0:0:
320,257,79505,2,0,P|364:235|386:141,1,140,2|2,0:1|0:1,0:0:0:0:
357,82,80005,1,2,1:1:0:0:
208,38,80339,6,0,L|134:47,2,70,0|0|0,3:0|0:0|1:0,0:0:0:0:
284,26,80839,2,0,P|281:62|196:120,1,140
127,133,81339,1,2,1:2:0:0:
50,128,81505,1,2,0:2:0:0:
47,205,81672,1,2,3:2:0:0:
123,215,81839,2,0,P|167:223|196:223,1,70,2|0,0:2|1:2,0:2:0:0:
254,177,82172,2,0,P|295:174|364:248,1,140,2|2,0:1|0:1,0:0:0:0:
375,314,82672,1,2,1:1:0:0:
443,278,82839,6,0,L|528:308,2,70,0|2|2,0:0|3:2|0:2,0:0:0:0:
377,319,83339,1,0,1:2:0:0:
307,287,83505,1,0,0:0:0:0:
244,331,83672,1,4,3:2:0:0:
97,284,84005,5,0,1:0:0:0:
38,333,84172,1,0,0:0:0:0:
7,262,84339,2,0,P|8:202|20:165,1,70,0|0,3:0|0:0,0:0:0:0:
58,132,84672,1,0,1:0:0:0:
58,132,84839,1,0,0:0:0:0:
122,173,85005,2,0,P|186:174|204:172,1,70,0|0,3:0|0:0,0:0:0:0:
249,125,85339,1,0,1:0:0:0:
308,76,85505,1,0,0:0:0:0:
329,150,85672,2,0,L|343:233,1,70,0|0,3:0|0:0,0:0:0:0:
355,294,86005,5,0,1:0:0:0:
413,344,86172,1,0,0:0:0:0:
436,270,86339,2,0,L|460:190,1,70,0|0,0:0|0:0,3:0:0:0:
487,132,86672,5,0,1:0:0:0:
450,63,86839,1,0,0:0:0:0:
400,121,87005,2,0,L|319:120,1,70,0|0,3:0|0:0,0:0:0:0:
260,85,87339,5,0,1:0:0:0:
227,154,87505,1,0,0:0:0:0:
179,92,87672,2,0,L|84:86,1,70,0|0,3:0|0:0,0:0:0:0:
54,33,88005,1,0,1:0:0:0:
18,101,88172,1,0,0:0:0:0:
9,177,88339,2,0,P|6:227|18:261,2,70,0|0|0,3:0|0:0|1:0,0:0:0:0:
82,153,88839,1,0,0:0:0:0:
136,207,89005,2,0,L|294:222,1,140,6|0,3:2|0:0,0:0:0:0:
496,195,93339,6,0,L|415:211,1,70,2|0,0:0|0:0,0:0:0:0:
350,214,93672,2,0,L|328:288,2,70,2|2|0,0:0|0:0|0:0,0:0:0:0:
379,142,94172,1,2,0:0:0:0:
16,195,98672,6,0,L|97:211,1,70,2|0,0:0|0:0,0:0:0:0:
162,214,99005,2,0,L|184:288,2,70,2|2|0,0:0|0:0|0:0,0:0:0:0:
133,142,99505,1,2,0:0:0:0:
214,111,104339,6,0,P|207:75|223:37,1,70,0|0,3:0|0:0,0:0:0:0:
294,44,104672,2,0,P|304:76|297:110,1,70,0|0,1:0|0:0,0:0:0:0:
255,175,105005,2,0,L|102:225,1,140,4|0,3:2|1:0,0:0:0:0:
55,257,105505,2,0,L|183:350,1,140,4|4,0:0|0:0,0:0:0:0:
240,367,106005,1,0,0:0:0:0:
294,312,106172,1,4,0:0:0:0:
358,269,106339,6,0,P|394:282|417:311,2,70,0|0|0,3:0|3:0|1:0,0:0:0:0:
285,242,106839,1,0,3:0:0:0:
213,213,107005,2,0,L|139:231,1,70,0|0,3:0|3:0,0:0:0:0:
94,170,107339,2,0,L|15:184,1,70,0|0,1:0|3:0,0:0:0:0:
4,107,107672,1,0,3:0:0:0:
129,17,108005,6,0,P|171:24|192:58,1,70,2|2,0:1|0:1,0:0:0:0:
241,99,108339,2,0,P|262:64|314:56,1,70,2|0,0:1|0:0,0:0:0:0:
364,55,108672,1,0,0:0:0:0:
397,124,108839,1,2,0:1:0:0:
330,161,109005,2,0,B|298:238|349:217|315:310,1,140,0|0,3:0|1:0,0:0:0:0:
258,346,109505,1,0,3:0:0:0:
190,308,109672,2,0,L|127:320,7,35,4|0|0|0|0|0|0|0,0:0|0:0|0:0|0:0|3:0|0:0|3:0|0:0,0:0:0:0:
124,337,110339,6,0,P|80:343|19:273,1,140,4|0,1:2|3:0,0:0:0:0:
50,207,110839,1,0,3:0:0:0:
50,207,110922,1,2,0:3:0:0:
50,207,111005,2,0,P|86:193|136:183,1,70,0|0,3:0|0:0,0:0:0:0:
184,222,111339,2,0,P|235:212|265:213,1,70,2|2,1:3|3:3,0:0:0:0:
318,253,111672,2,0,P|379:257|453:182,1,140,0|2,3:0|1:3,0:0:0:0:
462,138,112172,1,2,3:0:0:0:
465,60,112339,2,0,L|488:-10,2,70,2|2|2,3:0|0:0|1:2,0:0:0:0:
395,93,112839,1,2,3:0:0:0:
324,63,113005,6,0,B|237:50|260:102|166:86,1,140,2|2,3:0|1:2,0:0:0:0:
119,56,113505,1,0,3:0:0:0:
47,85,113672,2,0,P|23:125|51:223,1,140,0|0,3:0|1:0,0:0:0:0:
103,273,114172,1,2,3:3:0:0:
103,273,114255,1,2,0:3:0:0:
103,273,114339,2,0,L|193:254,1,70,2|0,3:3|3:0,0:0:0:0:
240,223,114672,6,0,P|286:234|311:262,1,70,2|0,1:1|3:0,0:0:0:0:
365,293,115005,2,0,L|379:362,2,70,2|2|0,3:1|0:1|0:0,0:0:0:0:
390,220,115505,2,0,P|421:204|440:88,1,140,2|0,3:1|0:0,0:0:0:0:
404,47,116005,1,0,1:0:0:0:
337,86,116172,2,0,P|278:95|254:97,1,70,0|0,3:0|3:0,0:0:0:0:
200,57,116505,2,0,P|157:46|124:44,1,70,0|0,0:0|1:0,0:0:0:0:
55,29,116839,1,2,0:0:0:0:
33,107,117005,5,0,0:0:0:0:
33,107,117089,1,2,0:0:0:0:
33,107,117172,1,0,0:0:0:0:
106,130,117339,1,2,1:2:0:0:
112,206,117505,2,0,P|87:255|74:344,1,140,0|0,3:0|0:0,0:0:0:0:
154,369,118005,2,0,P|193:362|233:360,1,70,0|0,1:0|3:0,0:0:0:0:
223,360,118255,1,0,3:0:0:0:
223,360,118339,5,0,3:0:0:0:
283,312,118505,1,0,0:0:0:0:
354,340,118672,1,0,1:0:0:0:
428,314,118839,1,0,3:0:0:0:
440,238,119005,1,0,3:0:0:0:
394,175,119172,1,0,0:0:0:0:
318,191,119339,2,0,P|280:193|249:190,1,70,0|0,1:0|3:0,0:0:0:0:
182,149,119672,6,0,P|136:133|51:182,1,140,0|2,3:0|1:0,0:0:0:0:
29,242,120172,1,0,0:0:0:0:
42,317,120339,2,0,L|49:361,7,35,6|0|2|0|0|0|2|0,3:1|0:0|3:0|0:0|1:2|0:0|1:0|0:0,1:0:0:0:
53,384,121005,6,0,P|101:374|144:269,1,140,4|0,3:2|1:0,0:0:0:0:
132,225,121505,1,0,0:0:0:0:
56,242,121672,1,0,3:0:0:0:
24,171,121839,1,0,0:0:0:0:
71,108,122005,1,0,1:0:0:0:
141,139,122172,2,0,L|223:128,1,70,0|0,3:0|0:0,0:0:0:0:
242,59,122505,5,0,1:0:0:0:
313,29,122672,1,0,1:0:0:0:
384,59,122839,1,0,3:0:0:0:
414,130,123005,1,0,3:0:0:0:
384,201,123172,1,0,0:0:0:0:
313,230,123339,1,0,1:0:0:0:
242,201,123505,1,0,3:0:0:0:
212,130,123672,6,0,P|155:111|127:110,1,70,0|0,3:0|0:0,0:0:0:0:
68,107,124005,1,0,1:0:0:0:
12,160,124172,1,0,3:0:0:0:
36,233,124339,1,0,3:0:0:0:
110,249,124505,1,0,0:0:0:0:
163,193,124672,1,0,1:0:0:0:
150,116,124839,6,0,P|135:60|55:13,1,140,0|0,3:0|0:0,0:0:0:0:
3,53,125339,1,0,1:0:0:0:
24,135,125505,1,0,3:0:0:0:
24,135,125589,1,0,3:0:0:0:
24,135,125672,2,0,P|32:171|38:217,1,70,0|0,3:0|0:0,0:0:0:0:
111,249,126005,2,0,P|119:287|120:323,1,70,0|0,1:0|3:0,0:0:0:0:
120,318,126255,1,0,3:0:0:0:
120,318,126339,6,0,P|168:337|264:305,1,140,0|0,3:0|1:0,0:0:0:0:
272,242,126839,2,0,P|302:222|359:228,1,70,0|0,0:0|3:0,0:0:0:0:
404,253,127172,2,0,P|453:254|495:164,1,140,0|0,0:0|3:0,0:0:0:0:
465,114,127672,5,0,3:0:0:0:
388,104,127839,1,0,0:0:0:0:
337,161,128005,1,0,1:0:0:0:
259,164,128172,1,0,3:0:0:0:
200,113,128339,1,0,3:0:0:0:
141,62,128505,1,0,0:0:0:0:
64,71,128672,2,0,P|32:102|28:126,1,70,0|0,1:0|3:0,0:0:0:0:
95,162,129005,6,0,P|119:188|127:227,2,70,0|0|0,3:0|0:0|1:0,0:0:0:0:
48,223,129505,2,0,P|59:276|151:297,1,140
195,257,130005,2,0,P|224:253|272:268,1,70,0|0,1:0|0:0,0:0:0:0:
320,314,130339,5,0,3:0:0:0:
395,303,130505,1,0,3:0:0:0:
420,230,130672,1,0,1:0:0:0:
377,165,130839,1,0,1:0:0:0:
302,183,131005,2,0,P|264:185|216:180,1,70,0|8,0:0|1:2,0:0:0:0:
154,154,131339,1,0,1:0:0:0:
130,81,131505,1,4,3:2:0:0:
130,81,131589,1,0,3:0:0:0:
130,81,131672,2,0,P|135:45|148:5,1,70,4|0,3:2|0:0,0:0:0:0:
221,14,132005,6,0,B|246:25|246:25|279:80,1,70,2|2,1:1|0:1,0:1:0:0:
299,132,132339,2,0,B|324:105|324:105|374:105,1,70,2|2,0:1|0:1,0:1:0:0:
434,111,132672,1,0,1:1:0:0:
479,173,132839,2,0,B|497:223|497:223|484:318,1,140,2|2,0:1|0:1,0:1:0:0:
417,346,133339,1,0,0:0:0:0:
352,304,133505,2,0,B|323:277|323:277|219:284,1,140,2|0,0:1|0:1,0:1:0:0:
169,339,134005,1,0,1:1:0:0:
94,320,134172,1,0,3:1:0:0:
94,320,134255,1,0,3:1:0:0:
94,320,134339,1,0,3:1:0:0:
9,191,134672,6,0,B|28:164|28:164|88:162,1,70,2|2,1:1|0:1,0:1:0:0:
131,201,135005,2,0,B|153:224|153:224|199:224,1,70,2|2,0:1|0:1,0:1:0:0:
252,176,135339,1,0,1:1:0:0:
318,213,135505,2,0,B|375:210|375:210|395:180,1,70,2|0,0:1|0:0,0:1:0:0:
458,183,135839,2,2,B|472:125|472:125|419:55,1,140,2|2,0:1|0:1,0:1:0:0:
355,25,136339,2,0,B|307:22|307:22|284:47,1,70,2|0,0:1|0:0,0:1:0:0:
252,104,136672,1,2,1:1:0:0:
103,63,137005,6,0,P|31:59|15:131,1,140,2|0,0:2|1:0,0:0:0:0:
39,184,137505,2,0,P|19:228|75:298,1,140,2|2,0:2|0:2,0:0:0:0:
133,336,138005,1,0,0:0:0:0:
193,287,138172,1,2,0:2:0:0:
259,326,138339,2,0,P|291:329|349:328,1,70
393,369,138672,2,0,P|414:333|428:302,1,70
498,282,139005,2,0,P|486:235|416:144,1,140
288,206,139672,6,0,P|228:215|162:169,1,140,2|0,0:2|0:0,0:0:0:0:
91,198,140172,2,0,P|73:164|111:69,1,140,2|2,0:2|0:2,0:2:0:0:
165,26,140672,1,0,0:0:0:0:
216,83,140839,1,2,0:2:0:0:
284,49,141005,2,0,P|327:45|363:56,1,70
408,105,141339,2,0,L|396:183,1,70
391,251,141672,2,0,P|437:279|472:280,1,70
469,356,142005,2,0,P|428:358|393:377,1,70,0|0,0:0|3:0,0:0:0:0:
340,322,142339,6,0,B|258:302|276:344|202:322,1,140,2|0,0:2|0:2,0:2:0:0:
132,355,142839,2,0,P|83:353|39:266,1,140,2|2,0:2|0:2,0:2:0:0:
2,213,143339,2,0,P|12:170|21:135,1,70,2|2,0:3|0:2,0:0:0:0:
47,73,143672,1,2,0:3:0:0:
145,191,144005,6,2,B|133:220|133:220|151:278,1,70,2|0,1:1|0:0,3:1:0:0:
218,281,144339,2,0,B|244:270|244:270|302:279,1,70,2|0,3:1|0:0,3:2:0:0:
350,318,144672,2,0,B|376:321|376:321|418:293,1,70,2|0,1:1|0:0,0:0:0:0:
488,286,145005,2,0,B|500:249|500:249|468:139,1,140,2|0,3:1|1:0,0:0:0:0:
429,87,145505,1,0,3:0:0:0:
379,146,145672,2,0,B|351:162|351:162|233:153,1,140,2|0,3:1|1:0,0:0:0:0:
184,104,146172,1,2,0:1:0:0:
110,126,146339,6,0,B|66:130|36:107,1,70,0|0,3:0|0:0,0:0:0:0:
5,50,146672,2,0,P|28:29|80:29,1,70,0|0,1:0|3:0,0:0:0:0:
142,31,147005,2,0,P|205:46|293:77,1,140,0|0,3:0|1:0,0:0:0:0:
426,35,147672,6,0,P|481:65|497:137,1,140,2|0,3:2|0:0,0:0:0:0:
467,207,148172,2,0,P|487:251|431:321,1,140,2|2,3:2|3:2,3:2:0:0:
367,350,148672,1,0,0:0:0:0:
318,290,148839,1,2,0:2:0:0:
249,326,149005,2,0,P|217:329|159:328,1,70
113,370,149339,2,0,P|92:334|78:303,1,70
8,279,149672,2,0,P|20:232|90:141,1,140
218,202,150339,6,0,P|278:211|344:165,1,140,2|0,0:2|0:2,0:2:0:0:
415,194,150839,2,0,P|433:160|395:65,1,140,2|2,0:2|0:2,0:2:0:0:
341,22,151339,1,0,0:0:0:0:
296,85,151505,1,2,0:2:0:0:
228,49,151672,2,0,P|185:45|149:56,1,70
104,105,152005,2,0,L|116:183,1,70
121,251,152339,2,0,P|75:279|40:280,1,70
43,356,152672,2,0,P|84:358|119:377,1,70,0|0,0:0|3:0,0:0:0:0:
172,322,153005,6,0,B|250:300|230:346|310:335,1,140,2|0,0:2|0:2,0:2:0:0:
380,355,153505,2,0,P|429:353|473:266,1,140,2|2,0:2|0:2,0:2:0:0:
510,213,154005,2,0,P|500:170|491:135,1,70,2|2,0:3|0:2,0:0:0:0:
474,69,154339,1,2,0:3:0:0:
365,179,154672,6,2,B|332:196|332:196|272:189,1,70,2|0,1:1|0:0,0:1:0:0:
236,147,155005,2,0,B|212:128|212:128|158:135,1,70,2|0,3:1|0:0,0:0:0:0:
119,189,155339,2,0,B|93:209|93:209|24:205,1,70,2|0,1:1|0:0,0:0:0:0:
15,141,155672,2,0,B|22:102|22:102|127:75,1,140,2|0,3:1|1:0,0:0:0:0:
174,23,156172,1,0,0:0:0:0:
208,92,156339,2,0,B|239:118|239:118|343:104,1,140,2|0,3:1|1:0,0:0:0:0:
397,56,156839,2,0,B|430:49|430:49|457:93,1,70,2|0,0:1|3:0,0:0:0:0:
407,145,157172,1,2,0:1:0:0:
460,200,157339,2,0,B|435:229|435:229|387:215,1,70,2|0,1:1|0:0,0:0:0:0:
327,227,157672,6,0,B|279:230|279:230|257:270,2,70,2|2|2,3:1|0:1|1:1,0:0:0:0:
361,295,158172,2,0,B|381:338|381:338|473:357,1,140,2|0,0:1|0:0,0:0:0:0:
484,280,158672,6,0,P|487:231|472:193,1,70,2|2,1:2|0:2,0:0:0:0:
439,146,159005,2,0,P|434:97|444:53,2,70,2|2|0,3:2|0:2|1:0,0:0:0:0:
409,217,159505,2,0,P|375:211|318:229,1,70,2|0,0:2|0:0,0:0:0:0:
280,266,159839,1,2,0:2:0:0:
220,314,160005,2,0,P|178:320|124:300,1,70,2|0,1:2|0:0,0:0:0:0:
109,250,160339,6,0,B|87:242|87:242|38:259,1,70,2|2,3:1|0:1,0:0:0:0:
4,190,160672,1,2,1:1:0:0:
46,125,160839,2,0,B|66:100|66:100|192:115,1,140,2|0,0:1|0:0,0:0:0:0:
225,55,161339,6,0,P|272:43|306:58,1,70,2|2,1:2|0:0,0:0:0:0:
354,92,161672,2,0,P|399:106|435:92,1,70,2|2,3:2|3:2,0:0:0:0:
480,52,162005,1,0,1:0:0:0:
493,127,162172,2,0,P|473:162|463:269,1,140,2|2,0:0|0:0,0:0:0:0:
439,333,162672,1,2,1:2:0:0:
379,284,162839,5,2,3:1:0:0:
325,339,163005,2,0,B|294:360|294:360|235:357,1,70,2|2,3:1|0:1,0:0:0:0:
207,302,163339,1,2,1:1:0:0:
142,343,163505,1,2,3:1:0:0:
135,266,163672,2,0,B|98:245|98:245|51:249,1,70,0|0,3:0|0:0,0:0:0:0:
32,78,169004,6,0,L|101:117,1,70,4|0,3:2|0:0,0:0:0:0:
149,166,169339,1,0,1:0:0:0:
211,121,169505,1,2,3:2:0:0:
349,188,169839,1,2,3:2:0:0:
413,228,170005,1,0,1:0:0:0:
472,277,170172,1,2,0:2:0:0:
401,308,170339,2,0,P|357:314|321:333,1,70,0|0,3:0|0:0,0:0:0:0:
260,349,170672,2,0,P|234:340|184:335,1,70,0|0,1:0|0:0,0:0:0:0:
116,355,171005,2,0,P|57:360|7:293,1,140,0|0,3:0|1:0,0:0:0:0:
8,148,171672,6,0,L|86:119,1,70,2|0,3:2|0:0,0:0:0:0:
146,97,172005,1,0,1:0:0:0:
216,128,172172,1,2,0:2:0:0:
366,95,172505,1,2,0:2:0:0:
442,103,172672,1,0,1:0:0:0:
434,179,172839,1,2,0:2:0:0:
357,170,173005,2,0,P|317:177|287:195,1,70,2|0,3:0|0:0,0:0:0:0:
245,253,173339,2,2,P|213:239|163:226,1,70,2|0,1:0|0:0,0:0:0:0:
112,267,173672,2,0,P|63:257|35:177,1,140,2|2,3:0|1:0,0:0:0:0:
90,35,174339,6,0,L|177:59,1,70,2|0,3:2|0:0,0:0:0:0:
227,85,174672,1,0,1:0:0:0:
296,51,174839,1,2,0:2:0:0:
440,105,175172,1,2,0:2:0:0:
473,174,175339,2,0,P|481:224|477:253,1,70,2|0,0:3|0:0,0:0:0:0:
430,303,175672,2,0,P|386:311|349:308,1,70,2|0,3:3|0:0,0:0:0:0:
297,265,176004,6,0,P|257:257|167:325,1,140,2|2,0:1|0:1,0:0:0:0:
122,361,176505,1,0,0:2:0:0:
49,333,176672,2,0,L|46:258,1,70,2|2,0:1|0:2,0:0:0:0:
3,198,177005,6,0,P|10:142|92:104,1,140,4|8,3:2|1:3,0:0:0:0:
143,142,177505,1,4,3:0:0:0:
197,87,177672,2,4,P|257:80|309:164,1,140,4|0,3:0|1:3,3:0:0:0:
316,211,178172,1,0,3:0:0:0:
382,250,178339,2,0,P|391:298|371:341,1,70,4|0,3:0|0:0,0:0:0:0:
319,357,178672,2,0,P|272:361|238:347,1,70,8|0,1:3|0:0,0:0:0:0:
201,295,179005,1,4,3:3:0:0:
47,305,179339,1,8,1:3:0:0:
28,152,179671,6,0,P|52:118|74:94,1,70,6|0,3:2|0:0,0:0:0:0:
131,48,180005,1,0,1:0:0:0:
189,98,180172,2,0,P|224:104|332:102,1,140,2|2,0:0|0:0,0:0:0:0:
382,47,180672,1,0,1:0:0:0:
456,65,180839,1,2,0:0:0:0:
473,139,181005,1,0,3:0:0:0:
424,199,181172,1,0,0:0:0:0:
353,167,181339,2,0,P|312:180|288:200,1,70,0|0,1:0|0:0,0:0:0:0:
261,267,181672,2,0,P|212:229|132:219,1,140,0|0,3:0|1:0,0:0:0:0:
9,305,182339,6,0,P|40:329|139:293,1,140,2|2,3:3|1:2,0:0:0:0:
176,367,182839,2,0,P|220:325|298:351,1,140,2|2,0:3|0:2,0:0:0:0:
367,355,183339,2,0,P|416:355|450:349,1,70,2|2,1:3|0:2,0:0:0:0:
493,300,183672,1,2,3:0:0:0:
489,222,183839,1,2,0:0:0:0:
424,181,184005,2,2,P|374:184|330:184,1,70,2|2,1:0|0:0,0:0:0:0:
276,179,184339,1,2,3:0:0:0:
232,116,184505,1,2,0:0:0:0:
264,46,184672,2,2,P|309:38|349:42,1,70,2|2,1:0|0:0,0:0:0:0:
406,66,185005,5,0,3:0:0:0:
301,179,185339,1,0,1:0:0:0:
315,254,185505,1,0,0:0:0:0:
180,329,185839,1,0,0:0:0:0:
124,382,186005,2,2,P|82:376|52:369,1,70,2|0,1:3|0:0,0:2:0:0:
68,293,186339,2,0,P|26:287|-4:280,1,70,2|0,3:3|0:0,0:0:0:0:
5,203,186672,6,0,P|3:160|82:101,1,140,2|2,1:2|3:2,0:0:0:0:
141,141,187172,1,0,0:0:0:0:
196,87,187339,2,0,L|271:94,1,70,2|2,1:2|0:2,0:0:0:0:
341,107,187672,2,0,P|402:81|419:0,1,140,4|0,3:2|1:0,0:0:0:0:
346,27,188172,1,0,0:0:0:0:
278,64,188339,2,0,L|129:47,1,140,0|0,3:0|1:0,0:0:0:0:
79,97,188839,1,0,0:0:0:0:
66,20,189005,2,0,P|11:60|9:128,1,140,0|0,3:0|1:0,0:0:0:0:
71,174,189505,1,0,0:0:0:0:
132,221,189672,6,0,L|120:297,2,70,2|2|2,3:2|3:2|1:2,0:0:0:0:
189,170,190172,2,0,B|252:146|241:200|332:180,1,140,2|0,0:2|0:0,0:0:0:0:
354,110,190672,1,2,1:1:0:0:
431,111,190839,1,2,0:1:0:0:
449,185,191005,1,2,3:1:0:0:
384,227,191172,2,0,P|372:260|367:296,1,70,0|0,0:0|1:0,0:0:0:0:
329,362,191505,2,0,P|298:333|195:310,1,140,2|2,1:0|3:1,0:0:0:0:
137,344,192005,1,2,1:1:0:0:
30,232,192339,6,0,L|4:302,2,70,2|2|2,1:2|0:2|3:2,0:0:0:0:
97,269,192839,2,0,P|103:204|39:153,1,140,2|0,0:2|0:0,0:0:0:0:
4,96,193339,1,2,1:1:0:0:
34,25,193505,1,2,0:1:0:0:
110,37,193672,1,2,3:1:0:0:
124,112,193839,2,0,P|169:120|206:112,1,70,2|0,0:1|1:0,0:0:0:0:
248,62,194172,6,0,P|297:41|385:83,1,140,2|2,0:1|0:0,0:0:0:0:
413,136,194672,1,2,1:2:0:0:
447,205,194839,2,0,L|476:286,2,70,2|2|2,0:0|3:2|0:2,0:0:0:0:
487,140,195339,1,0,1:2:0:0:
512,69,195505,1,0,0:0:0:0:
457,14,195672,2,0,P|411:24|383:38,1,70,4|0,3:2|0:0,0:0:0:0:
293,153,196172,5,0,0:0:0:0:
229,108,196339,1,0,3:0:0:0:
216,183,196505,2,0,P|169:184|137:195,1,70,0|0,0:0|1:0,0:0:0:0:
70,176,196839,1,0,0:0:0:0:
70,176,197005,1,0,3:0:0:0:
11,226,197172,2,0,P|4:269|6:311,1,70,0|0,0:0|1:0,0:0:0:0:
49,357,197505,1,0,0:0:0:0:
98,298,197672,1,0,3:0:0:0:
143,358,197839,2,0,P|187:366|219:359,1,70,0|0,0:0|1:0,0:0:0:0:
257,299,198172,5,0,0:0:0:0:
289,369,198339,1,0,3:0:0:0:
333,306,198505,2,0,P|383:312|408:322,1,70,0|0,3:0|1:0,0:0:0:0:
455,374,198839,1,0,0:0:0:0:
483,302,199005,2,0,L|467:153,1,140,0|0,3:0|1:0,0:0:0:0:
394,138,199505,1,0,0:0:0:0:
361,68,199672,2,0,P|372:23|396:2,2,70,0|0|0,3:0|3:0|1:0,0:0:0:0:
308,124,200172,1,0,0:0:0:0:
236,153,200339,2,0,P|197:143|164:139,1,70,0|0,3:0|3:0,0:0:0:0:
109,88,200672,5,0,1:0:0:0:
83,160,200839,1,0,0:0:0:0:
36,99,201005,2,2,P|24:48|33:17,1,70,6|0,0:2|0:0,0:0:0:0:
