osu file format v14

[General]
AudioFilename: audio.mp3
AudioLeadIn: 0
PreviewTime: 39719
Countdown: 0
SampleSet: Soft
StackLeniency: 0.2
Mode: 0
LetterboxInBreaks: 0
WidescreenStoryboard: 0

[Editor]
Bookmarks: 3014,8661,19955,31249,42543,53837,63719,75013,83484
DistanceSpacing: 1.4
BeatDivisor: 4
GridSize: 8
TimelineZoom: 1

[Metadata]
Title:Bokusatsu Tenshi Dokuro-chan
TitleUnicode:Bokusatsu Tenshi Dokuro-chan
Artist:Sephirothsword57
ArtistUnicode:Sephirothsword57
Creator:BigNig78
Version:Insane
Source:Bokusatsu Tenshi Dokuro-Chan
Tags:
BeatmapID:1785789
BeatmapSetID:854577

[Difficulty]
HPDrainRate:5
CircleSize:4
OverallDifficulty:7.5
ApproachRate:9
SliderMultiplier:1.5
SliderTickRate:1

[Events]
//Background and Video events
0,0,"bg.png",0,0
//Break Periods
//Storyboard Layer 0 (Background)
//Storyboard Layer 1 (Fail)
//Storyboard Layer 2 (Pass)
//Storyboard Layer 3 (Foreground)
//Storyboard Sound Samples

[TimingPoints]
3014,352.941176470588,4,2,0,60,1,0
8308,-66.6666666666667,4,2,0,60,0,0
8661,-100,4,2,0,60,0,0
42543,-66.6666666666667,4,2,0,60,0,1
53837,-100,4,2,0,60,0,0
55249,-83.3333333333333,4,2,0,60,0,0
55778,-133.333333333333,4,2,0,60,0,0
56661,-100,4,2,0,60,0,0
58072,-83.3333333333333,4,2,0,60,0,0
58602,-133.333333333333,4,2,0,60,0,0
63719,-66.6666666666667,4,2,0,60,0,1
75013,-66.6666666666667,4,2,0,60,0,0

[Colours]
Combo1 : 18,124,255
Combo2 : 192,192,192

[HitObjects]
83,113,3014,5,0,0:0:0:0:
93,339,3190,1,0,0:0:0:0:
168,239,3366,2,0,P|192:208|199:173,1,75
219,309,3719,2,0,P|250:285|266:253,1,75
368,41,4072,5,0,0:0:0:0:
358,267,4248,1,0,0:0:0:0:
283,169,4425,2,0,P|259:138|252:103,1,75
232,239,4778,2,0,P|200:215|184:183,1,75
191,81,5131,5,0,0:0:0:0:
228,77,5219,1,0,0:0:0:0:
265,82,5307,1,0,0:0:0:0:
300,95,5395,1,0,0:0:0:0:
332,115,5483,1,0,0:0:0:0:
358,141,5572,1,0,0:0:0:0:
379,173,5660,1,0,0:0:0:0:
392,208,5748,1,0,0:0:0:0:
397,245,5836,5,0,0:0:0:0:
210,203,6013,1,0,0:0:0:0:
397,160,6190,1,0,0:0:0:0:
209,117,6366,1,0,0:0:0:0:
397,75,6543,1,0,0:0:0:0:
209,32,6719,1,0,0:0:0:0:
293,300,7072,5,0,0:0:0:0:
90,118,7425,1,0,0:0:0:0:
235,56,7602,1,0,0:0:0:0:
217,213,7778,1,0,0:0:0:0:
155,68,7955,1,0,0:0:0:0:
311,86,8132,1,0,0:0:0:0:
208,302,8308,2,0,B|176:305|176:305|177:264|177:264|121:262|87:200,1,168.750006437302
80,192,8661,5,0,0:0:0:0:
16,88,8837,1,0,0:0:0:0:
136,88,9013,2,0,L|224:88,1,75
304,88,9366,2,0,L|392:88,1,75
416,168,9719,2,0,L|328:168,1,75
248,168,10072,1,0,0:0:0:0:
211,88,10249,2,0,L|286:88,1,75
379,88,10602,2,0,B|456:88|456:88|456:168,1,150
456,328,11131,1,0,0:0:0:0:
448,328,11484,5,0,0:0:0:0:
381,222,11660,1,0,0:0:0:0:
325,326,11837,2,0,L|250:326,1,75
157,326,12190,2,0,L|82:326,1,75
119,246,12543,2,0,L|194:246,1,75
288,248,12896,1,0,0:0:0:0:
248,168,13072,2,0,L|173:168,1,75
88,168,13425,2,0,B|87:91|87:91|168:91,1,150
320,96,13955,1,0,0:0:0:0:
320,104,14308,6,0,P|344:160|336:192,1,75
246,264,14661,2,0,P|222:208|230:176,1,75
254,65,15013,1,0,0:0:0:0:
352,157,15190,1,0,0:0:0:0:
223,195,15366,1,0,0:0:0:0:
112,97,15543,2,0,P|86:125|80:184,1,75
77,327,15896,1,0,0:0:0:0:
203,235,16072,1,0,0:0:0:0:
38,225,16249,1,0,0:0:0:0:
228,350,16425,1,0,0:0:0:0:
122,33,16778,1,0,0:0:0:0:
440,88,17131,6,0,L|433:167,1,75
415,322,17484,1,0,0:0:0:0:
357,198,17661,1,0,0:0:0:0:
512,263,17837,1,0,0:0:0:0:
331,269,18013,1,0,0:0:0:0:
240,130,18190,2,0,P|211:107|166:113,1,75
50,228,18543,1,0,0:0:0:0:
230,215,18719,1,0,0:0:0:0:
136,34,18896,1,0,0:0:0:0:
140,301,19072,1,0,0:0:0:0:
309,227,19249,1,0,0:0:0:0:
174,108,19425,1,0,0:0:0:0:
241,304,19602,1,0,0:0:0:0:
310,133,19778,1,0,0:0:0:0:
360,376,19955,5,0,0:0:0:0:
296,272,20131,1,0,0:0:0:0:
416,272,20308,2,0,L|416:184,1,75
416,104,20661,2,0,L|416:16,1,75
336,66,21013,2,0,L|336:141,1,75
336,232,21366,1,0,0:0:0:0:
256,192,21543,2,0,L|256:117,1,75
256,24,21896,2,0,B|179:24|179:24|179:104,1,150
184,256,22425,1,0,0:0:0:0:
176,256,22778,5,0,0:0:0:0:
112,152,22954,1,0,0:0:0:0:
40,256,23131,2,0,L|40:168,1,75
40,88,23484,2,0,L|40:0,1,75
120,50,23837,2,0,L|120:125,1,75
120,216,24190,1,0,0:0:0:0:
200,256,24366,2,0,L|200:181,1,75
200,88,24719,2,0,B|277:88|277:88|277:168,1,150
280,328,25249,1,0,0:0:0:0:
272,328,25602,6,0,P|266:291|238:268,1,75
128,315,25955,2,0,P|133:351|161:374,1,75
318,375,26308,1,0,0:0:0:0:
262,264,26484,1,0,0:0:0:0:
141,242,26661,1,0,0:0:0:0:
34,135,26837,2,0,P|50:90|81:74,1,75
143,174,27190,2,0,P|179:144|214:145,1,75
337,140,27543,1,0,0:0:0:0:
219,264,27719,2,0,P|182:293|147:292,1,75
143,174,28072,2,0,P|96:181|66:163,1,75
204,18,28425,5,0,0:0:0:0:
71,98,28602,1,0,0:0:0:0:
219,41,28778,1,0,0:0:0:0:
86,121,28955,1,0,0:0:0:0:
308,18,29131,5,0,0:0:0:0:
441,98,29308,1,0,0:0:0:0:
293,41,29484,1,0,0:0:0:0:
426,121,29661,1,0,0:0:0:0:
304,250,29837,5,0,0:0:0:0:
243,105,30013,1,0,0:0:0:0:
159,312,30190,1,0,0:0:0:0:
98,167,30366,1,0,0:0:0:0:
140,48,30543,5,0,0:0:0:0:
177,52,30631,1,0,0:0:0:0:
210,68,30719,1,0,0:0:0:0:
237,94,30807,1,0,0:0:0:0:
256,125,30895,5,0,0:0:0:0:
278,95,30984,1,0,0:0:0:0:
308,72,31072,1,0,0:0:0:0:
343,59,31160,1,0,0:0:0:0:
384,58,31249,6,0,L|411:142,1,75
438,208,31602,1,0,0:0:0:0:
324,248,31955,1,0,0:0:0:0:
248,210,32131,1,0,0:0:0:0:
189,116,32308,2,0,L|178:31,1,75
86,41,32661,2,0,L|76:115,1,75
66,202,33013,1,0,0:0:0:0:
189,116,33190,2,0,L|216:150,1,37.5
170,201,33366,1,0,0:0:0:0:
293,115,33543,2,0,L|320:149,1,37.5
274,200,33719,1,0,0:0:0:0:
397,114,33896,2,0,L|424:148,1,37.5
440,234,34072,6,0,P|495:213|508:146,1,112.5
504,95,34425,1,0,0:0:0:0:
385,28,34602,2,0,P|340:46|318:90,1,75
318,239,34955,1,0,0:0:0:0:
397,114,35131,1,0,0:0:0:0:
116,52,35484,5,0,0:0:0:0:
158,256,35661,1,0,0:0:0:0:
170,108,35837,1,0,0:0:0:0:
82,322,36014,1,0,0:0:0:0:
223,260,36190,1,0,0:0:0:0:
131,130,36366,1,0,0:0:0:0:
104,293,36543,1,0,0:0:0:0:
229,200,36719,1,0,0:0:0:0:
223,340,36896,6,0,P|269:352|319:327,1,75
473,279,37249,5,0,0:0:0:0:
446,204,37426,1,0,0:0:0:0:
395,265,37602,5,0,0:0:0:0:
364,176,37779,1,0,0:0:0:0:
303,248,37955,5,0,0:0:0:0:
267,145,38132,1,0,0:0:0:0:
196,228,38308,5,0,0:0:0:0:
154,109,38485,1,0,0:0:0:0:
72,205,38661,5,0,0:0:0:0:
23,68,38838,1,0,0:0:0:0:
45,279,39013,1,0,0:0:0:0:
242,195,39190,1,0,0:0:0:0:
248,203,39543,1,0,0:0:0:0:
443,350,39719,5,0,0:0:0:0:
73,271,40072,1,0,0:0:0:0:
464,196,40425,1,0,0:0:0:0:
51,108,40778,1,0,0:0:0:0:
255,37,40954,1,0,0:0:0:0:
255,37,41042,1,0,0:0:0:0:
255,37,41131,1,0,0:0:0:0:
256,192,41308,2,0,L|256:112,1,75
256,320,41661,1,0,0:0:0:0:
152,136,42013,5,0,0:0:0:0:
256,320,42190,1,0,0:0:0:0:
328,192,42366,1,0,0:0:0:0:
256,32,42543,6,0,P|208:58|215:124,1,112.500004291535
308,187,42896,2,0,P|355:161|358:107,1,112.500004291535
181,179,43249,2,0,P|154:226|181:272,1,112.500004291535
308,280,43602,2,0,P|334:232|307:186,1,112.500004291535
133,121,43955,6,0,L|24:77,1,112.500004291535
117,6,44308,1,0,0:0:0:0:
38,210,44484,2,0,P|43:272|96:312,1,112.500004291535
263,313,44837,1,0,0:0:0:0:
110,235,45013,1,0,0:0:0:0:
116,239,45366,5,0,0:0:0:0:
205,340,45542,1,0,0:0:0:0:
216,174,45719,1,0,0:0:0:0:
266,299,45895,1,0,0:0:0:0:
333,147,46072,1,0,0:0:0:0:
337,281,46248,1,0,0:0:0:0:
339,79,46425,1,0,0:0:0:0:
287,231,46601,1,0,0:0:0:0:
223,30,46778,5,0,0:0:0:0:
226,190,46954,1,0,0:0:0:0:
97,23,47131,1,0,0:0:0:0:
160,227,47308,2,0,P|209:264|274:252,1,112.500004291535
387,128,47661,1,0,0:0:0:0:
226,190,47837,1,0,0:0:0:0:
226,190,48190,6,0,P|207:235|145:250,1,112.500004291535
280,128,48543,2,0,P|325:147|340:208,1,112.500004291535
224,64,48896,2,0,P|243:19|304:3,1,112.500004291535
168,128,49249,2,0,P|123:109|107:47,1,112.500004291535
224,184,49602,6,0,L|238:318,1,112.500004291535
334,225,49955,1,0,0:0:0:0:
96,264,50131,2,0,P|54:217|62:151,1,112.500004291535
178,29,50484,1,0,0:0:0:0:
128,193,50660,1,0,0:0:0:0:
128,193,51013,6,0,B|154:143|154:143|202:107,1,112.500004291535
214,197,51366,2,0,B|258:163|258:163|284:113,1,112.500004291535
349,28,51719,1,0,0:0:0:0:
309,209,51896,1,0,0:0:0:0:
368,105,52072,1,0,0:0:0:0:
376,290,52249,1,0,0:0:0:0:
389,181,52425,5,0,0:0:0:0:
303,345,52602,1,0,0:0:0:0:
203,188,52778,1,0,0:0:0:0:
165,338,52955,2,0,P|118:309|106:251,1,112.500004291535
155,88,53308,1,0,0:0:0:0:
176,267,53484,1,0,0:0:0:0:
221,125,53661,1,0,0:0:0:0:
298,25,53837,6,0,L|337:145,1,112.5
358,198,54190,1,0,0:0:0:0:
358,198,54366,1,0,0:0:0:0:
259,163,54543,2,0,L|232:286,1,112.5
221,342,54896,1,0,0:0:0:0:
221,342,55072,1,0,0:0:0:0:
313,230,55249,6,0,L|201:206,1,89.9999972534181
97,184,55602,1,0,0:0:0:0:
97,184,55778,2,0,B|94:93|148:121|140:23,1,168.750006437302
175,162,56661,6,0,P|172:215|126:261,1,112.5
58,251,57013,1,0,0:0:0:0:
97,184,57190,1,0,0:0:0:0:
175,162,57366,2,0,P|178:215|224:261,1,112.5
292,251,57718,1,0,0:0:0:0:
253,184,57895,1,0,0:0:0:0:
175,162,58072,6,0,L|196:61,1,89.9999972534181
251,27,58425,1,0,0:0:0:0:
268,102,58602,2,0,B|252:185|252:185|246:218|210:246|176:242,1,168.750006437302
328,50,59484,6,0,P|346:85|342:117,1,56.2500021457673
320,218,59837,1,0,0:0:0:0:
180,127,60013,1,0,0:0:0:0:
324,110,60190,2,0,P|332:148|320:178,1,56.2500021457673
272,270,60543,1,0,0:0:0:0:
137,84,60719,1,0,0:0:0:0:
402,128,60896,5,0,0:0:0:0:
237,332,61249,1,0,0:0:0:0:
116,90,61602,2,0,L|85:158,1,56.2500021457673
279,154,61955,2,0,L|263:100,1,56.2500021457673
120,212,62308,6,0,L|161:212,1,28.1250010728836
172,127,62484,2,0,L|209:142,1,28.1250010728836
219,239,62661,2,0,L|263:228,1,28.1250010728836
275,110,62837,2,0,L|318:128,1,28.1250010728836
304,196,63013,6,0,L|261:176,1,28.1250010728836
218,76,63189,2,0,L|175:59,1,28.1250010728836
173,199,63366,2,0,L|127:185,1,28.1250010728836
118,40,63542,2,0,L|70:24,1,28.1250010728836
35,190,63719,6,0,P|72:229|134:205,1,112.500004291535
213,118,64072,2,0,P|175:78|113:102,1,112.500004291535
213,244,64425,2,0,P|250:283|312:259,1,112.500004291535
391,172,64778,2,0,P|353:132|291:156,1,112.500004291535
391,298,65131,6,0,L|481:178,1,112.500004291535
503,314,65484,1,0,0:0:0:0:
301,144,65661,2,0,P|243:121|183:151,1,112.500004291535
108,299,66014,1,0,0:0:0:0:
244,195,66190,1,0,0:0:0:0:
