osu file format v14

[General]
AudioFilename: audio.mp3
AudioLeadIn: 0
PreviewTime: 162924
Countdown: 0
SampleSet: Soft
StackLeniency: 0.7
Mode: 3
LetterboxInBreaks: 0
SpecialStyle: 0
WidescreenStoryboard: 0

[Editor]
DistanceSpacing: 0.8
BeatDivisor: 4
GridSize: 32
TimelineZoom: 1

[Metadata]
Title:Thunderstrike 1988
TitleUnicode:Thunderstrike 1988
Artist:Sephid
ArtistUnicode:Sephid
Creator:AutotelicBrown
Version:Hyper Prost
Source:osu! World Cup 2022
Tags:OWC 2022 OWC22 Electronic Instrumental osu! original Featured Artist FA Mappers' Guild MPG MG F1 Formula One Race Racing 1988 Japanese Grand Prix Suzuka Alice
BeatmapID:4331036
BeatmapSetID:2069877

[Difficulty]
HPDrainRate:8
CircleSize:4
OverallDifficulty:7.5
ApproachRate:5
SliderMultiplier:1.4
SliderTickRate:1

[Events]
//Background and Video events
0,0,"bg.jpg",0,0
//Break Periods
//Storyboard Layer 0 (Background)
//Storyboard Layer 1 (Fail)
//Storyboard Layer 2 (Pass)
//Storyboard Layer 3 (Foreground)
//Storyboard Layer 4 (Overlay)
//Storyboard Sound Samples

[TimingPoints]
1240,315.789473684211,4,2,1,50,1,0
6292,-100,4,2,1,70,0,0
11345,-100,4,2,1,60,0,0
21450,-100,4,2,1,70,0,0
40397,-100,4,2,1,40,0,0
41661,-100,4,2,1,70,0,0
61871,-100,4,2,1,50,0,0
71976,-100,4,2,1,70,0,0
101503,-100,4,2,1,50,0,0
112397,-100,4,2,1,70,0,0
132608,-100,4,2,1,60,0,0
137661,-100,4,2,1,70,0,0
142713,-100,4,2,1,70,0,1
181871,-100,4,2,1,70,0,0
191976,-100,4,2,1,40,0,0
193240,-100,4,2,1,50,0,0

[HitObjects]
64,192,1240,5,0,0:0:0:0:
320,192,1240,1,0,0:0:0:0:
448,192,1713,1,0,0:0:0:0:
192,192,2187,1,0,0:0:0:0:
192,192,2661,1,0,0:0:0:0:
320,192,3134,1,0,0:0:0:0:
192,192,3450,1,0,0:0:0:0:
64,192,3766,1,0,0:0:0:0:
448,192,4240,1,0,0:0:0:0:
192,192,4713,1,0,0:0:0:0:
192,192,5187,1,0,0:0:0:0:
192,192,5661,1,0,0:0:0:0:
448,192,5818,1,0,0:0:0:0:
192,192,5976,1,0,0:0:0:0:
64,192,5976,1,0,0:0:0:0:
448,192,6292,1,0,0:0:0:0:
320,192,6292,1,0,0:0:0:0:
192,192,6450,1,0,0:0:0:0:
448,192,6608,1,0,0:0:0:0:
64,192,6608,1,0,0:0:0:0:
320,192,6766,1,0,0:0:0:0:
448,192,6924,1,0,0:0:0:0:
192,192,6924,1,0,0:0:0:0:
64,192,7082,1,0,0:0:0:0:
320,192,7240,1,0,0:0:0:0:
192,192,7240,1,0,0:0:0:0:
448,192,7397,1,0,0:0:0:0:
192,192,7555,1,0,0:0:0:0:
64,192,7555,1,0,0:0:0:0:
320,192,7713,1,0,0:0:0:0:
448,192,7871,1,0,0:0:0:0:
64,192,7871,1,0,0:0:0:0:
192,192,8029,1,0,0:0:0:0:
320,192,8187,1,0,0:0:0:0:
64,192,8187,1,0,0:0:0:0:
448,192,8345,1,0,0:0:0:0:
320,192,8503,1,0,0:0:0:0:
192,192,8503,1,0,0:0:0:0:
64,192,8661,1,0,0:0:0:0:
448,192,8818,1,0,0:0:0:0:
320,192,8818,1,0,0:0:0:0:
192,192,8897,1,0,0:0:0:0:
448,192,8976,1,0,0:0:0:0:
64,192,9055,1,0,0:0:0:0:
192,192,9134,1,0,0:0:0:0:
320,192,9213,1,0,0:0:0:0:
64,192,9292,1,0,0:0:0:0:
448,192,9371,1,0,0:0:0:0:
320,192,9450,1,0,0:0:0:0:
192,192,9529,1,0,0:0:0:0:
448,192,9608,1,0,0:0:0:0:
64,192,9687,1,0,0:0:0:0:
192,192,9766,1,0,0:0:0:0:
320,192,9845,1,0,0:0:0:0:
64,192,9924,1,0,0:0:0:0:
448,192,10003,1,0,0:0:0:0:
320,192,10082,1,0,0:0:0:0:
64,192,10161,1,0,0:0:0:0:
448,192,10240,1,0,0:0:0:0:
192,192,10318,1,0,0:0:0:0:
320,192,10397,1,0,0:0:0:0:
64,192,10476,1,0,0:0:0:0:
448,192,10555,1,0,0:0:0:0:
192,192,10634,1,0,0:0:0:0:
320,192,10713,1,0,0:0:0:0:
448,192,10792,1,0,0:0:0:0:
64,192,10871,1,0,0:0:0:0:
192,192,10950,1,0,0:0:0:0:
320,192,11029,1,0,0:0:0:0:
448,192,11345,1,0,0:0:0:0:
64,192,11345,1,0,0:0:0:0:
192,192,11661,1,0,0:0:0:0:
64,192,11976,1,0,0:0:0:0:
448,192,12292,1,0,0:0:0:0:
192,192,12450,1,0,0:0:0:0:
448,192,12608,1,0,0:0:0:0:
64,192,12766,1,0,0:0:0:0:
320,192,12924,1,0,0:0:0:0:
192,192,13240,1,0,0:0:0:0:
320,192,13292,1,0,0:0:0:0:
448,192,13555,1,0,0:0:0:0:
192,192,13713,1,0,0:0:0:0:
448,192,13871,1,0,0:0:0:0:
64,192,14029,1,0,0:0:0:0:
320,192,14187,1,0,0:0:0:0:
192,192,14503,1,0,0:0:0:0:
320,192,14555,1,0,0:0:0:0:
448,192,14818,1,0,0:0:0:0:
192,192,14976,1,0,0:0:0:0:
448,192,15134,1,0,0:0:0:0:
320,192,15450,1,0,0:0:0:0:
192,192,15608,1,0,0:0:0:0:
64,192,15766,1,0,0:0:0:0:
448,192,15924,1,0,0:0:0:0:
320,192,16082,1,0,0:0:0:0:
192,192,16713,1,0,0:0:0:0:
320,192,17029,1,0,0:0:0:0:
448,192,17345,1,0,0:0:0:0:
192,192,17503,1,0,0:0:0:0:
448,192,17661,1,0,0:0:0:0:
64,192,17818,1,0,0:0:0:0:
320,192,17976,1,0,0:0:0:0:
192,192,18292,1,0,0:0:0:0:
320,192,18345,1,0,0:0:0:0:
448,192,18608,1,0,0:0:0:0:
192,192,18766,1,0,0:0:0:0:
448,192,18924,1,0,0:0:0:0:
64,192,19082,1,0,0:0:0:0:
192,192,19240,1,0,0:0:0:0:
320,192,19555,1,0,0:0:0:0:
192,192,19871,1,0,0:0:0:0:
320,192,20029,1,0,0:0:0:0:
448,192,20187,1,0,0:0:0:0:
320,192,20503,1,0,0:0:0:0:
192,192,20661,1,0,0:0:0:0:
448,192,20818,1,0,0:0:0:0:
320,192,20897,1,0,0:0:0:0:
64,192,20976,1,0,0:0:0:0:
192,192,21055,1,0,0:0:0:0:
448,192,21134,1,0,0:0:0:0:
64,192,21213,1,0,0:0:0:0:
320,192,21292,1,0,0:0:0:0:
192,192,21371,1,0,0:0:0:0:
448,192,21450,1,0,0:0:0:0:
64,192,21450,1,0,0:0:0:0:
320,192,21766,1,0,0:0:0:0:
192,192,21766,1,0,0:0:0:0:
320,192,22082,1,0,0:0:0:0:
64,192,22082,1,0,0:0:0:0:
448,192,22397,1,0,0:0:0:0:
192,192,22397,1,0,0:0:0:0:
64,192,22555,1,0,0:0:0:0:
448,192,22713,1,0,0:0:0:0:
320,192,22713,1,0,0:0:0:0:
64,192,22871,1,0,0:0:0:0:
320,192,23029,1,0,0:0:0:0:
192,192,23029,1,0,0:0:0:0:
64,192,23345,1,0,0:0:0:0:
320,192,23397,1,0,0:0:0:0:
448,192,23661,1,0,0:0:0:0:
192,192,23661,1,0,0:0:0:0:
64,192,23818,1,0,0:0:0:0:
448,192,23976,1,0,0:0:0:0:
320,192,23976,1,0,0:0:0:0:
64,192,24134,1,0,0:0:0:0:
320,192,24292,1,0,0:0:0:0:
192,192,24292,1,0,0:0:0:0:
64,192,24608,1,0,0:0:0:0:
320,192,24661,1,0,0:0:0:0:
448,192,24924,1,0,0:0:0:0:
192,192,24924,1,0,0:0:0:0:
64,192,25082,1,0,0:0:0:0:
448,192,25240,1,0,0:0:0:0:
320,192,25240,1,0,0:0:0:0:
448,192,25555,1,0,0:0:0:0:
64,192,25555,1,0,0:0:0:0:
320,192,25713,1,0,0:0:0:0:
192,192,25871,1,0,0:0:0:0:
64,192,25871,1,0,0:0:0:0:
448,192,26029,1,0,0:0:0:0:
320,192,26187,1,0,0:0:0:0:
192,192,26187,1,0,0:0:0:0:
448,192,26503,1,0,0:0:0:0:
64,192,26503,1,0,0:0:0:0:
192,192,26661,1,0,0:0:0:0:
320,192,26818,1,0,0:0:0:0:
64,192,26818,1,0,0:0:0:0:
448,192,26976,1,0,0:0:0:0:
320,192,27134,1,0,0:0:0:0:
192,192,27134,1,0,0:0:0:0:
64,192,27292,1,0,0:0:0:0:
448,192,27450,1,0,0:0:0:0:
320,192,27450,1,0,0:0:0:0:
192,192,27608,1,0,0:0:0:0:
64,192,27608,1,0,0:0:0:0:
448,192,27766,1,0,0:0:0:0:
320,192,27766,1,0,0:0:0:0:
192,192,27924,1,0,0:0:0:0:
64,192,27924,1,0,0:0:0:0:
320,192,28082,1,0,0:0:0:0:
192,192,28082,1,0,0:0:0:0:
448,192,28240,1,0,0:0:0:0:
64,192,28397,1,0,0:0:0:0:
320,192,28450,1,0,0:0:0:0:
192,192,28555,1,0,0:0:0:0:
448,192,28713,1,0,0:0:0:0:
320,192,28713,1,0,0:0:0:0:
192,192,28871,1,0,0:0:0:0:
64,192,28871,1,0,0:0:0:0:
448,192,29029,1,0,0:0:0:0:
320,192,29029,1,0,0:0:0:0:
64,192,29108,1,0,0:0:0:0:
448,192,29187,1,0,0:0:0:0:
64,192,29266,1,0,0:0:0:0:
320,192,29345,1,0,0:0:0:0:
192,192,29424,1,0,0:0:0:0:
320,192,29503,1,0,0:0:0:0:
192,192,29582,1,0,0:0:0:0:
64,192,29661,1,0,0:0:0:0:
448,192,29740,1,0,0:0:0:0:
64,192,29818,1,0,0:0:0:0:
448,192,29897,1,0,0:0:0:0:
192,192,29976,1,0,0:0:0:0:
320,192,30055,1,0,0:0:0:0:
192,192,30134,1,0,0:0:0:0:
320,192,30213,1,0,0:0:0:0:
448,192,30292,1,0,0:0:0:0:
64,192,30292,1,0,0:0:0:0:
192,192,30450,1,0,0:0:0:0:
448,192,30529,1,0,0:0:0:0:
320,192,30608,1,0,0:0:0:0:
64,192,30766,1,0,0:0:0:0:
448,192,30924,1,0,0:0:0:0:
448,192,31082,1,0,0:0:0:0:
192,192,31161,1,0,0:0:0:0:
320,192,31240,1,0,0:0:0:0:
448,192,31555,1,0,0:0:0:0:
192,192,31555,1,0,0:0:0:0:
64,192,31634,1,0,0:0:0:0:
320,192,31713,1,0,0:0:0:0:
448,192,31792,1,0,0:0:0:0:
192,192,31871,1,0,0:0:0:0:
320,192,31950,1,0,0:0:0:0:
64,192,32029,1,0,0:0:0:0:
448,192,32108,1,0,0:0:0:0:
192,192,32187,1,0,0:0:0:0:
320,192,32266,1,0,0:0:0:0:
64,192,32345,1,0,0:0:0:0:
192,192,32424,1,0,0:0:0:0:
448,192,32503,1,0,0:0:0:0:
320,192,32582,1,0,0:0:0:0:
64,192,32661,1,0,0:0:0:0:
192,192,32740,1,0,0:0:0:0:
320,192,32818,1,0,0:0:0:0:
64,192,32897,1,0,0:0:0:0:
448,192,32976,1,0,0:0:0:0:
192,192,33055,1,0,0:0:0:0:
64,192,33134,1,0,0:0:0:0:
448,192,33213,1,0,0:0:0:0:
64,192,33292,1,0,0:0:0:0:
448,192,33371,1,0,0:0:0:0:
192,192,33450,1,0,0:0:0:0:
320,192,33529,1,0,0:0:0:0:
448,192,33608,1,0,0:0:0:0:
320,192,33687,1,0,0:0:0:0:
64,192,33766,1,0,0:0:0:0:
192,192,33845,1,0,0:0:0:0:
320,192,33924,1,0,0:0:0:0:
448,192,34003,1,0,0:0:0:0:
64,192,34082,1,0,0:0:0:0:
320,192,34161,1,0,0:0:0:0:
192,192,34240,1,0,0:0:0:0:
448,192,34318,1,0,0:0:0:0:
64,192,34397,1,0,0:0:0:0:
320,192,34476,1,0,0:0:0:0:
64,192,34555,1,0,0:0:0:0:
192,192,34634,1,0,0:0:0:0:
448,192,34713,1,0,0:0:0:0:
64,192,34792,1,0,0:0:0:0:
320,192,34871,1,0,0:0:0:0:
448,192,34950,1,0,0:0:0:0:
192,192,35029,1,0,0:0:0:0:
64,192,35108,1,0,0:0:0:0:
320,192,35187,1,0,0:0:0:0:
448,192,35266,1,0,0:0:0:0:
64,192,35345,1,0,0:0:0:0:
320,192,35424,1,0,0:0:0:0:
192,192,35503,1,0,0:0:0:0:
320,192,35582,1,0,0:0:0:0:
64,192,35661,1,0,0:0:0:0:
192,192,35740,1,0,0:0:0:0:
320,192,35818,1,0,0:0:0:0:
448,192,35897,1,0,0:0:0:0:
192,192,35976,1,0,0:0:0:0:
320,192,36055,1,0,0:0:0:0:
64,192,36134,1,0,0:0:0:0:
192,192,36213,1,0,0:0:0:0:
448,192,36292,1,0,0:0:0:0:
320,192,36371,1,0,0:0:0:0:
192,192,36450,1,0,0:0:0:0:
64,192,36529,1,0,0:0:0:0:
448,192,36608,1,0,0:0:0:0:
320,192,36608,1,0,0:0:0:0:
192,192,36687,1,0,0:0:0:0:
448,192,36766,1,0,0:0:0:0:
64,192,36845,1,0,0:0:0:0:
320,192,36924,1,0,0:0:0:0:
192,192,37003,1,0,0:0:0:0:
448,192,37082,1,0,0:0:0:0:
64,192,37161,1,0,0:0:0:0:
320,192,37240,1,0,0:0:0:0:
192,192,37240,1,0,0:0:0:0:
448,192,37318,1,0,0:0:0:0:
64,192,37397,1,0,0:0:0:0:
192,192,37476,1,0,0:0:0:0:
448,192,37555,1,0,0:0:0:0:
320,192,37634,1,0,0:0:0:0:
64,192,37713,1,0,0:0:0:0:
192,192,37792,1,0,0:0:0:0:
448,192,37871,1,0,0:0:0:0:
320,192,37871,1,0,0:0:0:0:
64,192,37950,1,0,0:0:0:0:
448,192,38029,1,0,0:0:0:0:
192,192,38108,1,0,0:0:0:0:
64,192,38187,1,0,0:0:0:0:
448,192,38266,1,0,0:0:0:0:
64,192,38345,1,0,0:0:0:0:
448,192,38424,1,0,0:0:0:0:
320,192,38503,1,0,0:0:0:0:
192,192,38503,1,0,0:0:0:0:
64,192,38582,1,0,0:0:0:0:
448,192,38661,1,0,0:0:0:0:
320,192,38740,1,0,0:0:0:0:
64,192,38818,1,0,0:0:0:0:
192,192,38897,1,0,0:0:0:0:
320,192,38976,1,0,0:0:0:0:
448,192,39055,1,0,0:0:0:0:
192,192,39134,1,0,0:0:0:0:
64,192,39134,1,0,0:0:0:0:
320,192,39213,1,0,0:0:0:0:
64,192,39292,1,0,0:0:0:0:
320,192,39371,1,0,0:0:0:0:
64,192,39450,1,0,0:0:0:0:
320,192,39529,1,0,0:0:0:0:
64,192,39608,1,0,0:0:0:0:
320,192,39687,1,0,0:0:0:0:
192,192,39766,1,0,0:0:0:0:
448,192,39845,1,0,0:0:0:0:
192,192,39924,1,0,0:0:0:0:
448,192,40003,1,0,0:0:0:0:
192,192,40082,1,0,0:0:0:0:
448,192,40161,1,0,0:0:0:0:
192,192,40240,1,0,0:0:0:0:
448,192,40318,1,0,0:0:0:0:
64,192,40397,1,0,0:0:0:0:
320,192,40555,1,0,0:0:0:0:
64,192,40713,1,0,0:0:0:0:
320,192,40871,1,0,0:0:0:0:
64,192,41029,1,0,0:0:0:0:
320,192,41187,1,0,0:0:0:0:
192,192,41187,1,0,0:0:0:0:
448,192,41345,1,0,0:0:0:0:
64,192,41345,1,0,0:0:0:0:
448,192,41661,1,0,0:0:0:0:
192,192,41661,1,0,0:0:0:0:
320,192,41976,1,0,0:0:0:0:
64,192,41976,1,0,0:0:0:0:
320,192,42292,1,0,0:0:0:0:
64,192,42292,1,0,0:0:0:0:
448,192,42529,1,0,0:0:0:0:
64,192,42529,1,0,0:0:0:0:
320,192,42766,1,0,0:0:0:0:
192,192,42766,1,0,0:0:0:0:
320,192,42924,1,0,0:0:0:0:
64,192,42924,1,0,0:0:0:0:
320,192,43240,1,0,0:0:0:0:
64,192,43240,1,0,0:0:0:0:
448,192,43555,1,0,0:0:0:0:
192,192,43555,1,0,0:0:0:0:
320,192,43792,1,0,0:0:0:0:
64,192,43792,1,0,0:0:0:0:
192,192,44029,1,0,0:0:0:0:
64,192,44029,1,0,0:0:0:0:
320,192,44345,1,0,0:0:0:0:
192,192,44345,1,0,0:0:0:0:
320,192,44503,1,0,0:0:0:0:
192,192,44503,1,0,0:0:0:0:
320,192,44818,1,0,0:0:0:0:
192,192,44818,1,0,0:0:0:0:
320,192,45055,1,0,0:0:0:0:
64,192,45055,1,0,0:0:0:0:
320,192,45292,1,0,0:0:0:0:
192,192,45292,1,0,0:0:0:0:
448,192,45450,1,0,0:0:0:0:
192,192,45450,1,0,0:0:0:0:
448,192,45608,1,0,0:0:0:0:
192,192,45608,1,0,0:0:0:0:
448,192,45766,1,0,0:0:0:0:
192,192,45766,1,0,0:0:0:0:
320,192,45924,1,0,0:0:0:0:
64,192,46003,1,0,0:0:0:0:
448,192,46082,1,0,0:0:0:0:
320,192,46082,1,0,0:0:0:0:
448,192,46318,1,0,0:0:0:0:
192,192,46318,1,0,0:0:0:0:
64,192,46397,1,0,0:0:0:0:
320,192,46555,1,0,0:0:0:0:
192,192,46555,1,0,0:0:0:0:
448,192,46713,1,0,0:0:0:0:
64,192,46713,1,0,0:0:0:0:
320,192,47029,1,0,0:0:0:0:
64,192,47029,1,0,0:0:0:0:
320,192,47345,1,0,0:0:0:0:
64,192,47345,1,0,0:0:0:0:
320,192,47582,1,0,0:0:0:0:
192,192,47582,1,0,0:0:0:0:
448,192,47818,1,0,0:0:0:0:
64,192,47818,1,0,0:0:0:0:
448,192,47976,1,0,0:0:0:0:
192,192,47976,1,0,0:0:0:0:
448,192,48292,1,0,0:0:0:0:
192,192,48292,1,0,0:0:0:0:
448,192,48608,1,0,0:0:0:0:
192,192,48608,1,0,0:0:0:0:
448,192,48845,1,0,0:0:0:0:
320,192,48845,1,0,0:0:0:0:
192,192,49082,1,0,0:0:0:0:
64,192,49082,1,0,0:0:0:0:
320,192,49397,1,0,0:0:0:0:
192,192,49397,1,0,0:0:0:0:
320,192,49555,1,0,0:0:0:0:
192,192,49555,1,0,0:0:0:0:
320,192,49871,1,0,0:0:0:0:
192,192,49871,1,0,0:0:0:0:
448,192,50108,1,0,0:0:0:0:
192,192,50108,1,0,0:0:0:0:
320,192,50345,1,0,0:0:0:0:
192,192,50345,1,0,0:0:0:0:
448,192,50503,1,0,0:0:0:0:
320,192,50503,1,0,0:0:0:0:
448,192,50661,1,0,0:0:0:0:
320,192,50661,1,0,0:0:0:0:
448,192,50818,1,0,0:0:0:0:
320,192,50818,1,0,0:0:0:0:
64,192,50976,1,0,0:0:0:0:
192,192,51055,1,0,0:0:0:0:
448,192,51134,1,0,0:0:0:0:
320,192,51213,1,0,0:0:0:0:
192,192,51292,1,0,0:0:0:0:
448,192,51371,1,0,0:0:0:0:
64,192,51450,1,0,0:0:0:0:
192,192,51529,1,0,0:0:0:0:
448,192,51608,1,0,0:0:0:0:
320,192,51687,1,0,0:0:0:0:
192,192,51766,1,0,0:0:0:0:
64,192,51766,1,0,0:0:0:0:
448,192,51845,1,0,0:0:0:0:
64,192,51924,1,0,0:0:0:0:
192,192,52003,1,0,0:0:0:0:
320,192,52082,1,0,0:0:0:0:
64,192,52161,1,0,0:0:0:0:
448,192,52240,1,0,0:0:0:0:
192,192,52318,1,0,0:0:0:0:
320,192,52397,1,0,0:0:0:0:
64,192,52476,1,0,0:0:0:0:
448,192,52555,1,0,0:0:0:0:
320,192,52634,1,0,0:0:0:0:
192,192,52713,1,0,0:0:0:0:
448,192,52792,1,0,0:0:0:0:
64,192,52871,1,0,0:0:0:0:
192,192,52950,1,0,0:0:0:0:
320,192,53029,1,0,0:0:0:0:
64,192,53108,1,0,0:0:0:0:
448,192,53187,1,0,0:0:0:0:
192,192,53266,1,0,0:0:0:0:
320,192,53345,1,0,0:0:0:0:
64,192,53424,1,0,0:0:0:0:
448,192,53503,1,0,0:0:0:0:
192,192,53582,1,0,0:0:0:0:
64,192,53661,1,0,0:0:0:0:
448,192,53740,1,0,0:0:0:0:
320,192,53818,1,0,0:0:0:0:
192,192,53897,1,0,0:0:0:0:
448,192,53976,1,0,0:0:0:0:
64,192,54055,1,0,0:0:0:0:
320,192,54134,1,0,0:0:0:0:
192,192,54213,1,0,0:0:0:0:
64,192,54292,1,0,0:0:0:0:
448,192,54371,1,0,0:0:0:0:
192,192,54450,1,0,0:0:0:0:
320,192,54529,1,0,0:0:0:0:
192,192,54608,1,0,0:0:0:0:
448,192,54687,1,0,0:0:0:0:
64,192,54766,1,0,0:0:0:0:
320,192,54845,1,0,0:0:0:0:
192,192,54924,1,0,0:0:0:0:
448,192,55003,1,0,0:0:0:0:
64,192,55082,1,0,0:0:0:0:
192,192,55161,1,0,0:0:0:0:
320,192,55240,1,0,0:0:0:0:
64,192,55318,1,0,0:0:0:0:
448,192,55397,1,0,0:0:0:0:
320,192,55476,1,0,0:0:0:0:
192,192,55555,1,0,0:0:0:0:
448,192,55634,1,0,0:0:0:0:
320,192,55713,1,0,0:0:0:0:
64,192,55792,1,0,0:0:0:0:
320,192,55871,1,0,0:0:0:0:
192,192,55950,1,0,0:0:0:0:
448,192,56029,1,0,0:0:0:0:
320,192,56108,1,0,0:0:0:0:
448,192,56187,1,0,0:0:0:0:
64,192,56266,1,0,0:0:0:0:
192,192,56345,1,0,0:0:0:0:
448,192,56424,1,0,0:0:0:0:
320,192,56503,1,0,0:0:0:0:
192,192,56582,1,0,0:0:0:0:
448,192,56661,1,0,0:0:0:0:
64,192,56740,1,0,0:0:0:0:
320,192,56818,1,0,0:0:0:0:
192,192,56818,1,0,0:0:0:0:
448,192,56897,1,0,0:0:0:0:
64,192,56976,1,0,0:0:0:0:
192,192,57055,1,0,0:0:0:0:
320,192,57134,1,0,0:0:0:0:
64,192,57213,1,0,0:0:0:0:
448,192,57292,1,0,0:0:0:0:
192,192,57371,1,0,0:0:0:0:
320,192,57450,1,0,0:0:0:0:
64,192,57529,1,0,0:0:0:0:
448,192,57608,1,0,0:0:0:0:
320,192,57687,1,0,0:0:0:0:
192,192,57766,1,0,0:0:0:0:
448,192,57845,1,0,0:0:0:0:
64,192,57924,1,0,0:0:0:0:
192,192,58003,1,0,0:0:0:0:
448,192,58082,1,0,0:0:0:0:
320,192,58082,1,0,0:0:0:0:
64,192,58161,1,0,0:0:0:0:
448,192,58240,1,0,0:0:0:0:
192,192,58318,1,0,0:0:0:0:
320,192,58397,1,0,0:0:0:0:
64,192,58476,1,0,0:0:0:0:
448,192,58555,1,0,0:0:0:0:
320,192,58634,1,0,0:0:0:0:
448,192,58713,1,0,0:0:0:0:
64,192,58792,1,0,0:0:0:0:
320,192,58871,1,0,0:0:0:0:
192,192,58950,1,0,0:0:0:0:
64,192,59029,1,0,0:0:0:0:
448,192,59108,1,0,0:0:0:0:
192,192,59187,1,0,0:0:0:0:
320,192,59266,1,0,0:0:0:0:
448,192,59345,1,0,0:0:0:0:
64,192,59345,1,0,0:0:0:0:
192,192,59424,1,0,0:0:0:0:
320,192,59503,1,0,0:0:0:0:
64,192,59582,1,0,0:0:0:0:
320,192,59661,1,0,0:0:0:0:
192,192,59740,1,0,0:0:0:0:
448,192,59818,1,0,0:0:0:0:
320,192,59897,1,0,0:0:0:0:
192,192,59976,1,0,0:0:0:0:
64,192,59976,1,0,0:0:0:0:
448,192,60055,1,0,0:0:0:0:
320,192,60134,1,0,0:0:0:0:
64,192,60213,1,0,0:0:0:0:
192,192,60292,1,0,0:0:0:0:
320,192,60371,1,0,0:0:0:0:
64,192,60450,1,0,0:0:0:0:
448,192,60529,1,0,0:0:0:0:
320,192,60608,1,0,0:0:0:0:
192,192,60608,1,0,0:0:0:0:
64,192,60687,1,0,0:0:0:0:
448,192,60766,1,0,0:0:0:0:
192,192,60845,1,0,0:0:0:0:
448,192,60924,1,0,0:0:0:0:
64,192,61003,1,0,0:0:0:0:
320,192,61082,1,0,0:0:0:0:
448,192,61161,1,0,0:0:0:0:
320,192,61240,1,0,0:0:0:0:
64,192,61240,1,0,0:0:0:0:
448,192,61476,1,0,0:0:0:0:
192,192,61476,1,0,0:0:0:0:
320,192,61713,1,0,0:0:0:0:
64,192,61713,1,0,0:0:0:0:
448,192,61871,1,0,0:0:0:0:
64,192,61871,1,0,0:0:0:0:
192,192,62029,1,0,0:0:0:0:
320,192,62187,1,0,0:0:0:0:
448,192,62240,1,0,0:0:0:0:
64,192,62503,1,0,0:0:0:0:
192,192,62818,1,0,0:0:0:0:
448,192,62976,1,0,0:0:0:0:
64,192,63292,1,0,0:0:0:0:
320,192,63450,1,0,0:0:0:0:
64,192,63608,1,0,0:0:0:0:
320,192,63766,1,0,0:0:0:0:
64,192,63924,1,0,0:0:0:0:
320,192,64082,1,0,0:0:0:0:
192,192,64555,1,0,0:0:0:0:
448,192,64713,1,0,0:0:0:0:
64,192,65029,1,0,0:0:0:0:
448,192,65345,1,0,0:0:0:0:
64,192,65450,1,0,0:0:0:0:
192,192,65503,1,0,0:0:0:0:
320,192,65818,1,0,0:0:0:0:
448,192,66134,1,0,0:0:0:0:
64,192,66292,1,0,0:0:0:0:
448,192,66608,1,0,0:0:0:0:
192,192,66924,1,0,0:0:0:0:
448,192,67240,1,0,0:0:0:0:
64,192,67555,1,0,0:0:0:0:
192,192,67871,1,0,0:0:0:0:
448,192,68029,1,0,0:0:0:0:
320,192,68345,1,0,0:0:0:0:
448,192,68503,1,0,0:0:0:0:
320,192,68661,1,0,0:0:0:0:
448,192,68818,1,0,0:0:0:0:
320,192,68976,1,0,0:0:0:0:
448,192,69134,1,0,0:0:0:0:
192,192,69608,1,0,0:0:0:0:
320,192,69766,1,0,0:0:0:0:
192,192,70082,1,0,0:0:0:0:
64,192,70345,1,0,0:0:0:0:
448,192,70397,1,0,0:0:0:0:
320,192,70555,1,0,0:0:0:0:
192,192,70871,1,0,0:0:0:0:
448,192,71187,1,0,0:0:0:0:
448,192,71976,1,0,0:0:0:0:
192,192,71976,1,0,0:0:0:0:
192,192,72292,1,0,0:0:0:0:
192,192,72450,1,0,0:0:0:0:
448,192,72608,1,0,0:0:0:0:
192,192,72766,1,0,0:0:0:0:
192,192,72924,1,0,0:0:0:0:
192,192,73082,1,0,0:0:0:0:
448,192,73240,1,0,0:0:0:0:
192,192,73397,1,0,0:0:0:0:
192,192,73555,1,0,0:0:0:0:
448,192,73871,1,0,0:0:0:0:
64,192,73871,1,0,0:0:0:0:
64,192,74187,1,0,0:0:0:0:
448,192,74503,1,0,0:0:0:0:
192,192,74503,1,0,0:0:0:0:
192,192,74818,1,0,0:0:0:0:
192,192,74976,1,0,0:0:0:0:
448,192,75134,1,0,0:0:0:0:
192,192,75292,1,0,0:0:0:0:
192,192,75450,1,0,0:0:0:0:
192,192,75608,1,0,0:0:0:0:
448,192,75766,1,0,0:0:0:0:
192,192,75924,1,0,0:0:0:0:
192,192,76082,1,0,0:0:0:0:
448,192,76397,1,0,0:0:0:0:
64,192,76397,1,0,0:0:0:0:
64,192,76713,1,0,0:0:0:0:
448,192,77029,1,0,0:0:0:0:
192,192,77029,1,0,0:0:0:0:
320,192,77108,1,0,0:0:0:0:
64,192,77187,1,0,0:0:0:0:
192,192,77266,1,0,0:0:0:0:
448,192,77345,1,0,0:0:0:0:
64,192,77424,1,0,0:0:0:0:
320,192,77503,1,0,0:0:0:0:
448,192,77582,1,0,0:0:0:0:
64,192,77661,1,0,0:0:0:0:
192,192,77740,1,0,0:0:0:0:
448,192,77818,1,0,0:0:0:0:
320,192,77897,1,0,0:0:0:0:
64,192,77976,1,0,0:0:0:0:
448,192,78055,1,0,0:0:0:0:
192,192,78134,1,0,0:0:0:0:
64,192,78213,1,0,0:0:0:0:
448,192,78292,1,0,0:0:0:0:
320,192,78371,1,0,0:0:0:0:
64,192,78450,1,0,0:0:0:0:
192,192,78529,1,0,0:0:0:0:
448,192,78608,1,0,0:0:0:0:
64,192,78687,1,0,0:0:0:0:
320,192,78766,1,0,0:0:0:0:
448,192,78845,1,0,0:0:0:0:
64,192,78924,1,0,0:0:0:0:
192,192,79003,1,0,0:0:0:0:
448,192,79082,1,0,0:0:0:0:
320,192,79161,1,0,0:0:0:0:
64,192,79240,1,0,0:0:0:0:
448,192,79318,1,0,0:0:0:0:
192,192,79397,1,0,0:0:0:0:
64,192,79476,1,0,0:0:0:0:
320,192,79555,1,0,0:0:0:0:
448,192,79661,1,0,0:0:0:0:
320,192,79766,1,0,0:0:0:0:
64,192,79871,1,0,0:0:0:0:
192,192,79976,1,0,0:0:0:0:
64,192,80082,1,0,0:0:0:0:
448,192,80187,1,0,0:0:0:0:
192,192,80266,1,0,0:0:0:0:
448,192,80345,1,0,0:0:0:0:
192,192,80424,1,0,0:0:0:0:
320,192,80503,1,0,0:0:0:0:
64,192,80582,1,0,0:0:0:0:
320,192,80661,1,0,0:0:0:0:
64,192,80740,1,0,0:0:0:0:
448,192,80818,1,0,0:0:0:0:
64,192,81134,1,0,0:0:0:0:
192,192,81450,1,0,0:0:0:0:
448,192,81608,1,0,0:0:0:0:
320,192,81766,1,0,0:0:0:0:
448,192,82082,1,0,0:0:0:0:
192,192,82082,128,0,82397:0:0:0:0:
320,192,82240,1,0,0:0:0:0:
448,192,82397,128,0,82713:0:0:0:0:
64,192,82397,1,0,0:0:0:0:
192,192,82555,1,0,0:0:0:0:
320,192,82713,1,0,0:0:0:0:
64,192,82713,128,0,83029:0:0:0:0:
448,192,82871,1,0,0:0:0:0:
320,192,83029,1,0,0:0:0:0:
192,192,83029,1,0,0:0:0:0:
448,192,83108,1,0,0:0:0:0:
320,192,83187,1,0,0:0:0:0:
192,192,83345,1,0,0:0:0:0:
64,192,83345,1,0,0:0:0:0:
448,192,83503,1,0,0:0:0:0:
192,192,83582,1,0,0:0:0:0:
448,192,83661,1,0,0:0:0:0:
320,192,83661,1,0,0:0:0:0:
64,192,83818,1,0,0:0:0:0:
320,192,83897,1,0,0:0:0:0:
192,192,83976,1,0,0:0:0:0:
64,192,83976,1,0,0:0:0:0:
448,192,84134,1,0,0:0:0:0:
64,192,84213,1,0,0:0:0:0:
448,192,84292,1,0,0:0:0:0:
320,192,84292,1,0,0:0:0:0:
192,192,84450,1,0,0:0:0:0:
320,192,84529,1,0,0:0:0:0:
192,192,84608,1,0,0:0:0:0:
64,192,84608,128,0,84924:0:0:0:0:
320,192,84766,1,0,0:0:0:0:
448,192,84924,128,0,85240:0:0:0:0:
192,192,84924,1,0,0:0:0:0:
64,192,85082,1,0,0:0:0:0:
320,192,85240,128,0,85555:0:0:0:0:
192,192,85240,1,0,0:0:0:0:
64,192,85397,1,0,0:0:0:0:
448,192,85555,1,0,0:0:0:0:
192,192,85555,1,0,0:0:0:0:
64,192,85634,1,0,0:0:0:0:
192,192,85713,1,0,0:0:0:0:
448,192,85871,1,0,0:0:0:0:
320,192,85871,1,0,0:0:0:0:
64,192,86029,1,0,0:0:0:0:
320,192,86108,1,0,0:0:0:0:
192,192,86187,1,0,0:0:0:0:
64,192,86187,1,0,0:0:0:0:
448,192,86345,1,0,0:0:0:0:
192,192,86424,1,0,0:0:0:0:
448,192,86503,1,0,0:0:0:0:
320,192,86503,128,0,86818:0:0:0:0:
448,192,86818,1,0,0:0:0:0:
64,192,86818,1,0,0:0:0:0:
192,192,86897,1,0,0:0:0:0:
320,192,86976,1,0,0:0:0:0:
448,192,87134,1,0,0:0:0:0:
192,192,87134,128,0,87450:0:0:0:0:
320,192,87292,1,0,0:0:0:0:
448,192,87450,128,0,87766:0:0:0:0:
64,192,87450,1,0,0:0:0:0:
192,192,87608,1,0,0:0:0:0:
320,192,87766,1,0,0:0:0:0:
64,192,87766,128,0,88082:0:0:0:0:
448,192,87924,1,0,0:0:0:0:
320,192,88082,1,0,0:0:0:0:
192,192,88082,1,0,0:0:0:0:
448,192,88240,1,0,0:0:0:0:
192,192,88397,1,0,0:0:0:0:
64,192,88397,1,0,0:0:0:0:
320,192,88555,1,0,0:0:0:0:
448,192,88713,1,0,0:0:0:0:
64,192,88713,1,0,0:0:0:0:
192,192,88871,1,0,0:0:0:0:
448,192,89029,1,0,0:0:0:0:
320,192,89029,1,0,0:0:0:0:
64,192,89187,1,0,0:0:0:0:
320,192,89345,128,0,89661:0:0:0:0:
192,192,89345,1,0,0:0:0:0:
64,192,89503,1,0,0:0:0:0:
448,192,89661,1,0,0:0:0:0:
192,192,89661,128,0,89976:0:0:0:0:
320,192,89818,1,0,0:0:0:0:
448,192,89976,128,0,90292:0:0:0:0:
64,192,89976,1,0,0:0:0:0:
320,192,90134,1,0,0:0:0:0:
192,192,90292,1,0,0:0:0:0:
64,192,90292,128,0,90608:0:0:0:0:
448,192,90450,1,0,0:0:0:0:
320,192,90608,1,0,0:0:0:0:
192,192,90608,1,0,0:0:0:0:
448,192,90766,1,0,0:0:0:0:
320,192,90924,1,0,0:0:0:0:
64,192,90924,1,0,0:0:0:0:
192,192,91082,1,0,0:0:0:0:
320,192,91240,1,0,0:0:0:0:
192,192,91397,1,0,0:0:0:0:
320,192,91555,1,0,0:0:0:0:
64,192,91792,1,0,0:0:0:0:
448,192,91871,1,0,0:0:0:0:
192,192,91950,1,0,0:0:0:0:
320,192,92029,1,0,0:0:0:0:
64,192,92108,1,0,0:0:0:0:
448,192,92187,1,0,0:0:0:0:
192,192,92187,128,0,92503:0:0:0:0:
320,192,92345,1,0,0:0:0:0:
448,192,92503,128,0,92818:0:0:0:0:
64,192,92503,1,0,0:0:0:0:
192,192,92661,1,0,0:0:0:0:
320,192,92818,1,0,0:0:0:0:
64,192,92818,128,0,93134:0:0:0:0:
448,192,92976,1,0,0:0:0:0:
320,192,93134,1,0,0:0:0:0:
192,192,93134,1,0,0:0:0:0:
448,192,93213,1,0,0:0:0:0:
64,192,93292,1,0,0:0:0:0:
448,192,93450,1,0,0:0:0:0:
320,192,93450,1,0,0:0:0:0:
192,192,93608,1,0,0:0:0:0:
320,192,93687,1,0,0:0:0:0:
192,192,93766,1,0,0:0:0:0:
64,192,93766,1,0,0:0:0:0:
448,192,93924,1,0,0:0:0:0:
64,192,94003,1,0,0:0:0:0:
448,192,94082,1,0,0:0:0:0:
320,192,94082,1,0,0:0:0:0:
192,192,94240,1,0,0:0:0:0:
448,192,94318,1,0,0:0:0:0:
192,192,94397,1,0,0:0:0:0:
64,192,94397,1,0,0:0:0:0:
320,192,94555,1,0,0:0:0:0:
64,192,94634,1,0,0:0:0:0:
448,192,94713,128,0,95029:0:0:0:0:
320,192,94713,1,0,0:0:0:0:
192,192,94871,1,0,0:0:0:0:
320,192,95029,1,0,0:0:0:0:
64,192,95029,128,0,95345:0:0:0:0:
448,192,95187,1,0,0:0:0:0:
320,192,95345,1,0,0:0:0:0:
192,192,95345,128,0,95661:0:0:0:0:
448,192,95503,1,0,0:0:0:0:
320,192,95661,1,0,0:0:0:0:
64,192,95661,1,0,0:0:0:0:
448,192,95740,1,0,0:0:0:0:
320,192,95818,1,0,0:0:0:0:
448,192,95976,1,0,0:0:0:0:
64,192,95976,1,0,0:0:0:0:
192,192,96134,1,0,0:0:0:0:
320,192,96213,1,0,0:0:0:0:
192,192,96292,1,0,0:0:0:0:
64,192,96292,1,0,0:0:0:0:
320,192,96450,1,0,0:0:0:0:
192,192,96529,1,0,0:0:0:0:
448,192,96608,1,0,0:0:0:0:
320,192,96608,1,0,0:0:0:0:
64,192,96766,1,0,0:0:0:0:
320,192,96924,1,0,0:0:0:0:
192,192,96924,1,0,0:0:0:0:
448,192,97082,1,0,0:0:0:0:
320,192,97240,1,0,0:0:0:0:
64,192,97240,128,0,97555:0:0:0:0:
448,192,97555,1,0,0:0:0:0:
192,192,97555,1,0,0:0:0:0:
448,192,97792,1,0,0:0:0:0:
192,192,97792,1,0,0:0:0:0:
448,192,98029,1,0,0:0:0:0:
192,192,98029,1,0,0:0:0:0:
320,192,98503,1,0,0:0:0:0:
448,192,98818,1,0,0:0:0:0:
64,192,98818,1,0,0:0:0:0:
448,192,99055,1,0,0:0:0:0:
64,192,99055,1,0,0:0:0:0:
448,192,99292,1,0,0:0:0:0:
64,192,99292,1,0,0:0:0:0:
192,192,99766,1,0,0:0:0:0:
448,192,100082,1,0,0:0:0:0:
320,192,100082,1,0,0:0:0:0:
448,192,100318,1,0,0:0:0:0:
320,192,100318,1,0,0:0:0:0:
448,192,100555,1,0,0:0:0:0:
320,192,100555,1,0,0:0:0:0:
448,192,100792,1,0,0:0:0:0:
320,192,100792,1,0,0:0:0:0:
192,192,100950,1,0,0:0:0:0:
448,192,101029,1,0,0:0:0:0:
320,192,101029,1,0,0:0:0:0:
64,192,101187,1,0,0:0:0:0:
448,192,101266,1,0,0:0:0:0:
192,192,101345,1,0,0:0:0:0:
64,192,101424,1,0,0:0:0:0:
448,192,101503,1,0,0:0:0:0:
320,192,101503,1,0,0:0:0:0:
64,192,101661,1,0,0:0:0:0:
192,192,101740,1,0,0:0:0:0:
448,192,101818,1,0,0:0:0:0:
320,192,101871,1,0,0:0:0:0:
64,192,101924,1,0,0:0:0:0:
448,192,101976,1,0,0:0:0:0:
192,192,102029,1,0,0:0:0:0:
320,192,102082,1,0,0:0:0:0:
64,192,102134,1,0,0:0:0:0:
320,192,102292,1,0,0:0:0:0:
192,192,102292,1,0,0:0:0:0:
448,192,102450,1,0,0:0:0:0:
320,192,102608,1,0,0:0:0:0:
448,192,102766,1,0,0:0:0:0:
320,192,102924,1,0,0:0:0:0:
448,192,103082,1,0,0:0:0:0:
320,192,103240,1,0,0:0:0:0:
448,192,103397,1,0,0:0:0:0:
192,192,103555,1,0,0:0:0:0:
64,192,103713,1,0,0:0:0:0:
192,192,103871,1,0,0:0:0:0:
64,192,104029,1,0,0:0:0:0:
192,192,104187,1,0,0:0:0:0:
64,192,104345,1,0,0:0:0:0:
192,192,104503,1,0,0:0:0:0:
64,192,104661,1,0,0:0:0:0:
448,192,104818,1,0,0:0:0:0:
192,192,104976,1,0,0:0:0:0:
448,192,105134,1,0,0:0:0:0:
192,192,105292,1,0,0:0:0:0:
448,192,105450,1,0,0:0:0:0:
192,192,105608,1,0,0:0:0:0:
448,192,105766,1,0,0:0:0:0:
192,192,105924,1,0,0:0:0:0:
64,192,106082,1,0,0:0:0:0:
320,192,106240,1,0,0:0:0:0:
64,192,106397,1,0,0:0:0:0:
320,192,106555,1,0,0:0:0:0:
448,192,106713,1,0,0:0:0:0:
64,192,106871,1,0,0:0:0:0:
448,192,107029,1,0,0:0:0:0:
64,192,107187,1,0,0:0:0:0:
320,192,107345,1,0,0:0:0:0:
448,192,107503,1,0,0:0:0:0:
320,192,107661,1,0,0:0:0:0:
448,192,107818,1,0,0:0:0:0:
320,192,107976,1,0,0:0:0:0:
448,192,108134,1,0,0:0:0:0:
320,192,108292,1,0,0:0:0:0:
448,192,108450,1,0,0:0:0:0:
192,192,108608,1,0,0:0:0:0:
64,192,108766,1,0,0:0:0:0:
192,192,108924,1,0,0:0:0:0:
64,192,109082,1,0,0:0:0:0:
192,192,109240,1,0,0:0:0:0:
64,192,109397,1,0,0:0:0:0:
192,192,109555,1,0,0:0:0:0:
64,192,109713,1,0,0:0:0:0:
448,192,109871,1,0,0:0:0:0:
192,192,110029,1,0,0:0:0:0:
448,192,110187,1,0,0:0:0:0:
192,192,110345,1,0,0:0:0:0:
448,192,110503,1,0,0:0:0:0:
192,192,110661,1,0,0:0:0:0:
448,192,110818,1,0,0:0:0:0:
192,192,110976,1,0,0:0:0:0:
320,192,111134,1,0,0:0:0:0:
64,192,111292,1,0,0:0:0:0:
320,192,111450,1,0,0:0:0:0:
64,192,111608,1,0,0:0:0:0:
448,192,111766,1,0,0:0:0:0:
192,192,111845,1,0,0:0:0:0:
448,192,111924,1,0,0:0:0:0:
192,192,112003,1,0,0:0:0:0:
64,192,112082,1,0,0:0:0:0:
320,192,112161,1,0,0:0:0:0:
64,192,112240,1,0,0:0:0:0:
320,192,112318,1,0,0:0:0:0:
448,192,112397,1,0,0:0:0:0:
192,192,112397,1,0,0:0:0:0:
320,192,112713,1,0,0:0:0:0:
64,192,112871,1,0,0:0:0:0:
320,192,113029,1,0,0:0:0:0:
192,192,113266,1,0,0:0:0:0:
448,192,113345,1,0,0:0:0:0:
64,192,113503,1,0,0:0:0:0:
320,192,113661,1,0,0:0:0:0:
320,192,113976,1,0,0:0:0:0:
192,192,114292,1,0,0:0:0:0:
448,192,114450,1,0,0:0:0:0:
64,192,114529,1,0,0:0:0:0:
320,192,114608,1,0,0:0:0:0:
192,192,114766,1,0,0:0:0:0:
448,192,114924,1,0,0:0:0:0:
64,192,114924,1,0,0:0:0:0:
192,192,115240,1,0,0:0:0:0:
448,192,115397,1,0,0:0:0:0:
192,192,115555,1,0,0:0:0:0:
320,192,115713,1,0,0:0:0:0:
64,192,115792,1,0,0:0:0:0:
448,192,116029,1,0,0:0:0:0:
192,192,116029,1,0,0:0:0:0:
448,192,116345,1,0,0:0:0:0:
448,192,116503,1,0,0:0:0:0:
64,192,116503,1,0,0:0:0:0:
320,192,116661,1,0,0:0:0:0:
448,192,116740,1,0,0:0:0:0:
320,192,116818,1,0,0:0:0:0:
192,192,116818,1,0,0:0:0:0:
448,192,117055,1,0,0:0:0:0:
64,192,117134,1,0,0:0:0:0:
320,192,117292,1,0,0:0:0:0:
448,192,117450,1,0,0:0:0:0:
192,192,117450,1,0,0:0:0:0:
320,192,117766,1,0,0:0:0:0:
64,192,117924,1,0,0:0:0:0:
320,192,118082,1,0,0:0:0:0:
192,192,118318,1,0,0:0:0:0:
448,192,118397,1,0,0:0:0:0:
64,192,118555,1,0,0:0:0:0:
320,192,118713,1,0,0:0:0:0:
64,192,119029,1,0,0:0:0:0:
192,192,119187,1,0,0:0:0:0:
64,192,119266,1,0,0:0:0:0:
448,192,119345,1,0,0:0:0:0:
192,192,119503,1,0,0:0:0:0:
320,192,119582,1,0,0:0:0:0:
64,192,119661,1,0,0:0:0:0:
448,192,119818,1,0,0:0:0:0:
192,192,119976,1,0,0:0:0:0:
64,192,119976,1,0,0:0:0:0:
320,192,120134,1,0,0:0:0:0:
64,192,120213,1,0,0:0:0:0:
448,192,120292,1,0,0:0:0:0:
192,192,120450,1,0,0:0:0:0:
448,192,120608,1,0,0:0:0:0:
64,192,120766,1,0,0:0:0:0:
320,192,120845,1,0,0:0:0:0:
448,192,121082,1,0,0:0:0:0:
192,192,121082,1,0,0:0:0:0:
192,192,121397,1,0,0:0:0:0:
448,192,121555,1,0,0:0:0:0:
192,192,121555,1,0,0:0:0:0:
64,192,121713,1,0,0:0:0:0:
192,192,121792,1,0,0:0:0:0:
320,192,121871,1,0,0:0:0:0:
64,192,121871,1,0,0:0:0:0:
448,192,122108,1,0,0:0:0:0:
192,192,122187,1,0,0:0:0:0:
320,192,122345,1,0,0:0:0:0:
448,192,122503,1,0,0:0:0:0:
64,192,122503,1,0,0:0:0:0:
320,192,122818,1,0,0:0:0:0:
64,192,122976,1,0,0:0:0:0:
320,192,123134,1,0,0:0:0:0:
192,192,123371,1,0,0:0:0:0:
448,192,123450,1,0,0:0:0:0:
64,192,123608,1,0,0:0:0:0:
320,192,123766,1,0,0:0:0:0:
320,192,124082,1,0,0:0:0:0:
64,192,124397,1,0,0:0:0:0:
448,192,124555,1,0,0:0:0:0:
192,192,124634,1,0,0:0:0:0:
320,192,124713,1,0,0:0:0:0:
64,192,124871,1,0,0:0:0:0:
448,192,125029,1,0,0:0:0:0:
192,192,125029,1,0,0:0:0:0:
64,192,125345,1,0,0:0:0:0:
320,192,125503,1,0,0:0:0:0:
64,192,125661,1,0,0:0:0:0:
448,192,125818,1,0,0:0:0:0:
192,192,125897,1,0,0:0:0:0:
320,192,126134,1,0,0:0:0:0:
64,192,126134,1,0,0:0:0:0:
320,192,126450,1,0,0:0:0:0:
320,192,126608,1,0,0:0:0:0:
192,192,126608,1,0,0:0:0:0:
448,192,126766,1,0,0:0:0:0:
320,192,126845,1,0,0:0:0:0:
448,192,126924,1,0,0:0:0:0:
64,192,126924,1,0,0:0:0:0:
192,192,127161,1,0,0:0:0:0:
448,192,127240,1,0,0:0:0:0:
320,192,127397,1,0,0:0:0:0:
192,192,127555,1,0,0:0:0:0:
64,192,127555,1,0,0:0:0:0:
320,192,127871,1,0,0:0:0:0:
64,192,128029,1,0,0:0:0:0:
320,192,128187,1,0,0:0:0:0:
192,192,128345,1,0,0:0:0:0:
448,192,128424,1,0,0:0:0:0:
448,192,128661,1,0,0:0:0:0:
64,192,128661,1,0,0:0:0:0:
448,192,128976,1,0,0:0:0:0:
320,192,129134,1,0,0:0:0:0:
64,192,129134,1,0,0:0:0:0:
192,192,129292,1,0,0:0:0:0:
64,192,129371,1,0,0:0:0:0:
448,192,129450,1,0,0:0:0:0:
320,192,129450,1,0,0:0:0:0:
448,192,129687,1,0,0:0:0:0:
192,192,129687,1,0,0:0:0:0:
320,192,129924,1,0,0:0:0:0:
192,192,129924,1,0,0:0:0:0:
64,192,130082,1,0,0:0:0:0:
320,192,130240,1,0,0:0:0:0:
64,192,130318,1,0,0:0:0:0:
448,192,130397,1,0,0:0:0:0:
192,192,130397,1,0,0:0:0:0:
320,192,130555,1,0,0:0:0:0:
64,192,130713,1,0,0:0:0:0:
192,192,130871,1,0,0:0:0:0:
448,192,130950,1,0,0:0:0:0:
320,192,131187,1,0,0:0:0:0:
64,192,131187,1,0,0:0:0:0:
448,192,131503,1,0,0:0:0:0:
64,192,131503,1,0,0:0:0:0:
448,192,131661,1,0,0:0:0:0:
64,192,131661,1,0,0:0:0:0:
320,192,131818,1,0,0:0:0:0:
448,192,131897,1,0,0:0:0:0:
192,192,131976,1,0,0:0:0:0:
64,192,131976,1,0,0:0:0:0:
448,192,132213,1,0,0:0:0:0:
320,192,132213,1,0,0:0:0:0:
192,192,132450,1,0,0:0:0:0:
64,192,132450,1,0,0:0:0:0:
448,192,132608,1,0,0:0:0:0:
64,192,132608,1,0,0:0:0:0:
192,192,132924,1,0,0:0:0:0:
64,192,133240,1,0,0:0:0:0:
448,192,133555,1,0,0:0:0:0:
192,192,133713,1,0,0:0:0:0:
448,192,133871,1,0,0:0:0:0:
64,192,134029,1,0,0:0:0:0:
320,192,134187,1,0,0:0:0:0:
192,192,134503,1,0,0:0:0:0:
320,192,134555,1,0,0:0:0:0:
448,192,134818,1,0,0:0:0:0:
192,192,134976,1,0,0:0:0:0:
448,192,135134,1,0,0:0:0:0:
64,192,135292,1,0,0:0:0:0:
320,192,135450,1,0,0:0:0:0:
192,192,135766,1,0,0:0:0:0:
320,192,135818,1,0,0:0:0:0:
448,192,136082,1,0,0:0:0:0:
192,192,136240,1,0,0:0:0:0:
448,192,136397,1,0,0:0:0:0:
320,192,136713,1,0,0:0:0:0:
192,192,136871,1,0,0:0:0:0:
64,192,137029,1,0,0:0:0:0:
448,192,137187,1,0,0:0:0:0:
320,192,137345,1,0,0:0:0:0:
192,192,137661,1,0,0:0:0:0:
320,192,137740,1,0,0:0:0:0:
64,192,137818,1,0,0:0:0:0:
448,192,137897,1,0,0:0:0:0:
192,192,137976,1,0,0:0:0:0:
320,192,138055,1,0,0:0:0:0:
64,192,138134,1,0,0:0:0:0:
448,192,138213,1,0,0:0:0:0:
320,192,138292,1,0,0:0:0:0:
64,192,138371,1,0,0:0:0:0:
448,192,138450,1,0,0:0:0:0:
192,192,138529,1,0,0:0:0:0:
320,192,138608,1,0,0:0:0:0:
64,192,138687,1,0,0:0:0:0:
448,192,138766,1,0,0:0:0:0:
192,192,138845,1,0,0:0:0:0:
64,192,138924,1,0,0:0:0:0:
448,192,139003,1,0,0:0:0:0:
192,192,139082,1,0,0:0:0:0:
320,192,139161,1,0,0:0:0:0:
64,192,139240,1,0,0:0:0:0:
448,192,139318,1,0,0:0:0:0:
192,192,139397,1,0,0:0:0:0:
320,192,139476,1,0,0:0:0:0:
448,192,139555,1,0,0:0:0:0:
64,192,139634,1,0,0:0:0:0:
320,192,139713,1,0,0:0:0:0:
192,192,139792,1,0,0:0:0:0:
448,192,139871,1,0,0:0:0:0:
64,192,139950,1,0,0:0:0:0:
320,192,140029,1,0,0:0:0:0:
192,192,140108,1,0,0:0:0:0:
448,192,140187,1,0,0:0:0:0:
320,192,140266,1,0,0:0:0:0:
64,192,140345,1,0,0:0:0:0:
192,192,140424,1,0,0:0:0:0:
448,192,140503,1,0,0:0:0:0:
320,192,140582,1,0,0:0:0:0:
64,192,140661,1,0,0:0:0:0:
192,192,140740,1,0,0:0:0:0:
448,192,140818,1,0,0:0:0:0:
320,192,140897,1,0,0:0:0:0:
64,192,140976,1,0,0:0:0:0:
192,192,141055,1,0,0:0:0:0:
448,192,141134,1,0,0:0:0:0:
320,192,141213,1,0,0:0:0:0:
64,192,141292,1,0,0:0:0:0:
192,192,141371,1,0,0:0:0:0:
448,192,141450,1,0,0:0:0:0:
320,192,141450,1,0,0:0:0:0:
64,192,141608,1,0,0:0:0:0:
320,192,141687,1,0,0:0:0:0:
192,192,141766,1,0,0:0:0:0:
64,192,141924,1,0,0:0:0:0:
320,192,142082,1,0,0:0:0:0:
448,192,142240,1,0,0:0:0:0:
320,192,142318,1,0,0:0:0:0:
64,192,142397,1,0,0:0:0:0:
448,192,142713,1,0,0:0:0:0:
192,192,142713,1,0,0:0:0:0:
320,192,142792,1,0,0:0:0:0:
64,192,142871,1,0,0:0:0:0:
448,192,142950,1,0,0:0:0:0:
192,192,143029,1,0,0:0:0:0:
320,192,143108,1,0,0:0:0:0:
192,192,143187,1,0,0:0:0:0:
448,192,143266,1,0,0:0:0:0:
64,192,143345,1,0,0:0:0:0:
320,192,143424,1,0,0:0:0:0:
64,192,143503,1,0,0:0:0:0:
448,192,143582,1,0,0:0:0:0:
320,192,143661,1,0,0:0:0:0:
192,192,143740,1,0,0:0:0:0:
448,192,143818,1,0,0:0:0:0:
320,192,143897,1,0,0:0:0:0:
64,192,143976,1,0,0:0:0:0:
448,192,144055,1,0,0:0:0:0:
64,192,144134,1,0,0:0:0:0:
320,192,144213,1,0,0:0:0:0:
192,192,144292,1,0,0:0:0:0:
448,192,144371,1,0,0:0:0:0:
192,192,144450,1,0,0:0:0:0:
320,192,144529,1,0,0:0:0:0:
448,192,144608,1,0,0:0:0:0:
64,192,144687,1,0,0:0:0:0:
320,192,144766,1,0,0:0:0:0:
192,192,144845,1,0,0:0:0:0:
448,192,144924,1,0,0:0:0:0:
320,192,145003,1,0,0:0:0:0:
64,192,145082,1,0,0:0:0:0:
192,192,145161,1,0,0:0:0:0:
448,192,145240,1,0,0:0:0:0:
320,192,145318,1,0,0:0:0:0:
192,192,145397,1,0,0:0:0:0:
64,192,145476,1,0,0:0:0:0:
448,192,145555,1,0,0:0:0:0:
192,192,145634,1,0,0:0:0:0:
448,192,145713,1,0,0:0:0:0:
64,192,145792,1,0,0:0:0:0:
320,192,145871,1,0,0:0:0:0:
192,192,145950,1,0,0:0:0:0:
320,192,146029,1,0,0:0:0:0:
64,192,146108,1,0,0:0:0:0:
192,192,146187,1,0,0:0:0:0:
64,192,146266,1,0,0:0:0:0:
448,192,146345,1,0,0:0:0:0:
192,192,146424,1,0,0:0:0:0:
448,192,146503,1,0,0:0:0:0:
64,192,146582,1,0,0:0:0:0:
320,192,146661,1,0,0:0:0:0:
192,192,146740,1,0,0:0:0:0:
448,192,146818,1,0,0:0:0:0:
320,192,146897,1,0,0:0:0:0:
448,192,146976,1,0,0:0:0:0:
64,192,147055,1,0,0:0:0:0:
320,192,147134,1,0,0:0:0:0:
192,192,147213,1,0,0:0:0:0:
320,192,147292,1,0,0:0:0:0:
64,192,147371,1,0,0:0:0:0:
448,192,147450,1,0,0:0:0:0:
320,192,147529,1,0,0:0:0:0:
64,192,147608,1,0,0:0:0:0:
448,192,147687,1,0,0:0:0:0:
320,192,147766,1,0,0:0:0:0:
192,192,147766,1,0,0:0:0:0:
64,192,147845,1,0,0:0:0:0:
448,192,147924,1,0,0:0:0:0:
192,192,148003,1,0,0:0:0:0:
64,192,148082,1,0,0:0:0:0:
320,192,148161,1,0,0:0:0:0:
64,192,148240,1,0,0:0:0:0:
448,192,148318,1,0,0:0:0:0:
192,192,148397,1,0,0:0:0:0:
320,192,148476,1,0,0:0:0:0:
192,192,148555,1,0,0:0:0:0:
448,192,148634,1,0,0:0:0:0:
320,192,148713,1,0,0:0:0:0:
64,192,148792,1,0,0:0:0:0:
448,192,148871,1,0,0:0:0:0:
320,192,148950,1,0,0:0:0:0:
192,192,149029,1,0,0:0:0:0:
448,192,149108,1,0,0:0:0:0:
192,192,149187,1,0,0:0:0:0:
320,192,149266,1,0,0:0:0:0:
64,192,149345,1,0,0:0:0:0:
448,192,149424,1,0,0:0:0:0:
64,192,149503,1,0,0:0:0:0:
320,192,149582,1,0,0:0:0:0:
192,192,149661,1,0,0:0:0:0:
448,192,149740,1,0,0:0:0:0:
192,192,149818,1,0,0:0:0:0:
64,192,149897,1,0,0:0:0:0:
320,192,149976,1,0,0:0:0:0:
192,192,150055,1,0,0:0:0:0:
448,192,150134,1,0,0:0:0:0:
320,192,150213,1,0,0:0:0:0:
64,192,150292,1,0,0:0:0:0:
448,192,150371,1,0,0:0:0:0:
192,192,150450,1,0,0:0:0:0:
320,192,150529,1,0,0:0:0:0:
64,192,150608,1,0,0:0:0:0:
448,192,150687,1,0,0:0:0:0:
192,192,150766,1,0,0:0:0:0:
64,192,150845,1,0,0:0:0:0:
320,192,150924,1,0,0:0:0:0:
192,192,151003,1,0,0:0:0:0:
448,192,151082,1,0,0:0:0:0:
64,192,151161,1,0,0:0:0:0:
192,192,151240,1,0,0:0:0:0:
320,192,151318,1,0,0:0:0:0:
64,192,151397,1,0,0:0:0:0:
448,192,151476,1,0,0:0:0:0:
192,192,151555,1,0,0:0:0:0:
64,192,151634,1,0,0:0:0:0:
320,192,151713,1,0,0:0:0:0:
192,192,151792,1,0,0:0:0:0:
448,192,151871,1,0,0:0:0:0:
320,192,151950,1,0,0:0:0:0:
192,192,152029,1,0,0:0:0:0:
64,192,152108,1,0,0:0:0:0:
448,192,152187,1,0,0:0:0:0:
192,192,152266,1,0,0:0:0:0:
320,192,152345,1,0,0:0:0:0:
448,192,152424,1,0,0:0:0:0:
64,192,152503,1,0,0:0:0:0:
320,192,152582,1,0,0:0:0:0:
192,192,152661,1,0,0:0:0:0:
448,192,152740,1,0,0:0:0:0:
320,192,152818,1,0,0:0:0:0:
64,192,152897,1,0,0:0:0:0:
320,192,152976,1,0,0:0:0:0:
64,192,153055,1,0,0:0:0:0:
448,192,153134,1,0,0:0:0:0:
192,192,153134,1,0,0:0:0:0:
320,192,153213,1,0,0:0:0:0:
192,192,153292,1,0,0:0:0:0:
448,192,153371,1,0,0:0:0:0:
64,192,153450,1,0,0:0:0:0:
320,192,153529,1,0,0:0:0:0:
64,192,153608,1,0,0:0:0:0:
448,192,153687,1,0,0:0:0:0:
320,192,153766,1,0,0:0:0:0:
192,192,153845,1,0,0:0:0:0:
448,192,153924,1,0,0:0:0:0:
320,192,154003,1,0,0:0:0:0:
64,192,154082,1,0,0:0:0:0:
448,192,154161,1,0,0:0:0:0:
64,192,154240,1,0,0:0:0:0:
320,192,154318,1,0,0:0:0:0:
192,192,154397,1,0,0:0:0:0:
448,192,154476,1,0,0:0:0:0:
192,192,154555,1,0,0:0:0:0:
320,192,154634,1,0,0:0:0:0:
448,192,154713,1,0,0:0:0:0:
64,192,154792,1,0,0:0:0:0:
320,192,154871,1,0,0:0:0:0:
192,192,154950,1,0,0:0:0:0:
448,192,155029,1,0,0:0:0:0:
320,192,155108,1,0,0:0:0:0:
64,192,155187,1,0,0:0:0:0:
192,192,155266,1,0,0:0:0:0:
448,192,155345,1,0,0:0:0:0:
320,192,155424,1,0,0:0:0:0:
192,192,155503,1,0,0:0:0:0:
64,192,155582,1,0,0:0:0:0:
448,192,155661,1,0,0:0:0:0:
192,192,155740,1,0,0:0:0:0:
448,192,155818,1,0,0:0:0:0:
64,192,155897,1,0,0:0:0:0:
320,192,155976,1,0,0:0:0:0:
192,192,156055,1,0,0:0:0:0:
320,192,156134,1,0,0:0:0:0:
64,192,156213,1,0,0:0:0:0:
192,192,156292,1,0,0:0:0:0:
64,192,156371,1,0,0:0:0:0:
448,192,156450,1,0,0:0:0:0:
192,192,156529,1,0,0:0:0:0:
448,192,156608,1,0,0:0:0:0:
64,192,156687,1,0,0:0:0:0:
320,192,156766,1,0,0:0:0:0:
192,192,156845,1,0,0:0:0:0:
448,192,156924,1,0,0:0:0:0:
320,192,157003,1,0,0:0:0:0:
448,192,157082,1,0,0:0:0:0:
64,192,157161,1,0,0:0:0:0:
320,192,157240,1,0,0:0:0:0:
192,192,157318,1,0,0:0:0:0:
320,192,157397,1,0,0:0:0:0:
64,192,157476,1,0,0:0:0:0:
448,192,157555,1,0,0:0:0:0:
320,192,157634,1,0,0:0:0:0:
64,192,157713,1,0,0:0:0:0:
448,192,157792,1,0,0:0:0:0:
320,192,157871,1,0,0:0:0:0:
192,192,157871,1,0,0:0:0:0:
64,192,157950,1,0,0:0:0:0:
448,192,158029,1,0,0:0:0:0:
192,192,158108,1,0,0:0:0:0:
64,192,158187,1,0,0:0:0:0:
320,192,158266,1,0,0:0:0:0:
64,192,158345,1,0,0:0:0:0:
448,192,158424,1,0,0:0:0:0:
192,192,158503,1,0,0:0:0:0:
320,192,158582,1,0,0:0:0:0:
192,192,158661,1,0,0:0:0:0:
448,192,158740,1,0,0:0:0:0:
320,192,158818,1,0,0:0:0:0:
64,192,158897,1,0,0:0:0:0:
448,192,158976,1,0,0:0:0:0:
320,192,159055,1,0,0:0:0:0:
192,192,159134,1,0,0:0:0:0:
448,192,159213,1,0,0:0:0:0:
192,192,159292,1,0,0:0:0:0:
320,192,159371,1,0,0:0:0:0:
64,192,159450,1,0,0:0:0:0:
448,192,159529,1,0,0:0:0:0:
64,192,159608,1,0,0:0:0:0:
320,192,159687,1,0,0:0:0:0:
192,192,159766,1,0,0:0:0:0:
448,192,159845,1,0,0:0:0:0:
192,192,159924,1,0,0:0:0:0:
64,192,160003,1,0,0:0:0:0:
320,192,160082,1,0,0:0:0:0:
192,192,160161,1,0,0:0:0:0:
448,192,160240,1,0,0:0:0:0:
320,192,160318,1,0,0:0:0:0:
64,192,160397,1,0,0:0:0:0:
448,192,160476,1,0,0:0:0:0:
192,192,160555,1,0,0:0:0:0:
320,192,160634,1,0,0:0:0:0:
64,192,160713,1,0,0:0:0:0:
448,192,160792,1,0,0:0:0:0:
192,192,160871,1,0,0:0:0:0:
64,192,160950,1,0,0:0:0:0:
320,192,161029,1,0,0:0:0:0:
192,192,161108,1,0,0:0:0:0:
320,192,161187,1,0,0:0:0:0:
192,192,161266,1,0,0:0:0:0:
448,192,161345,1,0,0:0:0:0:
64,192,161424,1,0,0:0:0:0:
448,192,161503,1,0,0:0:0:0:
64,192,161582,1,0,0:0:0:0:
192,192,161661,1,0,0:0:0:0:
448,192,161740,1,0,0:0:0:0:
320,192,161818,1,0,0:0:0:0:
64,192,161897,1,0,0:0:0:0:
192,192,161976,1,0,0:0:0:0:
448,192,162134,1,0,0:0:0:0:
320,192,162213,1,0,0:0:0:0:
64,192,162292,1,0,0:0:0:0:
448,192,162450,1,0,0:0:0:0:
192,192,162608,128,0,162924:0:0:0:0:
448,192,162924,1,0,0:0:0:0:
320,192,162924,1,0,0:0:0:0:
64,192,163003,1,0,0:0:0:0:
448,192,163082,1,0,0:0:0:0:
192,192,163161,1,0,0:0:0:0:
320,192,163240,1,0,0:0:0:0:
64,192,163240,1,0,0:0:0:0:
448,192,163318,1,0,0:0:0:0:
192,192,163397,1,0,0:0:0:0:
64,192,163476,1,0,0:0:0:0:
320,192,163555,1,0,0:0:0:0:
192,192,163634,1,0,0:0:0:0:
448,192,163713,1,0,0:0:0:0:
64,192,163792,1,0,0:0:0:0:
320,192,163871,1,0,0:0:0:0:
192,192,163871,1,0,0:0:0:0:
448,192,163950,1,0,0:0:0:0:
64,192,164029,1,0,0:0:0:0:
192,192,164108,1,0,0:0:0:0:
448,192,164187,1,0,0:0:0:0:
320,192,164266,1,0,0:0:0:0:
192,192,164345,1,0,0:0:0:0:
64,192,164424,1,0,0:0:0:0:
448,192,164503,1,0,0:0:0:0:
320,192,164503,1,0,0:0:0:0:
192,192,164582,1,0,0:0:0:0:
320,192,164661,1,0,0:0:0:0:
64,192,164740,1,0,0:0:0:0:
448,192,164818,1,0,0:0:0:0:
320,192,164897,1,0,0:0:0:0:
64,192,164976,1,0,0:0:0:0:
448,192,165055,1,0,0:0:0:0:
320,192,165134,1,0,0:0:0:0:
192,192,165134,1,0,0:0:0:0:
64,192,165213,1,0,0:0:0:0:
448,192,165292,1,0,0:0:0:0:
320,192,165371,1,0,0:0:0:0:
64,192,165450,1,0,0:0:0:0:
192,192,165529,1,0,0:0:0:0:
320,192,165608,1,0,0:0:0:0:
448,192,165687,1,0,0:0:0:0:
192,192,165766,1,0,0:0:0:0:
64,192,165766,1,0,0:0:0:0:
320,192,165845,1,0,0:0:0:0:
192,192,165924,1,0,0:0:0:0:
448,192,166003,1,0,0:0:0:0:
64,192,166082,1,0,0:0:0:0:
192,192,166161,1,0,0:0:0:0:
448,192,166240,1,0,0:0:0:0:
64,192,166318,1,0,0:0:0:0:
320,192,166397,1,0,0:0:0:0:
192,192,166397,1,0,0:0:0:0:
448,192,166476,1,0,0:0:0:0:
64,192,166555,1,0,0:0:0:0:
320,192,166634,1,0,0:0:0:0:
192,192,166713,1,0,0:0:0:0:
448,192,166792,1,0,0:0:0:0:
64,192,166871,1,0,0:0:0:0:
320,192,166950,1,0,0:0:0:0:
448,192,167029,1,0,0:0:0:0:
192,192,167029,1,0,0:0:0:0:
64,192,167108,1,0,0:0:0:0:
320,192,167187,1,0,0:0:0:0:
448,192,167266,1,0,0:0:0:0:
64,192,167345,1,0,0:0:0:0:
192,192,167424,1,0,0:0:0:0:
448,192,167503,1,0,0:0:0:0:
320,192,167582,1,0,0:0:0:0:
192,192,167661,1,0,0:0:0:0:
448,192,167740,1,0,0:0:0:0:
64,192,167818,1,0,0:0:0:0:
320,192,167897,1,0,0:0:0:0:
192,192,167976,1,0,0:0:0:0:
64,192,167976,1,0,0:0:0:0:
448,192,168055,1,0,0:0:0:0:
320,192,168134,1,0,0:0:0:0:
192,192,168213,1,0,0:0:0:0:
448,192,168292,1,0,0:0:0:0:
64,192,168292,1,0,0:0:0:0:
320,192,168371,1,0,0:0:0:0:
448,192,168450,1,0,0:0:0:0:
64,192,168529,1,0,0:0:0:0:
320,192,168608,1,0,0:0:0:0:
192,192,168687,1,0,0:0:0:0:
448,192,168766,1,0,0:0:0:0:
64,192,168845,1,0,0:0:0:0:
320,192,168924,1,0,0:0:0:0:
192,192,168924,1,0,0:0:0:0:
448,192,169003,1,0,0:0:0:0:
64,192,169082,1,0,0:0:0:0:
192,192,169161,1,0,0:0:0:0:
448,192,169240,1,0,0:0:0:0:
320,192,169318,1,0,0:0:0:0:
192,192,169397,1,0,0:0:0:0:
64,192,169476,1,0,0:0:0:0:
448,192,169555,1,0,0:0:0:0:
320,192,169555,1,0,0:0:0:0:
192,192,169634,1,0,0:0:0:0:
320,192,169713,1,0,0:0:0:0:
64,192,169792,1,0,0:0:0:0:
448,192,169871,1,0,0:0:0:0:
320,192,169950,1,0,0:0:0:0:
64,192,170029,1,0,0:0:0:0:
448,192,170108,1,0,0:0:0:0:
320,192,170187,1,0,0:0:0:0:
192,192,170187,1,0,0:0:0:0:
64,192,170266,1,0,0:0:0:0:
448,192,170345,1,0,0:0:0:0:
320,192,170424,1,0,0:0:0:0:
64,192,170503,1,0,0:0:0:0:
448,192,170582,1,0,0:0:0:0:
192,192,170661,1,0,0:0:0:0:
320,192,170740,1,0,0:0:0:0:
448,192,170818,1,0,0:0:0:0:
64,192,170818,1,0,0:0:0:0:
192,192,170897,1,0,0:0:0:0:
320,192,170976,1,0,0:0:0:0:
64,192,171055,1,0,0:0:0:0:
448,192,171134,1,0,0:0:0:0:
320,192,171213,1,0,0:0:0:0:
64,192,171292,1,0,0:0:0:0:
192,192,171371,1,0,0:0:0:0:
448,192,171450,1,0,0:0:0:0:
320,192,171450,1,0,0:0:0:0:
64,192,171529,1,0,0:0:0:0:
448,192,171608,1,0,0:0:0:0:
192,192,171687,1,0,0:0:0:0:
320,192,171766,1,0,0:0:0:0:
64,192,171845,1,0,0:0:0:0:
448,192,171924,1,0,0:0:0:0:
192,192,172003,1,0,0:0:0:0:
320,192,172082,1,0,0:0:0:0:
64,192,172082,1,0,0:0:0:0:
448,192,172161,1,0,0:0:0:0:
192,192,172240,1,0,0:0:0:0:
64,192,172318,1,0,0:0:0:0:
448,192,172397,1,0,0:0:0:0:
320,192,172476,1,0,0:0:0:0:
64,192,172555,1,0,0:0:0:0:
192,192,172634,1,0,0:0:0:0:
320,192,172713,1,0,0:0:0:0:
64,192,172792,1,0,0:0:0:0:
448,192,172871,1,0,0:0:0:0:
192,192,172950,1,0,0:0:0:0:
320,192,173029,1,0,0:0:0:0:
64,192,173108,1,0,0:0:0:0:
320,192,173187,1,0,0:0:0:0:
64,192,173266,1,0,0:0:0:0:
448,192,173345,1,0,0:0:0:0:
192,192,173345,1,0,0:0:0:0:
320,192,173424,1,0,0:0:0:0:
64,192,173503,1,0,0:0:0:0:
448,192,173582,1,0,0:0:0:0:
320,192,173661,1,0,0:0:0:0:
192,192,173740,1,0,0:0:0:0:
448,192,173818,1,0,0:0:0:0:
64,192,173897,1,0,0:0:0:0:
320,192,173976,1,0,0:0:0:0:
192,192,173976,1,0,0:0:0:0:
448,192,174055,1,0,0:0:0:0:
64,192,174134,1,0,0:0:0:0:
192,192,174213,1,0,0:0:0:0:
448,192,174292,1,0,0:0:0:0:
320,192,174371,1,0,0:0:0:0:
192,192,174450,1,0,0:0:0:0:
64,192,174529,1,0,0:0:0:0:
448,192,174608,1,0,0:0:0:0:
320,192,174608,1,0,0:0:0:0:
192,192,174687,1,0,0:0:0:0:
320,192,174766,1,0,0:0:0:0:
64,192,174845,1,0,0:0:0:0:
448,192,174924,1,0,0:0:0:0:
320,192,175003,1,0,0:0:0:0:
64,192,175082,1,0,0:0:0:0:
448,192,175161,1,0,0:0:0:0:
320,192,175240,1,0,0:0:0:0:
192,192,175240,1,0,0:0:0:0:
64,192,175318,1,0,0:0:0:0:
448,192,175397,1,0,0:0:0:0:
320,192,175476,1,0,0:0:0:0:
64,192,175555,1,0,0:0:0:0:
192,192,175634,1,0,0:0:0:0:
320,192,175713,1,0,0:0:0:0:
448,192,175792,1,0,0:0:0:0:
192,192,175871,1,0,0:0:0:0:
64,192,175871,1,0,0:0:0:0:
320,192,175950,1,0,0:0:0:0:
192,192,176029,1,0,0:0:0:0:
448,192,176108,1,0,0:0:0:0:
64,192,176187,1,0,0:0:0:0:
192,192,176266,1,0,0:0:0:0:
448,192,176345,1,0,0:0:0:0:
64,192,176424,1,0,0:0:0:0:
320,192,176503,1,0,0:0:0:0:
192,192,176503,1,0,0:0:0:0:
448,192,176582,1,0,0:0:0:0:
64,192,176661,1,0,0:0:0:0:
320,192,176740,1,0,0:0:0:0:
192,192,176818,1,0,0:0:0:0:
448,192,176897,1,0,0:0:0:0:
64,192,176976,1,0,0:0:0:0:
320,192,177055,1,0,0:0:0:0:
448,192,177134,1,0,0:0:0:0:
192,192,177134,1,0,0:0:0:0:
64,192,177213,1,0,0:0:0:0:
320,192,177292,1,0,0:0:0:0:
448,192,177371,1,0,0:0:0:0:
64,192,177450,1,0,0:0:0:0:
192,192,177529,1,0,0:0:0:0:
448,192,177608,1,0,0:0:0:0:
320,192,177687,1,0,0:0:0:0:
192,192,177766,1,0,0:0:0:0:
448,192,177845,1,0,0:0:0:0:
64,192,177924,1,0,0:0:0:0:
320,192,178003,1,0,0:0:0:0:
192,192,178082,1,0,0:0:0:0:
64,192,178082,1,0,0:0:0:0:
448,192,178161,1,0,0:0:0:0:
320,192,178240,1,0,0:0:0:0:
192,192,178318,1,0,0:0:0:0:
448,192,178397,1,0,0:0:0:0:
64,192,178397,1,0,0:0:0:0:
320,192,178476,1,0,0:0:0:0:
448,192,178555,1,0,0:0:0:0:
64,192,178634,1,0,0:0:0:0:
320,192,178713,1,0,0:0:0:0:
192,192,178792,1,0,0:0:0:0:
448,192,178871,1,0,0:0:0:0:
64,192,178950,1,0,0:0:0:0:
320,192,179029,1,0,0:0:0:0:
192,192,179029,1,0,0:0:0:0:
448,192,179108,1,0,0:0:0:0:
64,192,179187,1,0,0:0:0:0:
192,192,179266,1,0,0:0:0:0:
448,192,179345,1,0,0:0:0:0:
320,192,179424,1,0,0:0:0:0:
192,192,179503,1,0,0:0:0:0:
64,192,179582,1,0,0:0:0:0:
448,192,179661,1,0,0:0:0:0:
320,192,179661,1,0,0:0:0:0:
192,192,179740,1,0,0:0:0:0:
320,192,179818,1,0,0:0:0:0:
64,192,179897,1,0,0:0:0:0:
448,192,179976,1,0,0:0:0:0:
320,192,180055,1,0,0:0:0:0:
64,192,180134,1,0,0:0:0:0:
448,192,180213,1,0,0:0:0:0:
320,192,180292,1,0,0:0:0:0:
192,192,180292,1,0,0:0:0:0:
64,192,180371,1,0,0:0:0:0:
448,192,180450,1,0,0:0:0:0:
320,192,180529,1,0,0:0:0:0:
64,192,180608,1,0,0:0:0:0:
448,192,180687,1,0,0:0:0:0:
192,192,180766,1,0,0:0:0:0:
320,192,180845,1,0,0:0:0:0:
448,192,180924,1,0,0:0:0:0:
64,192,180924,1,0,0:0:0:0:
192,192,181003,1,0,0:0:0:0:
320,192,181082,1,0,0:0:0:0:
64,192,181161,1,0,0:0:0:0:
448,192,181240,1,0,0:0:0:0:
192,192,181318,1,0,0:0:0:0:
448,192,181397,1,0,0:0:0:0:
192,192,181476,1,0,0:0:0:0:
320,192,181555,1,0,0:0:0:0:
64,192,181634,1,0,0:0:0:0:
320,192,181713,1,0,0:0:0:0:
64,192,181792,1,0,0:0:0:0:
448,192,181871,1,0,0:0:0:0:
192,192,181871,1,0,0:0:0:0:
320,192,182187,1,0,0:0:0:0:
192,192,182345,1,0,0:0:0:0:
448,192,182503,1,0,0:0:0:0:
320,192,182661,1,0,0:0:0:0:
448,192,182740,1,0,0:0:0:0:
64,192,182818,1,0,0:0:0:0:
448,192,183134,1,0,0:0:0:0:
192,192,183134,1,0,0:0:0:0:
64,192,183213,1,0,0:0:0:0:
320,192,183292,1,0,0:0:0:0:
448,192,183371,1,0,0:0:0:0:
192,192,183450,1,0,0:0:0:0:
320,192,183529,1,0,0:0:0:0:
64,192,183608,1,0,0:0:0:0:
448,192,183687,1,0,0:0:0:0:
192,192,183766,1,0,0:0:0:0:
320,192,183845,1,0,0:0:0:0:
64,192,183924,1,0,0:0:0:0:
192,192,184003,1,0,0:0:0:0:
448,192,184082,1,0,0:0:0:0:
320,192,184161,1,0,0:0:0:0:
64,192,184240,1,0,0:0:0:0:
192,192,184318,1,0,0:0:0:0:
320,192,184397,1,0,0:0:0:0:
64,192,184476,1,0,0:0:0:0:
448,192,184555,1,0,0:0:0:0:
192,192,184634,1,0,0:0:0:0:
64,192,184713,1,0,0:0:0:0:
448,192,184792,1,0,0:0:0:0:
64,192,184871,1,0,0:0:0:0:
448,192,184950,1,0,0:0:0:0:
192,192,185029,1,0,0:0:0:0:
320,192,185108,1,0,0:0:0:0:
448,192,185187,1,0,0:0:0:0:
320,192,185266,1,0,0:0:0:0:
64,192,185345,1,0,0:0:0:0:
192,192,185424,1,0,0:0:0:0:
320,192,185503,1,0,0:0:0:0:
448,192,185582,1,0,0:0:0:0:
64,192,185661,1,0,0:0:0:0:
320,192,185740,1,0,0:0:0:0:
192,192,185818,1,0,0:0:0:0:
448,192,185897,1,0,0:0:0:0:
64,192,185976,1,0,0:0:0:0:
320,192,186055,1,0,0:0:0:0:
64,192,186134,1,0,0:0:0:0:
192,192,186213,1,0,0:0:0:0:
448,192,186292,1,0,0:0:0:0:
64,192,186371,1,0,0:0:0:0:
320,192,186450,1,0,0:0:0:0:
448,192,186529,1,0,0:0:0:0:
192,192,186608,1,0,0:0:0:0:
64,192,186687,1,0,0:0:0:0:
320,192,186766,1,0,0:0:0:0:
448,192,186845,1,0,0:0:0:0:
64,192,186924,1,0,0:0:0:0:
320,192,187003,1,0,0:0:0:0:
192,192,187082,1,0,0:0:0:0:
320,192,187161,1,0,0:0:0:0:
64,192,187240,1,0,0:0:0:0:
192,192,187318,1,0,0:0:0:0:
320,192,187397,1,0,0:0:0:0:
448,192,187476,1,0,0:0:0:0:
192,192,187555,1,0,0:0:0:0:
320,192,187634,1,0,0:0:0:0:
64,192,187713,1,0,0:0:0:0:
192,192,187792,1,0,0:0:0:0:
448,192,187871,1,0,0:0:0:0:
320,192,187950,1,0,0:0:0:0:
192,192,188029,1,0,0:0:0:0:
64,192,188108,1,0,0:0:0:0:
448,192,188187,1,0,0:0:0:0:
320,192,188187,1,0,0:0:0:0:
192,192,188266,1,0,0:0:0:0:
448,192,188345,1,0,0:0:0:0:
64,192,188424,1,0,0:0:0:0:
320,192,188503,1,0,0:0:0:0:
192,192,188582,1,0,0:0:0:0:
448,192,188661,1,0,0:0:0:0:
64,192,188740,1,0,0:0:0:0:
320,192,188818,1,0,0:0:0:0:
192,192,188818,1,0,0:0:0:0:
448,192,188897,1,0,0:0:0:0:
64,192,188976,1,0,0:0:0:0:
192,192,189055,1,0,0:0:0:0:
448,192,189134,1,0,0:0:0:0:
320,192,189213,1,0,0:0:0:0:
64,192,189292,1,0,0:0:0:0:
192,192,189371,1,0,0:0:0:0:
448,192,189450,1,0,0:0:0:0:
320,192,189450,1,0,0:0:0:0:
64,192,189529,1,0,0:0:0:0:
448,192,189608,1,0,0:0:0:0:
192,192,189687,1,0,0:0:0:0:
64,192,189766,1,0,0:0:0:0:
448,192,189845,1,0,0:0:0:0:
64,192,189924,1,0,0:0:0:0:
448,192,190003,1,0,0:0:0:0:
320,192,190082,1,0,0:0:0:0:
192,192,190082,1,0,0:0:0:0:
64,192,190161,1,0,0:0:0:0:
448,192,190240,1,0,0:0:0:0:
320,192,190318,1,0,0:0:0:0:
64,192,190397,1,0,0:0:0:0:
192,192,190476,1,0,0:0:0:0:
320,192,190555,1,0,0:0:0:0:
448,192,190634,1,0,0:0:0:0:
192,192,190713,1,0,0:0:0:0:
64,192,190713,1,0,0:0:0:0:
320,192,190792,1,0,0:0:0:0:
64,192,190871,1,0,0:0:0:0:
320,192,190950,1,0,0:0:0:0:
64,192,191029,1,0,0:0:0:0:
320,192,191108,1,0,0:0:0:0:
64,192,191187,1,0,0:0:0:0:
320,192,191266,1,0,0:0:0:0:
192,192,191345,1,0,0:0:0:0:
448,192,191424,1,0,0:0:0:0:
192,192,191503,1,0,0:0:0:0:
448,192,191582,1,0,0:0:0:0:
192,192,191661,1,0,0:0:0:0:
448,192,191740,1,0,0:0:0:0:
192,192,191818,1,0,0:0:0:0:
448,192,191897,1,0,0:0:0:0:
64,192,191976,1,0,0:0:0:0:
320,192,192134,1,0,0:0:0:0:
64,192,192292,1,0,0:0:0:0:
320,192,192450,1,0,0:0:0:0:
64,192,192608,1,0,0:0:0:0:
320,192,192766,1,0,0:0:0:0:
192,192,192766,1,0,0:0:0:0:
448,192,192924,1,0,0:0:0:0:
64,192,192924,1,0,0:0:0:0:
320,192,193240,1,0,0:0:0:0:
64,192,193240,1,0,0:0:0:0:
192,192,193555,1,0,0:0:0:0:
64,192,193871,1,0,0:0:0:0:
448,192,194187,1,0,0:0:0:0:
192,192,194345,1,0,0:0:0:0:
448,192,194503,1,0,0:0:0:0:
64,192,194661,1,0,0:0:0:0:
320,192,194818,1,0,0:0:0:0:
192,192,195134,1,0,0:0:0:0:
320,192,195187,1,0,0:0:0:0:
448,192,195450,1,0,0:0:0:0:
192,192,195608,1,0,0:0:0:0:
448,192,195766,1,0,0:0:0:0:
64,192,195924,1,0,0:0:0:0:
320,192,196082,1,0,0:0:0:0:
192,192,196397,1,0,0:0:0:0:
320,192,196450,1,0,0:0:0:0:
448,192,196713,1,0,0:0:0:0:
192,192,196871,1,0,0:0:0:0:
448,192,197029,1,0,0:0:0:0:
320,192,197345,1,0,0:0:0:0:
192,192,197503,1,0,0:0:0:0:
64,192,197661,1,0,0:0:0:0:
448,192,197818,1,0,0:0:0:0:
320,192,197976,1,0,0:0:0:0:
192,192,198608,1,0,0:0:0:0:
320,192,198924,1,0,0:0:0:0:
448,192,199240,1,0,0:0:0:0:
192,192,199397,1,0,0:0:0:0:
448,192,199555,1,0,0:0:0:0:
64,192,199713,1,0,0:0:0:0:
320,192,199871,1,0,0:0:0:0:
192,192,200187,1,0,0:0:0:0:
320,192,200240,1,0,0:0:0:0:
448,192,200503,1,0,0:0:0:0:
192,192,200661,1,0,0:0:0:0:
448,192,200818,1,0,0:0:0:0:
64,192,200976,1,0,0:0:0:0:
192,192,201134,1,0,0:0:0:0:
320,192,201450,1,0,0:0:0:0:
192,192,201766,1,0,0:0:0:0:
64,192,201924,1,0,0:0:0:0:
448,192,202082,128,0,202240:0:0:0:0:
320,192,202397,128,0,202555:0:0:0:0:
192,192,202555,128,0,202713:0:0:0:0:
448,192,202713,128,0,202871:0:0:0:0:
64,192,202871,128,0,203029:0:0:0:0:
320,192,203029,128,0,203266:0:0:0:0:
