osu file format v14

[General]
AudioFilename: audio.mp3
AudioLeadIn: 0
PreviewTime: 162924
Countdown: 0
SampleSet: Soft
StackLeniency: 0.7
Mode: 3
LetterboxInBreaks: 0
SpecialStyle: 0
WidescreenStoryboard: 0

[Editor]
DistanceSpacing: 0.8
BeatDivisor: 2
GridSize: 32
TimelineZoom: 1

[Metadata]
Title:Thunderstrike 1988
TitleUnicode:Thunderstrike 1988
Artist:Sephid
ArtistUnicode:Sephid
Creator:AutotelicBrown
Version:Easy Piquet
Source:osu! World Cup 2022
Tags:OWC 2022 OWC22 Electronic Instrumental osu! original Featured Artist FA Mappers' Guild MPG MG F1 Formula One Race Racing 1988 Japanese Grand Prix Suzuka Alice
BeatmapID:4331034
BeatmapSetID:2069877

[Difficulty]
HPDrainRate:6.5
CircleSize:4
OverallDifficulty:6.5
ApproachRate:5
SliderMultiplier:1.4
SliderTickRate:1

[Events]
//Background and Video events
0,0,"bg.jpg",0,0
//Break Periods
//Storyboard Layer 0 (Background)
//Storyboard Layer 1 (Fail)
//Storyboard Layer 2 (Pass)
//Storyboard Layer 3 (Foreground)
//Storyboard Layer 4 (Overlay)
//Storyboard Sound Samples

[TimingPoints]
1240,315.789473684211,4,2,1,50,1,0
6292,-100,4,2,1,70,0,0
11345,-100,4,2,1,60,0,0
21450,-100,4,2,1,70,0,0
40397,-100,4,2,1,40,0,0
41661,-100,4,2,1,70,0,0
61871,-100,4,2,1,50,0,0
71976,-100,4,2,1,70,0,0
101503,-100,4,2,1,50,0,0
112397,-100,4,2,1,70,0,0
132608,-100,4,2,1,60,0,0
137661,-100,4,2,1,70,0,0
142713,-100,4,2,1,70,0,1
181871,-100,4,2,1,70,0,0
191976,-100,4,2,1,40,0,0
193240,-100,4,2,1,50,0,0

[HitObjects]
64,192,1240,5,0,0:0:0:0:
320,192,1240,1,0,0:0:0:0:
448,192,1713,1,0,0:0:0:0:
192,192,2187,1,0,0:0:0:0:
192,192,2661,1,0,0:0:0:0:
320,192,3134,1,0,0:0:0:0:
192,192,3450,1,0,0:0:0:0:
64,192,3766,1,0,0:0:0:0:
448,192,4240,1,0,0:0:0:0:
192,192,4713,1,0,0:0:0:0:
192,192,5187,1,0,0:0:0:0:
192,192,5661,1,0,0:0:0:0:
448,192,5818,1,0,0:0:0:0:
320,192,5976,1,0,0:0:0:0:
448,192,6292,1,0,0:0:0:0:
64,192,6292,1,0,0:0:0:0:
192,192,6608,1,0,0:0:0:0:
320,192,6924,1,0,0:0:0:0:
64,192,7240,1,0,0:0:0:0:
320,192,7555,1,0,0:0:0:0:
192,192,7555,1,0,0:0:0:0:
448,192,7871,1,0,0:0:0:0:
64,192,8187,1,0,0:0:0:0:
320,192,8503,1,0,0:0:0:0:
448,192,8818,128,0,10082:0:0:0:0:
192,192,8818,1,0,0:0:0:0:
64,192,9134,1,0,0:0:0:0:
192,192,9450,1,0,0:0:0:0:
64,192,9766,1,0,0:0:0:0:
320,192,10082,1,0,0:0:0:0:
192,192,10397,1,0,0:0:0:0:
448,192,11029,1,0,0:0:0:0:
320,192,11345,1,0,0:0:0:0:
64,192,11345,1,0,0:0:0:0:
192,192,12608,1,0,0:0:0:0:
448,192,13871,1,0,0:0:0:0:
64,192,15134,1,0,0:0:0:0:
192,192,15766,1,0,0:0:0:0:
320,192,16397,1,0,0:0:0:0:
64,192,17661,1,0,0:0:0:0:
448,192,18924,1,0,0:0:0:0:
192,192,20187,1,0,0:0:0:0:
320,192,20818,128,0,21450:0:0:0:0:
192,192,21450,1,0,0:0:0:0:
64,192,21450,1,0,0:0:0:0:
448,192,21766,1,0,0:0:0:0:
64,192,22082,1,0,0:0:0:0:
448,192,22397,1,0,0:0:0:0:
192,192,22713,1,0,0:0:0:0:
320,192,23029,1,0,0:0:0:0:
192,192,23345,1,0,0:0:0:0:
320,192,23661,1,0,0:0:0:0:
448,192,23976,1,0,0:0:0:0:
192,192,24292,1,0,0:0:0:0:
448,192,24608,1,0,0:0:0:0:
192,192,24924,1,0,0:0:0:0:
320,192,25240,1,0,0:0:0:0:
64,192,25555,1,0,0:0:0:0:
448,192,25871,1,0,0:0:0:0:
320,192,26187,1,0,0:0:0:0:
192,192,26503,1,0,0:0:0:0:
64,192,26503,1,0,0:0:0:0:
448,192,26661,1,0,0:0:0:0:
320,192,26818,1,0,0:0:0:0:
64,192,27134,1,0,0:0:0:0:
320,192,27292,1,0,0:0:0:0:
192,192,27450,1,0,0:0:0:0:
448,192,27766,1,0,0:0:0:0:
64,192,27924,1,0,0:0:0:0:
192,192,28082,1,0,0:0:0:0:
448,192,28397,1,0,0:0:0:0:
192,192,28555,1,0,0:0:0:0:
320,192,28713,1,0,0:0:0:0:
64,192,29029,128,0,30292:0:0:0:0:
448,192,30292,1,0,0:0:0:0:
320,192,30292,1,0,0:0:0:0:
192,192,31555,1,0,0:0:0:0:
64,192,31555,1,0,0:0:0:0:
448,192,31713,1,0,0:0:0:0:
192,192,32345,1,0,0:0:0:0:
192,192,32661,1,0,0:0:0:0:
320,192,33134,1,0,0:0:0:0:
64,192,33450,1,0,0:0:0:0:
448,192,33608,1,0,0:0:0:0:
192,192,33766,1,0,0:0:0:0:
320,192,33924,1,0,0:0:0:0:
64,192,34082,1,0,0:0:0:0:
192,192,34555,1,0,0:0:0:0:
448,192,34871,1,0,0:0:0:0:
448,192,35187,1,0,0:0:0:0:
64,192,35661,1,0,0:0:0:0:
320,192,35818,1,0,0:0:0:0:
192,192,36134,1,0,0:0:0:0:
448,192,36292,1,0,0:0:0:0:
320,192,36450,1,0,0:0:0:0:
64,192,36608,1,0,0:0:0:0:
448,192,36766,1,0,0:0:0:0:
192,192,37397,1,0,0:0:0:0:
192,192,37713,1,0,0:0:0:0:
320,192,38187,1,0,0:0:0:0:
64,192,38503,1,0,0:0:0:0:
448,192,38661,1,0,0:0:0:0:
192,192,38818,1,0,0:0:0:0:
320,192,38976,1,0,0:0:0:0:
64,192,39134,128,0,40397:0:0:0:0:
448,192,39450,1,0,0:0:0:0:
320,192,39766,1,0,0:0:0:0:
448,192,40082,1,0,0:0:0:0:
192,192,40397,1,0,0:0:0:0:
320,192,41187,1,0,0:0:0:0:
192,192,41345,1,0,0:0:0:0:
448,192,41661,1,0,0:0:0:0:
64,192,41661,1,0,0:0:0:0:
320,192,41976,1,0,0:0:0:0:
448,192,42292,1,0,0:0:0:0:
64,192,42529,1,0,0:0:0:0:
192,192,42766,1,0,0:0:0:0:
448,192,42924,1,0,0:0:0:0:
320,192,43240,1,0,0:0:0:0:
192,192,43555,1,0,0:0:0:0:
448,192,43792,1,0,0:0:0:0:
64,192,44029,1,0,0:0:0:0:
192,192,44345,1,0,0:0:0:0:
320,192,44503,1,0,0:0:0:0:
192,192,44818,1,0,0:0:0:0:
64,192,45055,1,0,0:0:0:0:
448,192,45292,1,0,0:0:0:0:
192,192,45450,1,0,0:0:0:0:
320,192,45608,1,0,0:0:0:0:
64,192,45766,1,0,0:0:0:0:
448,192,46082,1,0,0:0:0:0:
320,192,46318,1,0,0:0:0:0:
192,192,46555,1,0,0:0:0:0:
64,192,46713,1,0,0:0:0:0:
320,192,47029,1,0,0:0:0:0:
448,192,47345,1,0,0:0:0:0:
64,192,47582,1,0,0:0:0:0:
320,192,47818,1,0,0:0:0:0:
192,192,47976,1,0,0:0:0:0:
320,192,48292,1,0,0:0:0:0:
192,192,48608,1,0,0:0:0:0:
448,192,48845,1,0,0:0:0:0:
64,192,49082,1,0,0:0:0:0:
320,192,49397,1,0,0:0:0:0:
192,192,49555,1,0,0:0:0:0:
320,192,49871,1,0,0:0:0:0:
64,192,50108,1,0,0:0:0:0:
192,192,50345,1,0,0:0:0:0:
448,192,50503,1,0,0:0:0:0:
320,192,50661,1,0,0:0:0:0:
64,192,50818,1,0,0:0:0:0:
448,192,51134,1,0,0:0:0:0:
192,192,51371,1,0,0:0:0:0:
448,192,51608,1,0,0:0:0:0:
64,192,51766,1,0,0:0:0:0:
320,192,52082,1,0,0:0:0:0:
448,192,52397,1,0,0:0:0:0:
192,192,52634,1,0,0:0:0:0:
64,192,52871,1,0,0:0:0:0:
448,192,53029,1,0,0:0:0:0:
320,192,53345,1,0,0:0:0:0:
192,192,53661,1,0,0:0:0:0:
448,192,53897,1,0,0:0:0:0:
64,192,54134,1,0,0:0:0:0:
192,192,54450,1,0,0:0:0:0:
320,192,54608,1,0,0:0:0:0:
192,192,54924,1,0,0:0:0:0:
64,192,55161,1,0,0:0:0:0:
448,192,55397,1,0,0:0:0:0:
320,192,55713,1,0,0:0:0:0:
64,192,55871,1,0,0:0:0:0:
448,192,56187,1,0,0:0:0:0:
320,192,56424,1,0,0:0:0:0:
192,192,56661,1,0,0:0:0:0:
64,192,56818,1,0,0:0:0:0:
320,192,57134,1,0,0:0:0:0:
448,192,57450,1,0,0:0:0:0:
64,192,57687,1,0,0:0:0:0:
192,192,57924,1,0,0:0:0:0:
320,192,58082,1,0,0:0:0:0:
64,192,58397,1,0,0:0:0:0:
192,192,58713,1,0,0:0:0:0:
448,192,58950,1,0,0:0:0:0:
320,192,59187,1,0,0:0:0:0:
64,192,59503,1,0,0:0:0:0:
192,192,59661,1,0,0:0:0:0:
64,192,59976,1,0,0:0:0:0:
448,192,60213,1,0,0:0:0:0:
192,192,60450,1,0,0:0:0:0:
448,192,60766,1,0,0:0:0:0:
320,192,60924,1,0,0:0:0:0:
64,192,61082,1,0,0:0:0:0:
448,192,61240,1,0,0:0:0:0:
192,192,61476,1,0,0:0:0:0:
64,192,61713,1,0,0:0:0:0:
448,192,61871,1,0,0:0:0:0:
320,192,61871,1,0,0:0:0:0:
192,192,62345,1,0,0:0:0:0:
320,192,62818,1,0,0:0:0:0:
64,192,63292,1,0,0:0:0:0:
192,192,63766,1,0,0:0:0:0:
64,192,64082,1,0,0:0:0:0:
320,192,64397,1,0,0:0:0:0:
192,192,64871,1,0,0:0:0:0:
320,192,65345,1,0,0:0:0:0:
192,192,65818,1,0,0:0:0:0:
448,192,66292,1,0,0:0:0:0:
64,192,66608,1,0,0:0:0:0:
320,192,66924,1,0,0:0:0:0:
192,192,67397,1,0,0:0:0:0:
320,192,67871,1,0,0:0:0:0:
448,192,68345,1,0,0:0:0:0:
64,192,68818,1,0,0:0:0:0:
320,192,69134,1,0,0:0:0:0:
192,192,69450,1,0,0:0:0:0:
320,192,69924,1,0,0:0:0:0:
192,192,70397,1,0,0:0:0:0:
320,192,70871,1,0,0:0:0:0:
64,192,71029,1,0,0:0:0:0:
448,192,71345,1,0,0:0:0:0:
320,192,71976,1,0,0:0:0:0:
64,192,71976,1,0,0:0:0:0:
192,192,72608,1,0,0:0:0:0:
320,192,73240,1,0,0:0:0:0:
192,192,73871,1,0,0:0:0:0:
320,192,74503,1,0,0:0:0:0:
192,192,75134,1,0,0:0:0:0:
320,192,75766,1,0,0:0:0:0:
192,192,76397,1,0,0:0:0:0:
448,192,77029,1,0,0:0:0:0:
64,192,77345,1,0,0:0:0:0:
320,192,77661,1,0,0:0:0:0:
192,192,77976,1,0,0:0:0:0:
448,192,78292,1,0,0:0:0:0:
64,192,78608,1,0,0:0:0:0:
320,192,78924,1,0,0:0:0:0:
192,192,79240,1,0,0:0:0:0:
64,192,79555,1,0,0:0:0:0:
448,192,79871,1,0,0:0:0:0:
192,192,80187,128,0,80503:0:0:0:0:
320,192,80503,128,0,80818:0:0:0:0:
64,192,81766,1,0,0:0:0:0:
320,192,82082,1,0,0:0:0:0:
192,192,82082,128,0,82397:0:0:0:0:
448,192,82397,128,0,82713:0:0:0:0:
64,192,82713,128,0,83029:0:0:0:0:
320,192,83029,1,0,0:0:0:0:
448,192,83345,1,0,0:0:0:0:
64,192,83661,1,0,0:0:0:0:
192,192,83976,1,0,0:0:0:0:
320,192,84292,1,0,0:0:0:0:
64,192,84608,128,0,84924:0:0:0:0:
448,192,84924,128,0,85240:0:0:0:0:
192,192,85240,128,0,85555:0:0:0:0:
320,192,85555,1,0,0:0:0:0:
448,192,85871,1,0,0:0:0:0:
192,192,86187,1,0,0:0:0:0:
320,192,86503,128,0,86818:0:0:0:0:
64,192,86818,1,0,0:0:0:0:
448,192,86976,1,0,0:0:0:0:
192,192,87134,128,0,87450:0:0:0:0:
448,192,87450,128,0,87766:0:0:0:0:
64,192,87766,128,0,88082:0:0:0:0:
320,192,88082,1,0,0:0:0:0:
192,192,88397,1,0,0:0:0:0:
448,192,88713,1,0,0:0:0:0:
64,192,89029,1,0,0:0:0:0:
320,192,89345,128,0,89661:0:0:0:0:
64,192,89661,128,0,89976:0:0:0:0:
448,192,89976,128,0,90292:0:0:0:0:
192,192,90292,128,0,90608:0:0:0:0:
320,192,90608,1,0,0:0:0:0:
448,192,90924,1,0,0:0:0:0:
64,192,90924,1,0,0:0:0:0:
320,192,92187,1,0,0:0:0:0:
192,192,92187,128,0,92503:0:0:0:0:
448,192,92503,128,0,92818:0:0:0:0:
64,192,92818,128,0,93134:0:0:0:0:
320,192,93134,1,0,0:0:0:0:
192,192,93450,1,0,0:0:0:0:
64,192,93766,1,0,0:0:0:0:
448,192,94082,1,0,0:0:0:0:
320,192,94397,1,0,0:0:0:0:
64,192,94713,128,0,95029:0:0:0:0:
448,192,95029,128,0,95345:0:0:0:0:
192,192,95345,128,0,95661:0:0:0:0:
320,192,95661,1,0,0:0:0:0:
448,192,95976,1,0,0:0:0:0:
64,192,96292,1,0,0:0:0:0:
320,192,96608,1,0,0:0:0:0:
192,192,96924,1,0,0:0:0:0:
64,192,97240,128,0,97555:0:0:0:0:
448,192,97555,1,0,0:0:0:0:
320,192,97792,1,0,0:0:0:0:
448,192,98029,1,0,0:0:0:0:
64,192,98818,1,0,0:0:0:0:
192,192,99055,1,0,0:0:0:0:
64,192,99292,1,0,0:0:0:0:
320,192,100082,1,0,0:0:0:0:
192,192,100318,1,0,0:0:0:0:
320,192,100555,1,0,0:0:0:0:
192,192,100792,1,0,0:0:0:0:
320,192,101029,1,0,0:0:0:0:
192,192,101266,1,0,0:0:0:0:
320,192,101503,1,0,0:0:0:0:
448,192,102292,1,0,0:0:0:0:
64,192,102292,1,0,0:0:0:0:
320,192,103555,1,0,0:0:0:0:
64,192,104818,1,0,0:0:0:0:
192,192,106082,1,0,0:0:0:0:
448,192,107345,128,0,109082:0:0:0:0:
192,192,109082,128,0,109555:0:0:0:0:
320,192,109555,128,0,110345:0:0:0:0:
192,192,110345,128,0,111766:0:0:0:0:
448,192,112397,1,0,0:0:0:0:
64,192,112397,1,0,0:0:0:0:
320,192,112871,1,0,0:0:0:0:
192,192,113345,1,0,0:0:0:0:
64,192,114450,1,0,0:0:0:0:
320,192,114608,1,0,0:0:0:0:
448,192,114924,1,0,0:0:0:0:
192,192,114924,1,0,0:0:0:0:
320,192,115397,1,0,0:0:0:0:
64,192,115713,1,0,0:0:0:0:
192,192,116029,1,0,0:0:0:0:
448,192,116503,1,0,0:0:0:0:
320,192,116818,1,0,0:0:0:0:
192,192,117134,1,0,0:0:0:0:
448,192,117450,1,0,0:0:0:0:
64,192,117450,1,0,0:0:0:0:
192,192,117924,1,0,0:0:0:0:
320,192,118397,1,0,0:0:0:0:
448,192,119503,1,0,0:0:0:0:
192,192,119661,1,0,0:0:0:0:
320,192,119976,1,0,0:0:0:0:
64,192,119976,1,0,0:0:0:0:
448,192,120450,1,0,0:0:0:0:
192,192,120766,1,0,0:0:0:0:
320,192,121082,1,0,0:0:0:0:
64,192,121555,1,0,0:0:0:0:
320,192,121871,1,0,0:0:0:0:
192,192,122187,1,0,0:0:0:0:
448,192,122503,1,0,0:0:0:0:
64,192,122503,1,0,0:0:0:0:
320,192,122976,1,0,0:0:0:0:
192,192,123450,1,0,0:0:0:0:
320,192,124555,1,0,0:0:0:0:
64,192,124713,1,0,0:0:0:0:
448,192,125029,1,0,0:0:0:0:
192,192,125029,1,0,0:0:0:0:
320,192,125503,1,0,0:0:0:0:
64,192,125818,1,0,0:0:0:0:
448,192,126134,1,0,0:0:0:0:
192,192,126608,1,0,0:0:0:0:
448,192,126924,1,0,0:0:0:0:
320,192,127240,1,0,0:0:0:0:
192,192,127555,1,0,0:0:0:0:
64,192,127555,1,0,0:0:0:0:
448,192,128029,1,0,0:0:0:0:
192,192,128345,1,0,0:0:0:0:
320,192,128661,1,0,0:0:0:0:
64,192,128976,1,0,0:0:0:0:
192,192,129134,1,0,0:0:0:0:
448,192,129450,1,0,0:0:0:0:
320,192,129687,1,0,0:0:0:0:
192,192,129924,1,0,0:0:0:0:
448,192,130082,1,0,0:0:0:0:
64,192,130397,1,0,0:0:0:0:
320,192,130555,1,0,0:0:0:0:
192,192,130871,1,0,0:0:0:0:
448,192,131187,1,0,0:0:0:0:
320,192,131503,1,0,0:0:0:0:
64,192,131661,1,0,0:0:0:0:
448,192,131976,1,0,0:0:0:0:
192,192,132213,1,0,0:0:0:0:
64,192,132450,1,0,0:0:0:0:
448,192,132608,1,0,0:0:0:0:
320,192,132608,1,0,0:0:0:0:
192,192,133871,1,0,0:0:0:0:
448,192,135134,1,0,0:0:0:0:
64,192,136397,1,0,0:0:0:0:
192,192,137029,1,0,0:0:0:0:
448,192,137661,128,0,138292:0:0:0:0:
64,192,138292,128,0,138924:0:0:0:0:
320,192,138924,128,0,139555:0:0:0:0:
192,192,139555,128,0,140187:0:0:0:0:
448,192,140187,128,0,141450:0:0:0:0:
192,192,141450,1,0,0:0:0:0:
64,192,141450,1,0,0:0:0:0:
448,192,142713,1,0,0:0:0:0:
320,192,142713,1,0,0:0:0:0:
64,192,143029,1,0,0:0:0:0:
192,192,143345,1,0,0:0:0:0:
448,192,143582,1,0,0:0:0:0:
320,192,143818,1,0,0:0:0:0:
64,192,143976,1,0,0:0:0:0:
192,192,144292,1,0,0:0:0:0:
448,192,144608,1,0,0:0:0:0:
64,192,144845,1,0,0:0:0:0:
320,192,145082,1,0,0:0:0:0:
192,192,145240,1,0,0:0:0:0:
448,192,145555,1,0,0:0:0:0:
320,192,145871,1,0,0:0:0:0:
64,192,146108,1,0,0:0:0:0:
192,192,146345,1,0,0:0:0:0:
320,192,146503,1,0,0:0:0:0:
64,192,146818,1,0,0:0:0:0:
448,192,147134,1,0,0:0:0:0:
320,192,147371,1,0,0:0:0:0:
192,192,147608,1,0,0:0:0:0:
448,192,147766,1,0,0:0:0:0:
320,192,147766,1,0,0:0:0:0:
64,192,148082,1,0,0:0:0:0:
192,192,148397,1,0,0:0:0:0:
448,192,148634,1,0,0:0:0:0:
320,192,148871,1,0,0:0:0:0:
64,192,149029,1,0,0:0:0:0:
192,192,149345,1,0,0:0:0:0:
64,192,149661,1,0,0:0:0:0:
320,192,149897,1,0,0:0:0:0:
192,192,150134,1,0,0:0:0:0:
448,192,150292,1,0,0:0:0:0:
64,192,150608,1,0,0:0:0:0:
320,192,150766,1,0,0:0:0:0:
192,192,151082,1,0,0:0:0:0:
448,192,151318,1,0,0:0:0:0:
64,192,151555,1,0,0:0:0:0:
448,192,151871,1,0,0:0:0:0:
320,192,152029,1,0,0:0:0:0:
192,192,152187,1,0,0:0:0:0:
448,192,152345,1,0,0:0:0:0:
64,192,152582,1,0,0:0:0:0:
320,192,152818,128,0,153134:0:0:0:0:
448,192,153134,1,0,0:0:0:0:
64,192,153134,1,0,0:0:0:0:
192,192,153450,1,0,0:0:0:0:
448,192,153687,1,0,0:0:0:0:
320,192,153924,1,0,0:0:0:0:
64,192,154082,1,0,0:0:0:0:
192,192,154397,1,0,0:0:0:0:
448,192,154713,1,0,0:0:0:0:
64,192,154950,1,0,0:0:0:0:
320,192,155187,1,0,0:0:0:0:
192,192,155345,1,0,0:0:0:0:
448,192,155661,1,0,0:0:0:0:
320,192,155976,1,0,0:0:0:0:
64,192,156213,1,0,0:0:0:0:
192,192,156450,1,0,0:0:0:0:
320,192,156608,1,0,0:0:0:0:
64,192,156924,1,0,0:0:0:0:
448,192,157240,1,0,0:0:0:0:
320,192,157476,1,0,0:0:0:0:
192,192,157713,1,0,0:0:0:0:
448,192,157871,1,0,0:0:0:0:
320,192,157871,1,0,0:0:0:0:
64,192,158187,1,0,0:0:0:0:
192,192,158503,1,0,0:0:0:0:
448,192,158740,1,0,0:0:0:0:
320,192,158976,1,0,0:0:0:0:
64,192,159134,1,0,0:0:0:0:
192,192,159450,1,0,0:0:0:0:
64,192,159766,1,0,0:0:0:0:
320,192,160003,1,0,0:0:0:0:
192,192,160240,1,0,0:0:0:0:
448,192,160397,1,0,0:0:0:0:
64,192,160713,1,0,0:0:0:0:
320,192,160871,1,0,0:0:0:0:
192,192,161029,128,0,161345:0:0:0:0:
448,192,161345,128,0,161661:0:0:0:0:
320,192,161661,1,0,0:0:0:0:
448,192,162924,1,0,0:0:0:0:
64,192,162924,1,0,0:0:0:0:
192,192,163240,1,0,0:0:0:0:
64,192,163555,1,0,0:0:0:0:
448,192,163871,1,0,0:0:0:0:
192,192,164029,1,0,0:0:0:0:
448,192,164187,1,0,0:0:0:0:
64,192,164345,1,0,0:0:0:0:
320,192,164503,1,0,0:0:0:0:
320,192,164818,1,0,0:0:0:0:
448,192,165134,1,0,0:0:0:0:
192,192,165292,1,0,0:0:0:0:
448,192,165450,1,0,0:0:0:0:
64,192,165608,1,0,0:0:0:0:
320,192,165766,1,0,0:0:0:0:
320,192,166082,1,0,0:0:0:0:
448,192,166397,1,0,0:0:0:0:
192,192,166555,1,0,0:0:0:0:
448,192,166713,1,0,0:0:0:0:
320,192,167029,1,0,0:0:0:0:
192,192,167187,1,0,0:0:0:0:
64,192,167345,1,0,0:0:0:0:
448,192,167503,1,0,0:0:0:0:
320,192,167661,1,0,0:0:0:0:
448,192,167976,1,0,0:0:0:0:
64,192,167976,1,0,0:0:0:0:
192,192,168292,1,0,0:0:0:0:
320,192,168608,1,0,0:0:0:0:
448,192,168924,1,0,0:0:0:0:
192,192,169082,1,0,0:0:0:0:
448,192,169240,1,0,0:0:0:0:
64,192,169397,1,0,0:0:0:0:
320,192,169555,1,0,0:0:0:0:
320,192,169871,1,0,0:0:0:0:
448,192,170187,1,0,0:0:0:0:
192,192,170345,1,0,0:0:0:0:
448,192,170503,1,0,0:0:0:0:
64,192,170661,1,0,0:0:0:0:
192,192,170818,1,0,0:0:0:0:
320,192,171134,1,0,0:0:0:0:
192,192,171450,1,0,0:0:0:0:
320,192,171608,1,0,0:0:0:0:
448,192,171766,1,0,0:0:0:0:
320,192,172082,1,0,0:0:0:0:
192,192,172240,1,0,0:0:0:0:
448,192,172397,1,0,0:0:0:0:
64,192,172555,1,0,0:0:0:0:
320,192,172713,1,0,0:0:0:0:
448,192,173029,128,0,173345:0:0:0:0:
320,192,173345,1,0,0:0:0:0:
192,192,173345,1,0,0:0:0:0:
64,192,173661,1,0,0:0:0:0:
448,192,173976,1,0,0:0:0:0:
192,192,174134,1,0,0:0:0:0:
448,192,174292,1,0,0:0:0:0:
64,192,174450,1,0,0:0:0:0:
320,192,174608,1,0,0:0:0:0:
320,192,174924,1,0,0:0:0:0:
448,192,175240,1,0,0:0:0:0:
192,192,175397,1,0,0:0:0:0:
448,192,175555,1,0,0:0:0:0:
64,192,175713,1,0,0:0:0:0:
320,192,175871,1,0,0:0:0:0:
320,192,176187,1,0,0:0:0:0:
448,192,176503,1,0,0:0:0:0:
192,192,176661,1,0,0:0:0:0:
448,192,176818,1,0,0:0:0:0:
320,192,177134,1,0,0:0:0:0:
192,192,177292,1,0,0:0:0:0:
64,192,177450,1,0,0:0:0:0:
448,192,177608,1,0,0:0:0:0:
320,192,177766,1,0,0:0:0:0:
448,192,178082,1,0,0:0:0:0:
64,192,178082,1,0,0:0:0:0:
192,192,178397,1,0,0:0:0:0:
320,192,178713,1,0,0:0:0:0:
448,192,179029,1,0,0:0:0:0:
192,192,179187,1,0,0:0:0:0:
448,192,179345,1,0,0:0:0:0:
64,192,179503,1,0,0:0:0:0:
320,192,179661,1,0,0:0:0:0:
320,192,179976,1,0,0:0:0:0:
448,192,180292,1,0,0:0:0:0:
192,192,180450,1,0,0:0:0:0:
448,192,180608,1,0,0:0:0:0:
64,192,180766,1,0,0:0:0:0:
192,192,180924,1,0,0:0:0:0:
320,192,181240,128,0,181555:0:0:0:0:
64,192,181555,128,0,181871:0:0:0:0:
448,192,181871,1,0,0:0:0:0:
192,192,182503,1,0,0:0:0:0:
448,192,182661,1,0,0:0:0:0:
320,192,182818,1,0,0:0:0:0:
192,192,183134,1,0,0:0:0:0:
64,192,183134,1,0,0:0:0:0:
448,192,183292,1,0,0:0:0:0:
192,192,183924,1,0,0:0:0:0:
192,192,184240,1,0,0:0:0:0:
320,192,184713,1,0,0:0:0:0:
64,192,185029,1,0,0:0:0:0:
448,192,185187,1,0,0:0:0:0:
192,192,185345,1,0,0:0:0:0:
320,192,185503,1,0,0:0:0:0:
64,192,185661,1,0,0:0:0:0:
192,192,186134,1,0,0:0:0:0:
448,192,186450,1,0,0:0:0:0:
448,192,186766,1,0,0:0:0:0:
64,192,187240,1,0,0:0:0:0:
320,192,187397,1,0,0:0:0:0:
192,192,187713,1,0,0:0:0:0:
448,192,187871,1,0,0:0:0:0:
320,192,188029,1,0,0:0:0:0:
64,192,188187,1,0,0:0:0:0:
448,192,188345,1,0,0:0:0:0:
192,192,188976,1,0,0:0:0:0:
192,192,189292,1,0,0:0:0:0:
320,192,189766,1,0,0:0:0:0:
64,192,190082,1,0,0:0:0:0:
448,192,190240,1,0,0:0:0:0:
192,192,190397,1,0,0:0:0:0:
320,192,190555,1,0,0:0:0:0:
64,192,190713,128,0,191976:0:0:0:0:
448,192,191029,1,0,0:0:0:0:
320,192,191345,1,0,0:0:0:0:
448,192,191661,1,0,0:0:0:0:
192,192,191976,1,0,0:0:0:0:
320,192,192766,1,0,0:0:0:0:
192,192,192924,1,0,0:0:0:0:
448,192,193240,1,0,0:0:0:0:
64,192,193240,1,0,0:0:0:0:
192,192,194503,1,0,0:0:0:0:
448,192,195766,1,0,0:0:0:0:
64,192,197029,1,0,0:0:0:0:
192,192,197661,1,0,0:0:0:0:
320,192,198292,1,0,0:0:0:0:
64,192,199555,1,0,0:0:0:0:
448,192,200818,1,0,0:0:0:0:
192,192,202082,1,0,0:0:0:0:
