osu file format v14

[General]
AudioFilename: audio.ogg
AudioLeadIn: 0
PreviewTime: 239982
Countdown: 0
SampleSet: Normal
StackLeniency: 0.7
Mode: 1
LetterboxInBreaks: 0
WidescreenStoryboard: 0

[Editor]
Bookmarks: 29629,63511,86099,108688,131276,153864,193394,215982,239982,262570
DistanceSpacing: 0.2
BeatDivisor: 4
GridSize: 32
TimelineZoom: 2.4

[Metadata]
Title:Hypothesize
TitleUnicode:Hypothesize
Artist:Sephid
ArtistUnicode:Sephid
Creator:MTNTWarz
Version:Presumption
Source:Rising Global Taiko Showdown 2022
Tags:faputa taikoseania davidminh0111 zeth [zeth] rgts 2022 custom song finals tb tiebreaker electronic instrumental 東方輝針城 ~ Double Dealing Character. touhou 14 幻想浄瑠璃 illusionary joururi 九十九弁々 九十九八橋 Benben Tsukumo Yatsuhashi Tsukumo GENSO-JORURI zun 上海アリス幻樂団 Team Shanghai Alice hypothesise
BeatmapID:3910578
BeatmapSetID:1897397

[Difficulty]
HPDrainRate:5.3
CircleSize:2
OverallDifficulty:6.2
ApproachRate:10
SliderMultiplier:1.4
SliderTickRate:1

[Events]
//Background and Video events
0,0,"hypothesize.png",0,-130
//Break Periods
//Storyboard Layer 0 (Background)
//Storyboard Layer 1 (Fail)
//Storyboard Layer 2 (Pass)
//Storyboard Layer 3 (Foreground)
//Storyboard Layer 4 (Overlay)
//Storyboard Sound Samples

[TimingPoints]
1394,352.941176470589,4,1,0,60,1,0
1394,-125,4,1,0,60,0,0
12685,-83.3333333333333,4,1,0,70,0,0
12861,-83.7684685219249,4,1,0,70,0,0
12949,-83.9877446605985,4,1,0,70,0,0
13038,-84.210683289093,4,1,0,70,0,0
13214,-84.6550535184241,4,1,0,70,0,0
13302,-84.8790019540057,4,1,0,70,0,0
13391,-85.1067036411864,4,1,0,70,0,0
13567,-85.5606060606061,4,1,0,70,0,0
13655,-85.7893777345649,4,1,0,70,0,0
13743,-86.0193760662929,4,1,0,70,0,0
13920,-86.4857414157503,4,1,0,70,0,0
14008,-86.7194938419485,4,1,0,70,0,0
14096,-86.9545132579841,4,1,0,70,0,0
14273,-87.4311017526476,4,1,0,70,0,0
14361,-87.6699993789977,4,1,0,70,0,0
14449,-87.9102061149511,4,1,0,70,0,0
14626,-88.3973576281269,4,1,0,70,0,0
14714,-88.6415722223966,4,1,0,70,0,0
14802,-88.8871399338895,4,1,0,70,0,0
14979,-89.3852095732557,4,1,0,70,0,0
15067,-89.6349206349206,4,1,0,70,0,0
15155,-89.8860308162486,4,1,0,70,0,0
15243,-90.1385519090793,4,1,0,70,0,0
15420,-90.6507849873182,4,1,0,70,0,0
15508,-90.9076274187836,4,1,0,70,0,0
15685,-91.4286639466356,4,1,0,70,0,0
15773,-91.6899395986231,4,1,0,70,0,0
15861,-91.9527128248551,4,1,0,70,0,0
16038,-92.4858331422582,4,1,0,70,0,0
16126,-92.7531947045104,4,1,0,70,0,0
16214,-93.0221065463052,4,1,0,70,0,0
16391,-93.5677359490986,4,1,0,70,0,0
16479,-93.8413985642116,4,1,0,70,0,0
16567,-94.1166666666667,4,1,0,70,0,0
16743,-94.6720761802575,4,1,0,70,0,0
16832,-94.9554397175046,4,1,0,70,0,0
16920,-95.2372921374844,4,1,0,70,0,0
17096,-95.8060466221031,4,1,0,70,0,0
17185,-96.0962494043973,4,1,0,70,0,0
17273,-96.3849252406636,4,1,0,70,0,0
17449,-96.967511504911,4,1,0,70,0,0
17538,-97.2648041613559,4,1,0,70,0,0
17626,-97.5605542310217,4,1,0,70,0,0
17802,-98.1574830523205,4,1,0,70,0,0
17891,-98.46212860929,4,1,0,70,0,0
17979,-98.7652161746187,4,1,0,70,0,0
18067,-99.0701754385965,4,1,0,70,0,0
18243,-99.6857788447959,4,1,0,70,0,0
18332,-100,4,1,0,70,0,0
18508,-99.0439632070689,4,1,0,70,0,0
18596,-98.5727672457291,4,1,0,70,0,0
18685,-98.1007550350616,4,1,0,70,0,0
18861,-97.1805212571286,4,1,0,70,0,0
19038,-96.2723080713858,4,1,0,70,0,0
19126,-95.8270558144424,4,1,0,70,0,0
19214,-95.3859031144282,4,1,0,70,0,0
19391,-94.5107728458628,4,1,0,70,0,0
19567,-93.65636503724,4,1,0,70,0,0
19655,-93.2349281562665,4,1,0,70,0,0
19743,-92.8172670659902,4,1,0,70,0,0
19920,-91.9884299744383,4,1,0,70,0,0
20008,-91.5818376640771,4,1,0,70,0,0
20096,-91.1788238431791,4,1,0,70,0,0
20185,-90.7748220182877,4,1,0,70,0,0
20273,-90.3788642334319,4,1,0,70,0,0
20449,-89.5972219947257,4,1,0,70,0,0
20538,-89.2070843797906,4,1,0,70,0,0
20626,-88.824656555487,4,1,0,70,0,0
20714,-88.4454936455066,4,1,0,70,0,0
20802,-88.0695540170665,4,1,0,70,0,0
20979,-87.3229993135486,4,1,0,70,0,0
21067,-86.9565217391304,4,1,0,70,0,0
21155,-86.5931073786193,4,1,0,70,0,0
21243,-86.2327179859064,4,1,0,70,0,0
21332,-85.8712715855573,4,1,0,70,0,0
21420,-85.5168532299418,4,1,0,70,0,0
21508,-85.1653484461606,4,1,0,70,0,0
21596,-84.8167214538237,4,1,0,70,0,0
21685,-84.4670238885715,4,1,0,70,0,0
21773,-84.1240791719853,4,1,0,70,0,0
21861,-83.7839079755541,4,1,0,70,0,0
21949,-83.446476789065,4,1,0,70,0,0
22038,-83.107964386642,4,1,0,70,0,0
22126,-82.7759450379831,4,1,0,70,0,0
22214,-82.4465679920417,4,1,0,70,0,0
22302,-82.1198018315568,4,1,0,70,0,0
22391,-81.7919464090794,4,1,0,70,0,0
22479,-81.4703385412788,4,1,0,70,0,0
22567,-81.1512499072769,4,1,0,70,0,0
22655,-80.8346510218859,4,1,0,70,0,0
22743,-80.5205128582574,4,1,0,70,0,0
22832,-80.2052785923754,4,1,0,70,0,0
22920,-79.8960037391914,4,1,0,70,0,0
23008,-79.5891048771971,4,1,0,70,0,0
23096,-79.2845547309833,4,1,0,70,0,0
23185,-78.9789052686293,4,1,0,70,0,0
23273,-78.6789983171037,4,1,0,70,0,0
23361,-78.3813604252941,4,1,0,70,0,0
23449,-78.0859659391015,4,1,0,70,0,0
23538,-77.7894706902927,4,1,0,70,0,0
23626,-77.4985123685926,4,1,0,70,0,0
23714,-77.2097224966829,4,1,0,70,0,0
23802,-76.9230769230769,4,1,0,70,0,0
23923,-66.6666666666667,4,1,0,70,0,0
24099,-20,4,1,0,70,0,0
24158,-100,4,1,0,70,0,0
25394,-100,4,1,0,65,0,0
26805,-100,4,1,0,60,0,0
28217,-100,4,1,0,55,0,0
29511,-100,4,1,0,50,0,0
29629,-125,4,1,0,40,0,0
40923,-125,4,1,0,40,0,0
41099,-124.781136,4,1,0,40,0,0
41276,-124.56144,4,1,0,40,0,0
41452,-124.34335,4,1,0,40,0,0
41541,-124.23322,4,1,0,41,0,0
41717,-124.015724,4,1,0,41,0,0
41805,-123.90711,4,1,0,41,0,0
41982,-123.68895,4,1,0,41,0,0
42335,-123.254974,4,1,0,41,0,0
42511,-123.03919,4,1,0,41,0,0
42688,-122.82255,4,1,0,42,0,0
42864,-122.60751,4,1,0,42,0,0
42952,-122.50013,4,1,0,42,0,0
43041,-122.39164,4,1,0,42,0,0
43129,-122.28444,4,1,0,42,0,0
43217,-122.177345,4,1,0,42,0,0
43394,-121.96222,4,1,0,42,0,0
43570,-121.7487,4,1,0,42,0,0
43746,-121.53555,4,1,0,43,0,0
43923,-121.321556,4,1,0,43,0,0
44011,-121.2153,4,1,0,43,0,0
44099,-121.10914,4,1,0,43,0,0
44276,-120.89589,4,1,0,43,0,0
44452,-120.68423,4,1,0,43,0,0
44629,-120.47174,4,1,0,43,0,0
44717,-120.366234,4,1,0,43,0,0
44805,-120.260826,4,1,0,43,0,0
44982,-120.049065,4,1,0,44,0,0
45158,-119.83888,4,1,0,44,0,0
45335,-119.62789,4,1,0,44,0,0
45423,-119.523125,4,1,0,44,0,0
45511,-119.41845,4,1,0,44,0,0
45688,-119.208176,4,1,0,44,0,0
45776,-119.10377,4,1,0,44,0,0
45864,-118.99946,4,1,0,44,0,0
45952,-118.89525,4,1,0,44,0,0
46041,-118.78993,4,1,0,45,0,0
46217,-118.58197,4,1,0,45,0,0
46394,-118.37318,4,1,0,45,0,0
46570,-118.16592,4,1,0,45,0,0
46746,-117.95904,4,1,0,45,0,0
46923,-117.75134,4,1,0,45,0,0
47099,-117.54517,4,1,0,46,0,0
47188,-117.44107,4,1,0,46,0,0
47364,-117.23546,4,1,0,46,0,0
47452,-117.13279,4,1,0,46,0,0
47629,-116.926544,4,1,0,46,0,0
47982,-116.51632,4,1,0,46,0,0
48158,-116.312325,4,1,0,46,0,0
48335,-116.10753,4,1,0,47,0,0
48511,-115.904236,4,1,0,47,0,0
48599,-115.802734,4,1,0,47,0,0
48688,-115.70016,4,1,0,47,0,0
48776,-115.59883,4,1,0,47,0,0
48864,-115.4976,4,1,0,47,0,0
49041,-115.29423,4,1,0,47,0,0
49217,-115.09237,4,1,0,47,0,0
49394,-114.889725,4,1,0,48,0,0
49570,-114.688576,4,1,0,48,0,0
49658,-114.58813,4,1,0,48,0,0
49746,-114.487785,4,1,0,48,0,0
49923,-114.286194,4,1,0,48,0,0
50099,-114.08611,4,1,0,48,0,0
50188,-113.985054,4,1,0,48,0,0
50276,-113.88524,4,1,0,48,0,0
50364,-113.78549,4,1,0,48,0,0
50452,-113.68584,4,1,0,49,0,0
50629,-113.48567,4,1,0,49,0,0
50717,-113.38629,4,1,0,49,0,0
50805,-113.28698,4,1,0,49,0,0
50982,-113.08752,4,1,0,49,0,0
51158,-112.88952,4,1,0,49,0,0
51335,-112.69076,4,1,0,49,0,0
51423,-112.59206,4,1,0,49,0,0
51511,-112.493454,4,1,0,49,0,0
51599,-112.394936,4,1,0,50,0,0
51688,-112.29538,4,1,0,50,0,0
51864,-112.098785,4,1,0,50,0,0
52041,-111.901405,4,1,0,50,0,0
52217,-111.705475,4,1,0,50,0,0
52394,-111.5088,4,1,0,50,0,0
52570,-111.313576,4,1,0,50,0,0
52746,-111.11868,4,1,0,51,0,0
52835,-111.02025,4,1,0,51,0,0
53011,-110.82588,4,1,0,51,0,0
53099,-110.72883,4,1,0,51,0,0
53276,-110.533875,4,1,0,51,0,0
53629,-110.146065,4,1,0,51,0,0
53805,-109.95322,4,1,0,51,0,0
53982,-109.75961,4,1,0,52,0,0
54158,-109.56745,4,1,0,52,0,0
54246,-109.4715,4,1,0,52,0,0
54335,-109.37453,4,1,0,52,0,0
54423,-109.27875,4,1,0,52,0,0
54511,-109.18304,4,1,0,52,0,0
54688,-108.9908,4,1,0,52,0,0
54864,-108.79998,4,1,0,52,0,0
55041,-108.608406,4,1,0,53,0,0
55217,-108.41826,4,1,0,53,0,0
55305,-108.3233,4,1,0,53,0,0
55394,-108.22736,4,1,0,53,0,0
55570,-108.03788,4,1,0,53,0,0
55746,-107.84873,4,1,0,53,0,0
55923,-107.65883,4,1,0,53,0,0
56011,-107.56455,4,1,0,53,0,0
56099,-107.470345,4,1,0,54,0,0
56276,-107.28111,4,1,0,54,0,0
56452,-107.09329,4,1,0,54,0,0
56629,-106.904724,4,1,0,54,0,0
56717,-106.811104,4,1,0,54,0,0
56805,-106.71756,4,1,0,54,0,0
56982,-106.529655,4,1,0,54,0,0
57070,-106.43636,4,1,0,54,0,0
57158,-106.34314,4,1,0,54,0,0
57246,-106.250015,4,1,0,55,0,0
57335,-106.1559,4,1,0,55,0,0
57511,-105.97004,4,1,0,55,0,0
57688,-105.783455,4,1,0,55,0,0
57864,-105.59826,4,1,0,55,0,0
58041,-105.412315,4,1,0,55,0,0
58217,-105.22777,4,1,0,55,0,0
58394,-105.04249,4,1,0,56,0,0
58482,-104.950485,4,1,0,56,0,0
58658,-104.76675,4,1,0,56,0,0
58746,-104.674995,4,1,0,56,0,0
58923,-104.490685,4,1,0,56,0,0
59276,-104.124084,4,1,0,56,0,0
59452,-103.94179,4,1,0,57,0,0
59629,-103.75877,4,1,0,57,0,0
59805,-103.57712,4,1,0,57,0,0
59894,-103.485374,4,1,0,57,0,0
60070,-103.3042,4,1,0,57,0,0
60158,-103.21372,4,1,0,57,0,0
60335,-103.03199,4,1,0,57,0,0
60423,-102.94175,4,1,0,57,0,0
60688,-102.6705,4,1,0,58,0,0
60864,-102.49075,4,1,0,58,0,0
60952,-102.400986,4,1,0,58,0,0
61129,-102.22068,4,1,0,58,0,0
61217,-102.131165,4,1,0,58,0,0
61394,-101.95134,4,1,0,58,0,0
61570,-101.77284,4,1,0,58,0,0
61658,-101.68372,4,1,0,59,0,0
61835,-101.50468,4,1,0,59,0,0
61923,-101.41577,4,1,0,59,0,0
62276,-101.05997,4,1,0,59,0,0
62452,-100.883026,4,1,0,59,0,0
62541,-100.79368,4,1,0,59,0,0
62717,-100.61721,4,1,0,59,0,0
62805,-100.52909,4,1,0,60,0,0
62894,-100.44005,4,1,0,60,0,0
62982,-100.35208,4,1,0,60,0,0
63158,-100.17639,4,1,0,60,0,0
63335,-100,4,1,0,60,0,0
63510,-83.3333333333333,4,1,0,70,0,0
63775,-84.9952588088322,4,1,0,70,0,0
64040,-86.7248210830236,4,1,0,70,0,0
64304,-88.5192964855629,4,1,0,70,0,0
64569,-90.3968368310682,4,1,0,70,0,0
64922,-93.0251713231418,4,1,0,70,0,0
65187,-95.1009616194278,4,1,0,70,0,0
65451,-97.2631288861331,4,1,0,70,0,0
65716,-99.5346705679134,4,1,0,70,0,0
65981,-101.914851377935,4,1,0,70,0,0
66334,-105.268063529938,4,1,0,70,0,0
66598,-107.923706138674,4,1,0,70,0,0
66863,-110.727661326693,4,1,0,70,0,0
67128,-113.681201433345,4,1,0,70,0,0
67393,-116.79662454239,4,1,0,70,0,0
67745,-121.208869046341,4,1,0,70,0,0
68010,-124.756981265465,4,1,0,70,0,0
68275,-128.51908327454,4,1,0,70,0,0
68628,-133.897662066676,4,1,0,70,0,0
68892,-138.223919322465,4,1,0,70,0,0
69157,-142.857142857143,4,1,0,70,0,0
69422,-140.040670568396,4,1,0,70,0,0
69687,-137.333106349863,4,1,0,70,0,0
69951,-134.737896972155,4,1,0,70,0,0
70216,-132.229663279165,4,1,0,70,0,0
70569,-129.030046841083,4,1,0,70,0,0
70834,-126.728007181329,4,1,0,70,0,0
71098,-124.514905627095,4,1,0,70,0,0
71363,-122.369818189698,4,1,0,70,0,0
71628,-120.297388266371,4,1,0,70,0,0
71981,-117.643382429533,4,1,0,70,0,0
72245,-115.733814276638,4,1,0,70,0,0
72510,-113.878357667178,4,1,0,70,0,0
72775,-112.081456046682,4,1,0,70,0,0
73040,-110.340380632303,4,1,0,70,0,0
73393,-108.103451576469,4,1,0,70,0,0
73569,-107.021699990524,4,1,0,70,0,0
73657,-106.488902298742,4,1,0,70,0,0
73745,-105.961383296118,4,1,0,70,0,0
73922,-104.916022592152,4,1,0,70,0,0
74010,-104.403934329241,4,1,0,70,0,0
74098,-103.896820724168,4,1,0,70,0,0
74187,-103.388930591919,4,1,0,70,0,0
74363,-102.399042558979,4,1,0,70,0,0
74451,-101.911172871812,4,1,0,70,0,0
74540,-101.422464887388,4,1,0,70,0,0
74628,-100.943834685925,4,1,0,70,0,0
74716,-100.469700743693,4,1,0,70,0,0
74804,-100,4,1,0,70,0,0
75863,-90.9090909090909,4,1,0,70,0,0
75951,-93.0171277997365,4,1,0,70,0,0
76040,-95.250944414463,4,1,0,70,0,0
76128,-97.567716970702,4,1,0,70,0,0
76216,-100,4,1,0,70,0,0
77275,-90.9090909090909,4,1,0,70,0,0
77334,-92.3117154811715,4,1,0,70,0,0
77393,-93.7583001328021,4,1,0,70,0,0
77451,-95.2252495279202,4,1,0,70,0,0
77540,-97.567716970702,4,1,0,70,0,0
77628,-100,4,1,0,70,0,0
78688,-90.9090909090909,4,1,0,70,0,0
78776,-93.0171277997365,4,1,0,70,0,0
78864,-95.250944414463,4,1,0,70,0,0
78952,-97.567716970702,4,1,0,70,0,0
79041,-100,4,1,0,70,0,0
80628,-99.0686007963375,4,1,0,70,0,0
80804,-98.159509202454,4,1,0,70,0,0
80981,-97.2619252626141,4,1,0,70,0,0
81157,-96.3855421686747,4,1,0,70,0,0
81334,-95.5199648226759,4,1,0,70,0,0
81510,-94.6745562130178,4,1,0,70,0,0
81687,-93.839303515651,4,1,0,70,0,0
81863,-93.0232558139535,4,1,0,70,0,0
82040,-92.2167616373047,4,1,0,70,0,0
82216,-91.4285714285714,4,1,0,70,0,0
82393,-90.649375662055,4,1,0,70,0,0
82569,-89.8876404494382,4,1,0,70,0,0
82745,-89.1386004229665,4,1,0,70,0,0
82922,-88.3977900552486,4,1,0,70,0,0
83098,-87.6732742428711,4,1,0,70,0,0
83275,-86.9565217391304,4,1,0,70,0,0
83363,-86.3481813067195,4,1,0,70,0,0
83451,-85.7482935360847,4,1,0,70,0,0
83540,-85.1500075380672,4,1,0,70,0,0
83628,-84.5665961945032,4,1,0,70,0,0
83716,-83.9911250171016,4,1,0,70,0,0
83804,-83.423433004248,4,1,0,70,0,0
83893,-82.857042261786,4,1,0,70,0,0
83981,-82.3045267489712,4,1,0,70,0,0
84069,-81.7593311021297,4,1,0,70,0,0
84157,-81.2213108153193,4,1,0,70,0,0
84217,-80.6903251614378,4,1,0,70,0,0
84276,-80.3212851405623,4,1,0,70,0,0
84334,-80.1603206412826,4,1,0,70,0,0
84422,-79.6430726884049,4,1,0,70,0,0
84510,-79.1324571972987,4,1,0,70,0,0
84569,-78.7937634624614,4,1,0,70,0,0
84628,-78.4579566480894,4,1,0,70,0,0
84687,-78.125,4,1,0,70,0,0
84863,-81.6257252191087,4,1,0,70,0,0
84951,-83.4964328556096,4,1,0,70,0,0
85040,-85.4776812765098,4,1,0,70,0,0
85216,-89.6860986547085,4,1,0,70,0,0
85304,-91.9496275953174,4,1,0,70,0,0
85393,-94.358132814869,4,1,0,70,0,0
85569,-99.5127824074945,4,1,0,70,0,0
85745,-105.263157894737,4,1,0,70,0,0
85835,-108.695652173913,4,1,0,70,0,0
85923,-113.636363636364,4,1,0,70,0,0
86011,-117.647058823529,4,1,0,70,0,0
86099,-95.2380952380952,4,1,0,80,0,0
97743,-95.2380952380952,4,1,0,80,0,0
97920,-96.5554969423441,4,1,0,80,0,0
98096,-97.9020979020979,4,1,0,80,0,0
98185,-98.5974502723301,4,1,0,80,0,0
98361,-100.002023513224,4,1,0,80,0,0
98449,-100.719424460432,4,1,0,80,0,0
98626,-102.194007320251,4,1,0,80,0,0
98802,-103.703703703704,4,1,0,80,0,0
98861,-104.219827495308,4,1,0,80,0,0
98920,-104.741114384418,4,1,0,80,0,0
98979,-105.267642234861,4,1,0,80,0,0
99067,-106.062882283507,4,1,0,80,0,0
99155,-106.870229007634,4,1,0,80,0,0
99243,-107.689960994531,4,1,0,80,0,0
99420,-109.377420711329,4,1,0,80,0,0
99508,-110.236220472441,4,1,0,80,0,0
99596,-111.108613053351,4,1,0,80,0,0
99685,-112.005076717358,4,1,0,80,0,0
99861,-113.821138211382,4,1,0,80,0,0
100038,-115.707897263,4,1,0,80,0,0
100214,-117.647058823529,4,1,0,80,0,0
100567,-95.2380952380952,4,1,0,80,0,0
100743,-96.6505161154413,4,1,0,80,0,0
100920,-98.1138531286087,4,1,0,80,0,0
101008,-98.8580047403577,4,1,0,80,0,0
101185,-100.389479672662,4,1,0,80,0,0
101273,-101.168687982359,4,1,0,80,0,0
101449,-102.763965416835,4,1,0,80,0,0
101626,-104.419864354317,4,1,0,80,0,0
101685,-104.983753603954,4,1,0,80,0,0
101743,-105.54405337014,4,1,0,80,0,0
101802,-106.120183189157,4,1,0,80,0,0
101891,-107.001259387098,4,1,0,80,0,0
101979,-107.886939754503,4,1,0,80,0,0
102155,-109.703027114916,4,1,0,80,0,0
102243,-110.634193392814,4,1,0,80,0,0
102420,-112.555811785486,4,1,0,80,0,0
102508,-113.536253402623,4,1,0,80,0,0
102596,-114.533925807579,4,1,0,80,0,0
102685,-115.560928920457,4,1,0,80,0,0
102773,-116.594663278272,4,1,0,80,0,0
102861,-117.647058823529,4,1,0,80,0,0
103041,-95.2380952380952,4,1,0,80,0,0
103217,-105.263157894737,4,1,0,80,0,0
105949,-102.900451829179,4,1,0,80,0,0
106038,-100.61638222824,4,1,0,80,0,0
106126,-98.4555311508559,4,1,0,80,0,0
106214,-96.3855421686747,4,1,0,80,0,0
106302,-94.4008022731071,4,1,0,80,0,0
106391,-92.4749492435654,4,1,0,80,0,0
106479,-90.646465943378,4,1,0,80,0,0
106567,-88.8888888888889,4,1,0,80,0,0
106655,-87.1981720496511,4,1,0,80,0,0
106743,-85.5705714805163,4,1,0,80,0,0
106832,-83.9851301115242,4,1,0,80,0,0
106920,-82.4742268041237,4,1,0,80,0,0
107008,-81.0167254783831,4,1,0,80,0,0
107096,-79.6098441067854,4,1,0,80,0,0
107273,-76.9230769230769,4,1,0,80,0,0
107452,-66.6666666666667,4,1,0,80,0,0
107805,-50,4,1,0,80,0,0
108246,-33.3333333333333,4,1,0,80,0,0
108629,-100,4,1,0,80,0,0
108688,-86.9565217391304,4,1,0,80,0,0
115570,-86.95652,4,1,0,80,0,0
115629,-88.24267,4,1,0,80,0,0
115688,-89.56743,4,1,0,80,0,0
115746,-90.90909,4,1,0,80,0,0
116099,-83.33333,4,1,0,80,0,0
116188,-84.75716,4,1,0,80,0,0
116276,-86.21363,4,1,0,80,0,0
116364,-87.72104,4,1,0,80,0,0
116452,-89.282104,4,1,0,80,0,0
116629,-92.59647,4,1,0,80,0,0
116717,-94.3376,4,1,0,80,0,0
116894,-98.045746,4,1,0,80,0,0
116982,-100,4,1,0,80,0,0
117335,-100,4,1,0,80,0,0
117511,-93.76108,4,1,0,80,0,0
117688,-88.22549,4,1,0,80,0,0
117864,-83.33333,4,1,0,80,0,0
125982,-90.90909,4,1,0,80,0,0
126158,-90.55118,4,1,0,80,0,0
126246,-90.37275,4,1,0,80,0,0
126335,-90.192635,4,1,0,80,0,0
126511,-89.83754,4,1,0,80,0,0
126688,-89.48184,4,1,0,80,0,0
126864,-89.12953,4,1,0,80,0,0
126923,-89.01174,4,1,0,80,0,0
126982,-88.89412,4,1,0,80,0,0
127041,-88.776634,4,1,0,80,0,0
127217,-88.42712,4,1,0,80,0,0
127394,-88.07699,4,1,0,80,0,0
127482,-87.903435,4,1,0,80,0,0
127570,-87.73022,4,1,0,80,0,0
127658,-87.55735,4,1,0,80,0,0
127746,-87.38482,4,1,0,80,0,0
127923,-87.038826,4,1,0,80,0,0
128099,-86.696144,4,1,0,80,0,0
128188,-86.52338,4,1,0,80,0,0
128276,-86.35287,4,1,0,80,0,0
128452,-86.01289,4,1,0,80,0,0
128541,-85.84149,4,1,0,80,0,0
128629,-85.67233,4,1,0,80,0,0
128717,-85.50352,4,1,0,80,0,0
128805,-85.33504,4,1,0,80,0,0
128894,-85.16498,4,1,0,80,0,0
128982,-84.99716,4,1,0,80,0,0
129070,-84.82967,4,1,0,80,0,0
129158,-84.66251,4,1,0,80,0,0
129246,-84.49569,4,1,0,80,0,0
129335,-84.32731,4,1,0,80,0,0
129423,-84.16113,4,1,0,80,0,0
129511,-83.99529,4,1,0,80,0,0
129599,-83.82979,4,1,0,80,0,0
129688,-83.66272,4,1,0,80,0,0
129776,-83.497856,4,1,0,80,0,0
129864,-83.33333,4,1,0,80,0,0
130041,-86.967224,4,1,0,80,0,0
130217,-90.90908,4,1,0,80,0,0
130394,-95.25094,4,1,0,80,0,0
130482,-97.5677,4,1,0,80,0,0
130570,-100,4,1,0,80,0,0
130658,-102.55665,4,1,0,80,0,0
130746,-105.24747,4,1,0,80,0,0
130923,-111.111115,4,1,0,80,0,0
131276,-125,4,1,0,60,0,0
142570,-111.111111111111,4,1,0,60,0,0
148391,-109.484144834468,4,1,0,60,0,0
148479,-108.692862459256,4,1,0,60,0,0
148567,-107.91293579244,4,1,0,60,0,0
148743,-106.386185621913,4,1,0,60,0,0
148920,-104.893719256357,4,1,0,60,0,0
149008,-104.167179098677,4,1,0,60,0,0
149096,-103.450634383229,4,1,0,60,0,0
149273,-102.038849454749,4,1,0,60,0,0
149361,-101.351189649973,4,1,0,60,0,0
149449,-100.672736349157,4,1,0,60,0,0
149538,-99.995749885483,4,1,0,60,0,0
149626,-99.3352629628413,4,1,0,60,0,0
149802,-98.0401235282407,4,1,0,60,0,0
149891,-97.39796786672,4,1,0,60,0,0
149979,-96.771245115737,4,1,0,60,0,0
150155,-95.5416886626871,4,1,0,60,0,0
150332,-94.3362603190726,4,1,0,60,0,0
150420,-93.7482014069978,4,1,0,60,0,0
150508,-93.1674285789712,4,1,0,60,0,0
150599,-92.5925925925926,4,1,0,60,0,0
150685,-92.0208073494966,4,1,0,60,0,0
150861,-90.9083103289872,4,1,0,60,0,0
151038,-89.8162954542562,4,1,0,60,0,0
151126,-89.2830790118355,4,1,0,60,0,0
151214,-88.7561563449649,4,1,0,60,0,0
151302,-88.2354166753478,4,1,0,60,0,0
151391,-87.7149378435588,4,1,0,60,0,0
151479,-87.2063093301485,4,1,0,60,0,0
151567,-86.7035455301098,4,1,0,60,0,0
151655,-86.2065455907438,4,1,0,60,0,0
151743,-85.7152109585936,4,1,0,60,0,0
151832,-85.2239568869409,4,1,0,60,0,0
151920,-84.743727763526,4,1,0,60,0,0
152008,-84.2688804078335,4,1,0,60,0,0
152096,-83.799324856443,4,1,0,60,0,0
152185,-83.3297259858881,4,1,0,60,0,0
152273,-82.8705497438547,4,1,0,60,0,0
152361,-82.4164062165518,4,1,0,60,0,0
152449,-76.9230769230769,4,1,0,60,0,0
152626,-78.703648663108,4,1,0,60,0,0
152802,-80.5578203146866,4,1,0,60,0,0
152979,-82.5127757696622,4,1,0,60,0,0
153067,-83.5204763947415,4,1,0,60,0,0
153155,-84.5530947454466,4,1,0,60,0,0
153332,-86.7093664453089,4,1,0,60,0,0
153420,-87.8228684381592,4,1,0,60,0,0
153508,-88.9653411457983,4,1,0,60,0,0
153567,-89.7481087822998,4,1,0,60,0,0
153626,-90.5447731593561,4,1,0,60,0,0
153685,-91.3557076617355,4,1,0,60,0,0
153773,-92.5925925925926,4,1,0,80,0,0
153864,-76.9230769230769,4,1,0,80,0,1
153982,-80,4,1,0,80,0,1
156158,-80,4,1,0,80,0,0
156688,-71.4285714285714,4,1,0,80,0,1
156805,-80,4,1,0,80,0,1
158805,-80,4,1,0,80,0,1
158982,-82.48145,4,1,0,80,0,1
159158,-85.106384,4,1,0,80,0,1
159246,-86.48251,4,1,0,80,0,1
159335,-87.9203,4,1,0,80,0,1
159511,-90.90909,4,1,0,80,0,0
159864,-76.9230769230769,4,1,0,80,0,1
160038,-90.9090909090909,4,1,0,80,0,1
160126,-90.4987818951148,4,1,0,80,0,1
160214,-90.0921600163386,4,1,0,80,0,1
160391,-89.2852624920936,4,1,0,80,0,1
160479,-88.889448628498,4,1,0,80,0,1
160567,-88.4971286706623,4,1,0,80,0,1
160743,-87.7227870441721,4,1,0,80,0,1
160802,-87.466230450839,4,1,0,80,0,1
160861,-87.2111701470406,4,1,0,80,0,1
160920,-86.9575930808467,4,1,0,80,0,1
161096,-86.209844876023,4,1,0,80,0,1
161185,-85.8365966969085,4,1,0,80,0,1
161273,-85.4707064835671,4,1,0,80,0,1
161361,-85.1079223441456,4,1,0,80,0,1
161449,-84.7482048942148,4,1,0,80,0,1
161538,-84.3874793754035,4,1,0,80,0,1
161626,-84.033813549232,4,1,0,80,0,1
161802,-83.3353012019742,4,1,0,80,0,1
161891,-82.9864785420341,4,1,0,80,0,1
161979,-82.6444345565678,4,1,0,80,0,1
162155,-81.9687362088588,4,1,0,80,0,1
162332,-81.3002511115719,4,1,0,80,0,1
162420,-80.9719385999128,4,1,0,80,0,1
162508,-80.6462670536347,4,1,0,80,0,1
162596,-80.3232047342665,4,1,0,80,0,1
162685,-79.999093237821,4,1,0,80,0,1
162773,-79.6811849443428,4,1,0,80,0,1
162861,-79.3657933205892,4,1,0,80,0,1
162949,-79.0528886001658,4,1,0,80,0,1
163038,-78.7389276869185,4,1,0,80,0,1
163126,-78.4309367707523,4,1,0,80,0,1
163214,-78.1253459077727,4,1,0,80,0,1
163302,-77.8221271528436,4,1,0,80,0,1
163391,-77.5178473366282,4,1,0,80,0,1
163479,-77.2193168639636,4,1,0,80,0,1
163567,-76.9230769230769,4,1,0,80,0,1
163743,-66.6666666666667,4,1,0,80,0,1
163920,-68.3273520512279,4,1,0,80,0,1
164096,-70.062775091998,4,1,0,80,0,1
164361,-72.8486758196414,4,1,0,80,0,1
164538,-74.8362235067437,4,1,0,80,0,1
164626,-75.8653019767169,4,1,0,80,0,1
164714,-76.9230769230769,4,1,0,80,0,1
165158,-66.6666666666667,4,1,0,80,0,0
165335,-66.666664,4,1,0,80,0,0
166570,-80.04468,4,1,0,67,0,0
167982,-103.87727,4,1,0,53,0,0
169276,-142.85715,4,1,0,40,0,0
169923,-133.333333333333,4,1,0,40,0,0
170629,-125,4,1,0,40,0,0
182041,-117.647058823529,4,1,0,40,0,0
187746,-117.64706,4,1,0,40,0,0
187920,-116.74864,4,1,0,41,0,0
188096,-115.868805,4,1,0,41,0,0
188273,-114.99724,4,1,0,42,0,0
188361,-114.56878,4,1,0,42,0,0
188449,-114.1435,4,1,0,42,0,0
188626,-113.29761,4,1,0,43,0,0
188714,-112.8817,4,1,0,43,0,0
188802,-112.46883,4,1,0,44,0,0
188979,-111.647484,4,1,0,44,0,0
189155,-110.84258,4,1,0,45,0,0
189243,-110.44447,4,1,0,45,0,0
189332,-110.04473,4,1,0,46,0,0
189420,-109.65232,4,1,0,46,0,0
189508,-109.262695,4,1,0,46,0,0
189685,-108.48735,4,1,0,47,0,0
189861,-107.72722,4,1,0,47,0,0
189949,-107.351135,4,1,0,48,0,0
190038,-106.973434,4,1,0,48,0,0
190126,-106.602585,4,1,0,48,0,0
190214,-106.2343,4,1,0,49,0,0
190391,-105.50119,4,1,0,49,0,0
190567,-104.78219,4,1,0,70,0,0
190655,-104.42635,4,1,0,70,0,0
190743,-104.07292,4,1,0,70,0,0
190832,-103.7179,4,1,0,70,0,0
190920,-103.36924,4,1,0,70,0,0
191008,-103.02292,4,1,0,70,0,0
191096,-102.67891,4,1,0,70,0,0
191185,-102.33332,4,1,0,70,0,0
191273,-101.9939,4,1,0,70,0,0
191361,-101.65671,4,1,0,70,0,0
191449,-101.321754,4,1,0,70,0,0
191538,-100.98522,4,1,0,70,0,0
191626,-100.65466,4,1,0,70,0,0
191714,-100.32626,4,1,0,70,0,0
191802,-100,4,1,0,70,0,0
191979,-83.333336,4,1,0,70,0,0
192155,-86.20016,4,1,0,70,0,0
192332,-89.28933,4,1,0,70,0,0
192596,-94.33155,4,1,0,70,0,0
192685,-96.16223,4,1,0,70,0,0
192743,-97.39399,4,1,0,70,0,0
192802,-98.679794,4,1,0,70,0,0
192861,-100,4,1,0,70,0,0
192982,-83.333336,4,1,0,70,0,0
193041,-83.333336,4,1,0,70,0,0
193276,-100,4,1,0,60,0,0
193393,-117.647058823529,4,1,0,60,0,0
204688,-117.64706,4,1,0,70,0,0
205041,-116.96605,4,1,0,70,0,0
205217,-116.627975,4,1,0,70,0,0
205305,-116.45931,4,1,0,70,0,0
205482,-116.1208,4,1,0,70,0,0
205570,-115.95286,4,1,0,70,0,0
205746,-115.61772,4,1,0,70,0,0
206099,-114.94846,4,1,0,70,0,0
206276,-114.61434,4,1,0,70,0,0
206452,-114.283066,4,1,0,70,0,0
206629,-113.95088,4,1,0,70,0,0
206717,-113.78609,4,1,0,70,0,0
206805,-113.62154,4,1,0,70,0,0
206894,-113.455345,4,1,0,70,0,0
206982,-113.291275,4,1,0,70,0,0
207158,-112.96382,4,1,0,70,0,0
207335,-112.63547,4,1,0,70,0,0
207511,-112.30992,4,1,0,70,0,0
207688,-111.983475,4,1,0,70,0,0
207776,-111.82151,4,1,0,70,0,0
207864,-111.6598,4,1,0,70,0,0
208041,-111.335236,4,1,0,70,0,0
208217,-111.01344,4,1,0,70,0,0
208394,-110.690765,4,1,0,70,0,0
208482,-110.53068,4,1,0,70,0,0
208570,-110.37083,4,1,0,70,0,0
208746,-110.05183,4,1,0,70,0,0
208923,-109.73194,4,1,0,70,0,0
209099,-109.41479,4,1,0,70,0,0
209188,-109.25474,4,1,0,70,0,0
209276,-109.09675,4,1,0,70,0,0
209452,-108.78142,4,1,0,70,0,0
209541,-108.622314,4,1,0,70,0,0
209629,-108.465225,4,1,0,70,0,0
209717,-108.30836,4,1,0,70,0,0
209805,-108.15173,4,1,0,70,0,0
209982,-107.837364,4,1,0,70,0,0
210158,-107.52567,4,1,0,70,0,0
210335,-107.213135,4,1,0,70,0,0
210511,-106.90326,4,1,0,70,0,0
210688,-106.59253,4,1,0,70,0,0
210864,-106.28444,4,1,0,70,0,0
210952,-106.130714,4,1,0,70,0,0
211129,-105.82224,4,1,0,70,0,0
211217,-105.6692,4,1,0,70,0,0
211394,-105.362045,4,1,0,70,0,0
211746,-104.753876,4,1,0,70,0,0
211923,-104.44939,4,1,0,70,0,0
212099,-104.147484,4,1,0,70,0,0
212276,-103.84477,4,1,0,70,0,0
212364,-103.69458,4,1,0,70,0,0
212452,-103.54462,4,1,0,70,0,0
212541,-103.39318,4,1,0,70,0,0
212629,-103.24366,4,1,0,70,0,0
212805,-102.94524,4,1,0,70,0,0
212982,-102.64602,4,1,0,70,0,0
213158,-102.349335,4,1,0,70,0,0
213335,-102.05184,4,1,0,70,0,0
213423,-101.90425,4,1,0,70,0,0
213511,-101.756874,4,1,0,70,0,0
213688,-101.4611,4,1,0,70,0,0
213864,-101.16785,4,1,0,70,0,0
213952,-101.02154,4,1,0,70,0,0
214041,-100.87379,4,1,0,70,0,0
214129,-100.7279,4,1,0,70,0,0
214217,-100.58223,4,1,0,70,0,0
214305,-100.43676,4,1,0,70,0,0
214394,-100.289856,4,1,0,70,0,0
214482,-100.14481,4,1,0,70,0,0
214570,-100,4,1,0,70,0,0
214746,-102.933815,4,1,0,70,0,0
214923,-106.06321,4,1,0,70,0,0
215188,-111.12111,4,1,0,70,0,0
215276,-112.90912,4,1,0,70,0,0
215452,-116.66352,4,1,0,70,0,0
215629,-120.69977,4,1,0,70,0,0
215717,-122.812256,4,1,0,70,0,0
215805,-125,4,1,0,70,0,0
215982,-100,4,1,0,60,0,0
217019,-90.9090909090909,4,1,0,60,0,0
217107,-93.0171277997365,4,1,0,60,0,0
217196,-95.250944414463,4,1,0,60,0,0
217284,-97.567716970702,4,1,0,60,0,0
217372,-100,4,1,0,60,0,0
218430,-90.9090909090909,4,1,0,60,0,0
218489,-92.3117154811715,4,1,0,60,0,0
218548,-93.7583001328021,4,1,0,60,0,0
218606,-95.2252495279202,4,1,0,60,0,0
218695,-97.567716970702,4,1,0,60,0,0
218783,-100,4,1,0,60,0,0
219842,-90.9090909090909,4,1,0,60,0,0
219930,-93.0171277997365,4,1,0,60,0,0
220019,-95.250944414463,4,1,0,60,0,0
220107,-97.567716970702,4,1,0,60,0,0
220195,-100,4,1,0,60,0,0
221803,-98.7158908507223,4,1,0,60,0,0
221980,-97.4573219044875,4,1,0,60,0,0
222156,-96.237285724447,4,1,0,60,0,0
222333,-95.0407417813993,4,1,0,60,0,0
222509,-93.8800999167361,4,1,0,60,0,0
222686,-92.7411063129755,4,1,0,60,0,0
222862,-91.6356247883508,4,1,0,60,0,0
223039,-90.5501271583456,4,1,0,60,0,0
223215,-89.4959650747453,4,1,0,60,0,0
223392,-88.4602811376267,4,1,0,60,0,0
223568,-87.4539460926895,4,1,0,60,0,0
223744,-86.4702498881575,4,1,0,60,0,0
223921,-85.5030333670374,4,1,0,60,0,0
224097,-84.5625,4,1,0,60,0,0
224274,-83.6372627804908,4,1,0,60,0,0
224450,-82.73711245643,4,1,0,60,0,0
224539,-82.2892592142075,4,1,0,60,0,0
224627,-81.8511796733212,4,1,0,60,0,0
224715,-81.4177398002166,4,1,0,60,0,0
224803,-80.9888662755896,4,1,0,60,0,0
224892,-80.5596903840429,4,1,0,60,0,0
224980,-80.139785583131,4,1,0,60,0,0
225068,-79.7242354604914,4,1,0,60,0,0
225156,-79.3129726244211,4,1,0,60,0,0
225244,-78.9059310666589,4,1,0,60,0,0
225333,-78.4984915293572,4,1,0,60,0,0
225421,-78.0997460170861,4,1,0,60,0,0
225509,-77.7050310130944,4,1,0,60,0,0
225568,-77.4426191975273,4,1,0,60,0,0
225627,-77.1819737592698,4,1,0,60,0,0
225686,-76.9230769230769,4,1,0,60,0,0
225865,-76.94542,4,1,0,60,0,0
225923,-78.263435,4,1,0,60,0,0
225982,-79.651344,4,1,0,60,0,0
226041,-81.089355,4,1,0,60,0,0
226099,-82.55453,4,1,0,60,0,0
226158,-84.10028,4,1,0,60,0,0
226276,-87.37224,4,1,0,60,0,0
226394,-90.90909,4,1,0,60,0,0
226570,-28.5714285714286,4,1,0,60,0,0
227276,-76.9230769230769,4,1,0,60,0,0
228688,-86.9565217391304,4,1,0,75,0,0
234335,-86.95652,4,1,0,75,0,0
234421,-86.58581,4,1,0,75,0,0
234509,-86.20813,4,1,0,75,0,0
234597,-85.83209,4,1,0,75,0,0
234686,-85.45344,4,1,0,75,0,0
234774,-85.08069,4,1,0,75,0,0
234862,-84.709564,4,1,0,75,0,0
234950,-84.34007,4,1,0,75,0,0
235039,-83.96801,4,1,0,75,0,0
235127,-83.60173,4,1,0,75,0,0
235215,-83.23706,4,1,0,75,0,0
235303,-82.87397,4,1,0,75,0,0
235392,-82.508385,4,1,0,75,0,0
235480,-82.14848,4,1,0,75,0,0
235568,-81.790146,4,1,0,75,0,0
235656,-81.43337,4,1,0,75,0,0
235744,-81.07816,4,1,0,75,0,0
235833,-80.72049,4,1,0,75,0,0
235921,-80.36838,4,1,0,75,0,0
236009,-80.01782,4,1,0,75,0,0
236097,-79.66878,4,1,0,75,0,0
236186,-79.317314,4,1,0,75,0,0
236274,-78.97134,4,1,0,75,0,0
236362,-78.626854,4,1,0,75,0,0
236450,-78.2839,4,1,0,75,0,0
236539,-77.93855,4,1,0,75,0,0
236627,-77.59858,4,1,0,75,0,0
236715,-77.260086,4,1,0,75,0,0
236803,-76.92308,4,1,0,75,0,0
238744,-80.6363137685134,4,1,0,75,0,0
238921,-84.7506486019026,4,1,0,75,0,0
239097,-89.2802915274825,4,1,0,75,0,0
239186,-91.7602996254682,4,1,0,75,0,0
239274,-94.3517329910141,4,1,0,75,0,0
239450,-100,4,1,0,75,0,0
239627,-86.9565217391304,4,1,0,75,0,0
239686,-88.6732474485528,4,1,0,75,0,0
239744,-90.4282545640676,4,1,0,75,0,0
239803,-92.2862615357827,4,1,0,75,0,0
239892,-95.2380952380952,4,1,0,75,0,0
239982,-76.9230769230769,4,1,0,80,0,1
240099,-83.3333333333333,4,1,0,80,0,1
251217,-76.9230769230769,4,1,0,80,0,1
251394,-83.3333333333333,4,1,0,80,0,1
262570,-71.4285714285714,4,1,0,80,0,1
262658,-76.9230769230769,4,1,0,80,0,1
273864,-76.9230769230769,4,1,0,80,0,0
274217,-71.4285714285714,4,1,0,80,0,1
274305,-76.9230769230769,4,1,0,80,0,1
282335,-76.92308,4,1,0,80,0,1
282511,-76.50375,4,1,0,80,0,1
282599,-76.2958,4,1,0,80,0,1
282688,-76.08663,4,1,0,80,0,1
282776,-75.88093,4,1,0,80,0,1
282864,-75.67634,4,1,0,80,0,1
282952,-75.472855,4,1,0,80,0,1
283040,-75.270454,4,1,0,80,0,1
283129,-75.066864,4,1,0,80,0,1
283217,-74.86664,4,1,0,80,0,1
283393,-74.469376,4,1,0,80,0,1
283482,-74.27008,4,1,0,80,0,1
283570,-74.07407,4,1,0,80,0,1
283658,-73.879105,4,1,0,80,0,1
283746,-73.68515,4,1,0,80,0,1
283835,-73.490036,4,1,0,80,0,1
283923,-73.29812,4,1,0,80,0,1
284011,-73.10721,4,1,0,80,0,1
284099,-72.91728,4,1,0,80,0,1
284188,-72.726204,4,1,0,80,0,1
284276,-72.53825,4,1,0,80,0,1
284452,-72.165245,4,1,0,80,0,1
284540,-71.98019,4,1,0,80,0,1
284629,-71.793976,4,1,0,80,0,1
284717,-71.61081,4,1,0,80,0,1
284805,-71.42857,4,1,0,80,0,1
285158,-76.9230769230769,4,1,0,80,0,0
285335,-76.92308,4,1,0,80,0,0
286570,-76.92308,4,1,0,76,0,0
287982,-76.92308,4,1,0,72,0,0
289394,-76.92308,4,1,0,67,0,0
290805,-76.92308,4,1,0,63,0,0
292217,-76.92308,4,1,0,58,0,0
293629,-76.92308,4,1,0,54,0,0
294864,-76.92308,4,1,0,50,0,0

[HitObjects]
256,192,1394,5,0,0:0:0:0:
256,192,1658,1,0,0:0:0:0:
256,192,1746,1,8,0:0:0:0:
256,192,1923,1,0,0:0:0:0:
256,192,2276,1,0,0:0:0:0:
256,192,2452,1,8,0:0:0:0:
256,192,2629,1,0,0:0:0:0:
256,192,2805,1,0,0:0:0:0:
256,192,3070,1,0,0:0:0:0:
256,192,3158,1,8,0:0:0:0:
256,192,3335,1,0,0:0:0:0:
256,192,3688,1,0,0:0:0:0:
256,192,3864,1,8,0:0:0:0:
256,192,3952,1,0,0:0:0:0:
256,192,4129,1,0,0:0:0:0:
256,192,4217,1,0,0:0:0:0:
256,192,4482,1,0,0:0:0:0:
256,192,4570,1,8,0:0:0:0:
256,192,4746,1,0,0:0:0:0:
256,192,5099,1,0,0:0:0:0:
256,192,5276,1,8,0:0:0:0:
256,192,5452,1,0,0:0:0:0:
256,192,5629,1,0,0:0:0:0:
256,192,5894,1,0,0:0:0:0:
256,192,5982,1,8,0:0:0:0:
256,192,6158,1,0,0:0:0:0:
256,192,6335,1,8,0:0:0:0:
256,192,6423,1,8,0:0:0:0:
256,192,6511,1,0,0:0:0:0:
256,192,6688,1,8,0:0:0:0:
256,192,6776,1,0,0:0:0:0:
256,192,6952,1,0,0:0:0:0:
256,192,7041,1,0,0:0:0:0:
256,192,7305,1,0,0:0:0:0:
256,192,7394,1,8,0:0:0:0:
256,192,7570,1,0,0:0:0:0:
256,192,7923,1,0,0:0:0:0:
256,192,8099,1,8,0:0:0:0:
256,192,8276,1,0,0:0:0:0:
256,192,8452,1,0,0:0:0:0:
256,192,8717,1,0,0:0:0:0:
256,192,8805,1,8,0:0:0:0:
256,192,8982,1,0,0:0:0:0:
256,192,9335,1,0,0:0:0:0:
256,192,9511,1,8,0:0:0:0:
256,192,9599,1,0,0:0:0:0:
256,192,9776,1,0,0:0:0:0:
256,192,9864,1,0,0:0:0:0:
256,192,10129,1,0,0:0:0:0:
256,192,10217,1,8,0:0:0:0:
256,192,10394,1,0,0:0:0:0:
256,192,10746,1,0,0:0:0:0:
256,192,10923,1,8,0:0:0:0:
256,192,11099,1,0,0:0:0:0:
256,192,11276,1,0,0:0:0:0:
256,192,11541,1,0,0:0:0:0:
256,192,11629,1,8,0:0:0:0:
256,192,11805,1,0,0:0:0:0:
256,192,12158,1,0,0:0:0:0:
256,192,12335,1,8,0:0:0:0:
256,192,12423,1,0,0:0:0:0:
256,192,12688,1,12,0:0:0:0:
256,192,12864,1,0,0:0:0:0:
256,192,12952,1,0,0:0:0:0:
256,192,13041,1,8,0:0:0:0:
256,192,13217,1,0,0:0:0:0:
256,192,13305,1,0,0:0:0:0:
256,192,13394,1,8,0:0:0:0:
256,192,13570,1,0,0:0:0:0:
256,192,13658,1,0,0:0:0:0:
256,192,13746,1,8,0:0:0:0:
256,192,13923,1,0,0:0:0:0:
256,192,14011,1,0,0:0:0:0:
256,192,14099,1,8,0:0:0:0:
256,192,14276,1,0,0:0:0:0:
256,192,14364,1,8,0:0:0:0:
256,192,14452,1,0,0:0:0:0:
256,192,14629,1,0,0:0:0:0:
256,192,14717,1,8,0:0:0:0:
256,192,14805,1,0,0:0:0:0:
256,192,14982,1,0,0:0:0:0:
256,192,15070,1,8,0:0:0:0:
256,192,15158,1,0,0:0:0:0:
256,192,15246,1,8,0:0:0:0:
256,192,15423,1,8,0:0:0:0:
256,192,15511,1,0,0:0:0:0:
256,192,15688,1,8,0:0:0:0:
256,192,15776,1,8,0:0:0:0:
256,192,15864,1,0,0:0:0:0:
256,192,16041,1,8,0:0:0:0:
256,192,16129,1,8,0:0:0:0:
256,192,16217,1,0,0:0:0:0:
256,192,16394,1,8,0:0:0:0:
256,192,16482,1,8,0:0:0:0:
256,192,16570,1,0,0:0:0:0:
256,192,16746,1,8,0:0:0:0:
256,192,16835,1,8,0:0:0:0:
256,192,16923,1,0,0:0:0:0:
256,192,17099,1,8,0:0:0:0:
256,192,17188,1,0,0:0:0:0:
256,192,17276,1,0,0:0:0:0:
256,192,17452,1,8,0:0:0:0:
256,192,17541,1,0,0:0:0:0:
256,192,17629,1,0,0:0:0:0:
256,192,17805,1,8,0:0:0:0:
256,192,17894,1,0,0:0:0:0:
256,192,17982,1,0,0:0:0:0:
256,192,18070,1,8,0:0:0:0:
256,192,18246,1,0,0:0:0:0:
256,192,18335,1,0,0:0:0:0:
256,192,18511,1,8,0:0:0:0:
256,192,18599,1,8,0:0:0:0:
256,192,18688,1,0,0:0:0:0:
256,192,18864,1,8,0:0:0:0:
256,192,19041,1,0,0:0:0:0:
256,192,19129,1,8,0:0:0:0:
256,192,19217,1,0,0:0:0:0:
256,192,19394,1,8,0:0:0:0:
256,192,19570,1,0,0:0:0:0:
256,192,19658,1,0,0:0:0:0:
256,192,19746,1,8,0:0:0:0:
256,192,19923,1,0,0:0:0:0:
256,192,20011,1,0,0:0:0:0:
256,192,20099,1,8,0:0:0:0:
256,192,20188,1,8,0:0:0:0:
256,192,20276,1,0,0:0:0:0:
256,192,20452,1,8,0:0:0:0:
256,192,20541,1,8,0:0:0:0:
256,192,20629,1,0,0:0:0:0:
256,192,20717,1,0,0:0:0:0:
256,192,20805,1,8,0:0:0:0:
256,192,20982,1,0,0:0:0:0:
256,192,21070,1,0,0:0:0:0:
256,192,21158,1,8,0:0:0:0:
256,192,21246,1,8,0:0:0:0:
256,192,21335,1,8,0:0:0:0:
256,192,21423,1,8,0:0:0:0:
256,192,21511,1,0,0:0:0:0:
256,192,21599,1,0,0:0:0:0:
256,192,21688,1,0,0:0:0:0:
256,192,21776,1,0,0:0:0:0:
256,192,21864,1,8,0:0:0:0:
256,192,21952,1,8,0:0:0:0:
256,192,22041,1,0,0:0:0:0:
256,192,22129,1,0,0:0:0:0:
256,192,22217,1,8,0:0:0:0:
256,192,22305,1,8,0:0:0:0:
256,192,22394,1,0,0:0:0:0:
256,192,22482,1,0,0:0:0:0:
256,192,22570,1,8,0:0:0:0:
256,192,22629,1,8,0:0:0:0:
256,192,22688,1,8,0:0:0:0:
256,192,22746,1,8,0:0:0:0:
256,192,22923,1,0,0:0:0:0:
256,192,22982,1,0,0:0:0:0:
256,192,23041,1,0,0:0:0:0:
256,192,23099,1,0,0:0:0:0:
256,192,23276,1,8,0:0:0:0:
256,192,23335,1,8,0:0:0:0:
256,192,23394,1,8,0:0:0:0:
256,192,23452,1,8,0:0:0:0:
256,192,23629,1,0,0:0:0:0:
256,192,23688,1,0,0:0:0:0:
256,192,23746,1,0,0:0:0:0:
256,192,23805,1,0,0:0:0:0:
256,192,23982,1,12,0:0:0:0:
256,192,24158,12,14,29452,0:0:0:0:
256,192,29629,5,8,0:0:0:0:
256,192,30335,1,0,0:0:0:0:
256,192,30864,1,8,0:0:0:0:
256,192,31394,1,0,0:0:0:0:
256,192,31746,1,8,0:0:0:0:
256,192,32011,1,0,0:0:0:0:
256,192,32276,1,0,0:0:0:0:
256,192,32452,1,8,0:0:0:0:
256,192,32805,1,0,0:0:0:0:
256,192,33158,1,8,0:0:0:0:
256,192,33423,1,8,0:0:0:0:
256,192,33688,1,8,0:0:0:0:
256,192,34394,1,0,0:0:0:0:
256,192,34923,1,0,0:0:0:0:
256,192,35276,1,8,0:0:0:0:
256,192,35982,1,8,0:0:0:0:
256,192,36511,1,8,0:0:0:0:
256,192,37041,1,0,0:0:0:0:
256,192,37394,1,0,0:0:0:0:
256,192,37658,1,8,0:0:0:0:
256,192,38099,1,0,0:0:0:0:
256,192,38452,1,0,0:0:0:0:
256,192,38805,1,8,0:0:0:0:
256,192,39335,1,8,0:0:0:0:
256,192,40217,1,8,0:0:0:0:
256,192,40570,1,8,0:0:0:0:
256,192,40923,1,0,0:0:0:0:
256,192,41099,1,0,0:0:0:0:
256,192,41276,1,8,0:0:0:0:
256,192,41452,1,0,0:0:0:0:
256,192,41541,1,8,0:0:0:0:
256,192,41717,1,8,0:0:0:0:
256,192,41805,1,0,0:0:0:0:
256,192,41982,1,8,0:0:0:0:
256,192,42335,1,0,0:0:0:0:
256,192,42511,1,0,0:0:0:0:
256,192,42688,1,8,0:0:0:0:
256,192,42864,1,0,0:0:0:0:
256,192,42952,1,8,0:0:0:0:
256,192,43041,1,0,0:0:0:0:
256,192,43129,1,0,0:0:0:0:
256,192,43217,1,8,0:0:0:0:
256,192,43394,1,0,0:0:0:0:
256,192,43570,1,8,0:0:0:0:
256,192,43746,1,0,0:0:0:0:
256,192,43923,1,8,0:0:0:0:
256,192,44011,1,8,0:0:0:0:
256,192,44099,1,8,0:0:0:0:
256,192,44276,1,0,0:0:0:0:
256,192,44452,1,8,0:0:0:0:
256,192,44629,1,0,0:0:0:0:
256,192,44717,1,0,0:0:0:0:
256,192,44805,1,8,0:0:0:0:
256,192,44982,1,8,0:0:0:0:
256,192,45158,1,0,0:0:0:0:
256,192,45335,1,8,0:0:0:0:
256,192,45423,1,8,0:0:0:0:
256,192,45511,1,0,0:0:0:0:
256,192,45688,1,8,0:0:0:0:
256,192,45776,1,8,0:0:0:0:
256,192,45864,1,0,0:0:0:0:
256,192,45952,1,0,0:0:0:0:
256,192,46041,1,8,0:0:0:0:
256,192,46217,1,0,0:0:0:0:
256,192,46394,1,8,0:0:0:0:
256,192,46570,1,0,0:0:0:0:
256,192,46746,1,0,0:0:0:0:
256,192,46923,1,8,0:0:0:0:
256,192,47099,1,0,0:0:0:0:
256,192,47188,1,8,0:0:0:0:
256,192,47364,1,8,0:0:0:0:
256,192,47452,1,0,0:0:0:0:
256,192,47629,1,8,0:0:0:0:
256,192,47982,1,0,0:0:0:0:
256,192,48158,1,0,0:0:0:0:
256,192,48335,1,8,0:0:0:0:
256,192,48511,1,0,0:0:0:0:
256,192,48599,1,8,0:0:0:0:
256,192,48688,1,0,0:0:0:0:
256,192,48776,1,0,0:0:0:0:
256,192,48864,1,8,0:0:0:0:
256,192,49041,1,0,0:0:0:0:
256,192,49217,1,8,0:0:0:0:
256,192,49394,1,0,0:0:0:0:
256,192,49570,1,8,0:0:0:0:
256,192,49658,1,8,0:0:0:0:
256,192,49746,1,8,0:0:0:0:
256,192,49923,1,0,0:0:0:0:
256,192,50099,1,8,0:0:0:0:
256,192,50188,1,0,0:0:0:0:
256,192,50276,1,8,0:0:0:0:
256,192,50364,1,8,0:0:0:0:
256,192,50452,1,0,0:0:0:0:
256,192,50629,1,8,0:0:0:0:
256,192,50717,1,8,0:0:0:0:
256,192,50805,1,8,0:0:0:0:
256,192,50982,1,0,0:0:0:0:
256,192,51158,1,8,0:0:0:0:
256,192,51335,1,0,0:0:0:0:
256,192,51423,1,8,0:0:0:0:
256,192,51511,1,0,0:0:0:0:
256,192,51599,1,0,0:0:0:0:
256,192,51688,1,8,0:0:0:0:
256,192,51864,1,0,0:0:0:0:
256,192,52041,1,8,0:0:0:0:
256,192,52217,1,0,0:0:0:0:
256,192,52394,1,0,0:0:0:0:
256,192,52570,1,8,0:0:0:0:
256,192,52746,1,0,0:0:0:0:
256,192,52835,1,8,0:0:0:0:
256,192,53011,1,8,0:0:0:0:
256,192,53099,1,0,0:0:0:0:
256,192,53276,1,8,0:0:0:0:
256,192,53629,1,0,0:0:0:0:
256,192,53805,1,0,0:0:0:0:
256,192,53982,1,8,0:0:0:0:
256,192,54158,1,0,0:0:0:0:
256,192,54246,1,8,0:0:0:0:
256,192,54335,1,0,0:0:0:0:
256,192,54423,1,0,0:0:0:0:
256,192,54511,1,8,0:0:0:0:
256,192,54688,1,0,0:0:0:0:
256,192,54864,1,8,0:0:0:0:
256,192,55041,1,0,0:0:0:0:
256,192,55217,1,8,0:0:0:0:
256,192,55305,1,8,0:0:0:0:
256,192,55394,1,8,0:0:0:0:
256,192,55570,1,0,0:0:0:0:
256,192,55746,1,8,0:0:0:0:
256,192,55923,1,0,0:0:0:0:
256,192,56011,1,0,0:0:0:0:
256,192,56099,1,8,0:0:0:0:
256,192,56276,1,8,0:0:0:0:
256,192,56452,1,0,0:0:0:0:
256,192,56629,1,8,0:0:0:0:
256,192,56717,1,8,0:0:0:0:
256,192,56805,1,0,0:0:0:0:
256,192,56982,1,0,0:0:0:0:
256,192,57070,1,0,0:0:0:0:
256,192,57158,1,8,0:0:0:0:
256,192,57246,1,0,0:0:0:0:
256,192,57335,1,8,0:0:0:0:
256,192,57511,1,0,0:0:0:0:
256,192,57688,1,8,0:0:0:0:
256,192,57864,1,0,0:0:0:0:
256,192,58041,1,0,0:0:0:0:
256,192,58217,1,8,0:0:0:0:
256,192,58394,1,0,0:0:0:0:
256,192,58482,1,8,0:0:0:0:
256,192,58658,1,8,0:0:0:0:
256,192,58746,1,0,0:0:0:0:
256,192,58923,1,8,0:0:0:0:
256,192,59276,1,0,0:0:0:0:
256,192,59452,1,0,0:0:0:0:
256,192,59629,1,8,0:0:0:0:
256,192,59805,1,0,0:0:0:0:
256,192,59894,1,8,0:0:0:0:
256,192,60070,1,0,0:0:0:0:
256,192,60158,1,8,0:0:0:0:
256,192,60335,1,0,0:0:0:0:
256,192,60423,1,8,0:0:0:0:
256,192,60688,1,0,0:0:0:0:
256,192,60864,1,8,0:0:0:0:
256,192,60952,1,0,0:0:0:0:
256,192,61129,1,8,0:0:0:0:
256,192,61217,1,0,0:0:0:0:
256,192,61394,1,8,0:0:0:0:
256,192,61570,1,0,0:0:0:0:
256,192,61658,1,8,0:0:0:0:
256,192,61835,1,0,0:0:0:0:
256,192,61923,1,8,0:0:0:0:
256,192,62276,1,8,0:0:0:0:
256,192,62452,1,0,0:0:0:0:
256,192,62541,1,8,0:0:0:0:
256,192,62717,1,8,0:0:0:0:
256,192,62805,1,0,0:0:0:0:
256,192,62894,1,0,0:0:0:0:
256,192,62982,1,8,0:0:0:0:
256,192,63158,1,0,0:0:0:0:
256,192,63335,1,8,0:0:0:0:
256,192,63511,5,4,0:0:0:0:
256,192,63776,1,8,0:0:0:0:
256,192,64041,1,0,0:0:0:0:
256,192,64305,1,8,0:0:0:0:
256,192,64570,1,0,0:0:0:0:
256,192,64923,1,8,0:0:0:0:
256,192,65188,1,0,0:0:0:0:
256,192,65452,1,8,0:0:0:0:
256,192,65717,1,0,0:0:0:0:
256,192,65982,1,8,0:0:0:0:
256,192,66335,1,8,0:0:0:0:
256,192,66599,1,8,0:0:0:0:
256,192,66864,1,0,0:0:0:0:
256,192,67129,1,8,0:0:0:0:
256,192,67394,1,0,0:0:0:0:
256,192,67746,1,0,0:0:0:0:
256,192,68011,1,0,0:0:0:0:
256,192,68276,1,0,0:0:0:0:
256,192,68629,1,8,0:0:0:0:
256,192,68894,1,0,0:0:0:0:
256,192,69158,1,8,0:0:0:0:
256,192,69423,1,0,0:0:0:0:
256,192,69688,1,8,0:0:0:0:
256,192,69952,1,0,0:0:0:0:
256,192,70217,1,8,0:0:0:0:
256,192,70570,1,8,0:0:0:0:
256,192,70835,1,8,0:0:0:0:
256,192,71099,1,0,0:0:0:0:
256,192,71364,1,0,0:0:0:0:
256,192,71629,1,8,0:0:0:0:
256,192,71982,1,8,0:0:0:0:
256,192,72246,1,8,0:0:0:0:
256,192,72511,1,8,0:0:0:0:
256,192,72776,1,0,0:0:0:0:
256,192,73041,1,8,0:0:0:0:
256,192,73394,1,8,0:0:0:0:
256,192,73570,1,0,0:0:0:0:
256,192,73658,1,8,0:0:0:0:
256,192,73746,1,0,0:0:0:0:
256,192,73923,1,8,0:0:0:0:
256,192,74011,1,0,0:0:0:0:
256,192,74099,1,0,0:0:0:0:
256,192,74188,1,8,0:0:0:0:
256,192,74364,1,0,0:0:0:0:
256,192,74452,1,8,0:0:0:0:
256,192,74541,1,0,0:0:0:0:
256,192,74629,1,8,0:0:0:0:
256,192,74717,1,8,0:0:0:0:
256,192,74805,1,4,0:0:0:0:
256,192,75070,1,8,0:0:0:0:
256,192,75158,1,0,0:0:0:0:
256,192,75335,1,8,0:0:0:0:
256,192,75511,1,0,0:0:0:0:
256,192,75599,1,8,0:0:0:0:
256,192,75688,1,0,0:0:0:0:
256,192,75864,1,8,0:0:0:0:
256,192,75952,1,8,0:0:0:0:
256,192,76041,1,0,0:0:0:0:
256,192,76129,1,0,0:0:0:0:
256,192,76217,1,8,0:0:0:0:
256,192,76482,1,8,0:0:0:0:
256,192,76570,1,0,0:0:0:0:
256,192,76746,1,8,0:0:0:0:
256,192,76923,1,0,0:0:0:0:
256,192,77011,1,0,0:0:0:0:
256,192,77099,1,8,0:0:0:0:
256,192,77276,1,0,0:0:0:0:
256,192,77335,1,0,0:0:0:0:
256,192,77394,1,0,0:0:0:0:
256,192,77452,1,8,0:0:0:0:
256,192,77541,1,0,0:0:0:0:
256,192,77629,1,8,0:0:0:0:
256,192,77894,1,8,0:0:0:0:
256,192,77982,1,0,0:0:0:0:
256,192,78158,1,8,0:0:0:0:
256,192,78335,1,0,0:0:0:0:
256,192,78423,1,8,0:0:0:0:
256,192,78511,1,8,0:0:0:0:
256,192,78688,1,0,0:0:0:0:
256,192,78776,1,0,0:0:0:0:
256,192,78864,1,0,0:0:0:0:
256,192,78952,1,0,0:0:0:0:
256,192,79041,1,8,0:0:0:0:
256,192,79305,1,0,0:0:0:0:
256,192,79394,1,8,0:0:0:0:
256,192,79570,1,0,0:0:0:0:
256,192,79746,1,8,0:0:0:0:
256,192,79791,1,8,0:0:0:0:
256,192,79923,1,0,0:0:0:0:
256,192,79967,1,0,0:0:0:0:
256,192,80099,1,8,0:0:0:0:
256,192,80188,1,8,0:0:0:0:
256,192,80276,1,8,0:0:0:0:
256,192,80364,1,8,0:0:0:0:
256,192,80452,1,4,0:0:0:0:
256,192,80629,1,8,0:0:0:0:
256,192,80805,1,8,0:0:0:0:
256,192,80982,1,8,0:0:0:0:
256,192,81158,1,8,0:0:0:0:
256,192,81335,1,8,0:0:0:0:
256,192,81511,1,8,0:0:0:0:
256,192,81688,1,8,0:0:0:0:
256,192,81864,1,8,0:0:0:0:
256,192,82041,1,8,0:0:0:0:
256,192,82217,1,8,0:0:0:0:
256,192,82394,1,8,0:0:0:0:
256,192,82570,1,8,0:0:0:0:
256,192,82746,1,8,0:0:0:0:
256,192,82923,1,8,0:0:0:0:
256,192,83099,1,8,0:0:0:0:
256,192,83276,1,8,0:0:0:0:
256,192,83364,1,8,0:0:0:0:
256,192,83452,1,0,0:0:0:0:
256,192,83541,1,0,0:0:0:0:
256,192,83629,1,8,0:0:0:0:
256,192,83717,1,0,0:0:0:0:
256,192,83805,1,8,0:0:0:0:
256,192,83894,1,8,0:0:0:0:
256,192,83982,1,0,0:0:0:0:
256,192,84070,1,0,0:0:0:0:
256,192,84158,1,8,0:0:0:0:
256,192,84217,1,8,0:0:0:0:
256,192,84276,1,8,0:0:0:0:
256,192,84335,1,0,0:0:0:0:
256,192,84423,1,8,0:0:0:0:
256,192,84511,1,0,0:0:0:0:
256,192,84570,1,0,0:0:0:0:
256,192,84629,1,0,0:0:0:0:
256,192,84688,1,8,0:0:0:0:
256,192,84864,1,0,0:0:0:0:
256,192,84952,1,0,0:0:0:0:
256,192,85041,1,8,0:0:0:0:
256,192,85217,1,0,0:0:0:0:
256,192,85305,1,0,0:0:0:0:
256,192,85394,1,8,0:0:0:0:
256,192,85570,1,0,0:0:0:0:
256,192,85746,1,8,0:0:0:0:
256,192,85835,1,8,0:0:0:0:
256,192,85923,1,8,0:0:0:0:
256,192,86011,1,8,0:0:0:0:
256,192,86099,5,4,0:0:0:0:
256,192,86276,1,8,0:0:0:0:
256,192,86452,1,0,0:0:0:0:
256,192,86541,1,0,0:0:0:0:
256,192,86629,1,0,0:0:0:0:
256,192,86805,1,8,0:0:0:0:
256,192,86894,1,0,0:0:0:0:
256,192,87070,1,0,0:0:0:0:
256,192,87158,1,0,0:0:0:0:
256,192,87335,1,8,0:0:0:0:
256,192,87511,1,0,0:0:0:0:
256,192,87570,1,0,0:0:0:0:
256,192,87629,1,0,0:0:0:0:
256,192,87688,1,8,0:0:0:0:
256,192,87776,1,0,0:0:0:0:
256,192,87864,1,0,0:0:0:0:
256,192,87952,1,8,0:0:0:0:
256,192,88129,1,8,0:0:0:0:
256,192,88217,1,0,0:0:0:0:
256,192,88305,1,8,0:0:0:0:
256,192,88394,1,0,0:0:0:0:
256,192,88570,1,8,0:0:0:0:
256,192,88746,1,0,0:0:0:0:
256,192,88923,1,8,0:0:0:0:
256,192,89099,1,0,0:0:0:0:
256,192,89276,1,8,0:0:0:0:
256,192,89364,1,8,0:0:0:0:
256,192,89452,1,8,0:0:0:0:
256,192,89629,1,0,0:0:0:0:
256,192,89717,1,8,0:0:0:0:
256,192,89894,1,0,0:0:0:0:
256,192,89982,1,0,0:0:0:0:
256,192,90158,1,8,0:0:0:0:
256,192,90335,1,0,0:0:0:0:
256,192,90394,1,8,0:0:0:0:
256,192,90452,1,8,0:0:0:0:
256,192,90511,1,8,0:0:0:0:
256,192,90599,1,0,0:0:0:0:
256,192,90688,1,8,0:0:0:0:
256,192,90776,1,0,0:0:0:0:
256,192,90952,1,8,0:0:0:0:
256,192,91041,1,0,0:0:0:0:
256,192,91129,1,0,0:0:0:0:
256,192,91217,1,0,0:0:0:0:
256,192,91305,1,8,0:0:0:0:
256,192,91394,1,8,0:0:0:0:
256,192,91482,1,0,0:0:0:0:
256,192,91570,1,8,0:0:0:0:
256,192,91746,1,4,0:0:0:0:
256,192,91923,1,8,0:0:0:0:
256,192,92099,1,0,0:0:0:0:
256,192,92188,1,0,0:0:0:0:
256,192,92276,1,8,0:0:0:0:
256,192,92452,1,0,0:0:0:0:
256,192,92541,1,8,0:0:0:0:
256,192,92717,1,0,0:0:0:0:
256,192,92805,1,8,0:0:0:0:
256,192,92982,1,0,0:0:0:0:
256,192,93158,1,8,0:0:0:0:
256,192,93217,1,8,0:0:0:0:
256,192,93276,1,8,0:0:0:0:
256,192,93335,1,0,0:0:0:0:
256,192,93423,1,8,0:0:0:0:
256,192,93511,1,8,0:0:0:0:
256,192,93599,1,0,0:0:0:0:
256,192,93776,1,8,0:0:0:0:
256,192,93864,1,0,0:0:0:0:
256,192,93952,1,8,0:0:0:0:
256,192,94041,1,0,0:0:0:0:
256,192,94217,1,8,0:0:0:0:
256,192,94394,1,0,0:0:0:0:
256,192,94570,1,8,0:0:0:0:
256,192,94746,1,0,0:0:0:0:
256,192,94835,1,0,0:0:0:0:
256,192,94923,1,8,0:0:0:0:
256,192,94982,1,8,0:0:0:0:
256,192,95041,1,8,0:0:0:0:
256,192,95099,1,8,0:0:0:0:
256,192,95276,1,0,0:0:0:0:
256,192,95364,1,0,0:0:0:0:
256,192,95541,1,8,0:0:0:0:
256,192,95629,1,8,0:0:0:0:
256,192,95805,1,0,0:0:0:0:
256,192,95982,1,8,0:0:0:0:
256,192,96070,1,8,0:0:0:0:
256,192,96158,1,8,0:0:0:0:
256,192,96335,1,0,0:0:0:0:
256,192,96511,1,8,0:0:0:0:
256,192,96599,1,8,0:0:0:0:
256,192,96688,1,0,0:0:0:0:
256,192,96776,1,0,0:0:0:0:
256,192,96864,1,8,0:0:0:0:
256,192,96952,1,8,0:0:0:0:
256,192,97041,1,0,0:0:0:0:
256,192,97129,1,8,0:0:0:0:
256,192,97217,1,0,0:0:0:0:
256,192,97394,1,8,0:0:0:0:
256,192,97746,1,12,0:0:0:0:
256,192,97923,1,0,0:0:0:0:
256,192,98099,1,8,0:0:0:0:
256,192,98188,1,0,0:0:0:0:
256,192,98364,1,8,0:0:0:0:
256,192,98452,1,8,0:0:0:0:
256,192,98629,1,0,0:0:0:0:
256,192,98805,1,8,0:0:0:0:
256,192,98864,1,8,0:0:0:0:
256,192,98923,1,8,0:0:0:0:
256,192,98982,1,0,0:0:0:0:
256,192,99070,1,8,0:0:0:0:
256,192,99158,1,8,0:0:0:0:
256,192,99246,1,0,0:0:0:0:
256,192,99423,1,0,0:0:0:0:
256,192,99511,1,8,0:0:0:0:
256,192,99599,1,0,0:0:0:0:
256,192,99688,1,8,0:0:0:0:
256,192,99864,1,0,0:0:0:0:
256,192,100041,1,8,0:0:0:0:
256,192,100217,1,0,0:0:0:0:
256,192,100570,1,12,0:0:0:0:
256,192,100746,1,0,0:0:0:0:
256,192,100923,1,8,0:0:0:0:
256,192,101011,1,8,0:0:0:0:
256,192,101188,1,0,0:0:0:0:
256,192,101276,1,8,0:0:0:0:
256,192,101452,1,0,0:0:0:0:
256,192,101629,1,8,0:0:0:0:
256,192,101688,1,8,0:0:0:0:
256,192,101746,1,8,0:0:0:0:
256,192,101805,1,0,0:0:0:0:
256,192,101894,1,8,0:0:0:0:
256,192,101982,1,8,0:0:0:0:
256,192,102158,1,0,0:0:0:0:
256,192,102246,1,0,0:0:0:0:
256,192,102423,1,8,0:0:0:0:
256,192,102511,1,8,0:0:0:0:
256,192,102599,1,0,0:0:0:0:
256,192,102688,1,0,0:0:0:0:
256,192,102776,1,8,0:0:0:0:
256,192,102864,1,8,0:0:0:0:
256,192,103041,1,4,0:0:0:0:
256,192,103394,1,8,0:0:0:0:
256,192,103570,1,0,0:0:0:0:
256,192,103746,1,0,0:0:0:0:
256,192,104099,1,8,0:0:0:0:
256,192,104276,1,0,0:0:0:0:
256,192,104452,1,0,0:0:0:0:
256,192,104805,1,8,0:0:0:0:
256,192,104982,1,0,0:0:0:0:
256,192,105158,1,0,0:0:0:0:
256,192,105511,1,8,0:0:0:0:
256,192,105688,1,0,0:0:0:0:
256,192,105864,1,8,0:0:0:0:
256,192,105952,1,8,0:0:0:0:
256,192,106041,1,0,0:0:0:0:
256,192,106129,1,0,0:0:0:0:
256,192,106217,1,8,0:0:0:0:
256,192,106305,1,8,0:0:0:0:
256,192,106394,1,8,0:0:0:0:
256,192,106482,1,8,0:0:0:0:
256,192,106570,1,0,0:0:0:0:
256,192,106658,1,0,0:0:0:0:
256,192,106746,1,0,0:0:0:0:
256,192,106835,1,0,0:0:0:0:
256,192,106923,1,8,0:0:0:0:
256,192,107011,1,8,0:0:0:0:
256,192,107099,1,8,0:0:0:0:
256,192,107276,1,4,0:0:0:0:
256,192,107452,2,0,L|376:191,1,105.000004005432
256,192,107805,2,4,L|401:193,2,140
256,192,108335,12,0,108511,0:0:0:0:
256,192,108688,5,12,0:0:0:0:
256,192,108864,1,0,0:0:0:0:
256,192,108952,1,0,0:0:0:0:
256,192,109041,1,8,0:0:0:0:
256,192,109217,1,0,0:0:0:0:
256,192,109305,1,8,0:0:0:0:
256,192,109482,1,8,0:0:0:0:
256,192,109570,1,0,0:0:0:0:
256,192,109658,1,0,0:0:0:0:
256,192,109746,1,8,0:0:0:0:
256,192,109923,1,8,0:0:0:0:
256,192,109982,1,8,0:0:0:0:
256,192,110041,1,8,0:0:0:0:
256,192,110099,1,0,0:0:0:0:
256,192,110276,1,0,0:0:0:0:
256,192,110364,1,8,0:0:0:0:
256,192,110452,1,0,0:0:0:0:
256,192,110541,1,0,0:0:0:0:
256,192,110629,1,8,0:0:0:0:
256,192,110717,1,8,0:0:0:0:
256,192,110805,1,0,0:0:0:0:
256,192,110894,1,8,0:0:0:0:
256,192,110982,1,0,0:0:0:0:
256,192,111158,1,8,0:0:0:0:
256,192,111335,1,0,0:0:0:0:
256,192,111511,1,8,0:0:0:0:
256,192,111570,1,8,0:0:0:0:
256,192,111629,1,8,0:0:0:0:
256,192,111688,1,0,0:0:0:0:
256,192,111776,1,8,0:0:0:0:
256,192,111864,1,0,0:0:0:0:
256,192,111952,1,0,0:0:0:0:
256,192,112041,1,8,0:0:0:0:
256,192,112217,1,0,0:0:0:0:
256,192,112305,1,0,0:0:0:0:
256,192,112394,1,8,0:0:0:0:
256,192,112570,1,0,0:0:0:0:
256,192,112658,1,8,0:0:0:0:
256,192,112746,1,8,0:0:0:0:
256,192,112923,1,0,0:0:0:0:
256,192,113011,1,0,0:0:0:0:
256,192,113099,1,8,0:0:0:0:
256,192,113188,1,0,0:0:0:0:
256,192,113276,1,8,0:0:0:0:
256,192,113364,1,8,0:0:0:0:
256,192,113452,1,0,0:0:0:0:
256,192,113541,1,0,0:0:0:0:
256,192,113629,1,8,0:0:0:0:
256,192,113805,1,8,0:0:0:0:
256,192,113982,1,0,0:0:0:0:
256,192,114070,1,8,0:0:0:0:
256,192,114158,1,0,0:0:0:0:
256,192,114335,1,12,0:0:0:0:
256,192,114511,1,0,0:0:0:0:
256,192,114599,1,0,0:0:0:0:
256,192,114688,1,8,0:0:0:0:
256,192,114864,1,0,0:0:0:0:
256,192,114952,1,8,0:0:0:0:
256,192,115129,1,0,0:0:0:0:
256,192,115217,1,8,0:0:0:0:
256,192,115305,1,8,0:0:0:0:
256,192,115394,1,0,0:0:0:0:
256,192,115570,1,8,0:0:0:0:
256,192,115629,1,8,0:0:0:0:
256,192,115688,1,8,0:0:0:0:
256,192,115746,1,0,0:0:0:0:
256,192,116099,1,8,0:0:0:0:
256,192,116188,1,8,0:0:0:0:
256,192,116276,1,8,0:0:0:0:
256,192,116364,1,8,0:0:0:0:
256,192,116452,1,0,0:0:0:0:
256,192,116629,1,8,0:0:0:0:
256,192,116717,1,0,0:0:0:0:
256,192,116894,1,8,0:0:0:0:
256,192,116982,1,0,0:0:0:0:
256,192,117335,1,0,0:0:0:0:
256,192,117511,1,8,0:0:0:0:
256,192,117688,1,0,0:0:0:0:
256,192,117864,1,8,0:0:0:0:
256,192,117952,1,0,0:0:0:0:
256,192,118041,1,8,0:0:0:0:
256,192,118129,1,0,0:0:0:0:
256,192,118217,1,8,0:0:0:0:
256,192,118305,1,8,0:0:0:0:
256,192,118394,1,0,0:0:0:0:
256,192,118570,1,8,0:0:0:0:
256,192,118746,1,0,0:0:0:0:
256,192,118835,1,8,0:0:0:0:
256,192,118923,1,0,0:0:0:0:
256,192,119099,1,0,0:0:0:0:
256,192,119188,1,0,0:0:0:0:
256,192,119276,1,8,0:0:0:0:
256,192,119364,1,0,0:0:0:0:
256,192,119452,1,8,0:0:0:0:
256,192,119541,1,8,0:0:0:0:
256,192,119629,1,0,0:0:0:0:
256,192,119805,1,0,0:0:0:0:
256,192,119982,1,12,0:0:0:0:
256,192,120158,1,0,0:0:0:0:
256,192,120246,1,0,0:0:0:0:
256,192,120335,1,8,0:0:0:0:
256,192,120511,1,0,0:0:0:0:
256,192,120599,1,8,0:0:0:0:
256,192,120776,1,8,0:0:0:0:
256,192,120864,1,8,0:0:0:0:
256,192,120952,1,0,0:0:0:0:
256,192,121041,1,8,0:0:0:0:
256,192,121217,1,8,0:0:0:0:
256,192,121276,1,8,0:0:0:0:
256,192,121335,1,8,0:0:0:0:
256,192,121394,1,0,0:0:0:0:
256,192,121482,1,0,0:0:0:0:
256,192,121570,1,8,0:0:0:0:
256,192,121746,1,0,0:0:0:0:
256,192,121923,1,8,0:0:0:0:
256,192,122011,1,0,0:0:0:0:
256,192,122099,1,0,0:0:0:0:
256,192,122188,1,8,0:0:0:0:
256,192,122276,1,0,0:0:0:0:
256,192,122364,1,0,0:0:0:0:
256,192,122452,1,8,0:0:0:0:
256,192,122629,1,0,0:0:0:0:
256,192,122805,1,8,0:0:0:0:
256,192,122864,1,8,0:0:0:0:
256,192,122923,1,8,0:0:0:0:
256,192,122982,1,0,0:0:0:0:
256,192,123070,1,0,0:0:0:0:
256,192,123158,1,8,0:0:0:0:
256,192,123335,1,0,0:0:0:0:
256,192,123423,1,8,0:0:0:0:
256,192,123599,1,8,0:0:0:0:
256,192,123688,1,0,0:0:0:0:
256,192,123776,1,8,0:0:0:0:
256,192,123864,1,0,0:0:0:0:
256,192,124041,1,8,0:0:0:0:
256,192,124217,1,0,0:0:0:0:
256,192,124305,1,8,0:0:0:0:
256,192,124394,1,0,0:0:0:0:
256,192,124482,1,0,0:0:0:0:
256,192,124570,1,8,0:0:0:0:
256,192,124658,1,8,0:0:0:0:
256,192,124746,1,0,0:0:0:0:
256,192,124835,1,0,0:0:0:0:
256,192,124923,1,8,0:0:0:0:
256,192,125099,1,8,0:0:0:0:
256,192,125276,1,0,0:0:0:0:
256,192,125364,1,8,0:0:0:0:
256,192,125452,1,0,0:0:0:0:
256,192,125629,12,0,125805,0:0:0:0:
256,192,125982,5,12,0:0:0:0:
256,192,126158,1,0,0:0:0:0:
256,192,126246,1,0,0:0:0:0:
256,192,126335,1,8,0:0:0:0:
256,192,126511,1,0,0:0:0:0:
256,192,126688,1,8,0:0:0:0:
256,192,126864,1,8,0:0:0:0:
256,192,126923,1,8,0:0:0:0:
256,192,126982,1,8,0:0:0:0:
256,192,127041,1,0,0:0:0:0:
256,192,127217,1,0,0:0:0:0:
256,192,127394,1,8,0:0:0:0:
256,192,127482,1,0,0:0:0:0:
256,192,127570,1,8,0:0:0:0:
256,192,127658,1,8,0:0:0:0:
256,192,127746,1,0,0:0:0:0:
256,192,127923,1,8,0:0:0:0:
256,192,128099,1,0,0:0:0:0:
256,192,128188,1,0,0:0:0:0:
256,192,128276,1,8,0:0:0:0:
256,192,128452,1,8,0:0:0:0:
256,192,128541,1,8,0:0:0:0:
256,192,128629,1,0,0:0:0:0:
256,192,128717,1,8,0:0:0:0:
256,192,128805,1,0,0:0:0:0:
256,192,128894,1,0,0:0:0:0:
256,192,128982,1,8,0:0:0:0:
256,192,129070,1,8,0:0:0:0:
256,192,129158,1,0,0:0:0:0:
256,192,129246,1,8,0:0:0:0:
256,192,129335,1,0,0:0:0:0:
256,192,129423,1,0,0:0:0:0:
256,192,129511,1,8,0:0:0:0:
256,192,129599,1,8,0:0:0:0:
256,192,129688,1,8,0:0:0:0:
256,192,129776,1,8,0:0:0:0:
256,192,129864,1,0,0:0:0:0:
256,192,130041,1,0,0:0:0:0:
256,192,130217,1,8,0:0:0:0:
256,192,130394,1,0,0:0:0:0:
256,192,130482,1,8,0:0:0:0:
256,192,130570,1,0,0:0:0:0:
256,192,130658,1,8,0:0:0:0:
256,192,130746,1,0,0:0:0:0:
256,192,130923,1,8,0:0:0:0:
256,192,131276,5,4,0:0:0:0:
256,192,131629,1,8,0:0:0:0:
256,192,132158,1,0,0:0:0:0:
256,192,132335,1,8,0:0:0:0:
256,192,132688,1,0,0:0:0:0:
256,192,133041,1,8,0:0:0:0:
256,192,133217,1,0,0:0:0:0:
256,192,133570,1,0,0:0:0:0:
256,192,133746,1,8,0:0:0:0:
256,192,134099,1,0,0:0:0:0:
256,192,134452,1,8,0:0:0:0:
256,192,134982,1,0,0:0:0:0:
256,192,135158,1,8,0:0:0:0:
256,192,135511,1,0,0:0:0:0:
256,192,135864,1,8,0:0:0:0:
256,192,136041,1,8,0:0:0:0:
256,192,136217,1,0,0:0:0:0:
256,192,136394,1,0,0:0:0:0:
256,192,136570,1,8,0:0:0:0:
256,192,136923,1,0,0:0:0:0:
256,192,137276,1,8,0:0:0:0:
256,192,137805,1,0,0:0:0:0:
256,192,137982,1,8,0:0:0:0:
256,192,138335,1,0,0:0:0:0:
256,192,138688,1,8,0:0:0:0:
256,192,138864,1,0,0:0:0:0:
256,192,139217,1,0,0:0:0:0:
256,192,139394,1,8,0:0:0:0:
256,192,139746,1,0,0:0:0:0:
256,192,140099,1,8,0:0:0:0:
256,192,140629,1,0,0:0:0:0:
256,192,140805,1,8,0:0:0:0:
256,192,141158,1,0,0:0:0:0:
256,192,141511,1,8,0:0:0:0:
256,192,141688,1,0,0:0:0:0:
256,192,141864,1,8,0:0:0:0:
256,192,142041,1,0,0:0:0:0:
256,192,142217,1,8,0:0:0:0:
256,192,142570,1,4,0:0:0:0:
256,192,142746,1,0,0:0:0:0:
256,192,142923,1,8,0:0:0:0:
256,192,143099,1,0,0:0:0:0:
256,192,143276,1,8,0:0:0:0:
256,192,143452,1,8,0:0:0:0:
256,192,143629,1,0,0:0:0:0:
256,192,143805,1,0,0:0:0:0:
256,192,143982,1,8,0:0:0:0:
256,192,144158,1,0,0:0:0:0:
256,192,144335,1,8,0:0:0:0:
256,192,144511,1,8,0:0:0:0:
256,192,144688,1,0,0:0:0:0:
256,192,144864,1,0,0:0:0:0:
256,192,145041,1,8,0:0:0:0:
256,192,145217,1,8,0:0:0:0:
256,192,145394,1,0,0:0:0:0:
256,192,145570,1,0,0:0:0:0:
256,192,145746,1,8,0:0:0:0:
256,192,145923,1,0,0:0:0:0:
256,192,146099,1,8,0:0:0:0:
256,192,146276,1,8,0:0:0:0:
256,192,146452,1,0,0:0:0:0:
256,192,146629,1,0,0:0:0:0:
256,192,146805,1,8,0:0:0:0:
256,192,146982,1,8,0:0:0:0:
256,192,147158,1,0,0:0:0:0:
256,192,147688,1,0,0:0:0:0:
256,192,147864,1,8,0:0:0:0:
256,192,148041,1,8,0:0:0:0:
256,192,148217,1,4,0:0:0:0:
256,192,148394,1,0,0:0:0:0:
256,192,148482,1,0,0:0:0:0:
256,192,148570,1,8,0:0:0:0:
256,192,148746,1,0,0:0:0:0:
256,192,148923,1,8,0:0:0:0:
256,192,149011,1,0,0:0:0:0:
256,192,149099,1,8,0:0:0:0:
256,192,149276,1,0,0:0:0:0:
256,192,149364,1,0,0:0:0:0:
256,192,149452,1,8,0:0:0:0:
256,192,149541,1,8,0:0:0:0:
256,192,149629,1,4,0:0:0:0:
256,192,149805,1,8,0:0:0:0:
256,192,149894,1,8,0:0:0:0:
256,192,149982,1,0,0:0:0:0:
256,192,150158,1,8,0:0:0:0:
256,192,150335,1,0,0:0:0:0:
256,192,150423,1,8,0:0:0:0:
256,192,150511,1,0,0:0:0:0:
256,192,150599,1,0,0:0:0:0:
256,192,150688,1,8,0:0:0:0:
256,192,150864,1,8,0:0:0:0:
256,192,151041,1,0,0:0:0:0:
256,192,151129,1,0,0:0:0:0:
256,192,151217,1,8,0:0:0:0:
256,192,151305,1,8,0:0:0:0:
256,192,151394,1,0,0:0:0:0:
256,192,151482,1,8,0:0:0:0:
256,192,151570,1,8,0:0:0:0:
256,192,151658,1,8,0:0:0:0:
256,192,151746,1,0,0:0:0:0:
256,192,151835,1,0,0:0:0:0:
256,192,151923,1,8,0:0:0:0:
256,192,152011,1,8,0:0:0:0:
256,192,152099,1,0,0:0:0:0:
256,192,152188,1,8,0:0:0:0:
256,192,152276,1,8,0:0:0:0:
256,192,152364,1,0,0:0:0:0:
256,192,152452,1,12,0:0:0:0:
256,192,152629,1,0,0:0:0:0:
256,192,152805,1,8,0:0:0:0:
256,192,152982,1,0,0:0:0:0:
256,192,153070,1,8,0:0:0:0:
256,192,153158,1,8,0:0:0:0:
256,192,153335,1,0,0:0:0:0:
256,192,153423,1,0,0:0:0:0:
256,192,153511,1,8,0:0:0:0:
256,192,153570,1,8,0:0:0:0:
256,192,153629,1,8,0:0:0:0:
256,192,153688,1,0,0:0:0:0:
256,192,153776,1,0,0:0:0:0:
256,160,153864,5,12,0:0:0:0:
256,160,154041,1,0,0:0:0:0:
256,160,154129,1,0,0:0:0:0:
256,160,154217,1,8,0:0:0:0:
256,160,154305,1,8,0:0:0:0:
256,160,154482,1,8,0:0:0:0:
256,160,154570,1,0,0:0:0:0:
256,160,154658,1,0,0:0:0:0:
256,160,154746,1,8,0:0:0:0:
256,160,154923,1,0,0:0:0:0:
256,160,155099,1,8,0:0:0:0:
256,160,155158,1,8,0:0:0:0:
256,160,155217,1,8,0:0:0:0:
256,160,155276,1,0,0:0:0:0:
256,160,155452,1,8,0:0:0:0:
256,160,155629,1,0,0:0:0:0:
256,160,155805,1,0,0:0:0:0:
256,160,155894,1,8,0:0:0:0:
256,160,156070,1,8,0:0:0:0:
256,160,156158,1,0,0:0:0:0:
256,160,156688,1,12,0:0:0:0:
256,160,156864,1,0,0:0:0:0:
256,160,156952,1,0,0:0:0:0:
256,160,157041,1,8,0:0:0:0:
256,160,157129,1,0,0:0:0:0:
256,160,157217,1,8,0:0:0:0:
256,160,157394,1,0,0:0:0:0:
256,160,157482,1,0,0:0:0:0:
256,160,157570,1,8,0:0:0:0:
256,160,157746,1,0,0:0:0:0:
256,160,157923,1,8,0:0:0:0:
256,160,158011,1,8,0:0:0:0:
256,160,158099,1,0,0:0:0:0:
256,160,158276,1,8,0:0:0:0:
256,160,158452,1,0,0:0:0:0:
256,160,158541,1,8,0:0:0:0:
256,160,158717,1,0,0:0:0:0:
256,160,158805,1,8,0:0:0:0:
256,160,158982,1,8,0:0:0:0:
256,160,159158,1,0,0:0:0:0:
256,160,159246,1,8,0:0:0:0:
256,160,159335,1,0,0:0:0:0:
256,160,159511,1,8,0:0:0:0:
256,160,159688,1,0,0:0:0:0:
256,160,159864,1,12,0:0:0:0:
256,160,160041,1,0,0:0:0:0:
256,160,160129,1,0,0:0:0:0:
256,160,160217,1,8,0:0:0:0:
256,160,160394,1,0,0:0:0:0:
256,160,160482,1,0,0:0:0:0:
256,160,160570,1,8,0:0:0:0:
256,160,160746,1,8,0:0:0:0:
256,160,160805,1,8,0:0:0:0:
256,160,160864,1,8,0:0:0:0:
256,160,160923,1,0,0:0:0:0:
256,160,161099,1,8,0:0:0:0:
256,160,161188,1,8,0:0:0:0:
256,160,161276,1,0,0:0:0:0:
256,160,161364,1,0,0:0:0:0:
256,160,161452,1,8,0:0:0:0:
256,160,161541,1,8,0:0:0:0:
256,160,161629,1,0,0:0:0:0:
256,160,161805,1,8,0:0:0:0:
256,160,161894,1,8,0:0:0:0:
256,160,161982,1,0,0:0:0:0:
256,160,162158,1,8,0:0:0:0:
256,160,162335,1,0,0:0:0:0:
256,160,162423,1,0,0:0:0:0:
256,160,162511,1,0,0:0:0:0:
256,160,162599,1,0,0:0:0:0:
256,160,162688,1,8,0:0:0:0:
256,160,162776,1,8,0:0:0:0:
256,160,162864,1,8,0:0:0:0:
256,160,162952,1,8,0:0:0:0:
256,160,163041,1,0,0:0:0:0:
256,160,163129,1,0,0:0:0:0:
256,160,163217,1,8,0:0:0:0:
256,160,163305,1,0,0:0:0:0:
256,160,163394,1,8,0:0:0:0:
256,160,163482,1,8,0:0:0:0:
256,160,163570,1,0,0:0:0:0:
256,160,163746,1,12,0:0:0:0:
256,160,163923,1,0,0:0:0:0:
256,160,164099,1,8,0:0:0:0:
256,160,164364,1,8,0:0:0:0:
256,160,164541,1,0,0:0:0:0:
256,160,164629,1,0,0:0:0:0:
256,160,164717,1,0,0:0:0:0:
256,160,165158,1,12,0:0:0:0:
256,192,165335,12,0,169217,0:0:0:0:
256,192,169394,5,8,0:0:0:0:
256,192,170099,1,0,0:0:0:0:
256,192,170805,1,8,0:0:0:0:
256,192,171158,1,8,0:0:0:0:
256,192,171511,1,0,0:0:0:0:
256,192,171864,1,0,0:0:0:0:
256,192,172041,1,0,0:0:0:0:
256,192,172217,1,8,0:0:0:0:
256,192,172570,1,0,0:0:0:0:
256,192,172923,1,8,0:0:0:0:
256,192,173188,1,8,0:0:0:0:
256,192,173452,1,0,0:0:0:0:
256,192,173629,1,0,0:0:0:0:
256,192,173805,1,8,0:0:0:0:
256,192,173894,1,0,0:0:0:0:
256,192,173982,1,8,0:0:0:0:
256,192,174335,1,8,0:0:0:0:
256,192,174511,1,0,0:0:0:0:
256,192,174599,1,8,0:0:0:0:
256,192,174688,1,0,0:0:0:0:
256,192,175041,1,0,0:0:0:0:
256,192,175217,1,8,0:0:0:0:
256,192,175305,1,0,0:0:0:0:
256,192,175394,1,0,0:0:0:0:
256,192,175746,1,8,0:0:0:0:
256,192,175923,1,8,0:0:0:0:
256,192,176099,1,0,0:0:0:0:
256,192,176276,1,0,0:0:0:0:
256,192,176452,1,8,0:0:0:0:
256,192,176805,1,8,0:0:0:0:
256,192,177158,1,0,0:0:0:0:
256,192,177511,1,8,0:0:0:0:
256,192,177688,1,0,0:0:0:0:
256,192,177864,1,8,0:0:0:0:
256,192,178217,1,0,0:0:0:0:
256,192,178570,1,8,0:0:0:0:
256,192,178835,1,8,0:0:0:0:
256,192,179099,1,0,0:0:0:0:
256,192,179276,1,0,0:0:0:0:
256,192,179452,1,8,0:0:0:0:
256,192,179541,1,0,0:0:0:0:
256,192,179629,1,8,0:0:0:0:
256,192,179805,1,8,0:0:0:0:
256,192,179982,1,0,0:0:0:0:
256,192,180158,1,0,0:0:0:0:
256,192,180335,1,8,0:0:0:0:
256,192,180511,1,0,0:0:0:0:
256,192,180599,1,8,0:0:0:0:
256,192,180688,1,0,0:0:0:0:
256,192,180864,1,8,0:0:0:0:
256,192,181041,1,8,0:0:0:0:
256,192,181217,1,0,0:0:0:0:
256,192,181394,1,8,0:0:0:0:
256,192,181570,1,0,0:0:0:0:
256,192,181746,1,8,0:0:0:0:
256,192,181923,1,0,0:0:0:0:
256,192,182099,1,8,0:0:0:0:
256,192,182276,1,0,0:0:0:0:
256,192,182452,1,8,0:0:0:0:
256,192,182629,1,0,0:0:0:0:
256,192,182717,1,0,0:0:0:0:
256,192,182805,1,8,0:0:0:0:
256,192,182982,1,0,0:0:0:0:
256,192,183070,1,8,0:0:0:0:
256,192,183158,1,0,0:0:0:0:
256,192,183335,1,0,0:0:0:0:
256,192,183511,1,8,0:0:0:0:
256,192,183688,1,0,0:0:0:0:
256,192,183864,1,8,0:0:0:0:
256,192,184041,1,0,0:0:0:0:
256,192,184217,1,8,0:0:0:0:
256,192,184394,1,0,0:0:0:0:
256,192,184482,1,8,0:0:0:0:
256,192,184570,1,0,0:0:0:0:
256,192,184746,1,8,0:0:0:0:
256,192,184835,1,8,0:0:0:0:
256,192,184923,1,0,0:0:0:0:
256,192,185099,1,8,0:0:0:0:
256,192,185188,1,0,0:0:0:0:
256,192,185276,1,8,0:0:0:0:
256,192,185452,1,0,0:0:0:0:
256,192,185629,1,8,0:0:0:0:
256,192,185805,1,0,0:0:0:0:
256,192,185894,1,8,0:0:0:0:
256,192,185982,1,0,0:0:0:0:
256,192,186158,1,8,0:0:0:0:
256,192,186335,1,0,0:0:0:0:
256,192,186511,1,8,0:0:0:0:
256,192,186599,1,0,0:0:0:0:
256,192,186688,1,0,0:0:0:0:
256,192,186864,1,8,0:0:0:0:
256,192,187041,1,0,0:0:0:0:
256,192,187129,1,0,0:0:0:0:
256,192,187217,1,8,0:0:0:0:
256,192,187394,1,0,0:0:0:0:
256,192,187570,1,8,0:0:0:0:
256,192,187746,1,0,0:0:0:0:
256,192,187923,1,0,0:0:0:0:
256,192,188099,1,8,0:0:0:0:
256,192,188276,1,0,0:0:0:0:
256,192,188364,1,0,0:0:0:0:
256,192,188452,1,8,0:0:0:0:
256,192,188629,1,0,0:0:0:0:
256,192,188717,1,0,0:0:0:0:
256,192,188805,1,8,0:0:0:0:
256,192,188982,1,8,0:0:0:0:
256,192,189158,1,0,0:0:0:0:
256,192,189246,1,0,0:0:0:0:
256,192,189335,1,0,0:0:0:0:
256,192,189423,1,0,0:0:0:0:
256,192,189511,1,8,0:0:0:0:
256,192,189688,1,0,0:0:0:0:
256,192,189864,1,8,0:0:0:0:
256,192,189952,1,8,0:0:0:0:
256,192,190041,1,0,0:0:0:0:
256,192,190129,1,8,0:0:0:0:
256,192,190217,1,0,0:0:0:0:
256,192,190394,1,8,0:0:0:0:
256,192,190570,1,0,0:0:0:0:
256,192,190658,1,0,0:0:0:0:
256,192,190746,1,8,0:0:0:0:
256,192,190835,1,0,0:0:0:0:
256,192,190923,1,8,0:0:0:0:
256,192,191011,1,8,0:0:0:0:
256,192,191099,1,0,0:0:0:0:
256,192,191188,1,0,0:0:0:0:
256,192,191276,1,8,0:0:0:0:
256,192,191364,1,8,0:0:0:0:
256,192,191452,1,0,0:0:0:0:
256,192,191541,1,8,0:0:0:0:
256,192,191629,1,0,0:0:0:0:
256,192,191717,1,8,0:0:0:0:
256,192,191805,1,0,0:0:0:0:
256,192,191982,1,12,0:0:0:0:
256,192,192158,1,0,0:0:0:0:
256,192,192335,1,8,0:0:0:0:
256,192,192599,1,8,0:0:0:0:
256,192,192688,1,0,0:0:0:0:
256,192,192746,1,8,0:0:0:0:
256,192,192805,1,8,0:0:0:0:
256,192,192864,1,8,0:0:0:0:
256,192,193041,1,4,0:0:0:0:
256,192,193394,1,12,0:0:0:0:
256,192,193746,1,8,0:0:0:0:
256,192,194099,1,0,0:0:0:0:
256,192,194452,1,0,0:0:0:0:
256,192,194805,1,8,0:0:0:0:
256,192,195158,1,8,0:0:0:0:
256,192,195511,1,0,0:0:0:0:
256,192,195776,1,8,0:0:0:0:
256,192,196041,1,8,0:0:0:0:
256,192,196217,1,0,0:0:0:0:
256,192,196394,1,8,0:0:0:0:
256,192,196482,1,8,0:0:0:0:
256,192,196570,1,8,0:0:0:0:
256,192,196923,1,8,0:0:0:0:
256,192,197099,1,0,0:0:0:0:
256,192,197188,1,0,0:0:0:0:
256,192,197276,1,8,0:0:0:0:
256,192,197629,1,0,0:0:0:0:
256,192,197805,1,8,0:0:0:0:
256,192,197894,1,8,0:0:0:0:
256,192,197982,1,0,0:0:0:0:
256,192,198335,1,8,0:0:0:0:
256,192,198511,1,8,0:0:0:0:
256,192,198688,1,0,0:0:0:0:
256,192,198864,1,0,0:0:0:0:
256,192,199041,1,8,0:0:0:0:
256,192,199394,1,8,0:0:0:0:
256,192,199746,1,0,0:0:0:0:
256,192,200099,1,0,0:0:0:0:
256,192,200452,1,8,0:0:0:0:
256,192,200805,1,8,0:0:0:0:
256,192,201158,1,0,0:0:0:0:
256,192,201423,1,8,0:0:0:0:
256,192,201688,1,8,0:0:0:0:
256,192,201864,1,0,0:0:0:0:
256,192,202041,1,8,0:0:0:0:
256,192,202129,1,8,0:0:0:0:
256,192,202217,1,8,0:0:0:0:
256,192,202394,1,0,0:0:0:0:
256,192,202570,1,8,0:0:0:0:
256,192,202746,1,8,0:0:0:0:
256,192,202923,1,0,0:0:0:0:
256,192,203099,1,8,0:0:0:0:
256,192,203188,1,8,0:0:0:0:
256,192,203276,1,8,0:0:0:0:
256,192,203452,1,0,0:0:0:0:
256,192,203629,1,8,0:0:0:0:
256,192,203805,1,8,0:0:0:0:
256,192,203982,1,0,0:0:0:0:
256,192,204158,1,8,0:0:0:0:
256,192,204335,1,8,0:0:0:0:
256,192,204511,1,8,0:0:0:0:
256,192,204688,1,4,0:0:0:0:
256,192,205041,1,8,0:0:0:0:
256,192,205217,1,0,0:0:0:0:
256,192,205305,1,8,0:0:0:0:
256,192,205482,1,8,0:0:0:0:
256,192,205570,1,0,0:0:0:0:
256,192,205746,1,8,0:0:0:0:
256,192,206099,1,0,0:0:0:0:
256,192,206276,1,0,0:0:0:0:
256,192,206452,1,8,0:0:0:0:
256,192,206629,1,0,0:0:0:0:
256,192,206717,1,8,0:0:0:0:
256,192,206805,1,0,0:0:0:0:
256,192,206894,1,0,0:0:0:0:
256,192,206982,1,8,0:0:0:0:
256,192,207158,1,0,0:0:0:0:
256,192,207335,1,8,0:0:0:0:
256,192,207511,1,0,0:0:0:0:
256,192,207688,1,8,0:0:0:0:
256,192,207776,1,8,0:0:0:0:
256,192,207864,1,8,0:0:0:0:
256,192,208041,1,0,0:0:0:0:
256,192,208217,1,8,0:0:0:0:
256,192,208394,1,0,0:0:0:0:
256,192,208482,1,0,0:0:0:0:
256,192,208570,1,8,0:0:0:0:
256,192,208746,1,8,0:0:0:0:
256,192,208923,1,0,0:0:0:0:
256,192,209099,1,8,0:0:0:0:
256,192,209188,1,8,0:0:0:0:
256,192,209276,1,0,0:0:0:0:
256,192,209452,1,8,0:0:0:0:
256,192,209541,1,8,0:0:0:0:
256,192,209629,1,0,0:0:0:0:
256,192,209717,1,0,0:0:0:0:
256,192,209805,1,8,0:0:0:0:
256,192,209982,1,0,0:0:0:0:
256,192,210158,1,8,0:0:0:0:
256,192,210335,1,0,0:0:0:0:
256,192,210511,1,0,0:0:0:0:
256,192,210688,1,8,0:0:0:0:
256,192,210864,1,0,0:0:0:0:
256,192,210952,1,8,0:0:0:0:
256,192,211129,1,8,0:0:0:0:
256,192,211217,1,0,0:0:0:0:
256,192,211394,1,8,0:0:0:0:
256,192,211746,1,0,0:0:0:0:
256,192,211923,1,0,0:0:0:0:
256,192,212099,1,8,0:0:0:0:
256,192,212276,1,0,0:0:0:0:
256,192,212364,1,0,0:0:0:0:
256,192,212452,1,8,0:0:0:0:
256,192,212541,1,0,0:0:0:0:
256,192,212629,1,8,0:0:0:0:
256,192,212805,1,0,0:0:0:0:
256,192,212982,1,8,0:0:0:0:
256,192,213158,1,0,0:0:0:0:
256,192,213335,1,8,0:0:0:0:
256,192,213423,1,8,0:0:0:0:
256,192,213511,1,8,0:0:0:0:
256,192,213688,1,0,0:0:0:0:
256,192,213864,1,8,0:0:0:0:
256,192,213952,1,8,0:0:0:0:
256,192,214041,1,0,0:0:0:0:
256,192,214129,1,0,0:0:0:0:
256,192,214217,1,8,0:0:0:0:
256,192,214305,1,0,0:0:0:0:
256,192,214394,1,8,0:0:0:0:
256,192,214482,1,8,0:0:0:0:
256,192,214570,1,0,0:0:0:0:
256,192,214746,1,0,0:0:0:0:
256,192,214923,1,8,0:0:0:0:
256,192,215188,1,8,0:0:0:0:
256,192,215276,1,0,0:0:0:0:
256,192,215452,1,8,0:0:0:0:
256,192,215629,1,0,0:0:0:0:
256,192,215717,1,0,0:0:0:0:
256,192,215805,1,8,0:0:0:0:
256,192,215982,5,4,0:0:0:0:
256,192,216246,1,8,0:0:0:0:
256,192,216335,1,0,0:0:0:0:
256,192,216511,1,8,0:0:0:0:
256,192,216688,1,0,0:0:0:0:
256,192,216776,1,8,0:0:0:0:
256,192,216864,1,0,0:0:0:0:
256,192,217041,1,8,0:0:0:0:
256,192,217129,1,8,0:0:0:0:
256,192,217217,1,0,0:0:0:0:
256,192,217305,1,0,0:0:0:0:
256,192,217394,1,8,0:0:0:0:
256,192,217658,1,8,0:0:0:0:
256,192,217746,1,0,0:0:0:0:
256,192,217923,1,8,0:0:0:0:
256,192,218099,1,0,0:0:0:0:
256,192,218188,1,0,0:0:0:0:
256,192,218276,1,8,0:0:0:0:
256,192,218452,1,0,0:0:0:0:
256,192,218511,1,0,0:0:0:0:
256,192,218570,1,0,0:0:0:0:
256,192,218629,1,8,0:0:0:0:
256,192,218717,1,0,0:0:0:0:
256,192,218805,1,8,0:0:0:0:
256,192,219070,1,8,0:0:0:0:
256,192,219158,1,0,0:0:0:0:
256,192,219335,1,8,0:0:0:0:
256,192,219511,1,0,0:0:0:0:
256,192,219599,1,8,0:0:0:0:
256,192,219688,1,8,0:0:0:0:
256,192,219864,1,0,0:0:0:0:
256,192,219952,1,0,0:0:0:0:
256,192,220041,1,0,0:0:0:0:
256,192,220129,1,0,0:0:0:0:
256,192,220217,1,8,0:0:0:0:
256,192,220482,1,0,0:0:0:0:
256,192,220570,1,8,0:0:0:0:
256,192,220746,1,0,0:0:0:0:
256,192,220923,1,8,0:0:0:0:
256,192,221011,1,8,0:0:0:0:
256,192,221099,1,0,0:0:0:0:
256,192,221276,1,8,0:0:0:0:
256,192,221364,1,8,0:0:0:0:
256,192,221452,1,8,0:0:0:0:
256,192,221541,1,8,0:0:0:0:
256,192,221629,1,0,0:0:0:0:
256,192,221805,1,8,0:0:0:0:
256,192,221982,1,8,0:0:0:0:
256,192,222158,1,8,0:0:0:0:
256,192,222335,1,8,0:0:0:0:
256,192,222511,1,8,0:0:0:0:
256,192,222688,1,8,0:0:0:0:
256,192,222864,1,8,0:0:0:0:
256,192,223041,1,8,0:0:0:0:
256,192,223217,1,8,0:0:0:0:
256,192,223394,1,8,0:0:0:0:
256,192,223570,1,8,0:0:0:0:
256,192,223746,1,8,0:0:0:0:
256,192,223923,1,8,0:0:0:0:
256,192,224099,1,8,0:0:0:0:
256,192,224276,1,8,0:0:0:0:
256,192,224452,1,8,0:0:0:0:
256,192,224541,1,8,0:0:0:0:
256,192,224629,1,0,0:0:0:0:
256,192,224717,1,0,0:0:0:0:
256,192,224805,1,8,0:0:0:0:
256,192,224894,1,0,0:0:0:0:
256,192,224982,1,8,0:0:0:0:
256,192,225070,1,8,0:0:0:0:
256,192,225158,1,0,0:0:0:0:
256,192,225246,1,0,0:0:0:0:
256,192,225335,1,8,0:0:0:0:
256,192,225423,1,0,0:0:0:0:
256,192,225511,1,8,0:0:0:0:
256,192,225570,1,8,0:0:0:0:
256,192,225629,1,8,0:0:0:0:
256,192,225688,1,0,0:0:0:0:
256,192,225865,1,8,0:0:0:0:
256,192,225923,1,0,0:0:0:0:
256,192,225982,1,8,0:0:0:0:
256,192,226041,1,0,0:0:0:0:
256,192,226099,1,8,0:0:0:0:
256,192,226158,1,0,0:0:0:0:
256,192,226276,1,8,0:0:0:0:
256,192,226394,1,8,0:0:0:0:
256,192,226570,12,0,228511,0:0:0:0:
256,192,228688,5,4,0:0:0:0:
256,192,228864,1,8,0:0:0:0:
256,192,228952,1,8,0:0:0:0:
256,192,229041,1,0,0:0:0:0:
256,192,229217,1,0,0:0:0:0:
256,192,229305,1,8,0:0:0:0:
256,192,229394,1,0,0:0:0:0:
256,192,229482,1,0,0:0:0:0:
256,192,229570,1,8,0:0:0:0:
256,192,229658,1,8,0:0:0:0:
256,192,229746,1,0,0:0:0:0:
256,192,229835,1,0,0:0:0:0:
256,192,229923,1,8,0:0:0:0:
256,192,230099,1,0,0:0:0:0:
256,192,230276,1,8,0:0:0:0:
256,192,230364,1,8,0:0:0:0:
256,192,230452,1,0,0:0:0:0:
256,192,230541,1,8,0:0:0:0:
256,192,230629,1,0,0:0:0:0:
256,192,230717,1,8,0:0:0:0:
256,192,230894,1,0,0:0:0:0:
256,192,230982,1,8,0:0:0:0:
256,192,231070,1,8,0:0:0:0:
256,192,231158,1,0,0:0:0:0:
256,192,231335,1,8,0:0:0:0:
256,192,231511,1,4,0:0:0:0:
256,192,231688,1,8,0:0:0:0:
256,192,231776,1,0,0:0:0:0:
256,192,231864,1,8,0:0:0:0:
256,192,231952,1,8,0:0:0:0:
256,192,232041,1,0,0:0:0:0:
256,192,232129,1,8,0:0:0:0:
256,192,232305,1,8,0:0:0:0:
256,192,232394,1,0,0:0:0:0:
256,192,232482,1,8,0:0:0:0:
256,192,232570,1,0,0:0:0:0:
256,192,232658,1,0,0:0:0:0:
256,192,232746,1,8,0:0:0:0:
256,192,232923,1,8,0:0:0:0:
256,192,233011,1,8,0:0:0:0:
256,192,233099,1,0,0:0:0:0:
256,192,233188,1,8,0:0:0:0:
256,192,233276,1,0,0:0:0:0:
256,192,233452,1,0,0:0:0:0:
256,192,233541,1,8,0:0:0:0:
256,192,233629,1,0,0:0:0:0:
256,192,233717,1,8,0:0:0:0:
256,192,233894,1,8,0:0:0:0:
256,192,233982,1,0,0:0:0:0:
256,192,234070,1,0,0:0:0:0:
256,192,234158,1,8,0:0:0:0:
256,192,234335,1,8,0:0:0:0:
256,192,234423,1,8,0:0:0:0:
256,192,234511,1,0,0:0:0:0:
256,192,234599,1,0,0:0:0:0:
256,192,234688,1,8,0:0:0:0:
256,192,234776,1,0,0:0:0:0:
256,192,234864,1,8,0:0:0:0:
256,192,234952,1,8,0:0:0:0:
256,192,235041,1,0,0:0:0:0:
256,192,235129,1,8,0:0:0:0:
256,192,235217,1,0,0:0:0:0:
256,192,235305,1,0,0:0:0:0:
256,192,235394,1,8,0:0:0:0:
256,192,235482,1,0,0:0:0:0:
256,192,235570,1,0,0:0:0:0:
256,192,235658,1,0,0:0:0:0:
256,192,235746,1,8,0:0:0:0:
256,192,235835,1,0,0:0:0:0:
256,192,235923,1,8,0:0:0:0:
256,192,236011,1,8,0:0:0:0:
256,192,236099,1,0,0:0:0:0:
256,192,236188,1,8,0:0:0:0:
256,192,236276,1,8,0:0:0:0:
256,192,236364,1,8,0:0:0:0:
256,192,236452,1,0,0:0:0:0:
256,192,236541,1,8,0:0:0:0:
256,192,236629,1,0,0:0:0:0:
256,192,236717,1,0,0:0:0:0:
256,192,236805,1,8,0:0:0:0:
256,192,236982,1,0,0:0:0:0:
256,192,237070,1,0,0:0:0:0:
256,192,237158,1,8,0:0:0:0:
256,192,237217,1,8,0:0:0:0:
256,192,237276,1,8,0:0:0:0:
256,192,237335,1,0,0:0:0:0:
256,192,237423,1,0,0:0:0:0:
256,192,237511,1,8,0:0:0:0:
256,192,237688,1,0,0:0:0:0:
256,192,237776,1,8,0:0:0:0:
256,192,237864,1,0,0:0:0:0:
256,192,237923,1,0,0:0:0:0:
256,192,237982,1,0,0:0:0:0:
256,192,238041,1,8,0:0:0:0:
256,192,238217,1,0,0:0:0:0:
256,192,238276,1,8,0:0:0:0:
256,192,238335,1,8,0:0:0:0:
256,192,238394,1,0,0:0:0:0:
256,192,238482,1,0,0:0:0:0:
256,192,238570,1,8,0:0:0:0:
256,192,238746,1,0,0:0:0:0:
256,192,238923,1,8,0:0:0:0:
256,192,239099,1,0,0:0:0:0:
256,192,239188,1,8,0:0:0:0:
256,192,239276,1,8,0:0:0:0:
256,192,239452,1,0,0:0:0:0:
256,192,239629,1,8,0:0:0:0:
256,192,239688,1,8,0:0:0:0:
256,192,239746,1,8,0:0:0:0:
256,192,239805,1,8,0:0:0:0:
256,192,239982,5,12,0:0:0:0:
256,192,240158,1,0,0:0:0:0:
256,192,240246,1,0,0:0:0:0:
256,192,240335,1,8,0:0:0:0:
256,192,240511,1,0,0:0:0:0:
256,192,240688,1,8,0:0:0:0:
256,192,240776,1,8,0:0:0:0:
256,192,240864,1,0,0:0:0:0:
256,192,240952,1,0,0:0:0:0:
256,192,241041,1,8,0:0:0:0:
256,192,241129,1,8,0:0:0:0:
256,192,241217,1,8,0:0:0:0:
256,192,241394,1,0,0:0:0:0:
256,192,241482,1,8,0:0:0:0:
256,192,241570,1,0,0:0:0:0:
256,192,241746,1,8,0:0:0:0:
256,192,241835,1,0,0:0:0:0:
256,192,241923,1,8,0:0:0:0:
256,192,242099,1,0,0:0:0:0:
256,192,242188,1,0,0:0:0:0:
256,192,242276,1,8,0:0:0:0:
256,192,242364,1,8,0:0:0:0:
256,192,242452,1,0,0:0:0:0:
256,192,242541,1,8,0:0:0:0:
256,192,242629,1,0,0:0:0:0:
256,192,242805,1,8,0:0:0:0:
256,192,242894,1,8,0:0:0:0:
256,192,242982,1,0,0:0:0:0:
256,192,243070,1,8,0:0:0:0:
256,192,243158,1,8,0:0:0:0:
256,192,243335,1,0,0:0:0:0:
256,192,243511,1,0,0:0:0:0:
256,192,243599,1,0,0:0:0:0:
256,192,243688,1,8,0:0:0:0:
256,192,243776,1,0,0:0:0:0:
256,192,243864,1,0,0:0:0:0:
256,192,244041,1,8,0:0:0:0:
256,192,244217,1,8,0:0:0:0:
256,192,244305,1,0,0:0:0:0:
256,192,244394,1,8,0:0:0:0:
256,192,244482,1,8,0:0:0:0:
256,192,244570,1,0,0:0:0:0:
256,192,244746,1,8,0:0:0:0:
256,192,244923,1,0,0:0:0:0:
256,192,245011,1,8,0:0:0:0:
256,192,245099,1,0,0:0:0:0:
256,192,245188,1,0,0:0:0:0:
256,192,245276,1,8,0:0:0:0:
256,192,245364,1,8,0:0:0:0:
256,192,245452,1,0,0:0:0:0:
256,192,245541,1,0,0:0:0:0:
256,192,245629,1,8,0:0:0:0:
256,192,245805,1,0,0:0:0:0:
256,192,245894,1,0,0:0:0:0:
256,192,245982,1,8,0:0:0:0:
256,192,246158,1,0,0:0:0:0:
256,192,246335,1,8,0:0:0:0:
256,192,246423,1,8,0:0:0:0:
256,192,246511,1,0,0:0:0:0:
256,192,246599,1,0,0:0:0:0:
256,192,246688,1,8,0:0:0:0:
256,192,246776,1,8,0:0:0:0:
256,192,246864,1,8,0:0:0:0:
256,192,247041,1,0,0:0:0:0:
256,192,247129,1,8,0:0:0:0:
256,192,247217,1,0,0:0:0:0:
256,192,247394,1,8,0:0:0:0:
256,192,247482,1,0,0:0:0:0:
256,192,247570,1,8,0:0:0:0:
256,192,247746,1,0,0:0:0:0:
256,192,247835,1,8,0:0:0:0:
256,192,247923,1,0,0:0:0:0:
256,192,248011,1,0,0:0:0:0:
256,192,248099,1,8,0:0:0:0:
256,192,248188,1,8,0:0:0:0:
256,192,248276,1,0,0:0:0:0:
256,192,248452,1,8,0:0:0:0:
256,192,248541,1,0,0:0:0:0:
256,192,248629,1,8,0:0:0:0:
256,192,248717,1,0,0:0:0:0:
256,192,248805,1,8,0:0:0:0:
256,192,248982,1,8,0:0:0:0:
256,192,249158,1,0,0:0:0:0:
256,192,249246,1,8,0:0:0:0:
256,192,249335,1,0,0:0:0:0:
256,192,249511,1,8,0:0:0:0:
256,192,249599,1,8,0:0:0:0:
256,192,249688,1,0,0:0:0:0:
256,192,249776,1,0,0:0:0:0:
256,192,249864,1,8,0:0:0:0:
256,192,249952,1,8,0:0:0:0:
256,192,250041,1,0,0:0:0:0:
256,192,250129,1,8,0:0:0:0:
256,192,250217,1,0,0:0:0:0:
256,192,250394,1,8,0:0:0:0:
256,192,250570,1,0,0:0:0:0:
256,192,250658,1,0,0:0:0:0:
256,192,250746,1,8,0:0:0:0:
256,192,250835,1,8,0:0:0:0:
256,192,250923,1,0,0:0:0:0:
256,192,251099,1,0,0:0:0:0:
256,192,251276,1,12,0:0:0:0:
256,192,251452,1,0,0:0:0:0:
256,192,251629,1,8,0:0:0:0:
256,192,251717,1,8,0:0:0:0:
256,192,251805,1,0,0:0:0:0:
256,192,251894,1,0,0:0:0:0:
256,192,251982,1,8,0:0:0:0:
256,192,252070,1,0,0:0:0:0:
256,192,252158,1,8,0:0:0:0:
256,192,252246,1,8,0:0:0:0:
256,192,252335,1,0,0:0:0:0:
256,192,252511,1,0,0:0:0:0:
256,192,252688,1,8,0:0:0:0:
256,192,252776,1,8,0:0:0:0:
256,192,252864,1,0,0:0:0:0:
256,192,252952,1,0,0:0:0:0:
256,192,253041,1,8,0:0:0:0:
256,192,253217,1,0,0:0:0:0:
256,192,253305,1,0,0:0:0:0:
256,192,253394,1,8,0:0:0:0:
256,192,253482,1,8,0:0:0:0:
256,192,253570,1,0,0:0:0:0:
256,192,253658,1,8,0:0:0:0:
256,192,253835,1,8,0:0:0:0:
256,192,253923,1,0,0:0:0:0:
256,192,254099,1,8,0:0:0:0:
256,192,254188,1,8,0:0:0:0:
256,192,254276,1,0,0:0:0:0:
256,192,254364,1,8,0:0:0:0:
256,192,254452,1,0,0:0:0:0:
256,192,254629,1,8,0:0:0:0:
256,192,254805,1,0,0:0:0:0:
256,192,254894,1,0,0:0:0:0:
256,192,254982,1,8,0:0:0:0:
256,192,255070,1,0,0:0:0:0:
256,192,255158,1,8,0:0:0:0:
256,192,255335,1,0,0:0:0:0:
256,192,255511,1,8,0:0:0:0:
256,192,255599,1,0,0:0:0:0:
256,192,255688,1,8,0:0:0:0:
256,192,255776,1,0,0:0:0:0:
256,192,255864,1,8,0:0:0:0:
256,192,256041,1,0,0:0:0:0:
256,192,256217,1,8,0:0:0:0:
256,192,256305,1,8,0:0:0:0:
256,192,256394,1,0,0:0:0:0:
256,192,256482,1,0,0:0:0:0:
256,192,256570,1,8,0:0:0:0:
256,192,256658,1,8,0:0:0:0:
256,192,256746,1,8,0:0:0:0:
256,192,256923,1,0,0:0:0:0:
256,192,257099,1,0,0:0:0:0:
256,192,257276,1,8,0:0:0:0:
256,192,257364,1,8,0:0:0:0:
256,192,257452,1,0,0:0:0:0:
256,192,257541,1,0,0:0:0:0:
256,192,257629,1,8,0:0:0:0:
256,192,257717,1,0,0:0:0:0:
256,192,257805,1,8,0:0:0:0:
256,192,257894,1,8,0:0:0:0:
256,192,257982,1,0,0:0:0:0:
256,192,258158,1,0,0:0:0:0:
256,192,258335,1,8,0:0:0:0:
256,192,258423,1,8,0:0:0:0:
256,192,258511,1,0,0:0:0:0:
256,192,258599,1,0,0:0:0:0:
256,192,258688,1,8,0:0:0:0:
256,192,258864,1,0,0:0:0:0:
256,192,258952,1,0,0:0:0:0:
256,192,259041,1,8,0:0:0:0:
256,192,259129,1,8,0:0:0:0:
256,192,259217,1,0,0:0:0:0:
256,192,259305,1,8,0:0:0:0:
256,192,259482,1,8,0:0:0:0:
256,192,259570,1,0,0:0:0:0:
256,192,259746,1,8,0:0:0:0:
256,192,259835,1,0,0:0:0:0:
256,192,259923,1,0,0:0:0:0:
256,192,260011,1,0,0:0:0:0:
256,192,260099,1,8,0:0:0:0:
256,192,260276,1,8,0:0:0:0:
256,192,260452,1,0,0:0:0:0:
256,192,260541,1,8,0:0:0:0:
256,192,260629,1,8,0:0:0:0:
256,192,260717,1,8,0:0:0:0:
256,192,260805,1,0,0:0:0:0:
256,192,260982,1,8,0:0:0:0:
256,192,261070,1,0,0:0:0:0:
256,192,261158,1,8,0:0:0:0:
256,192,261246,1,8,0:0:0:0:
256,192,261335,1,0,0:0:0:0:
256,192,261423,1,0,0:0:0:0:
256,192,261511,1,8,0:0:0:0:
256,192,261688,1,0,0:0:0:0:
256,192,261776,1,0,0:0:0:0:
256,192,261864,1,8,0:0:0:0:
256,192,261952,1,8,0:0:0:0:
256,192,262041,1,0,0:0:0:0:
256,192,262129,1,8,0:0:0:0:
256,192,262217,1,0,0:0:0:0:
256,192,262305,1,8,0:0:0:0:
256,192,262394,1,0,0:0:0:0:
256,192,262570,1,12,0:0:0:0:
256,192,262746,1,0,0:0:0:0:
256,192,262835,1,0,0:0:0:0:
256,192,262923,1,8,0:0:0:0:
256,192,263099,1,0,0:0:0:0:
256,192,263276,1,8,0:0:0:0:
256,192,263364,1,8,0:0:0:0:
256,192,263452,1,0,0:0:0:0:
256,192,263541,1,0,0:0:0:0:
256,192,263629,1,8,0:0:0:0:
256,192,263717,1,8,0:0:0:0:
256,192,263805,1,0,0:0:0:0:
256,192,263982,1,8,0:0:0:0:
256,192,264070,1,8,0:0:0:0:
256,192,264158,1,0,0:0:0:0:
256,192,264246,1,0,0:0:0:0:
256,192,264335,1,8,0:0:0:0:
256,192,264423,1,0,0:0:0:0:
256,192,264511,1,8,0:0:0:0:
256,192,264599,1,8,0:0:0:0:
256,192,264688,1,0,0:0:0:0:
256,192,264864,1,8,0:0:0:0:
256,192,264952,1,0,0:0:0:0:
256,192,265129,1,0,0:0:0:0:
256,192,265217,1,8,0:0:0:0:
256,192,265305,1,8,0:0:0:0:
256,192,265394,1,0,0:0:0:0:
256,192,265570,1,8,0:0:0:0:
256,192,265658,1,8,0:0:0:0:
256,192,265746,1,8,0:0:0:0:
256,192,265835,1,8,0:0:0:0:
256,192,265923,1,0,0:0:0:0:
256,192,266099,1,8,0:0:0:0:
256,192,266276,1,0,0:0:0:0:
256,192,266364,1,0,0:0:0:0:
256,192,266452,1,8,0:0:0:0:
256,192,266541,1,0,0:0:0:0:
256,192,266629,1,8,0:0:0:0:
256,192,266805,1,0,0:0:0:0:
256,192,266982,1,8,0:0:0:0:
256,192,267070,1,8,0:0:0:0:
256,192,267158,1,0,0:0:0:0:
256,192,267246,1,8,0:0:0:0:
256,192,267335,1,0,0:0:0:0:
256,192,267511,1,8,0:0:0:0:
256,192,267599,1,8,0:0:0:0:
256,192,267688,1,0,0:0:0:0:
256,192,267776,1,0,0:0:0:0:
256,192,267864,1,8,0:0:0:0:
256,192,267952,1,8,0:0:0:0:
256,192,268041,1,8,0:0:0:0:
256,192,268129,1,8,0:0:0:0:
256,192,268217,1,0,0:0:0:0:
256,192,268394,1,8,0:0:0:0:
256,192,268482,1,8,0:0:0:0:
256,192,268570,1,0,0:0:0:0:
256,192,268746,1,8,0:0:0:0:
256,192,268923,1,0,0:0:0:0:
256,192,269011,1,0,0:0:0:0:
256,192,269099,1,8,0:0:0:0:
256,192,269188,1,0,0:0:0:0:
256,192,269276,1,8,0:0:0:0:
256,192,269364,1,8,0:0:0:0:
256,192,269452,1,0,0:0:0:0:
256,192,269629,1,8,0:0:0:0:
256,192,269717,1,8,0:0:0:0:
256,192,269805,1,0,0:0:0:0:
256,192,269894,1,0,0:0:0:0:
256,192,269982,1,8,0:0:0:0:
256,192,270070,1,8,0:0:0:0:
256,192,270158,1,0,0:0:0:0:
256,192,270246,1,0,0:0:0:0:
256,192,270335,1,8,0:0:0:0:
256,192,270511,1,0,0:0:0:0:
256,192,270599,1,8,0:0:0:0:
256,192,270776,1,0,0:0:0:0:
256,192,270864,1,8,0:0:0:0:
256,192,270952,1,8,0:0:0:0:
256,192,271041,1,0,0:0:0:0:
256,192,271217,1,8,0:0:0:0:
256,192,271305,1,8,0:0:0:0:
256,192,271394,1,0,0:0:0:0:
256,192,271482,1,0,0:0:0:0:
256,192,271570,1,8,0:0:0:0:
256,192,271658,1,0,0:0:0:0:
256,192,271746,1,8,0:0:0:0:
256,192,271835,1,8,0:0:0:0:
256,192,271923,1,0,0:0:0:0:
256,192,272099,1,0,0:0:0:0:
256,192,272188,1,0,0:0:0:0:
256,192,272276,1,8,0:0:0:0:
256,192,272364,1,8,0:0:0:0:
256,192,272452,1,0,0:0:0:0:
256,192,272541,1,8,0:0:0:0:
256,192,272629,1,0,0:0:0:0:
256,192,272717,1,0,0:0:0:0:
256,192,272805,1,8,0:0:0:0:
256,192,272894,1,8,0:0:0:0:
256,192,272982,1,0,0:0:0:0:
256,192,273158,1,0,0:0:0:0:
256,192,273246,1,0,0:0:0:0:
256,192,273335,1,8,0:0:0:0:
256,192,273423,1,8,0:0:0:0:
256,192,273511,1,0,0:0:0:0:
256,192,273599,1,8,0:0:0:0:
256,192,273688,1,0,0:0:0:0:
256,192,273864,12,0,274041,0:0:0:0:
256,192,274217,5,12,0:0:0:0:
256,192,274393,1,0,0:0:0:0:
256,192,274570,1,8,0:0:0:0:
256,192,274658,1,8,0:0:0:0:
256,192,274746,1,0,0:0:0:0:
256,192,274835,1,0,0:0:0:0:
256,192,274923,1,8,0:0:0:0:
256,192,275011,1,8,0:0:0:0:
256,192,275099,1,0,0:0:0:0:
256,192,275276,1,8,0:0:0:0:
256,192,275364,1,8,0:0:0:0:
256,192,275452,1,0,0:0:0:0:
256,192,275540,1,0,0:0:0:0:
256,192,275629,1,8,0:0:0:0:
256,192,275717,1,0,0:0:0:0:
256,192,275805,1,8,0:0:0:0:
256,192,275894,1,8,0:0:0:0:
256,192,275982,1,0,0:0:0:0:
256,192,276158,1,8,0:0:0:0:
256,192,276246,1,0,0:0:0:0:
256,192,276423,1,0,0:0:0:0:
256,192,276511,1,8,0:0:0:0:
256,192,276599,1,8,0:0:0:0:
256,192,276688,1,0,0:0:0:0:
256,192,276864,1,8,0:0:0:0:
256,192,276952,1,8,0:0:0:0:
256,192,277040,1,8,0:0:0:0:
256,192,277129,1,8,0:0:0:0:
256,192,277217,1,0,0:0:0:0:
256,192,277393,1,8,0:0:0:0:
256,192,277570,1,0,0:0:0:0:
256,192,277658,1,0,0:0:0:0:
256,192,277746,1,8,0:0:0:0:
256,192,277835,1,0,0:0:0:0:
256,192,277923,1,8,0:0:0:0:
256,192,278099,1,0,0:0:0:0:
256,192,278276,1,8,0:0:0:0:
256,192,278364,1,8,0:0:0:0:
256,192,278452,1,0,0:0:0:0:
256,192,278540,1,8,0:0:0:0:
256,192,278629,1,0,0:0:0:0:
256,192,278805,1,8,0:0:0:0:
256,192,278893,1,8,0:0:0:0:
256,192,278982,1,0,0:0:0:0:
256,192,279070,1,0,0:0:0:0:
256,192,279158,1,8,0:0:0:0:
256,192,279246,1,8,0:0:0:0:
256,192,279335,1,8,0:0:0:0:
256,192,279423,1,8,0:0:0:0:
256,192,279511,1,0,0:0:0:0:
256,192,279688,1,8,0:0:0:0:
256,192,279776,1,8,0:0:0:0:
256,192,279864,1,0,0:0:0:0:
256,192,280040,1,8,0:0:0:0:
256,192,280217,1,0,0:0:0:0:
256,192,280305,1,0,0:0:0:0:
256,192,280393,1,8,0:0:0:0:
256,192,280482,1,0,0:0:0:0:
256,192,280570,1,8,0:0:0:0:
256,192,280658,1,8,0:0:0:0:
256,192,280746,1,0,0:0:0:0:
256,192,280923,1,8,0:0:0:0:
256,192,281011,1,8,0:0:0:0:
256,192,281099,1,0,0:0:0:0:
256,192,281188,1,8,0:0:0:0:
256,192,281276,1,0,0:0:0:0:
256,192,281364,1,0,0:0:0:0:
256,192,281452,1,8,0:0:0:0:
256,192,281541,1,8,0:0:0:0:
256,192,281629,1,0,0:0:0:0:
256,192,281805,1,0,0:0:0:0:
256,192,281893,1,8,0:0:0:0:
256,192,282070,1,0,0:0:0:0:
256,192,282158,1,8,0:0:0:0:
256,192,282246,1,8,0:0:0:0:
256,192,282335,1,0,0:0:0:0:
256,192,282511,1,8,0:0:0:0:
256,192,282599,1,8,0:0:0:0:
256,192,282688,1,0,0:0:0:0:
256,192,282776,1,0,0:0:0:0:
256,192,282864,1,8,0:0:0:0:
256,192,282952,1,0,0:0:0:0:
256,192,283040,1,8,0:0:0:0:
256,192,283129,1,8,0:0:0:0:
256,192,283217,1,0,0:0:0:0:
256,192,283393,1,0,0:0:0:0:
256,192,283482,1,0,0:0:0:0:
256,192,283570,1,8,0:0:0:0:
256,192,283658,1,8,0:0:0:0:
256,192,283746,1,0,0:0:0:0:
256,192,283835,1,0,0:0:0:0:
256,192,283923,1,8,0:0:0:0:
256,192,284011,1,0,0:0:0:0:
256,192,284099,1,8,0:0:0:0:
256,192,284188,1,8,0:0:0:0:
256,192,284276,1,0,0:0:0:0:
256,192,284452,1,0,0:0:0:0:
256,192,284540,1,0,0:0:0:0:
256,192,284629,1,8,0:0:0:0:
256,192,284717,1,8,0:0:0:0:
256,192,284805,1,8,0:0:0:0:
256,192,285158,1,4,0:0:0:0:
256,192,285335,12,0,294864,0:0:0:0:
