osu file format v14

[General]
AudioFilename: audio.mp3
AudioLeadIn: 0
PreviewTime: 73146
Countdown: 0
SampleSet: Soft
StackLeniency: 0.7
Mode: 0
LetterboxInBreaks: 0
WidescreenStoryboard: 1

[Editor]
Bookmarks: 3980,14646,25313,30646,41313,51980,62646,73313,83980,94646,105313,115980,121313
DistanceSpacing: 1
BeatDivisor: 4
GridSize: 4
TimelineZoom: 1.1

[Metadata]
Title:Cross-D Skyline
TitleUnicode:Cross-D Skyline
Artist:Sephid
ArtistUnicode:Sephid
Creator:Hinsvar
Version:Normal
Source:第三回BMS衆議院選
Tags:Electronic English UK Hardcore UKHC 3rd BMS Shuugiinsen dai san kai Shūgiinsen BMS_Shuin BMS Shuin Featured Artist FA Mappers' Guild MPG
BeatmapID:4520723
BeatmapSetID:2145826

[Difficulty]
HPDrainRate:3
CircleSize:2.7
OverallDifficulty:4.5
ApproachRate:5.4
SliderMultiplier:1.12
SliderTickRate:1

[Events]
//Background and Video events
0,0,"BG.jpg",0,0
//Break Periods
//Storyboard Layer 0 (Background)
//Storyboard Layer 1 (Fail)
//Storyboard Layer 2 (Pass)
//Storyboard Layer 3 (Foreground)
//Storyboard Layer 4 (Overlay)
//Storyboard Sound Samples

[TimingPoints]
-1353,333.333333333333,4,2,1,60,1,0
3313,-100,4,2,1,60,0,0
3980,-100,4,2,1,70,0,0
13980,-100,4,2,1,60,0,0
14646,-100,4,2,1,70,0,0
29313,-100,4,2,1,35,0,0
30313,-125,4,2,2,50,0,0
51980,-111.111111111111,4,2,1,60,0,0
59980,-100,4,2,1,70,0,0
64646,-100,4,2,1,60,0,0
65313,-100,4,2,1,70,0,0
67313,-100,4,2,1,60,0,0
67980,-100,4,2,1,70,0,0
70702,-100,4,2,1,35,0,0
71980,-100,4,2,1,70,0,0
73313,-90.9090909090909,4,2,1,80,0,1
93313,-90.9090909090909,4,2,1,50,0,0
93563,-90.9090909090909,4,2,1,60,0,0
93813,-90.9090909090909,4,2,1,70,0,0
93980,-90.9090909090909,4,2,1,80,0,1
94313,-90.9090909090909,4,2,1,80,0,0
94646,-90.9090909090909,4,2,1,80,0,1
115980,-100,4,2,1,80,0,0
117313,-100,4,2,1,65,0,0
118646,-100,4,2,1,50,0,0
119980,-100,4,2,1,35,0,0
121313,-100,4,2,1,20,0,0

[Colours]
Combo1 : 238,238,36
Combo2 : 124,173,245
Combo3 : 247,107,23
Combo4 : 74,220,236

[HitObjects]
5,272,3313,5,8,0:0:0:0:
83,351,3646,2,0,L|140:346,1,56,8|0,0:0|3:0,0:0:0:0:
188,317,3980,5,4,3:2:0:0:
188,317,4146,2,0,L|183:260,2,56,0|8|2,3:0|0:0|0:0,0:0:0:0:
287,369,4813,2,0,L|402:360,1,112,0|2,3:0|0:0,0:0:0:0:
508,339,5480,2,0,P|499:292|441:262,1,112,2|2,0:0|0:0,0:0:0:0:
439,150,6146,2,0,P|462:145|477:116,1,56,0|8,3:0|0:0,0:0:0:0:
468,63,6480,6,0,P|428:36|366:55,1,112,2|0,0:0|0:0,0:0:0:0:
313,148,7146,2,0,P|273:175|211:156,1,112,2|0,0:0|0:0,0:0:0:0:
184,51,7813,1,2,0:0:0:0:
71,49,8146,2,0,L|18:74,1,56,2|8,0:0|0:0,0:0:0:0:
10,128,8480,2,0,L|60:234,1,112,2|2,0:0|0:0,0:0:0:0:
115,249,8980,1,8,0:0:0:0:
115,249,9146,1,0,3:0:0:0:
214,197,9480,6,0,P|211:164|203:141,2,56,0|8|2,3:0|0:0|0:0,0:0:0:0:
311,251,10146,2,0,P|312:306|301:361,1,112,0|2,3:0|0:0,0:0:0:0:
188,368,10813,2,0,P|155:370|132:378,1,56,2|8,0:0|0:0,0:0:0:0:
89,341,11146,2,0,P|84:276|68:230,1,112,2|2,0:0|0:0,0:0:0:0:
61,178,11646,1,8,0:0:0:0:
61,178,11813,1,2,0:0:0:0:
137,95,12146,6,0,L|145:35,2,56,0|8|2,3:0|0:0|0:0,0:0:0:0:
229,159,12813,2,0,L|347:176,1,112,0|2,3:0|0:0,0:0:0:0:
371,281,13480,2,0,L|489:267,1,112,2|2,0:0|0:0,0:0:0:0:
492,213,13980,5,8,0:0:0:0:
487,101,14313,2,0,P|480:72|482:46,1,56,2|2,0:0|0:0,0:0:0:0:
434,15,14646,5,4,3:2:0:0:
325,44,14980,2,0,L|298:96,1,56,8|2,0:0|0:0,0:0:0:0:
252,124,15313,2,0,L|148:70,1,112,8|8,0:0|0:0,0:0:0:0:
46,108,15980,1,10,0:0:0:0:
25,218,16313,1,8,0:0:0:0:
109,291,16646,1,8,0:0:0:0:
214,254,16980,2,0,L|248:298,1,56,8|8,0:0|0:0,0:0:0:0:
262,352,17313,6,0,L|372:337,1,112,10|8,0:0|0:0,0:0:0:0:
443,249,17980,1,8,0:0:0:0:
332,234,18313,1,8,0:0:0:0:
261,146,18646,2,0,L|316:137,1,56,10|8,0:0|0:0,0:0:0:0:
372,131,18980,2,0,L|411:26,1,112,8|8,0:0|0:0,0:0:0:0:
299,34,19646,2,0,L|244:25,1,56,8|8,0:0|0:0,0:0:0:0:
187,24,19980,6,0,P|150:30|112:90,1,112,10|8,0:0|0:0,0:0:0:0:
212,138,20646,2,0,P|190:168|205:237,1,112,10|8,0:0|0:0,0:0:0:0:
255,273,21146,1,8,0:0:0:0:
255,273,21313,2,0,P|224:312|200:375,1,112,10|8,0:0|0:0,0:0:0:0:
89,382,21980,2,0,P|70:335|28:283,1,112,10|8,0:0|0:0,0:0:0:0:
19,232,22480,5,8,0:0:0:0:
19,232,22646,2,0,L|87:224,1,56,10|8,0:0|0:0,0:0:0:0:
123,196,22980,2,0,L|191:188,1,56,8|8,0:0|0:0,0:0:0:0:
227,160,23313,2,0,L|295:152,2,56,10|8|8,0:0|0:0|0:0,0:0:0:0:
142,86,23980,5,6,3:2:0:0:
370,298,25313,1,4,3:2:0:0:
256,192,25480,12,0,29313,0:0:0:0:
250,356,30313,6,0,P|261:330|264:307,1,44.8,2|0,0:0|0:0,0:0:0:0:
313,287,30646,2,0,P|290:166|160:145,1,268.8,2|0,0:0|0:0,0:0:0:0:
51,164,31980,1,2,0:0:0:0:
71,275,32313,2,0,B|134:275|152:317|144:318|164:361|233:359,1,179.2,2|0,0:0|0:0,0:0:0:0:
287,364,33146,5,2,0:0:0:0:
287,364,33313,2,0,P|274:231|298:92,1,268.8,2|0,0:0|0:0,0:0:0:0:
378,21,34646,1,2,0:0:0:0:
490,26,34980,2,0,P|498:114|482:207,1,179.2,2|0,0:0|0:0,0:0:0:0:
462,313,35980,5,2,0:0:0:0:
462,313,37313,1,2,0:0:0:0:
356,348,37646,2,0,B|313:361|296:343|296:340|275:317|218:332,1,134.4,2|0,0:0|0:0,0:0:0:0:
173,344,38313,1,2,0:0:0:0:
173,344,40980,6,0,P|168:314|171:294,1,44.8,2|0,0:0|0:0,0:0:0:0:
171,243,41313,2,0,P|43:213|36:77,1,268.8,2|0,0:0|0:0,0:0:0:0:
114,23,42646,1,2,0:0:0:0:
207,86,42980,2,0,P|307:43|379:131,1,224,2|0,0:0|0:0,0:0:0:0:
383,172,43980,6,0,P|336:173|280:186,2,89.6,2|0|0,0:0|0:0|0:0,0:0:0:0:
434,194,44813,1,2,0:0:0:0:
505,280,45146,1,2,0:0:0:0:
419,351,45480,2,0,P|329:371|256:274,1,224,2|0,0:0|0:0,0:0:0:0:
256,164,46646,5,2,0:0:0:0:
256,164,47980,1,2,0:0:0:0:
144,163,48313,2,0,P|97:134|107:62,1,134.4,2|0,0:0|0:0,0:0:0:0:
155,36,48980,1,2,0:0:0:0:
256,192,49313,12,0,51313,0:0:0:0:
439,247,51980,5,4,3:2:0:0:
361,168,52313,1,8,0:0:0:0:
252,190,52646,2,0,P|235:151|198:121,2,75.5999976928712,10|2|2,0:0|0:0|0:0,0:0:0:0:
266,304,53480,1,2,0:0:0:0:
266,304,53646,1,8,0:0:0:0:
155,309,53980,2,0,L|68:317,2,75.5999976928712,10|2|2,0:0|0:0|0:0,0:0:0:0:
152,253,54646,5,10,0:0:0:0:
47,216,54980,1,8,0:0:0:0:
26,106,55313,2,0,P|29:65|58:36,2,75.5999976928712,10|2|2,0:0|0:0|0:0,0:0:0:0:
135,147,56146,1,2,0:0:0:0:
135,147,56313,1,8,0:0:0:0:
226,74,56646,1,10,0:0:0:0:
317,1,56980,2,0,P|342:1|368:9,1,50.3999984619141,8|8,0:0|0:0,0:0:0:0:
380,61,57313,5,10,0:0:0:0:
490,53,57646,1,8,0:0:0:0:
498,163,57980,2,0,P|504:204|503:247,2,75.5999976928712,10|2|2,0:0|0:0|0:0,0:0:0:0:
388,171,58813,1,2,0:0:0:0:
388,171,58980,1,8,0:0:0:0:
278,179,59313,2,0,P|272:138|273:95,2,75.5999976928712,10|2|2,0:0|0:0|0:0,0:0:0:0:
243,223,59980,6,0,L|189:210,1,56,10|8,0:0|0:0,0:0:0:0:
153,253,60313,2,0,L|140:307,1,56,8|8,0:0|0:0,0:0:0:0:
103,350,60646,2,0,L|22:330,2,84,10|2|8,0:0|0:0|0:0,0:0:0:0:
216,379,61480,1,8,0:0:0:0:
216,379,61646,1,10,0:0:0:0:
298,296,61980,2,0,B|335:283|356:301|351:304|374:319|408:307,1,112,10|10,0:0|0:0,0:0:0:0:
487,224,62646,5,6,3:2:0:0:
494,112,62980,2,0,P|478:85|448:77,1,56,0|0,3:0|3:0,0:0:0:0:
400,82,63313,2,0,P|399:34|366:2,2,84,2|0|2,3:2|3:0|3:2,0:0:0:0:
305,139,64146,1,0,3:0:0:0:
305,139,64313,2,0,P|321:166|351:174,1,56,0|0,3:0|3:0,0:0:0:0:
395,195,64646,5,2,0:0:0:0:
188,282,65313,5,6,3:2:0:0:
85,238,65646,2,0,L|27:208,1,56,0|0,3:0|3:0,0:0:0:0:
43,156,65980,2,0,L|12:63,2,84,2|0|2,3:2|3:0|3:2,0:0:0:0:
139,96,66813,1,0,3:0:0:0:
139,96,66980,2,0,L|168:38,1,56,0|0,3:0|3:0,0:0:0:0:
217,29,67313,5,2,0:0:0:0:
440,18,67980,6,0,P|469:28|490:56,1,56,6|0,3:2|3:0,0:0:0:0:
481,102,68313,2,0,P|486:132|473:164,1,56,0|0,3:0|3:0,0:0:0:0:
428,179,68646,2,0,P|393:208|341:215,2,84,2|0|0,3:2|3:0|3:0,0:0:0:0:
345,112,69480,1,0,3:0:0:0:
345,112,69646,2,0,P|316:102|295:74,1,56,0|0,3:0|3:0,0:0:0:0:
244,95,69980,2,0,P|218:59|177:45,2,84,2|0|0,3:2|3:0|3:0,0:0:0:0:
217,144,70646,6,0,P|105:164|16:353,1,336,2|0,3:2|3:0,0:0:0:0:
127,356,71980,6,0,L|130:301,2,56,6|0|0,3:2|3:0|3:0,0:0:0:0:
237,335,72646,2,0,L|358:341,1,112,2|2,3:2|3:2,0:0:0:0:
470,364,73313,6,0,P|503:322|492:250,1,123.200003759766,6|8,3:2|0:0,0:0:0:0:
461,212,73813,1,0,3:0:0:0:
461,212,73980,2,0,P|454:167|480:130,2,92.4000028198243,2|0|2,3:2|3:0|3:2,0:0:0:0:
346,248,74813,1,0,3:0:0:0:
346,248,74980,2,0,L|289:224,1,61.6000018798829,8|0,0:0|0:0,0:0:0:0:
242,183,75313,2,0,L|168:239,2,92.4000028198243,2|0|0,3:2|3:0|3:0,0:0:0:0:
276,131,75980,6,0,B|296:100|276:74|270:76|248:48|268:9,1,123.200003759766,2|8,3:2|0:0,0:0:0:0:
330,9,76480,1,0,3:0:0:0:
330,9,76646,2,0,P|373:14|423:0,2,92.4000028198243,2|0|2,3:2|3:0|3:2,0:0:0:0:
398,118,77480,1,0,3:0:0:0:
398,118,77646,1,8,0:0:0:0:
505,178,77980,2,0,L|506:241,1,61.6000018798829,2|0,3:2|3:0,0:0:0:0:
448,261,78313,2,0,L|449:324,1,61.6000018798829,8|0,0:0|3:0,0:0:0:0:
391,344,78646,6,0,P|336:334|312:267,1,123.200003759766,2|8,3:2|0:0,0:0:0:0:
299,216,79146,1,0,3:0:0:0:
299,216,79313,2,0,P|281:174|238:165,2,92.4000028198243,2|0|2,3:2|3:0|3:2,0:0:0:0:
414,167,80146,1,0,3:0:0:0:
414,167,80313,2,0,P|411:136|415:102,1,61.6000018798829,8|0,0:0|0:0,0:0:0:0:
418,44,80646,2,0,P|464:39|515:45,2,92.4000028198243,2|0|0,3:2|3:0|3:0,0:0:0:0:
359,23,81313,6,0,B|332:10|303:34|305:37|270:60|231:38,1,123.200003759766,2|8,3:2|0:0,0:0:0:0:
193,81,81813,1,0,0:0:0:0:
193,81,81980,2,0,B|191:58|164:48|163:51|135:37|135:3,2,92.4000028198243,2|0|0,3:2|3:0|3:0,0:0:0:0:
292,162,82813,1,0,3:0:0:0:
292,162,82980,1,8,0:0:0:0:
175,203,83313,2,0,L|112:207,1,61.6000018798829,2|0,3:2|3:0,0:0:0:0:
69,249,83646,2,0,L|73:312,1,61.6000018798829,8|0,0:0|3:0,0:0:0:0:
115,355,83980,6,0,B|157:342|177:362|176:367|197:384|241:359,1,123.200003759766,6|8,3:2|0:0,0:0:0:0:
298,360,84480,1,0,3:0:0:0:
298,360,84646,2,0,B|288:328|303:313|307:314|319:298|301:265,2,92.4000028198243,2|0|2,3:2|3:0|3:2,0:0:0:0:
424,377,85480,1,0,3:0:0:0:
424,377,85646,2,0,P|448:359|456:330,1,61.6000018798829,8|0,0:0|0:0,0:0:0:0:
431,273,85980,2,0,P|443:229|480:203,2,92.4000028198243,2|0|0,3:2|3:0|3:0,0:0:0:0:
369,269,86646,6,0,L|247:252,1,123.200003759766,2|8,3:2|0:0,0:0:0:0:
206,213,87146,1,0,3:0:0:0:
206,213,87313,2,0,L|171:127,2,92.4000028198243,2|0|2,3:2|3:0|3:2,0:0:0:0:
312,148,88146,1,0,3:0:0:0:
312,148,88313,1,8,0:0:0:0:
431,176,88646,2,0,P|457:170|480:137,1,61.6000018798829,2|0,3:2|3:0,0:0:0:0:
493,83,88980,2,0,P|487:57|454:34,1,61.6000018798829,8|0,0:0|3:0,0:0:0:0:
400,21,89313,6,0,B|350:12|346:38|349:41|342:66|274:61,1,123.200003759766,6|8,3:2|0:0,0:0:0:0:
168,68,89980,2,0,B|130:71|124:52|127:50|124:30|86:37,2,92.4000028198243,2|0|0,3:2|3:0|3:0,0:0:0:0:
173,129,90646,1,6,3:2:0:0:
51,148,90980,2,0,P|46:179|54:211,1,61.6000018798829,8|0,0:0|3:0,0:0:0:0:
59,269,91313,2,0,P|25:302|7:348,2,92.4000028198243,2|0|0,3:2|3:0|3:0,0:0:0:0:
116,291,91980,5,6,3:2:0:0:
222,229,92313,2,0,L|291:234,1,61.6000018798829,8|0,0:0|3:0,0:0:0:0:
321,184,92646,2,0,L|413:177,2,92.4000028198243,6|0|0,3:2|3:0|3:0,0:0:0:0:
283,134,93313,6,0,P|243:116|223:66,2,92.4000028198243,4|6|2,3:2|3:2|3:2,0:0:0:0:
324,88,93980,1,6,3:2:0:0:
434,33,94313,2,0,P|460:44|473:78,1,61.6000018798829,2|2,0:0|0:0,0:0:0:0:
462,134,94646,6,0,L|484:262,2,123.200003759766,6|8|2,3:2|0:0|3:2,0:0:0:0:
355,196,95646,2,0,L|294:206,1,61.6000018798829,8|0,0:0|3:0,0:0:0:0:
232,215,95980,1,2,3:2:0:0:
130,145,96313,1,8,0:0:0:0:
60,247,96646,2,0,B|102:253|101:291|96:290|94:321|142:328,1,123.200003759766,2|8,3:2|0:0,0:0:0:0:
203,317,97146,5,0,3:0:0:0:
203,317,97313,2,0,P|258:316|311:370,2,123.200003759766,2|8|2,3:2|0:0|3:2,0:0:0:0:
231,196,98313,2,0,P|259:187|275:161,1,61.6000018798829,8|0,0:0|3:0,0:0:0:0:
275,99,98646,1,2,3:2:0:0:
376,28,98980,1,8,0:0:0:0:
487,79,99313,2,0,B|506:120|486:140|485:137|463:155|483:208,1,123.200003759766,0|8,3:0|0:0,0:0:0:0:
491,262,99813,5,0,3:0:0:0:
491,262,99980,2,0,P|444:226|375:220,1,123.200003759766,2|8,3:2|0:0,0:0:0:0:
247,230,100646,2,0,P|205:247|176:289,2,92.4000028198243,2|0|0,3:2|3:0|3:0,0:0:0:0:
271,173,101313,2,0,L|263:109,1,61.6000018798829,2|0,3:2|0:0,0:0:0:0:
231,59,101646,2,0,L|103:75,1,123.200003759766,8|2,0:0|3:2,0:0:0:0:
55,106,102146,1,0,3:0:0:0:
55,106,102313,1,8,0:0:0:0:
4,218,102646,6,0,P|42:257|106:231,1,123.200003759766,2|8,3:2|0:0,0:0:0:0:
219,202,103313,2,0,P|260:186|292:216,2,92.4000028198243,2|0|2,3:2|3:0|3:2,0:0:0:0:
136,119,104146,1,0,3:0:0:0:
136,119,104313,1,8,0:0:0:0:
221,30,104646,2,0,L|284:35,1,61.6000018798829,2|0,3:2|3:0,0:0:0:0:
334,68,104980,2,0,L|397:63,1,61.6000018798829,8|0,0:0|3:0,0:0:0:0:
448,30,105313,6,0,P|500:52|511:116,1,123.200003759766,6|8,3:2|0:0,0:0:0:0:
510,236,105980,2,0,P|487:288|424:299,1,123.200003759766,10|8,0:0|0:0,0:0:0:0:
303,287,106646,2,0,L|299:223,1,61.6000018798829,10|0,0:0|3:0,0:0:0:0:
349,188,106980,1,8,0:0:0:0:
341,65,107313,1,10,0:0:0:0:
222,33,107646,2,0,L|158:37,1,61.6000018798829,8|8,0:0|0:0,0:0:0:0:
98,39,107980,6,0,P|50:48|34:119,1,123.200003759766,10|8,0:0|0:0,0:0:0:0:
120,197,108646,2,0,P|144:192|152:157,2,61.6000018798829,10|0|8,0:0|3:0|0:0,0:0:0:0:
34,282,109313,2,0,P|5:290|0:319,1,61.6000018798829,10|8,0:0|0:0,0:0:0:0:
23,370,109646,1,8,0:0:0:0:
146,362,109980,2,0,L|201:328,1,61.6000018798829,10|0,0:0|3:0,0:0:0:0:
250,296,110313,2,0,L|264:233,1,61.6000018798829,8|0,0:0|3:0,0:0:0:0:
276,175,110646,6,0,P|257:120|270:52,1,123.200003759766,10|8,0:0|0:0,0:0:0:0:
390,50,111313,2,0,P|409:105|396:173,1,123.200003759766,10|8,0:0|0:0,0:0:0:0:
416,232,111813,1,8,0:0:0:0:
416,232,111980,2,0,L|478:226,2,61.6000018798829,10|8|8,0:0|0:0|0:0,0:0:0:0:
318,307,112646,2,0,L|324:369,2,61.6000018798829,10|8|8,0:0|0:0|0:0,0:0:0:0:
243,209,113313,6,0,L|181:215,1,61.6000018798829,2|8,3:2|0:0,0:0:0:0:
149,162,113646,2,0,L|87:168,1,61.6000018798829,8|8,0:0|0:0,0:0:0:0:
36,203,113980,2,0,L|48:327,1,123.200003759766,2|8,3:2|0:0,0:0:0:0:
86,380,114480,5,8,0:0:0:0:
86,380,114646,1,6,3:2:0:0:
208,368,114980,1,0,3:0:0:0:
196,245,115313,2,0,B|240:228|253:252|250:256|266:280|315:256,1,123.200003759766,2|0,3:2|3:0,0:0:0:0:
298,135,115980,5,6,3:2:0:0:
256,192,116146,12,0,121313,0:0:0:0:
