osu file format v14

[General]
AudioFilename: audio.mp3
AudioLeadIn: 0
PreviewTime: 73146
Countdown: 0
SampleSet: Soft
StackLeniency: 0.7
Mode: 0
LetterboxInBreaks: 0
WidescreenStoryboard: 1

[Editor]
Bookmarks: 3980,14646,25313,30646,41313,51980,62646,73313,83980,94646,105313,115980,121313
DistanceSpacing: 1
BeatDivisor: 4
GridSize: 4
TimelineZoom: 2.3

[Metadata]
Title:Cross-D Skyline
TitleUnicode:Cross-D Skyline
Artist:Sephid
ArtistUnicode:Sephid
Creator:Hinsvar
Version:Insane
Source:第三回BMS衆議院選
Tags:Electronic English UK Hardcore UKHC 3rd BMS Shuugiinsen dai san kai Shūgiinsen BMS_Shuin BMS Shuin Featured Artist FA Mappers' Guild MPG
BeatmapID:4519921
BeatmapSetID:2145826

[Difficulty]
HPDrainRate:5
CircleSize:4
OverallDifficulty:8
ApproachRate:9
SliderMultiplier:1.6
SliderTickRate:1

[Events]
//Background and Video events
0,0,"BG.jpg",0,0
//Break Periods
//Storyboard Layer 0 (Background)
//Storyboard Layer 1 (Fail)
//Storyboard Layer 2 (Pass)
//Storyboard Layer 3 (Foreground)
//Storyboard Layer 4 (Overlay)
//Storyboard Sound Samples

[TimingPoints]
-1353,333.333333333333,4,2,1,60,1,0
3313,-100,4,2,1,60,0,0
3980,-100,4,2,1,70,0,0
13980,-200,4,2,1,60,0,0
14646,-100,4,2,1,70,0,0
29313,-100,4,2,1,36,0,0
30313,-200,4,2,2,50,0,0
51980,-133.333333333333,4,2,1,60,0,0
59980,-100,4,2,1,70,0,0
64646,-200,4,2,1,60,0,0
65313,-100,4,2,1,70,0,0
67313,-200,4,2,1,60,0,0
67980,-100,4,2,1,70,0,0
70702,-100,4,2,1,35,0,0
71980,-100,4,2,1,70,0,0
73313,-80,4,2,1,80,0,1
93313,-200,4,2,1,50,0,0
93563,-100,4,2,1,60,0,0
93813,-66.6666666666667,4,2,1,70,0,0
93980,-50,4,2,1,80,0,1
94313,-80,4,2,1,80,0,0
94646,-80,4,2,1,80,0,1
115980,-100,4,2,1,80,0,0
117313,-100,4,2,1,65,0,0
118646,-100,4,2,1,50,0,0
119980,-100,4,2,1,35,0,0
121313,-100,4,2,1,20,0,0

[Colours]
Combo1 : 238,238,36
Combo2 : 124,173,245
Combo3 : 247,107,23
Combo4 : 74,220,236

[HitObjects]
34,243,3313,6,0,P|56:280|62:320,1,80,8|0,0:0|3:0,0:0:0:0:
201,289,3646,1,8,0:0:0:0:
203,308,3730,1,8,0:0:0:0:
202,328,3813,1,0,3:0:0:0:
197,348,3896,1,0,3:0:0:0:
188,366,3980,5,4,3:2:0:0:
168,206,4146,2,0,L|215:202,2,40,0|0|8,3:0|3:0|0:0,0:0:0:0:
5,152,4480,2,0,L|84:158,1,80,2|0,0:0|3:0,0:0:0:0:
299,258,4813,1,0,3:0:0:0:
299,258,4896,1,0,3:0:0:0:
299,258,4980,1,8,0:0:0:0:
458,133,5146,6,0,B|416:121|403:152|408:152|392:178|330:172,1,120,2|0,0:0|0:0,0:0:0:0:
351,172,5480,2,0,B|352:131|352:131|339:93,1,80,2|8,0:0|0:0,0:0:0:0:
139,17,5813,2,0,B|138:58|138:58|151:96,1,80,2|0,0:0|3:0,0:0:0:0:
243,184,6146,1,0,3:0:0:0:
243,184,6230,1,0,3:0:0:0:
243,184,6313,1,8,0:0:0:0:
72,168,6480,6,0,P|18:186|21:284,1,160,2|0,0:0|0:0,0:0:0:0:
112,256,6980,1,8,0:0:0:0:
300,277,7146,2,0,P|244:265|197:351,1,160,2|0,0:0|0:0,0:0:0:0:
290,373,7646,1,8,0:0:0:0:
490,362,7813,6,0,B|450:325|450:325|384:338,1,120,2|0,0:0|0:0,0:0:0:0:
385,337,8146,2,0,L|394:257,1,80,2|8,0:0|0:0,0:0:0:0:
484,100,8480,2,0,L|410:133,1,80,2|0,0:0|3:0,0:0:0:0:
230,133,8813,2,0,L|294:180,1,80,2|8,0:0|0:0,0:0:0:0:
364,50,9146,5,0,3:0:0:0:
364,50,9230,1,0,3:0:0:0:
364,50,9313,1,0,3:0:0:0:
271,18,9480,2,0,P|250:14|222:23,2,40,0|0|8,3:0|3:0|0:0,0:0:0:0:
135,169,9813,2,0,P|127:129|135:90,1,80,2|0,0:0|3:0,0:0:0:0:
23,42,10146,1,0,3:0:0:0:
23,42,10230,1,0,3:0:0:0:
23,42,10313,1,8,0:0:0:0:
52,199,10480,6,0,P|50:269|3:279,1,120,2|0,0:0|0:0,0:0:0:0:
11,280,10813,1,2,0:0:0:0:
95,372,10980,1,8,0:0:0:0:
183,292,11146,2,0,L|189:213,1,80,2|0,0:0|3:0,0:0:0:0:
304,97,11480,5,2,0:0:0:0:
220,5,11646,1,8,0:0:0:0:
132,85,11813,2,0,L|126:164,1,80,2|0,0:0|3:0,0:0:0:0:
275,267,12146,5,0,3:0:0:0:
275,267,12230,1,0,3:0:0:0:
275,267,12313,1,8,0:0:0:0:
250,364,12480,2,0,P|288:351|340:350,1,80,2|0,0:0|3:0,0:0:0:0:
273,170,12813,2,0,P|254:176|228:177,2,40,0|0|8,3:0|3:0|0:0,0:0:0:0:
350,18,13146,6,0,B|389:10|407:35|403:35|422:60|465:46,1,120,2|0,0:0|0:0,0:0:0:0:
460,47,13480,1,2,0:0:0:0:
364,117,13646,1,8,0:0:0:0:
255,68,13813,1,2,0:0:0:0:
69,26,13980,6,0,B|50:50|50:50|73:69,1,60,8|0,0:0|0:0,0:0:0:0:
147,58,14313,5,2,0:0:0:0:
153,50,14396,1,2,0:0:0:0:
159,42,14480,1,2,0:0:0:0:
152,35,14563,1,2,0:0:0:0:
144,29,14646,1,4,3:2:0:0:
18,186,14813,5,0,3:0:0:0:
18,186,14896,1,0,3:0:0:0:
18,186,14980,2,0,L|107:198,1,80,8|2,0:0|0:0,0:0:0:0:
256,111,15313,1,8,0:0:0:0:
265,241,15480,1,0,3:0:0:0:
265,241,15563,1,0,3:0:0:0:
265,241,15646,2,0,L|253:330,1,80,8|0,0:0|0:0,0:0:0:0:
0,269,15980,6,0,B|31:247|31:247|74:252,1,80,10|0,0:0|0:0,0:0:0:0:
178,159,16313,2,0,B|181:197|181:197|155:232,1,80,8|0,0:0|0:0,0:0:0:0:
184,368,16646,2,0,B|149:351|149:351|131:311,1,80,8|0,0:0|0:0,0:0:0:0:
29,141,16980,6,0,L|26:99,1,40,8|0,0:0|0:0,0:0:0:0:
78,28,17146,2,0,L|120:25,1,40,8|0,0:0|0:0,0:0:0:0:
191,77,17313,5,10,0:0:0:0:
306,168,17480,1,0,3:0:0:0:
187,157,17646,1,8,0:0:0:0:
309,87,17813,1,0,3:0:0:0:
439,138,17980,6,0,B|457:175|457:175|445:216,1,80,8|0,0:0|0:0,0:0:0:0:
344,369,18313,2,0,B|326:332|326:332|338:291,1,80,8|0,0:0|0:0,0:0:0:0:
274,138,18646,6,0,L|246:102,1,40,10|0,0:0|0:0,0:0:0:0:
308,53,18813,2,0,L|290:10,1,40,8|0,0:0|0:0,0:0:0:0:
168,102,18980,2,0,L|155:11,1,80,8|0,0:0|0:0,0:0:0:0:
2,74,19313,5,8,0:0:0:0:
80,215,19480,1,8,0:0:0:0:
110,190,19563,1,8,0:0:0:0:
147,204,19646,1,8,0:0:0:0:
286,335,19813,1,8,0:0:0:0:
256,360,19896,1,8,0:0:0:0:
219,346,19980,6,0,L|224:264,1,80,10|8,0:0|0:0,0:0:0:0:
193,129,20313,2,0,L|275:134,1,80,8|8,0:0|0:0,0:0:0:0:
410,103,20646,2,0,L|405:185,1,80,10|8,0:0|0:0,0:0:0:0:
436,320,20980,2,0,L|354:315,1,80,8|8,0:0|0:0,0:0:0:0:
193,210,21313,5,10,0:0:0:0:
124,164,21480,1,8,0:0:0:0:
43,180,21646,1,8,0:0:0:0:
0,247,21813,1,8,0:0:0:0:
15,328,21980,1,10,0:0:0:0:
82,371,22146,1,8,0:0:0:0:
163,356,22313,1,8,0:0:0:0:
206,288,22480,1,8,0:0:0:0:
193,210,22646,5,10,0:0:0:0:
202,192,22730,1,8,0:0:0:0:
216,178,22813,1,8,0:0:0:0:
233,168,22896,1,8,0:0:0:0:
252,162,22980,1,8,0:0:0:0:
272,161,23063,1,8,0:0:0:0:
292,166,23146,1,8,0:0:0:0:
309,175,23230,1,8,0:0:0:0:
324,189,23313,6,0,P|341:195|356:183,3,40,10|8|8|8,0:0|0:0|0:0|0:0,0:0:0:0:
427,163,23646,2,0,P|441:150|438:131,3,40,8|8|8|8,0:0|0:0|0:0|0:0,0:0:0:0:
455,60,23980,5,6,3:2:0:0:
57,324,25313,1,4,3:2:0:0:
256,192,25480,12,0,29313,0:0:0:0:
276,275,30313,6,0,P|301:271|313:254,1,40,2|0,0:0|0:0,0:0:0:0:
237,368,30646,2,0,P|284:298|257:153,1,240,2|0,0:0|0:0,0:0:0:0:
44,44,31980,1,2,0:0:0:0:
44,44,32313,2,0,P|116:67|191:31,1,160,2|0,0:0|0:0,0:0:0:0:
300,38,33146,1,2,0:0:0:0:
383,112,33313,6,0,B|399:185|442:225|442:221|476:246|489:324,1,240,2|0,0:0|0:0,0:0:0:0:
256,375,34646,1,2,0:0:0:0:
256,375,34980,2,0,B|296:341|299:313|297:314|306:276|342:243,1,160,2|0,0:0|0:0,0:0:0:0:
296,35,35980,6,0,P|257:30|219:8,1,80,2|0,0:0|0:0,0:0:0:0:
221,10,37313,1,2,0:0:0:0:
221,10,37646,2,0,B|261:40|247:63|250:65|236:89|274:117,1,120,2|0,0:0|0:0,0:0:0:0:
337,68,38313,2,0,B|329:134|293:133|292:137|255:137|249:200,3,160,2|0|0|0,0:0|0:0|0:0|0:0,0:0:0:0:
249,192,40980,6,0,P|242:172|226:156,1,40,2|0,0:0|0:0,0:0:0:0:
175,242,41313,2,0,P|272:222|292:91,1,240,2|0,0:0|0:0,0:0:0:0:
41,37,42646,1,2,0:0:0:0:
41,37,42980,2,0,B|102:34|124:94|117:98|137:146|198:138,1,200,2|0,0:0|0:0,0:0:0:0:
276,121,43980,6,0,P|314:114|352:152,2,80,2|0|0,0:0|0:0|0:0,0:0:0:0:
222,62,44813,1,2,0:0:0:0:
42,121,45146,1,2,0:0:0:0:
101,301,45480,2,0,B|163:276|199:319|191:321|230:372|294:338,1,200,2|0,0:0|0:0,0:0:0:0:
485,232,46646,6,0,P|489:194|476:152,1,80,2|0,0:0|0:0,0:0:0:0:
477,154,47980,1,2,0:0:0:0:
477,154,48313,2,0,P|416:133|406:84,1,120,2|0,0:0|0:0,0:0:0:0:
471,34,48980,2,0,P|393:71|338:34,3,160,2|0|0|0,0:0|0:0|0:0|0:0,0:0:0:0:
338,34,51980,6,0,L|273:40,1,60.0000022888184,4|0,3:2|0:0,0:0:0:0:
139,20,52313,2,0,L|145:85,1,60.0000022888184,8|0,0:0|0:0,0:0:0:0:
249,232,52646,5,10,0:0:0:0:
197,164,52813,1,2,0:0:0:0:
197,164,52896,2,0,P|238:147|283:155,1,90.0000034332277,2|2,0:0|0:0,0:0:0:0:
322,315,53313,6,0,P|295:327|258:322,1,60.0000022888184,10|0,0:0|0:0,0:0:0:0:
78,318,53646,2,0,P|105:306|142:311,1,60.0000022888184,8|0,0:0|0:0,0:0:0:0:
291,232,53980,5,10,0:0:0:0:
379,207,54146,1,2,0:0:0:0:
379,207,54230,2,0,P|389:164|394:113,1,90.0000034332277,2|2,0:0|0:0,0:0:0:0:
299,30,54646,6,0,P|305:59|310:88,1,60.0000022888184,10|0,0:0|0:0,0:0:0:0:
508,98,54980,2,0,P|496:125|483:152,1,60.0000022888184,8|0,0:0|0:0,0:0:0:0:
357,285,55313,5,10,0:0:0:0:
260,356,55480,1,2,0:0:0:0:
260,356,55563,2,0,P|229:359|200:345,1,60.0000022888184,2|2,0:0|0:0,0:0:0:0:
158,290,55813,1,2,0:0:0:0:
255,219,55980,6,0,P|263:194|247:157,1,60.0000022888184,10|0,0:0|0:0,0:0:0:0:
123,201,56313,2,0,P|146:188|161:151,1,60.0000022888184,8|0,0:0|0:0,0:0:0:0:
42,94,56646,2,0,P|67:102|104:86,1,60.0000022888184,10|0,0:0|0:0,0:0:0:0:
158,45,56896,1,8,0:0:0:0:
158,45,56980,2,0,L|160:7,1,30.0000011444092,8|0,0:0|0:0,0:0:0:0:
263,38,57146,5,8,0:0:0:0:
263,38,57230,1,8,0:0:0:0:
263,38,57313,2,0,L|339:42,1,60.0000022888184,10|0,0:0|0:0,0:0:0:0:
477,77,57646,2,0,L|401:81,1,60.0000022888184,8|0,0:0|0:0,0:0:0:0:
286,140,57980,6,0,P|301:141|314:148,1,30.0000011444092,10|0,0:0|0:0,0:0:0:0:
422,170,58146,1,2,0:0:0:0:
422,170,58230,2,0,P|414:181|393:190,1,30.0000011444092,10|8,0:0|0:0,0:0:0:0:
327,271,58396,1,2,0:0:0:0:
327,271,58480,2,0,P|320:258|323:236,1,30.0000011444092,2|0,0:0|0:0,0:0:0:0:
415,304,58646,6,0,L|401:372,1,60.0000022888184,10|0,0:0|0:0,0:0:0:0:
245,311,58980,2,0,L|249:380,1,60.0000022888184,8|0,0:0|0:0,0:0:0:0:
73,227,59313,6,0,P|67:214|54:202,1,30.0000011444092,8|0,0:0|0:0,0:0:0:0:
20,303,59480,1,2,0:0:0:0:
20,303,59563,2,0,P|11:313|8:331,1,30.0000011444092,2|8,0:0|0:0,0:0:0:0:
112,310,59730,1,2,0:0:0:0:
112,310,59813,2,0,P|125:311|142:306,1,30.0000011444092,2|0,0:0|0:0,0:0:0:0:
261,232,59980,5,10,0:0:0:0:
293,159,60146,1,8,0:0:0:0:
245,94,60313,1,8,0:0:0:0:
213,166,60480,1,8,0:0:0:0:
453,105,60646,6,0,L|465:26,1,80,8|2,0:0|0:0,0:0:0:0:
382,5,60896,2,0,L|370:84,1,80,2|0,0:0|0:0,0:0:0:0:
296,30,61146,5,8,0:0:0:0:
296,30,61230,1,8,0:0:0:0:
296,30,61313,2,0,L|255:24,1,40,10|0,0:0|0:0,0:0:0:0:
115,31,61480,5,8,0:0:0:0:
83,55,61563,1,8,0:0:0:0:
87,94,61646,1,10,0:0:0:0:
253,209,61813,1,8,0:0:0:0:
285,185,61896,1,8,0:0:0:0:
281,146,61980,6,0,P|279:123|266:112,3,40,10|0|0|0,0:0|3:0|3:0|3:0,0:0:0:0:
187,115,62313,2,0,P|188:137|202:149,3,40,10|0|0|0,0:0|3:0|3:0|3:0,0:0:0:0:
177,223,62646,5,6,3:2:0:0:
36,237,62813,1,0,3:0:0:0:
52,376,62980,1,0,3:0:0:0:
191,360,63146,1,0,3:0:0:0:
258,284,63313,2,0,P|298:283|351:299,1,80,2|0,3:2|3:0,0:0:0:0:
336,292,63563,1,0,3:0:0:0:
336,292,63646,1,0,3:0:0:0:
491,144,63813,6,0,P|458:225|390:195,1,160,2|0,3:2|3:0,0:0:0:0:
300,72,64313,1,0,3:0:0:0:
473,53,64480,1,0,3:0:0:0:
392,126,64646,6,0,P|387:96|389:66,2,60,2|0|0,0:0|0:0|0:0,0:0:0:0:
416,369,65313,5,6,3:2:0:0:
512,297,65480,1,0,3:0:0:0:
402,250,65646,1,0,3:0:0:0:
306,322,65813,1,0,3:0:0:0:
195,274,65980,2,0,P|194:237|187:189,1,80,2|0,3:2|3:0,0:0:0:0:
188,194,66230,1,0,3:0:0:0:
188,194,66313,1,0,3:0:0:0:
14,165,66480,6,0,P|31:240|105:238,1,160,2|0,3:2|3:0,0:0:0:0:
261,134,66980,1,0,3:0:0:0:
90,51,67146,1,0,3:0:0:0:
159,143,67313,5,2,0:0:0:0:
159,143,67646,2,0,P|135:143|114:147,1,40,2|0,0:0|0:0,0:0:0:0:
131,309,67980,5,6,3:2:0:0:
149,317,68063,1,0,3:0:0:0:
169,318,68146,1,0,3:0:0:0:
189,313,68230,1,0,3:0:0:0:
206,304,68313,1,0,3:0:0:0:
220,291,68396,1,0,3:0:0:0:
231,274,68480,1,0,3:0:0:0:
236,255,68563,1,0,3:0:0:0:
237,235,68646,6,0,L|239:189,3,40,2|0|0|0,3:2|3:0|3:0|3:0,0:0:0:0:
242,121,68980,2,0,L|244:75,3,40,0|0|0|0,3:0|3:0|3:0|3:0,0:0:0:0:
292,23,69313,5,2,3:2:0:0:
308,33,69396,1,0,3:0:0:0:
324,43,69480,1,0,3:0:0:0:
342,55,69563,1,0,3:0:0:0:
358,65,69646,6,0,P|373:65|407:57,3,40,0|0|0|0,3:0|3:0|3:0|3:0,0:0:0:0:
470,49,69980,2,0,P|470:64|478:98,3,40,2|0|0|0,3:2|3:0|3:0|3:0,0:0:0:0:
486,161,70313,2,0,P|471:161|437:169,3,40,0|0|0|0,3:0|3:0|3:0|3:0,0:0:0:0:
373,177,70646,6,0,P|373:167|368:144,21,26.6666666666667,2|0|0|0|0|0|0|0|0|0|0|0|0|0|0|0|0|0|0|0|0|0,3:2|3:0|3:0|3:0|3:0|3:0|3:0|3:0|3:0|3:0|3:0|3:0|3:0|3:0|3:0|3:0|3:0|3:0|3:0|3:0|3:0|3:0,0:0:0:0:
220,93,71980,5,6,3:2:0:0:
197,209,72146,1,0,3:0:0:0:
81,186,72313,1,0,3:0:0:0:
104,70,72480,5,0,3:0:0:0:
104,70,72563,1,0,3:0:0:0:
104,70,72646,2,0,P|103:43|90:25,3,40,2|0|0|0,3:2|3:0|3:0|3:0,0:0:0:0:
16,25,72980,5,2,3:2:0:0:
12,44,73063,1,0,3:0:0:0:
13,64,73146,1,0,3:0:0:0:
19,83,73230,1,0,3:0:0:0:
29,100,73313,6,0,P|15:177|13:255,1,150,6|0,3:2|0:0,0:0:0:0:
15,324,73646,1,8,0:0:0:0:
210,381,73813,1,0,3:0:0:0:
289,235,73980,1,2,3:2:0:0:
289,235,74063,2,0,P|295:208|294:178,1,50,0|0,3:0|0:0,0:0:0:0:
167,205,74230,1,0,3:0:0:0:
167,205,74313,2,0,P|160:231|161:261,1,50,8|0,0:0|0:0,0:0:0:0:
222,299,74480,6,0,B|271:302|284:332|282:336|294:362|358:362,1,150,2|0,3:2|0:0,0:0:0:0:
417,319,74813,1,0,3:0:0:0:
417,319,74896,1,0,3:0:0:0:
417,319,74980,2,0,B|454:319|463:302|461:299|470:279|503:277,1,100,8|0,0:0|0:0,0:0:0:0:
470,46,75313,5,2,3:2:0:0:
470,46,75396,2,0,P|447:43|422:28,1,50,0|0,3:0|0:0,0:0:0:0:
369,105,75563,1,0,3:0:0:0:
369,105,75646,2,0,P|415:111|465:141,1,100,8|0,0:0|3:0,0:0:0:0:
297,294,75980,6,0,P|262:267|236:166,1,150,2|0,3:2|0:0,0:0:0:0:
281,110,76313,1,8,0:0:0:0:
133,16,76480,1,0,3:0:0:0:
39,164,76646,1,2,3:2:0:0:
39,164,76730,2,0,P|38:139|32:108,1,50,0|0,3:0|0:0,0:0:0:0:
115,107,76896,1,0,3:0:0:0:
115,107,76980,2,0,P|116:132|122:163,1,50,8|0,0:0|0:0,0:0:0:0:
5,314,77146,6,0,P|45:315|82:208,1,150,2|0,3:2|0:0,0:0:0:0:
178,269,77480,1,0,3:0:0:0:
178,269,77563,1,0,3:0:0:0:
178,269,77646,2,0,P|164:291|213:348,1,100,8|0,0:0|0:0,0:0:0:0:
392,284,77980,2,0,L|448:289,3,50,2|0|0|0,3:2|3:0|3:0|3:0,0:0:0:0:
472,358,78313,5,8,0:0:0:0:
447,360,78396,1,0,3:0:0:0:
422,362,78480,1,0,3:0:0:0:
397,364,78563,1,0,3:0:0:0:
372,366,78646,6,0,B|399:322|357:296|358:300|319:278|340:223,1,150,2|0,3:2|0:0,0:0:0:0:
348,158,78980,1,8,0:0:0:0:
491,21,79146,1,0,3:0:0:0:
372,61,79313,1,2,3:2:0:0:
372,61,79396,2,0,P|348:67|322:65,1,50,0|0,3:0|0:0,0:0:0:0:
212,16,79563,1,0,3:0:0:0:
212,16,79646,2,0,P|229:33|240:57,1,50,8|0,0:0|0:0,0:0:0:0:
217,243,79813,6,0,P|214:172|274:133,1,150,2|0,3:2|0:0,0:0:0:0:
348,179,80146,1,0,3:0:0:0:
348,179,80230,1,0,3:0:0:0:
348,179,80313,2,0,P|373:219|351:261,1,100,8|0,0:0|0:0,0:0:0:0:
234,373,80646,5,2,3:2:0:0:
234,373,80730,2,0,P|234:347|228:322,1,50,0|0,3:0|0:0,0:0:0:0:
65,310,80896,1,0,3:0:0:0:
65,310,80980,2,0,P|108:335|158:350,1,100,8|0,0:0|3:0,0:0:0:0:
392,113,81313,6,0,P|319:110|277:171,1,150,2|0,3:2|0:0,0:0:0:0:
309,344,81646,2,0,P|382:347|424:286,1,150,8|0,0:0|0:0,0:0:0:0:
356,253,81980,5,2,3:2:0:0:
356,253,82063,2,0,L|345:201,1,50,0|0,3:0|0:0,0:0:0:0:
230,258,82230,1,0,3:0:0:0:
230,258,82313,2,0,L|241:310,1,50,8|0,0:0|0:0,0:0:0:0:
425,211,82480,6,0,L|477:200,2,50,0|0|2,3:0|3:0|3:2,0:0:0:0:
277,167,82813,1,0,3:0:0:0:
277,167,82896,1,0,3:0:0:0:
277,167,82980,2,0,B|229:140|200:168|203:171|175:196|128:168,1,150,8|0,0:0|0:0,0:0:0:0:
69,136,83313,5,2,3:2:0:0:
46,146,83396,1,0,3:0:0:0:
29,166,83480,1,0,3:0:0:0:
20,190,83563,1,0,3:0:0:0:
19,213,83646,1,8,0:0:0:0:
22,238,83730,1,0,3:0:0:0:
35,259,83813,1,0,3:0:0:0:
55,276,83896,1,0,3:0:0:0:
77,286,83980,6,0,P|143:309|209:378,1,150,6|0,3:2|0:0,0:0:0:0:
274,373,84313,1,8,0:0:0:0:
430,210,84480,1,0,3:0:0:0:
467,306,84646,1,2,3:2:0:0:
467,306,84730,2,0,P|441:307|416:292,1,50,0|0,3:0|0:0,0:0:0:0:
301,239,84896,1,0,3:0:0:0:
301,239,84980,2,0,P|327:238|352:253,1,50,8|0,0:0|0:0,0:0:0:0:
356,52,85146,6,0,B|306:71|310:102|312:102|316:137|258:161,1,150,2|0,3:2|0:0,0:0:0:0:
222,98,85480,1,0,3:0:0:0:
222,98,85563,1,0,3:0:0:0:
222,98,85646,2,0,B|209:65|188:67|188:68|165:71|149:33,1,100,8|0,0:0|0:0,0:0:0:0:
21,168,85980,5,2,3:2:0:0:
21,168,86063,2,0,P|22:191|13:218,1,50,0|0,3:0|0:0,0:0:0:0:
91,114,86230,1,0,3:0:0:0:
91,114,86313,2,0,P|124:145|150:196,1,100,8|0,0:0|3:0,0:0:0:0:
258,378,86646,6,0,B|230:334|256:304|260:307|282:279|263:236,1,150,2|0,3:2|0:0,0:0:0:0:
258,160,86980,1,8,0:0:0:0:
429,17,87146,1,0,3:0:0:0:
493,98,87313,1,2,3:2:0:0:
493,98,87396,2,0,P|469:103|437:114,1,50,0|0,3:0|0:0,0:0:0:0:
475,210,87563,1,0,3:0:0:0:
475,210,87646,2,0,P|454:196|424:181,1,50,8|0,0:0|0:0,0:0:0:0:
356,371,87813,6,0,P|381:301|370:227,1,150,2|0,3:2|0:0,0:0:0:0:
294,240,88146,1,0,3:0:0:0:
294,240,88230,1,0,3:0:0:0:
294,240,88313,2,0,P|277:286|284:335,1,100,8|0,0:0|0:0,0:0:0:0:
78,374,88646,2,0,L|128:350,3,50,2|0|0|0,3:2|3:0|3:0|3:0,0:0:0:0:
178,300,88980,5,8,0:0:0:0:
157,285,89063,1,0,3:0:0:0:
136,271,89146,1,0,3:0:0:0:
116,257,89230,1,0,3:0:0:0:
95,243,89313,6,0,B|112:195|80:169|79:174|43:144|69:69,1,150,6|0,3:2|0:0,0:0:0:0:
62,27,89646,1,8,0:0:0:0:
276,13,89813,1,0,3:0:0:0:
191,106,89980,1,2,3:2:0:0:
191,106,90063,2,0,P|187:134|187:157,1,50,0|0,3:0|0:0,0:0:0:0:
350,196,90230,1,0,3:0:0:0:
350,196,90313,2,0,P|305:161|265:138,1,100,8|0,0:0|3:0,0:0:0:0:
37,178,90646,5,6,3:2:0:0:
50,358,90813,2,0,P|32:375|5:368,2,50,0|0|8,3:0|3:0|0:0,0:0:0:0:
145,242,91146,1,0,3:0:0:0:
280,319,91313,5,2,3:2:0:0:
280,319,91396,2,0,P|275:289|288:265,1,50,0|0,3:0|0:0,0:0:0:0:
375,347,91563,1,0,3:0:0:0:
375,347,91646,2,0,P|355:323|354:296,1,50,8|0,0:0|0:0,0:0:0:0:
237,210,91813,5,0,3:0:0:0:
225,161,91896,1,0,3:0:0:0:
261,126,91980,2,0,P|306:106|325:49,1,100,6|0,3:2|3:0,0:0:0:0:
100,47,92313,2,0,P|60:18|1:30,1,100,8|0,0:0|3:0,0:0:0:0:
113,226,92646,5,6,3:2:0:0:
113,226,92730,2,0,L|114:283,1,50,0|0,3:0|0:0,0:0:0:0:
38,368,92896,1,0,3:0:0:0:
38,368,92980,2,0,L|80:342,1,50,8|0,0:0|0:0,0:0:0:0:
163,344,93146,5,0,3:0:0:0:
163,344,93230,1,0,3:0:0:0:
163,344,93313,2,0,P|175:356|202:360,1,40,4|0,3:2|0:0,0:0:0:0:
280,323,93563,6,0,P|311:330|362:310,1,80,6|0,3:2|0:0,0:0:0:0:
407,240,93813,6,0,P|427:233|450:205,1,60.0000022888184,2|0,3:2|0:0,0:0:0:0:
366,98,93980,6,0,P|393:191|521:293,1,240,6|0,3:2|0:0,0:0:0:0:
504,360,94313,6,0,P|477:362|454:348,3,50,2|2|2|2,0:0|0:0|0:0|0:0,0:0:0:0:
349,383,94646,6,0,B|366:334|332:308|330:313|296:289|309:244,1,150,6|0,3:2|0:0,0:0:0:0:
247,201,94980,2,0,B|235:168|258:151|259:154|282:138|273:108,1,100,8|0,0:0|0:0,0:0:0:0:
50,18,95313,1,2,3:2:0:0:
50,18,95396,1,0,3:0:0:0:
50,18,95480,1,0,3:0:0:0:
76,171,95646,1,8,0:0:0:0:
197,73,95813,1,0,3:0:0:0:
110,88,95980,5,2,3:2:0:0:
23,269,96146,1,0,3:0:0:0:
23,269,96230,1,0,3:0:0:0:
23,269,96313,2,0,B|79:257|107:313|100:311|120:359|193:354,1,200,8|2,0:0|3:2,0:0:0:0:
356,266,96813,1,0,3:0:0:0:
356,266,96896,1,0,3:0:0:0:
356,266,96980,1,8,0:0:0:0:
175,218,97146,1,0,3:0:0:0:
260,278,97313,6,0,P|268:217|342:163,1,150,2|0,3:2|0:0,0:0:0:0:
380,104,97646,2,0,P|420:109|456:158,1,100,8|0,0:0|0:0,0:0:0:0:
296,26,97980,1,2,3:2:0:0:
296,26,98063,1,0,3:0:0:0:
296,26,98146,1,0,3:0:0:0:
174,109,98313,1,8,0:0:0:0:
40,45,98480,1,0,3:0:0:0:
109,181,98646,5,2,3:2:0:0:
262,170,98813,1,0,3:0:0:0:
262,170,98896,1,0,3:0:0:0:
262,170,98980,2,0,B|297:215|257:265|255:263|215:303|254:367,1,200,8|0,0:0|3:0,0:0:0:0:
67,276,99480,1,0,3:0:0:0:
67,276,99563,1,0,3:0:0:0:
67,276,99646,1,8,0:0:0:0:
154,225,99813,1,0,3:0:0:0:
5,131,99980,6,0,P|77:134|153:99,1,150,2|0,3:2|0:0,0:0:0:0:
141,27,100313,2,0,P|173:61|225:80,1,100,8|0,0:0|0:0,0:0:0:0:
438,16,100646,1,2,3:2:0:0:
438,16,100730,2,0,P|436:43|428:66,1,50,0|0,3:0|0:0,0:0:0:0:
512,142,100896,1,0,3:0:0:0:
512,142,100980,2,0,P|485:140|462:132,1,50,8|0,0:0|0:0,0:0:0:0:
313,88,101146,2,0,P|337:90|361:98,1,50,0|0,3:0|0:0,0:0:0:0:
395,166,101313,6,0,P|381:213|425:242,1,100,2|0,3:2|0:0,0:0:0:0:
227,364,101646,2,0,P|255:270|167:212,1,200,8|2,0:0|3:2,0:0:0:0:
34,337,102146,1,0,3:0:0:0:
34,337,102230,1,0,3:0:0:0:
34,337,102313,1,8,0:0:0:0:
173,297,102480,1,0,3:0:0:0:
37,244,102646,6,0,P|9:205|2:150,1,100,2|0,3:2|0:0,0:0:0:0:
181,21,102980,2,0,P|223:79|233:162,1,150,8|0,0:0|0:0,0:0:0:0:
184,212,103313,1,2,3:2:0:0:
184,212,103396,2,0,L|135:193,1,50,0|0,3:0|0:0,0:0:0:0:
308,169,103563,1,0,3:0:0:0:
308,169,103646,2,0,L|348:136,1,50,8|0,0:0|0:0,0:0:0:0:
283,297,103813,6,0,B|332:299|348:327|346:332|366:363|420:358,1,150,2|0,3:2|0:0,0:0:0:0:
486,326,104146,1,0,3:0:0:0:
486,326,104230,1,0,3:0:0:0:
486,326,104313,2,0,B|470:297|481:278|485:278|496:256|475:226,1,100,8|0,0:0|0:0,0:0:0:0:
368,63,104646,5,2,3:2:0:0:
353,82,104730,1,0,3:0:0:0:
331,95,104813,1,0,3:0:0:0:
308,101,104896,1,0,3:0:0:0:
282,97,104980,1,8,0:0:0:0:
261,85,105063,1,0,3:0:0:0:
245,67,105146,1,0,3:0:0:0:
237,43,105230,1,0,3:0:0:0:
238,18,105313,6,0,L|136:12,1,100,6|0,3:2|0:0,0:0:0:0:
216,251,105646,2,0,L|318:257,1,100,8|0,0:0|0:0,0:0:0:0:
110,123,105980,2,0,L|104:225,1,100,10|0,0:0|0:0,0:0:0:0:
343,145,106313,2,0,L|349:43,1,100,8|0,0:0|0:0,0:0:0:0:
507,218,106646,5,10,0:0:0:0:
438,365,106813,1,0,3:0:0:0:
291,296,106980,2,0,P|230:290|202:168,1,200,8|10,0:0|0:0,0:0:0:0:
199,172,107396,1,0,3:0:0:0:
199,172,107480,1,0,3:0:0:0:
218,14,107646,6,0,L|164:18,1,50,8|0,0:0|0:0,0:0:0:0:
61,99,107813,2,0,L|115:103,1,50,8|0,0:0|0:0,0:0:0:0:
287,101,107980,6,0,P|341:88|357:46,1,100,10|0,0:0|0:0,0:0:0:0:
435,260,108313,2,0,P|463:212|445:171,1,100,8|0,0:0|0:0,0:0:0:0:
254,291,108646,5,10,0:0:0:0:
150,210,108813,1,0,3:0:0:0:
28,259,108980,1,8,0:0:0:0:
132,339,109146,5,0,3:0:0:0:
132,339,109230,1,0,3:0:0:0:
132,339,109313,2,0,L|126:285,1,50,10|0,0:0|0:0,0:0:0:0:
54,179,109480,2,0,L|48:125,1,50,8|0,0:0|0:0,0:0:0:0:
138,17,109646,2,0,L|126:116,1,100,8|0,0:0|0:0,0:0:0:0:
295,191,109980,5,10,0:0:0:0:
231,99,110146,1,0,3:0:0:0:
276,78,110230,1,0,3:0:0:0:
280,28,110313,1,8,0:0:0:0:
440,101,110480,1,0,3:0:0:0:
435,150,110563,1,0,3:0:0:0:
476,178,110646,6,0,L|376:200,1,100,10|8,0:0|0:0,0:0:0:0:
300,371,110980,2,0,L|278:271,1,100,8|8,0:0|0:0,0:0:0:0:
107,195,111313,2,0,L|207:173,1,100,10|8,0:0|0:0,0:0:0:0:
283,2,111646,2,0,L|305:102,1,100,8|8,0:0|0:0,0:0:0:0:
168,284,111980,5,10,0:0:0:0:
117,345,112146,1,8,0:0:0:0:
56,295,112313,1,8,0:0:0:0:
106,233,112480,1,8,0:0:0:0:
143,114,112646,5,10,0:0:0:0:
44,123,112813,1,8,0:0:0:0:
34,24,112980,1,8,0:0:0:0:
133,15,113146,1,8,0:0:0:0:
265,182,113313,5,2,3:2:0:0:
275,204,113396,1,8,0:0:0:0:
277,229,113480,1,8,0:0:0:0:
270,252,113563,1,8,0:0:0:0:
257,274,113646,1,8,0:0:0:0:
245,296,113730,1,8,0:0:0:0:
238,320,113813,1,8,0:0:0:0:
239,345,113896,1,8,0:0:0:0:
247,368,113980,6,0,P|278:368|298:357,3,50,2|8|8|8,3:2|0:0|0:0|0:0,0:0:0:0:
370,365,114313,2,0,P|391:343|398:321,3,50,8|8|8|8,0:0|0:0|0:0|0:0,0:0:0:0:
454,275,114646,5,6,3:2:0:0:
511,121,114813,1,0,3:0:0:0:
511,121,114896,1,0,3:0:0:0:
511,121,114980,2,0,P|469:133|424:102,1,100,0|0,3:0|3:0,0:0:0:0:
249,14,115313,5,2,3:2:0:0:
262,12,115396,1,0,3:0:0:0:
274,13,115480,1,0,3:0:0:0:
286,18,115563,1,0,3:0:0:0:
296,24,115646,2,0,P|302:44|286:67,3,50,0|0|0|0,3:0|3:0|3:0|3:0,0:0:0:0:
218,84,115980,5,6,3:2:0:0:
256,192,116146,12,0,121313,0:0:0:0:
