osu file format v14

[General]
AudioFilename: audio.mp3
AudioLeadIn: 0
PreviewTime: 73146
Countdown: 0
SampleSet: Soft
StackLeniency: 0.7
Mode: 0
LetterboxInBreaks: 0
WidescreenStoryboard: 1

[Editor]
Bookmarks: 3980,14646,25313,30646,41313,51980,62646,73313,83980,94646,105313,115980,121313
DistanceSpacing: 1
BeatDivisor: 4
GridSize: 4
TimelineZoom: 1.7

[Metadata]
Title:Cross-D Skyline
TitleUnicode:Cross-D Skyline
Artist:Sephid
ArtistUnicode:Sephid
Creator:Hinsvar
Version:Hard
Source:第三回BMS衆議院選
Tags:Electronic English UK Hardcore UKHC 3rd BMS Shuugiinsen dai san kai Shūgiinsen BMS_Shuin BMS Shuin Featured Artist FA Mappers' Guild MPG
BeatmapID:4520226
BeatmapSetID:2145826

[Difficulty]
HPDrainRate:4
CircleSize:3.5
OverallDifficulty:6
ApproachRate:8
SliderMultiplier:1.36
SliderTickRate:1

[Events]
//Background and Video events
0,0,"BG.jpg",0,0
//Break Periods
//Storyboard Layer 0 (Background)
//Storyboard Layer 1 (Fail)
//Storyboard Layer 2 (Pass)
//Storyboard Layer 3 (Foreground)
//Storyboard Layer 4 (Overlay)
//Storyboard Sound Samples

[TimingPoints]
-1353,333.333333333333,4,2,1,60,1,0
3313,-100,4,2,1,60,0,0
3980,-100,4,2,1,70,0,0
13980,-100,4,2,1,60,0,0
14646,-100,4,2,1,70,0,0
29313,-100,4,2,1,35,0,0
30313,-125,4,2,2,50,0,0
51980,-111.111111111111,4,2,1,60,0,0
59980,-100,4,2,1,70,0,0
64646,-125,4,2,1,60,0,0
65313,-100,4,2,1,70,0,0
67313,-125,4,2,1,60,0,0
67980,-100,4,2,1,70,0,0
70702,-100,4,2,1,35,0,0
71980,-100,4,2,1,70,0,0
73313,-90.9090909090909,4,2,1,80,0,1
93313,-90.9090909090909,4,2,1,50,0,0
93563,-90.9090909090909,4,2,1,60,0,0
93813,-90.9090909090909,4,2,1,70,0,0
93980,-90.9090909090909,4,2,1,80,0,1
94313,-90.9090909090909,4,2,1,80,0,0
94646,-90.9090909090909,4,2,1,80,0,1
115980,-100,4,2,1,80,0,0
117313,-100,4,2,1,65,0,0
118646,-100,4,2,1,50,0,0
119980,-100,4,2,1,35,0,0
121313,-100,4,2,1,20,0,0

[Colours]
Combo1 : 238,238,36
Combo2 : 124,173,245
Combo3 : 247,107,23
Combo4 : 74,220,236

[HitObjects]
484,215,3313,6,0,P|460:198|415:188,1,68,8|0,0:0|3:0,0:0:0:0:
342,160,3646,2,0,P|328:166|313:182,3,34,8|8|0|0,0:0|0:0|3:0|3:0,0:0:0:0:
298,210,3980,5,4,3:2:0:0:
231,262,4146,2,0,L|237:301,2,34,0|0|8,3:0|3:0|0:0,0:0:0:0:
179,195,4480,2,0,L|101:207,1,68,2|0,0:0|3:0,0:0:0:0:
34,175,4813,2,0,L|28:214,2,34,0|0|8,3:0|3:0|0:0,0:0:0:0:
101,124,5146,1,2,0:0:0:0:
238,23,5480,6,0,P|270:21|297:50,1,68,2|8,0:0|0:0,0:0:0:0:
378,27,5813,2,0,P|401:47|400:86,1,68,2|0,0:0|3:0,0:0:0:0:
474,128,6146,2,0,P|486:116|485:99,2,34,0|0|8,3:0|3:0|0:0,0:0:0:0:
483,213,6480,6,0,B|438:205|417:228|411:226|393:253|343:232,1,136,2|0,0:0|0:0,0:0:0:0:
295,298,6980,1,8,0:0:0:0:
212,317,7146,2,0,B|167:325|146:302|140:304|122:277|72:298,1,136,2|0,0:0|0:0,0:0:0:0:
24,232,7646,1,8,0:0:0:0:
105,206,7813,1,2,0:0:0:0:
274,221,8146,6,0,L|281:149,1,68,2|8,0:0|0:0,0:0:0:0:
320,77,8480,2,0,L|248:70,1,68,2|0,0:0|3:0,0:0:0:0:
176,31,8813,2,0,L|169:103,1,68,2|8,0:0|0:0,0:0:0:0:
130,175,9146,5,0,3:0:0:0:
130,175,9230,1,0,3:0:0:0:
130,175,9313,1,0,3:0:0:0:
157,255,9480,2,0,L|191:259,2,34,0|0|8,3:0|3:0|0:0,0:0:0:0:
71,248,9813,1,2,0:0:0:0:
38,81,10146,2,0,L|4:85,2,34,0|0|8,3:0|3:0|0:0,0:0:0:0:
124,74,10480,6,0,P|175:25|237:29,1,136,2|2,0:0|0:0,0:0:0:0:
298,86,10980,1,8,0:0:0:0:
271,166,11146,2,0,P|272:205|280:240,1,68,2|0,0:0|3:0,0:0:0:0:
302,314,11480,1,2,0:0:0:0:
360,252,11646,1,8,0:0:0:0:
440,279,11813,2,0,P|479:278|514:270,1,68,2|0,0:0|3:0,0:0:0:0:
509,188,12146,6,0,P|508:168|504:151,2,34,0|0|8,3:0|3:0|0:0,0:0:0:0:
423,192,12480,1,2,0:0:0:0:
300,74,12813,2,0,P|300:54|304:37,2,34,0|0|8,3:0|3:0|0:0,0:0:0:0:
214,70,13146,2,0,B|171:57|150:83|154:88|129:115|82:101,1,136,2|2,0:0|0:0,0:0:0:0:
17,149,13646,1,8,0:0:0:0:
23,234,13813,1,2,0:0:0:0:
99,271,13980,5,8,0:0:0:0:
253,196,14313,2,0,L|257:246,3,34,2|2|2|2,0:0|0:0|0:0|0:0,0:0:0:0:
258,263,14646,5,4,3:2:0:0:
346,242,14813,1,0,3:0:0:0:
346,242,14896,1,0,3:0:0:0:
346,242,14980,2,0,P|374:251|388:301,1,68,8|2,0:0|0:0,0:0:0:0:
317,327,15313,1,8,0:0:0:0:
233,347,15480,2,0,P|218:350|200:331,2,34,0|0|8,3:0|3:0|0:0,0:0:0:0:
401,375,15980,6,0,L|471:364,1,68,10|0,0:0|0:0,0:0:0:0:
498,284,16313,2,0,L|487:214,1,68,8|0,0:0|0:0,0:0:0:0:
407,187,16646,2,0,L|337:198,1,68,8|0,0:0|0:0,0:0:0:0:
310,278,16980,1,8,0:0:0:0:
229,249,17146,1,8,0:0:0:0:
258,168,17313,6,0,B|278:122|254:99|250:104|225:82|250:29,1,136,10|8,0:0|0:0,0:0:0:0:
329,55,17813,1,0,3:0:0:0:
405,17,17980,2,0,P|442:24|474:47,1,68,8|0,0:0|0:0,0:0:0:0:
502,117,18313,2,0,P|495:154|472:186,1,68,8|0,0:0|0:0,0:0:0:0:
402,214,18646,5,10,0:0:0:0:
334,166,18813,1,8,0:0:0:0:
257,199,18980,2,0,P|190:202|144:249,1,136,8|8,0:0|0:0,0:0:0:0:
160,341,19480,1,8,0:0:0:0:
160,341,19563,1,8,0:0:0:0:
160,341,19646,1,8,0:0:0:0:
68,358,19813,5,8,0:0:0:0:
68,358,19896,1,8,0:0:0:0:
68,358,19980,2,0,P|68:321|53:285,1,68,10|8,0:0|0:0,0:0:0:0:
44,208,20313,2,0,P|76:189|99:158,1,68,8|8,0:0|0:0,0:0:0:0:
161,112,20646,6,0,L|161:43,1,68,10|8,0:0|0:0,0:0:0:0:
240,11,20980,2,0,L|309:11,1,68,8|8,0:0|0:0,0:0:0:0:
341,90,21313,2,0,L|341:159,1,68,10|8,0:0|0:0,0:0:0:0:
262,191,21646,2,0,L|193:191,1,68,8|8,0:0|0:0,0:0:0:0:
197,276,21980,6,0,P|187:313|216:329,1,68,10|8,0:0|0:0,0:0:0:0:
291,341,22313,2,0,P|310:373|342:364,1,68,8|8,0:0|0:0,0:0:0:0:
404,318,22646,6,0,P|422:322|430:308,3,34,10|8|8|8,0:0|0:0|0:0|0:0,0:0:0:0:
457,291,22980,2,0,P|466:274|456:262,3,34,8|8|8|8,0:0|0:0|0:0|0:0,0:0:0:0:
448,231,23313,2,0,P|435:216|420:222,3,34,10|8|8|8,0:0|0:0|0:0|0:0,0:0:0:0:
387,221,23646,2,0,P|369:228|370:244,3,34,8|8|8|8,0:0|0:0|0:0|0:0,0:0:0:0:
360,275,23980,5,6,3:2:0:0:
152,109,25313,1,4,3:2:0:0:
256,192,25480,12,0,29313,0:0:0:0:
0,178,30313,6,0,P|19:190|54:193,1,54.4,2|0,0:0|0:0,0:0:0:0:
112,135,30646,2,0,P|248:161|326:10,1,326.4,2|0,0:0|0:0,0:0:0:0:
488,70,31980,1,2,0:0:0:0:
488,70,32313,2,0,P|456:170|491:285,1,217.6,2|0,0:0|0:0,0:0:0:0:
486,360,33146,1,2,0:0:0:0:
412,317,33313,6,0,B|343:271|251:322|262:342|184:381|95:336,1,326.4,2|0,0:0|0:0,0:0:0:0:
14,192,34646,1,2,0:0:0:0:
14,192,34980,2,0,B|59:161|121:195|113:208|165:234|225:204,1,217.6,2|0,0:0|0:0,0:0:0:0:
391,203,35980,6,0,P|410:157|381:111,1,108.8,2|0,0:0|0:0,0:0:0:0:
380,110,37313,1,2,0:0:0:0:
380,110,37646,2,0,B|324:107|309:66|309:69|295:25|238:29,1,163.2,2|0,0:0|0:0,0:0:0:0:
186,89,38313,2,0,B|111:92|91:147|91:143|72:202|-2:196,3,217.6,2|0|0|0,0:0|0:0|0:0|0:0,0:0:0:0:
7,196,40980,6,0,P|41:205|54:222,1,54.4,2|0,0:0|0:0,0:0:0:0:
33,302,41313,2,0,P|199:315|363:370,1,326.4,2|0,0:0|0:0,0:0:0:0:
507,294,42646,1,2,0:0:0:0:
507,294,42980,2,0,P|447:167|418:27,1,272,2|0,0:0|0:0,0:0:0:0:
334,46,43980,6,0,B|294:53|282:34|287:36|271:15|223:26,2,108.8,2|0|0,0:0|0:0|0:0,0:0:0:0:
341,131,44813,1,2,0:0:0:0:
172,146,45146,1,2,0:0:0:0:
187,315,45480,2,0,B|286:291|326:343|314:338|344:386|444:368,1,272,2|0,0:0|0:0,0:0:0:0:
493,206,46646,6,0,P|451:190|407:234,1,108.8,2|0,0:0|0:0,0:0:0:0:
407,229,47980,1,2,0:0:0:0:
407,229,48313,2,0,P|328:216|267:149,1,163.2,2|0,0:0|0:0,0:0:0:0:
292,76,48980,2,0,P|224:158|106:184,3,217.6,2|0|0|0,0:0|0:0|0:0|0:0,0:0:0:0:
120,185,51980,6,0,L|192:192,1,61.1999981323243,4|0,3:2|0:0,0:0:0:0:
265,202,52313,2,0,L|258:274,1,61.1999981323243,8|0,0:0|0:0,0:0:0:0:
341,286,52646,2,0,L|349:194,2,91.7999971984864,10|2|2,0:0|0:0|0:0,0:0:0:0:
280,347,53313,6,0,P|250:350|217:363,1,61.1999981323243,10|0,0:0|0:0,0:0:0:0:
135,361,53646,2,0,P|117:336|89:314,1,61.1999981323243,8|0,0:0|0:0,0:0:0:0:
50,242,53980,2,0,P|68:200|76:148,2,91.7999971984864,10|2|2,0:0|0:0|0:0,0:0:0:0:
135,249,54646,6,0,L|201:254,1,61.1999981323243,10|0,0:0|0:0,0:0:0:0:
223,165,54980,2,0,L|289:160,1,61.1999981323243,8|0,0:0|0:0,0:0:0:0:
310,71,55313,2,0,L|402:78,2,91.7999971984864,10|2|2,0:0|0:0|0:0,0:0:0:0:
224,72,55980,6,0,P|200:57|181:24,1,61.1999981323243,10|0,0:0|0:0,0:0:0:0:
96,28,56313,2,0,P|81:52|48:71,1,61.1999981323243,8|0,0:0|0:0,0:0:0:0:
72,153,56646,2,0,P|127:140|200:160,1,122.399996264649,10|8,0:0|0:0,0:0:0:0:
283,157,57146,5,8,0:0:0:0:
283,157,57230,1,8,0:0:0:0:
283,157,57313,2,0,L|280:224,1,61.1999981323243,10|0,0:0|0:0,0:0:0:0:
199,245,57646,2,0,L|132:242,1,61.1999981323243,8|0,0:0|0:0,0:0:0:0:
134,328,57980,2,0,L|42:323,2,91.7999971984864,10|2|2,0:0|0:0|0:0,0:0:0:0:
215,354,58646,6,0,P|249:343|260:314,1,61.1999981323243,10|0,0:0|0:0,0:0:0:0:
339,288,58980,2,0,P|355:256|342:227,1,61.1999981323243,8|0,0:0|0:0,0:0:0:0:
380,153,59313,2,0,P|363:102|320:85,2,91.7999971984864,10|2|2,0:0|0:0|0:0,0:0:0:0:
433,220,59980,5,10,0:0:0:0:
500,270,60146,1,8,0:0:0:0:
473,349,60313,1,8,0:0:0:0:
389,347,60480,1,8,0:0:0:0:
364,268,60646,2,0,B|329:252|301:275|303:279|274:298|232:281,1,136,10|0,0:0|0:0,0:0:0:0:
156,316,61146,6,0,L|131:347,2,34,8|8|10,0:0|0:0|0:0,0:0:0:0:
168,232,61480,1,8,0:0:0:0:
168,232,61563,1,8,0:0:0:0:
168,232,61646,1,10,0:0:0:0:
88,268,61813,1,8,0:0:0:0:
88,268,61896,1,8,0:0:0:0:
88,268,61980,2,0,L|39:263,3,34,10|0|0|0,0:0|3:0|3:0|3:0,0:0:0:0:
27,243,62313,2,0,L|32:194,3,34,10|0|0|0,0:0|3:0|3:0|3:0,0:0:0:0:
52,182,62646,6,0,L|42:84,1,68,6|0,3:2|3:0,0:0:0:0:
98,47,62980,1,0,3:0:0:0:
183,38,63146,1,0,3:0:0:0:
249,91,63313,2,0,B|265:130|255:142|253:142|243:152|260:194,2,102,2|0|2,3:2|3:0|3:2,0:0:0:0:
403,18,64146,1,0,3:0:0:0:
479,56,64313,1,0,3:0:0:0:
484,140,64480,1,0,3:0:0:0:
413,186,64646,6,0,P|434:222|470:222,2,81.6,2|0|0,0:0|0:0|0:0,0:0:0:0:
334,220,65313,6,0,L|315:290,1,68,6|0,3:2|3:0,0:0:0:0:
241,326,65646,1,0,3:0:0:0:
218,244,65813,1,0,3:0:0:0:
136,267,65980,2,0,B|104:280|90:263|90:259|74:237|25:247,2,102,2|0|2,3:2|3:0|3:2,0:0:0:0:
250,141,66813,1,0,3:0:0:0:
233,57,66980,1,0,3:0:0:0:
151,29,67146,1,0,3:0:0:0:
85,86,67313,5,2,0:0:0:0:
85,86,67646,2,0,P|74:101|33:110,1,54.4,2|0,0:0|0:0,0:0:0:0:
18,194,67980,6,0,P|18:212|12:236,3,34,6|0|0|0,3:2|3:0|3:0|3:0,0:0:0:0:
11,260,68313,2,0,P|27:269|44:285,3,34,0|0|0|0,3:0|3:0|3:0|3:0,0:0:0:0:
65,299,68646,2,0,P|81:289|104:282,3,34,2|0|0|0,3:2|3:0|3:0|3:0,0:0:0:0:
125,271,68980,2,0,P|124:252|130:228,3,34,0|0|0|0,3:0|3:0|3:0|3:0,0:0:0:0:
132,205,69313,6,0,P|115:195|98:179,3,34,2|0|0|0,3:2|3:0|3:0|3:0,0:0:0:0:
103,152,69646,2,0,P|102:115|108:83,1,68,0|0,3:0|3:0,0:0:0:0:
174,31,69980,2,0,P|211:30|243:36,1,68,2|0,3:2|3:0,0:0:0:0:
295,102,70313,2,0,P|296:139|290:171,1,68,0|0,3:0|3:0,0:0:0:0:
224,223,70646,6,0,P|258:321|470:174,1,476,2|0,3:2|3:0,0:0:0:0:
408,119,71980,5,6,3:2:0:0:
482,78,72146,2,0,P|483:49|472:8,1,68,0|0,3:0|3:0,0:0:0:0:
391,36,72480,1,0,3:0:0:0:
391,36,72563,1,0,3:0:0:0:
391,36,72646,2,0,L|344:23,3,34,2|0|0|0,3:2|3:0|3:0|3:0,0:0:0:0:
325,36,72980,2,0,L|278:49,3,34,2|0|0|0,3:2|3:0|3:0|3:0,0:0:0:0:
255,36,73313,6,0,B|205:62|178:32|183:31|158:3|107:26,1,149.60000456543,6|8,3:2|0:0,0:0:0:0:
21,35,73813,1,0,3:0:0:0:
33,127,73980,2,0,P|29:177|77:213,1,112.200003424072,2|0,3:2|3:0,0:0:0:0:
110,206,74313,1,8,0:0:0:0:
169,133,74480,1,2,3:2:0:0:
363,137,74813,5,0,3:0:0:0:
363,137,74896,1,0,3:0:0:0:
363,137,74980,2,0,B|389:129|400:138|399:142|411:152|438:141,1,74.8000022827149,8|0,0:0|0:0,0:0:0:0:
451,245,75313,2,0,B|412:233|395:246|397:252|379:267|338:251,2,112.200003424072,2|0|0,3:2|3:0|3:0,0:0:0:0:
471,336,75980,6,0,P|419:367|332:351,1,149.60000456543,2|8,3:2|0:0,0:0:0:0:
257,299,76480,1,0,3:0:0:0:
167,326,76646,2,0,P|151:279|150:215,1,112.200003424072,2|0,3:2|3:0,0:0:0:0:
156,179,76980,1,8,0:0:0:0:
244,206,77146,1,2,3:2:0:0:
417,134,77480,5,0,3:0:0:0:
417,134,77563,1,0,3:0:0:0:
417,134,77646,2,0,P|453:131|475:93,1,74.8000022827149,8|0,0:0|0:0,0:0:0:0:
415,27,77980,2,0,L|378:40,3,37.4000011413575,2|0|0|0,3:2|3:0|3:0|3:0,0:0:0:0:
344,26,78313,2,0,L|336:64,3,37.4000011413575,8|0|0|0,0:0|3:0|3:0|3:0,0:0:0:0:
307,86,78646,6,0,B|255:94|250:124|254:128|248:158|183:168,1,149.60000456543,2|8,3:2|0:0,0:0:0:0:
132,241,79146,1,0,3:0:0:0:
57,184,79313,2,0,P|19:140|14:85,1,112.200003424072,2|0,3:2|3:0,0:0:0:0:
10,50,79646,1,8,0:0:0:0:
97,16,79813,1,2,3:2:0:0:
290,40,80146,5,0,3:0:0:0:
290,40,80230,1,0,3:0:0:0:
290,40,80313,2,0,L|370:52,1,74.8000022827149,8|0,0:0|0:0,0:0:0:0:
430,116,80646,2,0,L|500:27,2,112.200003424072,2|0|0,3:2|3:0|3:0,0:0:0:0:
341,145,81313,6,0,P|306:140|275:168,1,74.8000022827149,2|0,3:2|0:0,0:0:0:0:
183,156,81646,2,0,P|178:191|206:222,1,74.8000022827149,8|0,0:0|0:0,0:0:0:0:
258,295,81980,2,0,P|216:329|161:322,1,112.200003424072,2|0,3:2|3:0,0:0:0:0:
140,291,82313,1,8,0:0:0:0:
47,305,82480,6,0,L|11:337,2,37.4000011413575,0|0|2,3:0|3:0|3:2,0:0:0:0:
81,217,82813,1,0,3:0:0:0:
81,217,82896,1,0,3:0:0:0:
81,217,82980,2,0,L|61:122,1,74.8000022827149,8|0,0:0|0:0,0:0:0:0:
45,52,83313,2,0,P|69:48|85:38,3,37.4000011413575,2|0|0|0,3:2|3:0|3:0|3:0,0:0:0:0:
114,25,83646,2,0,P|133:39|152:43,3,37.4000011413575,8|0|0|0,0:0|3:0|3:0|3:0,0:0:0:0:
181,54,83980,6,0,P|254:33|325:76,1,149.60000456543,6|8,3:2|0:0,0:0:0:0:
278,150,84480,1,0,3:0:0:0:
301,240,84646,2,0,P|246:243|208:283,1,112.200003424072,2|0,3:2|3:0,0:0:0:0:
213,320,84980,1,8,0:0:0:0:
293,368,85146,1,2,3:2:0:0:
475,333,85480,5,0,3:0:0:0:
475,333,85563,1,0,3:0:0:0:
475,333,85646,2,0,P|474:294|479:255,1,74.8000022827149,8|0,0:0|0:0,0:0:0:0:
430,177,85980,2,0,P|423:121|425:65,2,112.200003424072,2|0|0,3:2|3:0|3:0,0:0:0:0:
389,261,86646,6,0,B|343:286|318:260|321:255|292:225|243:239,1,149.60000456543,2|8,3:2|0:0,0:0:0:0:
217,149,87146,1,0,3:0:0:0:
185,60,87313,2,0,B|150:41|131:60|134:64|112:87|75:76,1,112.200003424072,2|0,3:2|3:0,0:0:0:0:
43,72,87646,1,8,0:0:0:0:
17,161,87813,1,2,3:2:0:0:
111,320,88146,5,0,3:0:0:0:
111,320,88230,1,0,3:0:0:0:
111,320,88313,2,0,P|111:279|137:266,1,74.8000022827149,8|0,0:0|0:0,0:0:0:0:
212,208,88646,2,0,P|197:193|202:179,3,37.4000011413575,2|0|0|0,3:2|3:0|3:0|3:0,0:0:0:0:
183,146,88980,2,0,P|162:146|156:133,3,37.4000011413575,8|0|0|0,0:0|3:0|3:0|3:0,0:0:0:0:
118,122,89313,6,0,P|74:81|128:24,1,149.60000456543,6|8,3:2|0:0,0:0:0:0:
211,51,89813,1,0,3:0:0:0:
298,16,89980,2,0,P|341:2|357:59,1,112.200003424072,2|0,3:2|3:0,0:0:0:0:
343,89,90313,2,0,P|337:125|336:164,1,74.8000022827149,8|0,0:0|3:0,0:0:0:0:
350,255,90646,5,6,3:2:0:0:
449,279,90813,1,0,3:0:0:0:
449,279,90896,1,0,3:0:0:0:
449,279,90980,1,8,0:0:0:0:
417,366,91146,1,0,3:0:0:0:
326,346,91313,2,0,B|284:338|271:358|275:360|263:380|211:364,2,112.200003424072,2|0|0,3:2|3:0|3:0,0:0:0:0:
350,255,91980,6,0,P|343:218|322:184,1,74.8000022827149,6|0,3:2|3:0,0:0:0:0:
375,108,92313,2,0,P|339:95|299:96,1,74.8000022827149,8|0,0:0|3:0,0:0:0:0:
260,12,92646,2,0,P|217:48|188:101,1,112.200003424072,6|0,3:2|3:0,0:0:0:0:
180,132,92980,1,8,0:0:0:0:
86,143,93146,5,0,3:0:0:0:
86,143,93230,1,0,3:0:0:0:
86,143,93313,2,0,B|76:89|63:83|60:86|45:82|47:31,2,112.200003424072,4|6|2,3:2|3:2|3:2,0:0:0:0:
138,221,93980,1,6,3:2:0:0:
252,368,94313,2,0,P|259:351|261:330,3,37.4000011413575,2|2|2|2,0:0|0:0|0:0|0:0,0:0:0:0:
263,294,94646,6,0,P|254:242|250:178,1,112.200003424072,6|0,3:2|0:0,0:0:0:0:
246,144,94980,2,0,P|283:141|320:135,1,74.8000022827149,8|0,0:0|0:0,0:0:0:0:
312,50,95313,1,2,3:2:0:0:
312,50,95396,1,0,3:0:0:0:
312,50,95480,1,0,3:0:0:0:
404,39,95646,2,0,P|406:76|412:113,1,74.8000022827149,8|0,0:0|3:0,0:0:0:0:
388,204,95980,5,2,3:2:0:0:
488,224,96146,1,0,3:0:0:0:
488,224,96230,1,0,3:0:0:0:
488,224,96313,2,0,P|496:296|437:341,1,149.60000456543,8|2,0:0|3:2,0:0:0:0:
361,298,96813,1,0,3:0:0:0:
361,298,96896,1,0,3:0:0:0:
361,298,96980,1,8,0:0:0:0:
319,377,97146,1,0,3:0:0:0:
262,302,97313,6,0,P|212:297|171:252,1,112.200003424072,2|0,3:2|0:0,0:0:0:0:
183,217,97646,2,0,P|169:186|181:147,1,74.8000022827149,8|0,0:0|0:0,0:0:0:0:
260,94,97980,1,2,3:2:0:0:
260,94,98063,1,0,3:0:0:0:
260,94,98146,1,0,3:0:0:0:
165,60,98313,2,0,P|131:56|104:26,1,74.8000022827149,8|0,0:0|3:0,0:0:0:0:
12,44,98646,5,2,3:2:0:0:
29,136,98813,1,0,3:0:0:0:
29,136,98896,1,0,3:0:0:0:
29,136,98980,2,0,B|48:177|26:209|30:210|5:244|34:281,1,149.60000456543,8|0,0:0|3:0,0:0:0:0:
123,243,99480,1,0,3:0:0:0:
123,243,99563,1,0,3:0:0:0:
123,243,99646,1,8,0:0:0:0:
107,335,99813,1,0,3:0:0:0:
195,303,99980,6,0,P|263:308|300:266,1,112.200003424072,2|0,3:2|0:0,0:0:0:0:
285,244,100313,2,0,P|288:198|260:174,1,74.8000022827149,8|0,0:0|0:0,0:0:0:0:
179,154,100646,2,0,B|151:127|158:98|160:100|162:73|135:46,2,112.200003424072,2|0|0,3:2|3:0|3:0,0:0:0:0:
250,92,101313,6,0,P|283:82|307:40,1,74.8000022827149,2|0,3:2|0:0,0:0:0:0:
394,20,101646,2,0,P|412:87|497:135,1,149.60000456543,8|2,0:0|3:2,0:0:0:0:
492,232,102146,1,0,3:0:0:0:
492,232,102230,1,0,3:0:0:0:
492,232,102313,1,8,0:0:0:0:
391,250,102480,1,0,3:0:0:0:
348,166,102646,6,0,P|314:155|274:153,1,74.8000022827149,2|0,3:2|0:0,0:0:0:0:
196,101,102980,2,0,P|164:117|134:144,1,74.8000022827149,8|0,0:0|0:0,0:0:0:0:
42,162,103313,2,0,P|25:213|22:273,2,112.200003424072,2|0|2,3:2|3:0|3:2,0:0:0:0:
195,286,104146,5,0,3:0:0:0:
195,286,104230,1,0,3:0:0:0:
195,286,104313,2,0,P|228:301|249:340,1,74.8000022827149,8|0,0:0|0:0,0:0:0:0:
338,357,104646,2,0,P|345:340|365:329,3,37.4000011413575,2|0|0|0,3:2|3:0|3:0|3:0,0:0:0:0:
378,296,104980,2,0,P|371:278|377:257,3,37.4000011413575,8|0|0|0,0:0|3:0|3:0|3:0,0:0:0:0:
363,224,105313,6,0,L|357:72,1,149.60000456543,6|8,3:2|0:0,0:0:0:0:
283,17,105813,1,0,3:0:0:0:
189,20,105980,2,0,L|194:169,1,149.60000456543,10|8,0:0|0:0,0:0:0:0:
225,352,106646,5,10,0:0:0:0:
134,377,106813,1,0,3:0:0:0:
66,310,106980,2,0,B|80:259|50:237|51:240|22:218|35:157,1,149.60000456543,8|10,0:0|0:0,0:0:0:0:
32,169,107396,1,0,3:0:0:0:
32,169,107480,1,0,3:0:0:0:
36,76,107646,1,8,0:0:0:0:
118,31,107813,1,8,0:0:0:0:
197,79,107980,6,0,P|261:92|357:93,1,149.60000456543,10|8,0:0|0:0,0:0:0:0:
332,186,108480,1,0,3:0:0:0:
299,275,108646,2,0,P|267:268|219:268,2,74.8000022827149,10|0|8,0:0|3:0|0:0,0:0:0:0:
361,359,109146,5,0,3:0:0:0:
361,359,109230,1,0,3:0:0:0:
361,359,109313,1,10,0:0:0:0:
453,334,109480,1,8,0:0:0:0:
457,238,109646,1,8,0:0:0:0:
337,93,109980,5,10,0:0:0:0:
274,31,110146,1,0,3:0:0:0:
274,31,110230,1,0,3:0:0:0:
274,31,110313,1,8,0:0:0:0:
249,123,110480,5,0,3:0:0:0:
249,123,110563,1,0,3:0:0:0:
249,123,110646,2,0,L|176:99,1,74.8000022827149,10|8,0:0|0:0,0:0:0:0:
99,47,110980,2,0,L|75:120,1,74.8000022827149,8|8,0:0|0:0,0:0:0:0:
23,197,111313,2,0,L|96:221,1,74.8000022827149,10|8,0:0|0:0,0:0:0:0:
173,273,111646,2,0,L|197:200,1,74.8000022827149,8|8,0:0|0:0,0:0:0:0:
289,214,111980,6,0,P|324:205|362:210,1,74.8000022827149,10|8,0:0|0:0,0:0:0:0:
447,172,112313,2,0,P|455:207|450:245,1,74.8000022827149,8|8,0:0|0:0,0:0:0:0:
489,330,112646,2,0,P|453:338|415:333,1,74.8000022827149,10|8,0:0|0:0,0:0:0:0:
331,372,112980,2,0,P|322:336|327:298,1,74.8000022827149,8|8,0:0|0:0,0:0:0:0:
289,214,113313,6,0,L|254:190,3,37.4000011413575,2|8|8|8,3:2|0:0|0:0|0:0,0:0:0:0:
220,195,113646,2,0,L|212:153,3,37.4000011413575,8|8|8|8,0:0|0:0|0:0|0:0,0:0:0:0:
184,133,113980,2,0,L|208:98,3,37.4000011413575,2|8|8|8,3:2|0:0|0:0|0:0,0:0:0:0:
203,64,114313,2,0,L|244:56,3,37.4000011413575,8|8|8|8,0:0|0:0|0:0|0:0,0:0:0:0:
265,28,114646,5,6,3:2:0:0:
365,23,114813,1,0,3:0:0:0:
365,23,114896,1,0,3:0:0:0:
365,23,114980,2,0,P|376:53|373:94,1,74.8000022827149,0|0,3:0|3:0,0:0:0:0:
299,152,115313,2,0,P|296:170|303:187,3,37.4000011413575,2|0|0|0,3:2|3:0|3:0|3:0,0:0:0:0:
327,216,115646,2,0,P|345:218|362:211,3,37.4000011413575,0|0|0|0,3:0|3:0|3:0|3:0,0:0:0:0:
391,188,115980,5,6,3:2:0:0:
256,192,116146,12,0,121313,0:0:0:0:
