osu file format v14

[General]
AudioFilename: audio.mp3
AudioLeadIn: 0
PreviewTime: 73146
Countdown: 0
SampleSet: Soft
StackLeniency: 0.7
Mode: 0
LetterboxInBreaks: 0
WidescreenStoryboard: 0

[Editor]
Bookmarks: 3980,14646,25313,30646,41313,51980,62646,73313,83980,94646,105313,115980,121313
DistanceSpacing: 1.25
BeatDivisor: 4
GridSize: 4
TimelineZoom: 2.3

[Metadata]
Title:Cross-D Skyline
TitleUnicode:Cross-D Skyline
Artist:Sephid
ArtistUnicode:Sephid
Creator:Hinsvar
Version:Expert
Source:第三回BMS衆議院選
Tags:Electronic English UK Hardcore UKHC 3rd BMS Shuugiinsen dai san kai Shūgiinsen BMS_Shuin BMS Shuin Featured Artist FA Mappers' Guild MPG
BeatmapID:4519759
BeatmapSetID:2145826

[Difficulty]
HPDrainRate:6
CircleSize:3.2
OverallDifficulty:8.7
ApproachRate:9.2
SliderMultiplier:1.76
SliderTickRate:1

[Events]
//Background and Video events
0,0,"BG.jpg",0,0
//Break Periods
//Storyboard Layer 0 (Background)
//Storyboard Layer 1 (Fail)
//Storyboard Layer 2 (Pass)
//Storyboard Layer 3 (Foreground)
//Storyboard Layer 4 (Overlay)
//Storyboard Sound Samples

[TimingPoints]
-1353,333.333333333333,4,2,1,60,1,0
3313,-100,4,2,1,60,0,0
3980,-100,4,2,1,70,0,0
13980,-200,4,2,1,60,0,0
14646,-100,4,2,1,70,0,0
29313,-100,4,2,1,35,0,0
30313,-200,4,2,2,50,0,0
51980,-133.333333333333,4,2,1,60,0,0
59980,-100,4,2,1,70,0,0
64646,-200,4,2,1,60,0,0
65313,-100,4,2,1,70,0,0
67313,-200,4,2,1,60,0,0
67980,-100,4,2,1,70,0,0
70702,-100,4,2,1,35,0,0
71980,-100,4,2,1,70,0,0
73313,-80,4,2,1,80,0,1
93313,-200,4,2,1,50,0,0
93563,-80,4,2,1,60,0,0
93813,-50,4,2,1,70,0,0
93980,-50,4,2,1,80,0,1
94313,-80,4,2,1,80,0,0
94646,-80,4,2,1,80,0,1
115980,-100,4,2,1,80,0,0
117313,-100,4,2,1,65,0,0
118646,-100,4,2,1,50,0,0
119980,-100,4,2,1,35,0,0
121313,-100,4,2,1,20,0,0

[Colours]
Combo1 : 238,238,36
Combo2 : 124,173,245
Combo3 : 247,107,23
Combo4 : 74,220,236

[HitObjects]
59,338,3313,6,0,B|78:347|78:347|105:328,1,44,8|0,0:0|0:0,0:0:0:0:
67,221,3480,1,0,3:0:0:0:
66,210,3563,1,0,3:0:0:0:
64,198,3646,1,8,0:0:0:0:
99,172,3730,1,8,0:0:0:0:
135,147,3813,1,0,3:0:0:0:
175,162,3896,1,0,3:0:0:0:
215,181,3980,5,4,3:2:0:0:
366,269,4146,2,0,L|378:328,1,44,0|0,3:0|3:0,0:0:0:0:
439,362,4313,1,8,0:0:0:0:
356,148,4480,2,0,P|391:168|454:170,1,88,2|0,0:0|3:0,0:0:0:0:
496,14,4813,1,0,3:0:0:0:
496,14,4896,1,0,3:0:0:0:
496,14,4980,1,8,0:0:0:0:
256,43,5146,6,0,L|400:37,1,132,2|0,0:0|0:0,0:0:0:0:
387,37,5480,2,0,B|404:83|404:83|393:125,1,88,2|8,0:0|0:0,0:0:0:0:
185,129,5813,2,0,B|196:166|196:166|234:198,1,88,2|0,0:0|3:0,0:0:0:0:
461,232,6146,1,0,3:0:0:0:
461,232,6230,1,0,3:0:0:0:
461,232,6313,1,8,0:0:0:0:
369,368,6480,6,0,B|393:321|358:283|355:289|320:250|345:193,1,176,2|0,0:0|0:0,0:0:0:0:
256,323,6980,1,8,0:0:0:0:
143,16,7146,2,0,B|119:63|154:101|157:95|192:134|167:191,1,176,2|0,0:0|0:0,0:0:0:0:
256,61,7646,2,0,L|256:10,1,44,8|0,0:0|0:0,0:0:0:0:
507,22,7813,6,0,P|452:25|395:94,1,132,2|0,0:0|0:0,0:0:0:0:
399,77,8146,2,0,B|370:108|370:108|325:118,1,88,2|8,0:0|0:0,0:0:0:0:
282,373,8480,2,0,B|270:332|270:332|284:288,1,88,2|0,0:0|3:0,0:0:0:0:
85,124,8813,2,0,B|127:134|127:134|158:168,1,88,2|8,0:0|0:0,0:0:0:0:
73,235,9146,5,0,3:0:0:0:
73,235,9230,1,0,3:0:0:0:
73,235,9313,1,0,3:0:0:0:
247,213,9480,2,0,L|252:155,1,44,0|0,3:0|3:0,0:0:0:0:
229,92,9646,1,8,0:0:0:0:
419,146,9813,2,0,P|382:169|361:206,1,88,2|0,0:0|3:0,0:0:0:0:
174,371,10146,1,0,3:0:0:0:
174,371,10230,1,0,3:0:0:0:
174,371,10313,1,8,0:0:0:0:
314,305,10480,6,0,P|373:305|412:362,1,132,2|0,0:0|0:0,0:0:0:0:
411,360,10813,1,2,0:0:0:0:
508,251,10980,1,8,0:0:0:0:
398,154,11146,2,0,L|309:165,1,88,2|0,0:0|3:0,0:0:0:0:
100,23,11480,5,2,0:0:0:0:
4,133,11646,1,8,0:0:0:0:
114,230,11813,2,0,L|203:219,1,88,2|0,0:0|3:0,0:0:0:0:
342,52,12146,5,0,3:0:0:0:
342,52,12230,1,0,3:0:0:0:
342,52,12313,1,8,0:0:0:0:
253,129,12480,2,0,P|237:85|210:41,1,88,2|0,0:0|3:0,0:0:0:0:
394,178,12813,2,0,P|409:160|421:137,1,44,0|0,3:0|3:0,0:0:0:0:
455,70,12980,1,8,0:0:0:0:
302,228,13146,6,0,B|323:270|305:297|302:293|281:320|314:368,1,132,2|0,0:0|0:0,0:0:0:0:
306,354,13480,1,2,0:0:0:0:
201,219,13646,1,8,0:0:0:0:
410,287,13813,1,2,0:0:0:0:
196,333,13980,6,0,B|168:340|168:340|177:375,1,66,8|0,0:0|0:0,0:0:0:0:
55,373,14313,5,2,0:0:0:0:
76,366,14396,1,2,0:0:0:0:
89,357,14480,1,2,0:0:0:0:
84,337,14563,1,2,0:0:0:0:
78,315,14646,1,4,3:2:0:0:
281,255,14813,5,0,3:0:0:0:
281,255,14896,1,0,3:0:0:0:
281,255,14980,1,8,0:0:0:0:
128,110,15146,1,2,0:0:0:0:
151,217,15313,1,8,0:0:0:0:
379,162,15480,1,0,3:0:0:0:
379,162,15563,1,0,3:0:0:0:
379,162,15646,2,0,L|388:74,1,88,8|0,0:0|0:0,0:0:0:0:
251,19,15980,6,0,B|245:64|245:64|275:111,1,88,10|0,0:0|0:0,0:0:0:0:
83,197,16313,2,0,B|128:203|128:203|175:173,1,88,8|0,0:0|0:0,0:0:0:0:
261,365,16646,2,0,B|267:320|267:320|237:273,1,88,8|0,0:0|0:0,0:0:0:0:
462,164,16980,6,0,B|439:161|439:161|416:176,1,44,8|0,0:0|0:0,0:0:0:0:
315,226,17146,2,0,B|337:229|337:229|361:214,1,44,8|0,0:0|0:0,0:0:0:0:
348,139,17313,5,10,0:0:0:0:
301,13,17480,1,0,3:0:0:0:
262,99,17646,5,8,0:0:0:0:
386,53,17813,1,0,3:0:0:0:
126,53,17980,6,0,L|42:28,1,88,8|0,0:0|0:0,0:0:0:0:
215,186,18313,2,0,L|129:206,1,88,8|0,0:0|0:0,0:0:0:0:
358,256,18646,6,0,L|326:286,1,44,10|0,0:0|0:0,0:0:0:0:
404,375,18813,2,0,L|416:333,1,44,8|0,0:0|0:0,0:0:0:0:
489,239,18980,2,0,L|509:324,1,88,8|0,0:0|0:0,0:0:0:0:
249,368,19313,5,8,0:0:0:0:
71,309,19480,1,8,0:0:0:0:
71,309,19563,1,8,0:0:0:0:
71,309,19646,1,8,0:0:0:0:
130,131,19813,5,8,0:0:0:0:
130,131,19896,1,8,0:0:0:0:
130,131,19980,1,10,0:0:0:0:
211,163,20146,1,8,0:0:0:0:
297,150,20313,1,8,0:0:0:0:
365,95,20480,1,8,0:0:0:0:
396,14,20646,5,10,0:0:0:0:
287,35,20813,1,8,0:0:0:0:
203,107,20980,1,8,0:0:0:0:
166,211,21146,1,8,0:0:0:0:
187,320,21313,5,10,0:0:0:0:
307,374,21480,1,8,0:0:0:0:
413,297,21646,1,8,0:0:0:0:
293,243,21813,1,8,0:0:0:0:
40,66,21980,5,10,0:0:0:0:
59,220,22146,1,8,0:0:0:0:
213,201,22313,1,8,0:0:0:0:
194,47,22480,1,8,0:0:0:0:
472,66,22646,5,10,0:0:0:0:
456,50,22730,1,8,0:0:0:0:
436,41,22813,1,8,0:0:0:0:
415,38,22896,1,8,0:0:0:0:
393,44,22980,1,8,0:0:0:0:
375,56,23063,1,8,0:0:0:0:
362,73,23146,1,8,0:0:0:0:
356,94,23230,1,8,0:0:0:0:
358,136,23313,5,10,0:0:0:0:
314,134,23396,1,8,0:0:0:0:
271,142,23480,1,8,0:0:0:0:
232,163,23563,1,8,0:0:0:0:
202,195,23646,1,8,0:0:0:0:
173,228,23730,1,8,0:0:0:0:
136,251,23813,1,8,0:0:0:0:
93,262,23896,1,8,0:0:0:0:
50,262,23980,5,6,3:2:0:0:
461,121,25313,1,4,3:2:0:0:
256,192,25480,12,0,29313,0:0:0:0:
254,45,30313,6,0,P|261:70|265:94,1,44,2|0,0:0|0:0,0:0:0:0:
272,203,30646,2,0,P|224:155|297:196,1,264,2|0,0:0|0:0,0:0:0:0:
49,336,31980,1,2,0:0:0:0:
49,336,32313,2,0,B|64:279|40:245|37:258|6:215|32:168,1,176,2|0,0:0|0:0,0:0:0:0:
63,45,33146,1,2,0:0:0:0:
186,14,33313,6,0,B|261:0|316:48|314:52|366:108|441:72,1,264,2|0,0:0|0:0,0:0:0:0:
326,370,34646,1,2,0:0:0:0:
326,370,34980,2,0,P|264:340|329:330,1,176,2|0,0:0|0:0,0:0:0:0:
462,26,35980,6,0,P|477:66|477:110,1,88,2|0,0:0|0:0,0:0:0:0:
477,110,37313,1,2,0:0:0:0:
476,110,37646,2,0,B|427:98|418:125|421:127|402:161|358:145,1,132,2|0,0:0|0:0,0:0:0:0:
228,119,38313,2,0,B|247:183|284:175|284:171|336:170|347:231,3,176,2|0|0|0,0:0|0:0|0:0|0:0,0:0:0:0:
347,231,40980,6,0,P|339:254|337:287,1,44,2|0,0:0|0:0,0:0:0:0:
388,362,41313,2,0,P|459:304|380:339,1,264,2|0,0:0|0:0,0:0:0:0:
177,109,42646,1,2,0:0:0:0:
177,109,42980,2,0,B|183:184|128:209|123:205|61:232|68:307,1,220,2|0,0:0|0:0,0:0:0:0:
155,240,43980,6,0,P|139:199|92:172,2,88,2|0|0,0:0|0:0|0:0,0:0:0:0:
149,329,44813,1,2,0:0:0:0:
388,289,45146,1,2,0:0:0:0:
348,50,45480,2,0,P|260:28|155:102,1,220,2|0,0:0|0:0,0:0:0:0:
75,375,46646,6,0,P|39:383|-2:354,1,88,2|0,0:0|0:0,0:0:0:0:
0,355,47980,1,2,0:0:0:0:
0,355,48313,2,0,P|66:344|114:301,1,132,2|0,0:0|0:0,0:0:0:0:
246,287,48980,2,0,P|158:272|94:215,3,176,2|0|0|0,0:0|0:0|0:0|0:0,0:0:0:0:
94,216,51980,6,0,L|88:147,1,66.0000025177003,4|0,3:2|0:0,0:0:0:0:
223,80,52313,2,0,L|235:15,1,66.0000025177003,8|0,0:0|0:0,0:0:0:0:
21,75,52646,5,10,0:0:0:0:
128,30,52813,1,2,0:0:0:0:
129,21,52896,1,2,0:0:0:0:
198,172,53063,1,2,0:0:0:0:
195,181,53146,1,2,0:0:0:0:
305,126,53313,6,0,P|332:113|365:121,1,66.0000025177003,10|0,0:0|0:0,0:0:0:0:
462,256,53646,2,0,P|434:269|401:261,1,66.0000025177003,8|0,0:0|0:0,0:0:0:0:
471,110,53980,5,10,0:0:0:0:
321,19,54146,1,2,0:0:0:0:
312,20,54230,1,2,0:0:0:0:
221,170,54396,1,2,0:0:0:0:
222,179,54480,1,2,0:0:0:0:
372,270,54646,6,0,L|366:346,1,66.0000025177003,10|0,0:0|0:0,0:0:0:0:
145,335,54980,2,0,L|140:270,1,66.0000025177003,8|0,0:0|0:0,0:0:0:0:
256,384,55313,5,10,0:0:0:0:
313,193,55480,1,2,0:0:0:0:
321,192,55563,1,2,0:0:0:0:
138,113,55730,1,2,0:0:0:0:
130,112,55813,1,2,0:0:0:0:
350,33,55980,6,0,P|386:30|414:10,1,66.0000025177003,10|0,0:0|0:0,0:0:0:0:
241,132,56313,2,0,P|238:96|218:68,1,66.0000025177003,8|0,0:0|0:0,0:0:0:0:
22,25,56646,2,0,P|25:61|45:89,1,66.0000025177003,10|0,0:0|0:0,0:0:0:0:
60,161,56896,1,8,0:0:0:0:
57,168,56980,2,0,L|36:213,1,33.0000012588501,8|0,0:0|0:0,0:0:0:0:
177,310,57146,5,8,0:0:0:0:
177,310,57230,1,8,0:0:0:0:
177,310,57313,2,0,L|170:233,1,66.0000025177003,10|0,0:0|0:0,0:0:0:0:
335,74,57646,2,0,L|342:151,1,66.0000025177003,8|0,0:0|0:0,0:0:0:0:
367,371,57980,6,0,P|381:356|391:336,1,33.0000012588501,10|0,0:0|0:0,0:0:0:0:
505,331,58146,1,2,0:0:0:0:
498,326,58230,2,0,P|482:321|466:321,1,33.0000012588501,2|8,0:0|0:0,0:0:0:0:
394,226,58396,1,2,0:0:0:0:
393,234,58480,2,0,P|397:249|404:264,1,33.0000012588501,2|0,0:0|0:0,0:0:0:0:
486,86,58646,6,0,P|454:94|424:109,1,66.0000025177003,10|0,0:0|0:0,0:0:0:0:
230,264,58980,2,0,P|261:255|291:240,1,66.0000025177003,8|0,0:0|0:0,0:0:0:0:
88,109,59313,6,0,L|94:146,1,33.0000012588501,10|0,0:0|0:0,0:0:0:0:
40,44,59480,1,2,0:0:0:0:
32,40,59563,2,0,L|-3:26,1,33.0000012588501,2|8,0:0|0:0,0:0:0:0:
120,34,59730,1,2,0:0:0:0:
127,30,59813,2,0,L|156:6,1,33.0000012588501,2|0,0:0|0:0,0:0:0:0:
362,30,59980,5,10,0:0:0:0:
501,184,60146,1,8,0:0:0:0:
347,323,60313,1,8,0:0:0:0:
208,168,60480,1,8,0:0:0:0:
428,101,60646,6,0,L|417:148,1,44,10|0,0:0|0:0,0:0:0:0:
230,264,60813,1,2,0:0:0:0:
271,251,60896,2,0,L|355:225,1,88,2|0,0:0|0:0,0:0:0:0:
490,269,61146,5,8,0:0:0:0:
490,269,61230,1,8,0:0:0:0:
490,269,61313,2,0,L|454:235,1,44,10|0,0:0|0:0,0:0:0:0:
316,131,61480,5,8,0:0:0:0:
291,93,61563,1,8,0:0:0:0:
311,53,61646,1,10,0:0:0:0:
55,117,61813,2,0,L|80:154,1,44,8|8,0:0|0:0,0:0:0:0:
70,233,61980,5,10,0:0:0:0:
72,254,62063,1,0,3:0:0:0:
72,276,62146,1,0,3:0:0:0:
70,298,62230,1,0,3:0:0:0:
64,319,62313,1,10,0:0:0:0:
85,316,62396,1,0,3:0:0:0:
107,316,62480,1,0,3:0:0:0:
129,318,62563,1,0,3:0:0:0:
150,324,62646,5,6,3:2:0:0:
318,240,62813,1,0,3:0:0:0:
155,230,62980,1,0,3:0:0:0:
312,333,63146,1,0,3:0:0:0:
239,188,63313,2,0,L|242:143,1,44,2|0,3:2|0:0,0:0:0:0:
232,379,63480,1,0,3:0:0:0:
232,379,63563,1,0,3:0:0:0:
232,379,63646,1,0,3:0:0:0:
144,128,63813,6,0,P|103:66|47:33,1,132,2|0,3:2|0:0,0:0:0:0:
55,35,64146,1,0,3:0:0:0:
132,231,64313,1,0,3:0:0:0:
340,262,64480,1,0,3:0:0:0:
469,96,64646,6,0,P|482:65|506:41,2,66,2|0|0,0:0|0:0|0:0,0:0:0:0:
202,18,65313,5,6,3:2:0:0:
354,50,65480,1,0,3:0:0:0:
157,139,65646,1,0,3:0:0:0:
312,130,65813,1,0,3:0:0:0:
107,291,65980,2,0,P|124:276|144:267,1,44,2|0,3:2|0:0,0:0:0:0:
300,226,66146,1,0,3:0:0:0:
300,226,66230,1,0,3:0:0:0:
300,226,66313,1,0,3:0:0:0:
70,90,66480,6,0,P|46:149|93:206,1,132,2|0,3:2|0:0,0:0:0:0:
81,201,66813,1,0,3:0:0:0:
251,350,66980,1,0,3:0:0:0:
297,138,67146,1,0,3:0:0:0:
220,261,67313,5,2,0:0:0:0:
220,261,67646,2,0,P|212:235|206:207,1,44,2|0,0:0|0:0,0:0:0:0:
4,52,67980,5,6,3:2:0:0:
44,35,68063,1,0,3:0:0:0:
86,23,68146,1,0,3:0:0:0:
130,17,68230,1,0,3:0:0:0:
174,16,68313,1,0,3:0:0:0:
218,21,68396,1,0,3:0:0:0:
260,31,68480,1,0,3:0:0:0:
301,47,68563,1,0,3:0:0:0:
340,68,68646,1,2,3:2:0:0:
376,94,68730,1,0,3:0:0:0:
408,124,68813,1,0,3:0:0:0:
436,157,68896,1,0,3:0:0:0:
460,194,68980,1,0,3:0:0:0:
479,234,69063,1,0,3:0:0:0:
493,276,69146,1,0,3:0:0:0:
501,319,69230,1,0,3:0:0:0:
503,363,69313,6,0,P|484:369|456:365,3,44,2|0|0|0,3:2|3:0|3:0|3:0,0:0:0:0:
380,373,69646,2,0,P|360:368|338:351,3,44,0|0|0|0,3:0|3:0|3:0|3:0,0:0:0:0:
268,320,69980,1,2,3:2:0:0:
263,310,70063,1,0,3:0:0:0:
259,299,70146,1,0,3:0:0:0:
257,288,70230,1,0,3:0:0:0:
255,278,70313,1,0,3:0:0:0:
255,267,70396,1,0,3:0:0:0:
255,256,70480,1,0,3:0:0:0:
257,245,70563,1,0,3:0:0:0:
260,234,70646,6,0,L|258:200,21,29.3333333333333,2|0|0|0|0|0|0|0|0|0|0|0|0|0|0|0|0|0|0|0|0|0,3:2|3:0|3:0|3:0|3:0|3:0|3:0|3:0|3:0|3:0|3:0|3:0|3:0|3:0|3:0|3:0|3:0|3:0|3:0|3:0|3:0|3:0,0:0:0:0:
75,26,71980,6,0,L|81:70,1,44,6|0,3:2|3:0,0:0:0:0:
6,175,72146,2,0,L|41:147,1,44,0|0,3:0|3:0,0:0:0:0:
171,160,72313,2,0,L|129:143,1,44,0|0,3:0|3:0,0:0:0:0:
98,229,72480,5,0,3:0:0:0:
98,229,72563,1,0,3:0:0:0:
98,229,72646,2,0,L|104:273,3,44,2|0|0|0,3:2|3:0|3:0|3:0,0:0:0:0:
30,367,72980,5,2,3:2:0:0:
73,361,73063,1,0,3:0:0:0:
117,355,73146,1,0,3:0:0:0:
160,349,73230,1,0,3:0:0:0:
204,343,73313,6,0,B|259:370|288:342|285:341|312:311|362:343,1,165,6|0,3:2|0:0,0:0:0:0:
441,353,73646,2,0,L|429:283,1,55,8|0,0:0|0:0,0:0:0:0:
498,147,73813,2,0,L|443:192,1,55,0|0,3:0|0:0,0:0:0:0:
263,154,73980,1,2,3:2:0:0:
292,201,74063,2,0,L|358:225,1,55,0|0,3:0|0:0,0:0:0:0:
385,1,74230,1,0,3:0:0:0:
358,49,74313,2,0,L|370:119,1,55,8|0,0:0|0:0,0:0:0:0:
158,204,74480,6,0,P|115:145|20:130,1,165,2|0,3:2|0:0,0:0:0:0:
56,294,74813,1,0,3:0:0:0:
56,294,74896,1,0,3:0:0:0:
55,293,74980,2,0,P|108:285|142:244,1,110,8|0,0:0|0:0,0:0:0:0:
419,260,75313,5,2,3:2:0:0:
397,306,75396,2,0,P|386:330|396:356,1,55,0|0,3:0|0:0,0:0:0:0:
251,229,75563,1,0,3:0:0:0:
247,178,75646,2,0,P|243:151|222:134,1,55,8|0,0:0|0:0,0:0:0:0:
141,38,75813,5,0,3:0:0:0:
141,38,75896,1,0,3:0:0:0:
141,38,75980,2,0,B|177:7|218:41|215:42|264:74|312:25,1,165,2|0,3:2|0:0,0:0:0:0:
377,22,76313,2,0,P|391:53|421:59,1,55,8|0,0:0|0:0,0:0:0:0:
467,251,76480,2,0,P|433:247|412:270,1,55,0|0,3:0|0:0,0:0:0:0:
187,173,76646,1,2,3:2:0:0:
223,214,76730,2,0,P|242:186|233:157,1,55,0|0,3:0|0:0,0:0:0:0:
110,309,76896,1,0,3:0:0:0:
163,298,76980,2,0,P|149:267|119:261,1,55,8|0,0:0|0:0,0:0:0:0:
344,211,77146,6,0,P|301:278|270:360,1,165,2|0,3:2|0:0,0:0:0:0:
432,348,77480,1,0,3:0:0:0:
432,348,77563,1,0,3:0:0:0:
432,348,77646,2,0,P|407:300|370:255,1,110,8|0,0:0|0:0,0:0:0:0:
289,80,77980,5,2,3:2:0:0:
316,76,78063,1,0,3:0:0:0:
343,72,78146,1,0,3:0:0:0:
370,68,78230,1,0,3:0:0:0:
424,60,78313,5,8,0:0:0:0:
369,52,78396,1,0,3:0:0:0:
315,44,78480,1,0,3:0:0:0:
260,37,78563,1,0,3:0:0:0:
206,29,78646,6,0,P|139:18|95:111,1,165,2|0,3:2|0:0,0:0:0:0:
180,158,78980,2,0,P|188:133|169:115,1,55,8|0,0:0|0:0,0:0:0:0:
1,26,79146,2,0,P|-7:50|11:68,1,55,0|0,3:0|0:0,0:0:0:0:
117,218,79313,1,2,3:2:0:0:
132,271,79396,2,0,L|119:340,1,55,0|0,3:0|0:0,0:0:0:0:
274,131,79563,1,0,3:0:0:0:
313,169,79646,2,0,L|336:235,1,55,8|0,0:0|0:0,0:0:0:0:
234,319,79813,6,0,B|286:311|310:347|308:352|333:387|388:368,1,165,2|0,3:2|0:0,0:0:0:0:
499,325,80146,1,0,3:0:0:0:
499,325,80230,1,0,3:0:0:0:
499,325,80313,2,0,B|463:329|447:305|449:302|432:279|396:291,1,110,8|0,0:0|0:0,0:0:0:0:
175,131,80646,5,2,3:2:0:0:
168,76,80730,2,0,L|160:11,1,55,0|0,3:0|0:0,0:0:0:0:
150,213,80896,1,0,3:0:0:0:
105,246,80980,2,0,L|52:285,1,55,8|0,0:0|0:0,0:0:0:0:
242,202,81146,5,0,3:0:0:0:
242,202,81230,1,0,3:0:0:0:
242,202,81313,2,0,P|306:219|370:310,1,165,2|0,3:2|0:0,0:0:0:0:
228,382,81646,2,0,P|210:318|257:217,1,165,8|0,0:0|0:0,0:0:0:0:
391,305,81980,5,2,3:2:0:0:
354,345,82063,2,0,P|338:360|301:363,1,55,0|0,3:0|0:0,0:0:0:0:
150,213,82230,1,0,3:0:0:0:
96,200,82313,2,0,P|75:193|53:163,1,55,8|0,0:0|0:0,0:0:0:0:
297,26,82480,5,0,3:0:0:0:
297,26,82563,1,0,3:0:0:0:
297,26,82646,2,0,L|290:90,1,55,2|0,3:2|0:0,0:0:0:0:
457,67,82813,5,0,3:0:0:0:
487,111,82896,1,0,3:0:0:0:
463,157,82980,2,0,B|410:140|385:177|391:179|364:217|307:213,1,165,8|0,0:0|0:0,0:0:0:0:
210,153,83313,5,2,3:2:0:0:
160,130,83396,1,0,3:0:0:0:
105,130,83480,1,0,3:0:0:0:
56,153,83563,1,0,3:0:0:0:
20,194,83646,1,8,0:0:0:0:
5,247,83730,1,0,3:0:0:0:
13,300,83813,1,0,3:0:0:0:
43,346,83896,1,0,3:0:0:0:
89,375,83980,6,0,P|107:286|175:280,1,165,6|0,3:2|0:0,0:0:0:0:
224,338,84313,2,0,L|281:332,1,55,8|0,0:0|0:0,0:0:0:0:
438,288,84480,2,0,L|381:282,1,55,0|0,3:0|0:0,0:0:0:0:
283,189,84646,1,2,3:2:0:0:
250,234,84730,2,0,L|226:181,1,55,0|0,3:0|0:0,0:0:0:0:
418,161,84896,1,0,3:0:0:0:
469,138,84980,2,0,L|463:195,1,55,8|0,0:0|0:0,0:0:0:0:
262,9,85146,6,0,B|199:9|190:46|195:45|185:81|117:91,1,165,2|0,3:2|0:0,0:0:0:0:
14,127,85480,1,0,3:0:0:0:
14,127,85563,1,0,3:0:0:0:
14,127,85646,2,0,B|34:163|59:156|57:153|81:147|109:183,1,110,8|0,0:0|0:0,0:0:0:0:
338,350,85980,5,2,3:2:0:0:
369,305,86063,2,0,P|372:273|363:250,1,55,0|0,3:0|0:0,0:0:0:0:
221,142,86230,1,0,3:0:0:0:
190,187,86313,2,0,P|187:219|196:242,1,55,8|0,0:0|0:0,0:0:0:0:
431,381,86480,5,0,3:0:0:0:
431,381,86563,1,0,3:0:0:0:
431,381,86646,2,0,P|497:362|511:272,1,165,2|0,3:2|0:0,0:0:0:0:
505,179,86980,2,0,L|452:198,1,55,8|0,0:0|0:0,0:0:0:0:
302,79,87146,2,0,L|321:132,1,55,0|0,3:0|0:0,0:0:0:0:
427,100,87313,1,2,3:2:0:0:
464,60,87396,2,0,L|445:7,1,55,0|0,3:0|0:0,0:0:0:0:
268,221,87563,1,0,3:0:0:0:
308,258,87646,2,0,L|361:239,1,55,8|0,0:0|0:0,0:0:0:0:
199,133,87813,6,0,B|147:140|126:110|129:106|108:70|51:76,1,165,2|0,3:2|0:0,0:0:0:0:
104,244,88146,1,0,3:0:0:0:
104,244,88230,1,0,3:0:0:0:
104,244,88313,2,0,B|116:211|140:209|142:212|170:212|185:178,1,110,8|0,0:0|0:0,0:0:0:0:
388,21,88646,5,2,3:2:0:0:
382,48,88730,1,0,3:0:0:0:
377,75,88813,1,0,3:0:0:0:
372,102,88896,1,0,3:0:0:0:
360,156,88980,5,8,0:0:0:0:
370,210,89063,1,0,3:0:0:0:
380,264,89146,1,0,3:0:0:0:
390,318,89230,1,0,3:0:0:0:
401,372,89313,6,0,P|506:314|508:277,1,165,6|0,3:2|0:0,0:0:0:0:
455,222,89646,2,0,P|489:202|490:190,1,55,8|0,0:0|0:0,0:0:0:0:
295,284,89813,2,0,P|294:323|304:330,1,55,0|0,3:0|0:0,0:0:0:0:
372,102,89980,1,2,3:2:0:0:
321,114,90063,2,0,L|273:89,1,55,0|0,3:0|0:0,0:0:0:0:
91,18,90230,1,0,3:0:0:0:
126,56,90313,2,0,L|128:110,1,55,8|0,0:0|0:0,0:0:0:0:
174,254,90480,2,0,L|219:224,1,55,0|0,3:0|0:0,0:0:0:0:
78,207,90646,5,6,3:2:0:0:
324,278,90813,1,0,3:0:0:0:
324,278,90896,1,0,3:0:0:0:
324,278,90980,1,8,0:0:0:0:
165,365,91146,1,0,3:0:0:0:
236,119,91313,5,2,3:2:0:0:
278,84,91396,2,0,P|280:56|273:30,1,55,0|0,3:0|0:0,0:0:0:0:
91,18,91563,1,0,3:0:0:0:
49,53,91646,2,0,P|47:81|54:107,1,55,8|0,0:0|0:0,0:0:0:0:
106,279,91813,5,0,3:0:0:0:
160,273,91896,1,0,3:0:0:0:
215,267,91980,1,6,3:2:0:0:
149,174,92146,5,0,3:0:0:0:
32,364,92313,1,8,0:0:0:0:
306,330,92480,1,0,3:0:0:0:
493,370,92646,5,6,3:2:0:0:
504,315,92730,2,0,L|495:260,1,55,0|0,3:0|0:0,0:0:0:0:
310,118,92896,1,0,3:0:0:0:
299,173,92980,2,0,L|308:228,1,55,8|0,0:0|0:0,0:0:0:0:
369,331,93146,5,0,3:0:0:0:
369,331,93230,1,0,3:0:0:0:
369,331,93313,2,0,P|394:314|391:293,1,44,4|0,3:2|0:0,0:0:0:0:
270,307,93563,6,0,P|312:369|364:362,1,110,6|0,3:2|0:0,0:0:0:0:
207,225,93813,6,0,P|165:253|170:288,1,88,2|0,3:2|0:0,0:0:0:0:
116,383,93980,6,0,P|104:232|6:192,1,264,6|0,3:2|0:0,0:0:0:0:
26,343,94313,5,2,0:0:0:0:
27,330,94396,1,2,0:0:0:0:
28,316,94480,1,2,0:0:0:0:
29,302,94563,1,2,0:0:0:0:
30,289,94646,6,0,B|84:274|90:225|86:225|91:180|140:169,1,165,6|0,3:2|0:0,0:0:0:0:
118,88,94980,2,0,B|91:61|61:74|62:77|34:89|12:64,1,110,8|0,0:0|0:0,0:0:0:0:
265,17,95313,1,2,3:2:0:0:
265,17,95396,1,0,3:0:0:0:
265,17,95480,2,0,L|255:73,1,55,0|0,3:0|0:0,0:0:0:0:
241,152,95646,1,8,0:0:0:0:
273,315,95813,1,0,3:0:0:0:
365,212,95980,5,2,3:2:0:0:
148,254,96146,1,0,3:0:0:0:
148,254,96230,1,0,3:0:0:0:
148,254,96313,2,0,P|125:190|37:186,1,165,8|0,0:0|0:0,0:0:0:0:
17,294,96646,2,0,B|4:302|39:297|55:273,1,55,2|0,3:2|0:0,0:0:0:0:
150,103,96813,1,0,3:0:0:0:
150,103,96896,1,0,3:0:0:0:
150,103,96980,1,8,0:0:0:0:
283,345,97146,1,0,3:0:0:0:
415,378,97313,6,0,P|415:327|507:253,1,165,2|0,3:2|0:0,0:0:0:0:
472,172,97646,2,0,P|442:188|369:160,1,110,8|0,0:0|0:0,0:0:0:0:
180,53,97980,1,2,3:2:0:0:
180,53,98063,1,0,3:0:0:0:
180,53,98146,2,0,L|110:43,1,55,0|0,3:0|0:0,0:0:0:0:
48,73,98313,1,8,0:0:0:0:
257,25,98480,1,0,3:0:0:0:
166,140,98646,5,2,3:2:0:0:
222,357,98813,1,0,3:0:0:0:
222,357,98896,1,0,3:0:0:0:
222,357,98980,2,0,B|192:303|230:278|232:282|271:251|251:194,1,165,8|0,0:0|0:0,0:0:0:0:
327,292,99313,2,0,B|317:309|329:318|330:316|343:327|336:346,1,55,0|0,3:0|0:0,0:0:0:0:
128,309,99480,1,0,3:0:0:0:
128,309,99563,1,0,3:0:0:0:
128,309,99646,1,8,0:0:0:0:
162,100,99813,1,0,3:0:0:0:
370,133,99980,6,0,P|442:86|480:5,1,165,2|0,3:2|0:0,0:0:0:0:
482,208,100313,2,0,P|478:150|444:101,1,110,8|0,0:0|0:0,0:0:0:0:
253,10,100646,1,2,3:2:0:0:
258,64,100730,2,0,L|265:135,1,55,0|0,3:0|0:0,0:0:0:0:
52,63,100896,1,0,3:0:0:0:
106,58,100980,2,0,L|177:51,1,55,8|0,0:0|0:0,0:0:0:0:
100,210,101146,2,0,L|93:139,1,55,0|0,3:0|0:0,0:0:0:0:
252,216,101313,6,0,P|283:266|343:261,1,110,2|0,3:2|0:0,0:0:0:0:
41,366,101646,2,0,P|129:363|167:281,1,165,8|0,0:0|0:0,0:0:0:0:
114,240,101980,2,0,P|98:215|68:217,1,55,2|0,3:2|0:0,0:0:0:0:
17,27,102146,1,0,3:0:0:0:
17,27,102230,1,0,3:0:0:0:
17,27,102313,1,8,0:0:0:0:
180,152,102480,1,0,3:0:0:0:
371,72,102646,6,0,B|404:60|423:81|421:83|443:104|484:93,1,110,2|0,3:2|0:0,0:0:0:0:
367,354,102980,2,0,B|326:320|339:279|343:280|354:236|309:191,1,165,8|0,0:0|0:0,0:0:0:0:
238,82,103313,1,2,3:2:0:0:
286,107,103396,2,0,L|277:44,1,55,0|0,3:0|0:0,0:0:0:0:
114,32,103563,1,0,3:0:0:0:
89,80,103646,2,0,L|152:71,1,55,8|0,0:0|0:0,0:0:0:0:
225,248,103813,6,0,P|173:192|85:186,1,165,2|0,3:2|0:0,0:0:0:0:
125,343,104146,1,0,3:0:0:0:
125,343,104230,1,0,3:0:0:0:
125,343,104313,2,0,P|174:331|207:282,1,110,8|0,0:0|0:0,0:0:0:0:
511,49,104646,5,2,3:2:0:0:
461,25,104730,1,0,3:0:0:0:
406,24,104813,1,0,3:0:0:0:
356,45,104896,1,0,3:0:0:0:
318,85,104980,1,8,0:0:0:0:
300,136,105063,1,0,3:0:0:0:
304,190,105146,1,0,3:0:0:0:
329,239,105230,1,0,3:0:0:0:
372,273,105313,6,0,L|414:376,1,110,6|0,3:2|0:0,0:0:0:0:
140,111,105646,2,0,L|98:8,1,110,8|0,0:0|0:0,0:0:0:0:
384,132,105980,2,0,L|494:147,1,110,10|0,0:0|0:0,0:0:0:0:
127,251,106313,2,0,L|17:236,1,110,8|0,0:0|0:0,0:0:0:0:
268,51,106646,1,10,0:0:0:0:
242,333,106813,1,0,3:0:0:0:
204,144,106980,6,0,P|281:170|305:246,1,165,8|0,0:0|0:0,0:0:0:0:
159,281,107313,1,10,0:0:0:0:
159,281,107396,1,0,3:0:0:0:
159,281,107480,2,0,P|153:254|171:234,1,55,0|0,3:0|0:0,0:0:0:0:
108,160,107646,6,0,L|89:104,1,55,8|0,0:0|0:0,0:0:0:0:
354,97,107813,2,0,L|364:43,1,55,8|0,0:0|0:0,0:0:0:0:
158,23,107980,6,0,P|197:55|269:46,1,110,10|0,0:0|0:0,0:0:0:0:
512,216,108313,2,0,P|473:184|401:193,1,110,8|0,0:0|0:0,0:0:0:0:
220,259,108646,5,10,0:0:0:0:
355,319,108813,1,0,3:0:0:0:
279,124,108980,1,8,0:0:0:0:
85,200,109146,5,0,3:0:0:0:
85,200,109230,1,0,3:0:0:0:
85,200,109313,2,0,P|74:222|69:254,1,55,10|0,0:0|0:0,0:0:0:0:
125,366,109480,2,0,P|136:344|141:312,1,55,8|0,0:0|0:0,0:0:0:0:
105,100,109646,2,0,P|49:95|5:129,1,110,8|0,0:0|0:0,0:0:0:0:
27,372,109980,5,10,0:0:0:0:
274,352,110146,1,0,3:0:0:0:
321,323,110230,1,0,3:0:0:0:
319,267,110313,1,8,0:0:0:0:
238,32,110480,1,0,3:0:0:0:
191,61,110563,1,0,3:0:0:0:
193,117,110646,6,0,P|202:172|253:176,1,110,10|8,0:0|0:0,0:0:0:0:
407,25,110980,2,0,P|352:34|348:85,1,110,8|8,0:0|0:0,0:0:0:0:
499,239,111313,2,0,P|490:184|439:180,1,110,10|8,0:0|0:0,0:0:0:0:
285,331,111646,2,0,P|340:322|344:271,1,110,8|8,0:0|0:0,0:0:0:0:
83,124,111980,5,10,0:0:0:0:
90,261,112146,1,8,0:0:0:0:
227,254,112313,1,8,0:0:0:0:
220,117,112480,1,8,0:0:0:0:
9,195,112646,5,10,0:0:0:0:
161,333,112813,1,8,0:0:0:0:
299,181,112980,1,8,0:0:0:0:
147,43,113146,1,8,0:0:0:0:
16,287,113313,5,2,3:2:0:0:
4,312,113396,1,8,0:0:0:0:
3,339,113480,1,8,0:0:0:0:
14,364,113563,1,8,0:0:0:0:
38,374,113646,1,8,0:0:0:0:
61,360,113730,1,8,0:0:0:0:
70,334,113813,1,8,0:0:0:0:
67,307,113896,1,8,0:0:0:0:
52,282,113980,5,2,3:2:0:0:
36,231,114063,1,8,0:0:0:0:
46,177,114146,1,8,0:0:0:0:
81,135,114230,1,8,0:0:0:0:
132,116,114313,1,8,0:0:0:0:
186,123,114396,1,8,0:0:0:0:
230,155,114480,2,0,P|245:174|256:208,1,55,8|8,0:0|0:0,0:0:0:0:
330,375,114646,5,6,3:2:0:0:
301,328,114730,1,0,3:0:0:0:
284,275,114813,1,0,3:0:0:0:
280,221,114896,1,0,3:0:0:0:
289,166,114980,1,0,3:0:0:0:
310,116,115063,1,0,3:0:0:0:
342,71,115146,1,0,3:0:0:0:
384,36,115230,1,0,3:0:0:0:
433,11,115313,5,2,3:2:0:0:
447,34,115396,1,0,3:0:0:0:
455,60,115480,1,0,3:0:0:0:
457,87,115563,1,0,3:0:0:0:
453,115,115646,1,0,3:0:0:0:
442,140,115730,1,0,3:0:0:0:
426,162,115813,2,0,P|399:177|368:179,1,55,0|0,3:0|3:0,0:0:0:0:
221,113,115980,5,6,3:2:0:0:
256,192,116146,12,0,121313,0:0:0:0:
