osu file format v14

[General]
AudioFilename: audio.mp3
AudioLeadIn: 0
PreviewTime: 66265
Countdown: 1
SampleSet: Normal
StackLeniency: 0.7
Mode: 0
LetterboxInBreaks: 0
WidescreenStoryboard: 0

[Editor]
DistanceSpacing: 0.8
BeatDivisor: 4
GridSize: 4
TimelineZoom: 1.8

[Metadata]
Title:Wasurerareta Kiseki
TitleUnicode:忘れられた奇跡
Artist:Senya
ArtistUnicode:Senya
Creator:Echo0606
Version:Satellite
Source:東方風神録 ~ Mountain of Faith
Tags:
BeatmapID:1650621
BeatmapSetID:786305

[Difficulty]
HPDrainRate:6
CircleSize:4.4
OverallDifficulty:6
ApproachRate:9
SliderMultiplier:1.4
SliderTickRate:1

[Events]
//Background and Video events
0,0,"kanako.jpg",0,0
//Break Periods
2,1635,5512
2,134048,143443
2,211290,229800
//Storyboard Layer 0 (Background)
//Storyboard Layer 1 (Fail)
//Storyboard Layer 2 (Pass)
//Storyboard Layer 3 (Foreground)
//Storyboard Sound Samples

[TimingPoints]
1435,344.827586206897,4,1,0,100,1,0
12469,-100,4,1,0,100,0,1
23503,-200,4,1,0,100,0,1
34538,-100,4,1,0,100,0,0
56607,-200,4,1,0,100,0,1
66262,-200,4,1,0,100,0,0
67641,-100,4,1,0,100,0,0
89710,-100,4,1,0,100,0,1
111779,-200,4,1,0,100,0,1
133848,-200,4,1,0,100,0,0
144883,-100,4,1,0,100,0,0
155917,-200,4,1,0,100,0,1
165572,-200,4,1,0,100,0,0
166952,-100,4,1,0,100,0,0
189021,-100,4,1,0,100,0,1
211090,-100,4,1,0,100,0,0
233159,-100,4,1,0,100,0,1
255228,-100,4,1,0,100,0,0

[Colours]
Combo1 : 255,192,0
Combo2 : 0,255,255
Combo3 : 18,124,255
Combo4 : 242,24,57

[HitObjects]
256,192,1435,5,0,0:0:0:0:
344,28,6952,6,0,L|416:164,1,140
444,208,7641,2,0,L|484:288,2,70
364,72,8331,6,0,L|282:202,1,140
252,244,9021,2,0,L|202:318,2,70
288,296,9538,6,0,L|268:336,2,35
324,208,9883,1,0,0:0:0:0:
365,119,10055,1,0,0:0:0:0:
454,160,10228,1,0,0:0:0:0:
412,249,10400,5,0,0:0:0:0:
324,208,10572,1,0,0:0:0:0:
365,119,10745,1,0,0:0:0:0:
454,160,10917,1,0,0:0:0:0:
412,249,11090,6,0,L|391:288,3,35
364,260,11435,2,0,L|342:299,3,35
316,272,11779,6,0,L|295:311,3,35
272,284,12124,2,0,L|251:323,2,35
356,132,12469,6,0,L|168:188,1,140
180,184,12986,2,0,L|148:192,4,17.5
428,112,13331,2,0,L|448:180,1,70
336,48,13848,6,0,L|147:103,1,140
152,101,14366,2,0,L|128:108,4,17.5
408,28,14710,2,0,L|430:96,1,70
460,268,15228,6,0,L|409:137,1,140
384,92,15745,2,0,L|377:75,4,17.5
492,332,16090,2,0,L|412:364,1,70
96,272,16607,6,0,L|234:293,1,140
285,301,17124,2,0,L|304:304,4,17.5
29,256,17469,2,0,L|42:187,1,70
160,272,17986,6,0,L|109:140,1,140
90,93,18503,2,0,L|83:76,4,17.5
184,340,18848,2,0,L|114:365,1,70
276,192,19366,6,0,L|408:243,1,140
455,262,19883,2,0,L|472:269,4,17.5
209,166,20228,2,0,L|184:232,1,70
416,104,20745,6,0,L|286:161,1,140
239,181,21262,2,0,L|222:188,4,17.5
481,75,21607,2,0,L|450:12,1,70
408,276,22124,5,0,0:0:0:0:
360,120,22297,1,0,0:0:0:0:
256,284,22469,5,0,0:0:0:0:
198,96,22641,1,0,0:0:0:0:
116,288,22814,5,0,0:0:0:0:
46,62,22986,2,0,P|56:96|71:147,2,70
104,244,23503,6,0,L|50:231,1,35
187,193,23848,2,0,L|199:139,1,35
237,277,24193,2,0,L|290:289,1,35
152,327,24538,2,0,L|139:380,1,35
196,60,24883,6,0,L|213:90,1,35
159,203,25228,2,0,L|188:184,1,35
302,238,25572,2,0,L|283:208,1,35
335,96,25917,2,0,L|305:114,1,35
188,196,26262,6,0,L|157:213,1,35
44,159,26607,2,0,L|62:188,1,35
9,302,26952,2,0,L|38:283,1,35
151,335,27297,2,0,L|132:305,1,35
56,40,27641,6,0,L|37:10,1,35
150,62,27986,2,0,L|179:43,1,35
126,157,28331,2,0,L|144:186,1,35
31,132,28676,2,0,L|0:149,1,35
388,64,29021,6,0,L|418:45,1,35
366,158,29366,2,0,L|385:187,1,35
271,134,29711,2,0,L|242:152,1,35
296,39,30056,2,0,L|279:8,1,35
336,184,30400,6,0,L|353:215,1,35
299,328,30745,2,0,L|328:310,1,35
442,363,31090,2,0,L|423:334,1,35
475,221,31435,2,0,L|445:240,1,35
128,300,31779,6,0,L|159:283,1,35
272,337,32124,2,0,L|254:308,1,35
307,194,32469,2,0,L|278:213,1,35
165,161,32814,2,0,L|184:191,1,35
104,56,33159,6,0,L|88:32,2,17.5
200,216,33503,1,0,0:0:0:0:
88,108,33676,6,0,L|72:84,2,17.5
184,268,34020,1,0,0:0:0:0:
112,148,34193,2,0,L|136:188,1,35
104,28,34538,6,0,L|236:79,1,140
36,8,35400,2,0,L|8:72,1,70
372,88,35917,6,0,L|232:109,1,140
443,77,36779,2,0,L|429:8,1,70
420,300,37297,6,0,L|399:160,1,140
431,371,38159,2,0,L|500:360,1,70
232,364,38676,6,0,L|92:385,1,140
303,353,39538,2,0,L|292:284,1,70
216,80,40055,6,0,L|236:218,1,140
204,16,40917,2,0,L|273:2,1,70
88,72,41435,6,0,L|228:56,1,140
16,80,42297,2,0,L|8:8,1,70
24,248,42814,6,0,L|40:108,1,140
17,320,43676,2,0,L|87:326,1,70
392,272,44193,6,0,L|252:288,1,140
464,265,45055,2,0,L|472:336,1,70
464,80,45572,6,0,L|448:220,1,140
471,8,46434,2,0,L|400:0,1,70
168,28,46952,6,0,L|308:44,1,140
96,20,47814,2,0,L|90:90,1,70
80,244,48331,6,0,L|220:228,1,140
8,251,49193,2,0,L|2:181,1,70
304,296,49710,6,0,L|164:312,1,140
376,289,50572,2,0,L|382:359,1,70
172,144,51090,6,0,L|223:275,1,140
144,76,51952,2,0,L|210:52,1,70
152,256,52469,6,0,L|13:277,1,140
224,244,53331,2,0,L|211:174,1,70
180,20,53848,6,0,L|319:-1,1,140
108,32,54710,2,0,L|121:102,1,70
176,176,55228,6,0,L|155:315,1,140
184,104,56090,2,0,L|254:113,1,70
350,54,56607,6,0,L|396:24,1,35
326,149,56952,2,0,L|354:194,1,35
231,124,57297,2,0,L|184:152,1,35
256,32,57641,2,0,L|227:-15,1,35
368,192,57986,6,0,L|386:221,1,35
332,332,58330,2,0,L|361:313,1,35
475,368,58675,2,0,L|456:338,1,35
510,225,59020,2,0,L|480:243,1,35
144,344,59366,6,0,L|173:325,1,35
284,380,59710,2,0,L|265:350,1,35
320,237,60055,2,0,L|290:255,1,35
177,202,60400,2,0,L|195:231,1,35
64,60,60745,6,0,L|45:30,1,35
158,84,61090,2,0,L|187:65,1,35
134,178,61435,2,0,L|152:207,1,35
42,154,61779,2,0,L|12:172,1,35
384,172,62124,6,0,L|418:170,1,35
316,241,62469,2,0,L|317:275,1,35
246,173,62814,2,0,L|211:173,1,35
313,105,63158,2,0,L|312:70,1,35
200,172,63503,6,0,L|183:202,1,35
61,210,63847,2,0,L|91:227,1,35
102,351,64192,2,0,L|118:321,1,35
242,310,64537,2,0,L|211:294,1,35
0,76,64883,6,0,L|30:92,1,35
38,215,65227,2,0,L|55:184,1,35
179,174,65572,2,0,L|149:157,1,35
138,34,65917,2,0,L|122:64,1,35
44,280,66262,5,0,0:0:0:0:
152,64,66435,1,0,0:0:0:0:
44,280,66607,1,0,0:0:0:0:
152,64,66779,1,0,0:0:0:0:
52,264,67124,2,0,L|72:224,1,35
164,152,67641,6,0,L|228:24,1,140
128,228,68159,2,0,L|120:244,4,17.5
226,26,68503,2,0,L|187:107,1,70
104,312,69021,6,0,L|244:340,1,140
24,292,69539,2,0,L|6:288,4,17.5
241,339,69883,2,0,L|152:322,1,70
412,248,70400,6,0,L|271:276,1,140
495,232,70918,2,0,L|512:228,4,17.5
275,275,71262,2,0,L|363:258,1,70
328,140,71779,6,0,L|299:0,1,140
344,223,72297,2,0,L|347:240,4,17.5
301,3,72641,2,0,L|317:91,1,70
400,284,73159,6,0,L|371:144,1,140
416,367,73677,2,0,L|419:384,4,17.5
373,147,74021,2,0,L|389:235,1,70
128,328,74538,6,0,L|268:299,1,140
44,340,75056,2,0,L|27:343,4,17.5
265,301,75400,2,0,L|176:317,1,70
380,200,75917,6,0,L|501:124,1,140
308,240,76435,2,0,L|292:248,4,17.5
499,127,76779,2,0,L|421:172,1,70
380,268,77297,6,0,L|509:211,1,140
314,297,78159,2,0,L|345:360,1,70
252,136,78676,6,0,L|200:4,1,140
284,219,79193,2,0,L|276:199,4,17.5
200,5,79538,2,0,L|133:27,1,70
376,124,80055,6,0,L|507:175,1,140
293,92,80572,2,0,L|313:100,4,17.5
507,176,80917,2,0,L|484:242,1,70
304,300,81435,6,0,L|355:168,1,140
268,380,81952,2,0,L|276:356,4,17.5
356,169,82297,2,0,L|422:191,1,70
112,124,82814,6,0,L|243:175,1,140
29,92,83331,2,0,L|49:100,4,17.5
243,176,83676,2,0,L|220:242,1,70
204,132,84193,6,0,L|255:1,1,140
172,215,84710,2,0,L|180:195,4,17.5
256,1,85055,2,0,L|322:24,1,70
432,144,85572,6,0,L|301:195,1,140
492,120,86089,2,0,L|512:112,4,17.5
301,194,86434,2,0,L|278:128,1,70
364,228,86952,6,0,L|420:356,1,140
338,169,87469,2,0,L|329:149,4,17.5
421,356,87814,2,0,L|483:325,1,70
256,192,88331,5,0,0:0:0:0:
256,192,88590,5,0,0:0:0:0:
256,192,88848,5,0,0:0:0:0:
256,192,89107,5,0,0:0:0:0:
256,192,89193,5,0,0:0:0:0:
256,192,89279,1,0,0:0:0:0:
256,192,89366,1,0,0:0:0:0:
128,72,89710,6,0,L|256:136,1,140
36,28,90228,2,0,L|20:20,4,17.5
315,166,90572,2,0,L|238:127,1,70
308,84,91090,6,0,L|436:148,1,140
216,40,91608,2,0,L|200:32,4,17.5
496,180,91952,2,0,L|415:138,1,70
260,100,92469,6,0,L|338:219,1,140
201,15,92987,2,0,L|191:0,4,17.5
376,272,93331,2,0,L|325:197,1,70
160,120,93848,6,0,L|198:257,1,140
128,19,94366,2,0,L|123:1,4,17.5
215,318,94710,2,0,L|189:231,1,70
60,124,95228,6,0,L|48:266,1,140
68,20,95746,2,0,L|69:3,4,17.5
43,328,96090,2,0,L|48:238,1,70
156,204,96607,6,0,L|272:285,1,140
65,147,97125,2,0,L|50:137,4,17.5
324,320,97469,2,0,L|248:270,1,70
276,144,97986,6,0,L|416:118,1,140
171,168,98504,2,0,L|154:171,4,17.5
476,107,98848,2,0,L|387:125,1,70
160,28,99366,6,0,L|292:79,1,140
93,2,100228,2,0,L|70:68,1,70
136,196,100745,6,0,L|81:327,1,140
184,80,101262,2,0,L|176:100,4,17.5
68,356,101607,2,0,L|2:333,1,70
296,304,102124,6,0,L|436:286,1,140
171,320,102641,2,0,L|192:316,4,17.5
468,282,102986,2,0,L|481:350,1,70
416,192,103503,6,0,L|398:51,1,140
432,317,104020,2,0,L|428:295,4,17.5
394,20,104365,2,0,L|462:6,1,70
196,88,104883,6,0,L|57:119,1,140
318,60,105400,2,0,L|295:63,4,17.5
26,126,105745,2,0,L|36:194,1,70
240,108,106262,6,0,L|164:228,1,140
308,8,106779,2,0,L|296:28,4,17.5
146,255,107124,2,0,L|201:296,1,70
388,192,107641,6,0,L|249:223,1,140
510,163,108158,2,0,L|487:166,4,17.5
217,229,108503,2,0,L|227:297,1,70
160,128,109021,6,0,L|128:266,1,140
189,6,109538,2,0,L|185:28,4,17.5
120,300,109883,2,0,L|48:284,1,70
448,272,110400,5,0,0:0:0:0:
124,172,110572,2,0,L|164:184,2,35
448,272,110917,2,0,L|368:248,1,70
124,172,111262,2,0,L|204:196,1,70
36,144,111607,1,0,0:0:0:0:
336,168,111779,6,0,L|390:181,1,35
253,219,112124,2,0,L|241:273,1,35
203,135,112469,2,0,L|150:123,1,35
288,85,112814,2,0,L|301:32,1,35
212,188,113159,6,0,L|200:221,1,35
77,252,113504,2,0,L|110:262,1,35
143,384,113849,2,0,L|153:350,1,35
273,318,114194,2,0,L|239:306,1,35
0,116,114538,6,0,L|33:127,1,35
64,251,114883,2,0,L|74:217,1,35
196,185,115228,2,0,L|162:174,1,35
130,55,115573,2,0,L|118:88,1,35
280,64,115917,6,0,L|311:48,1,35
249,155,116262,2,0,L|265:186,1,35
157,124,116607,2,0,L|125:140,1,35
191,31,116952,2,0,L|175:0,1,35
344,300,117297,6,0,L|359:331,1,35
253,269,117642,2,0,L|221:285,1,35
284,177,117987,2,0,L|267:145,1,35
377,211,118332,2,0,L|408:195,1,35
216,248,118676,6,0,L|185:264,1,35
75,200,119021,2,0,L|91:230,1,35
29,338,119366,2,0,L|61:322,1,35
167,384,119711,2,0,L|152:353,1,35
104,16,120055,6,0,L|120:47,1,35
56,157,120400,2,0,L|86:140,1,35
194,203,120745,2,0,L|178:171,1,35
240,65,121090,2,0,L|209:80,1,35
280,136,121435,6,0,L|311:120,1,35
467,46,121779,2,0,L|435:62,1,35
280,136,122124,2,0,L|249:151,1,35
89,228,122469,2,0,L|120:212,1,35
320,216,122814,6,0,L|289:232,1,35
179,168,123159,2,0,L|196:198,1,35
133,306,123504,2,0,L|165:290,1,35
271,352,123849,2,0,L|256:321,1,35
124,184,124193,6,0,L|139:215,1,35
33,153,124538,2,0,L|1:169,1,35
64,61,124883,2,0,L|47:31,1,35
157,95,125228,2,0,L|188:79,1,35
92,296,125572,6,0,L|61:311,1,35
123,205,125917,2,0,L|107:173,1,35
215,236,126262,2,0,L|245:219,1,35
181,329,126607,2,0,L|197:360,1,35
348,196,126952,6,0,L|332:165,1,35
396,55,127297,2,0,L|366:72,1,35
258,9,127642,2,0,L|274:41,1,35
212,147,127987,2,0,L|243:132,1,35
244,232,128331,6,0,L|213:248,1,35
103,184,128676,2,0,L|120:214,1,35
57,322,129021,2,0,L|89:306,1,35
195,368,129366,2,0,L|180:337,1,35
140,152,129710,6,0,L|157:181,1,35
46,129,130055,2,0,L|15:147,1,35
69,34,130400,2,0,L|49:5,1,35
165,60,130745,2,0,L|194:41,1,35
228,276,131090,6,0,L|219:309,1,35
177,193,131435,2,0,L|142:184,1,35
261,142,131780,2,0,L|267:108,1,35
310,228,132124,2,0,L|344:235,1,35
116,288,132469,6,0,L|98:284,2,17.5
304,328,132814,2,0,L|349:339,1,35
352,340,133072,1,0,0:0:0:0:
364,344,133159,1,0,0:0:0:0:
72,276,133331,2,0,L|120:288,1,35
0,260,133676,1,0,0:0:0:0:
208,308,133848,1,0,0:0:0:0:
168,360,144883,6,0,L|336:340,1,140
328,340,145400,2,0,L|372:336,4,35
88,372,145917,2,0,L|172:360,1,70
380,264,146262,6,0,L|212:284,1,140
220,284,146779,2,0,L|174:290,4,35
460,252,147296,2,0,L|376:264,1,70
176,216,147641,6,0,L|344:196,1,140
336,196,148158,2,0,L|380:192,4,35
96,228,148675,2,0,L|180:216,1,70
368,116,149021,6,0,L|200:136,1,140
208,136,149538,2,0,L|162:142,4,35
448,104,150055,2,0,L|364:116,1,70
56,152,150400,5,0,0:0:0:0:
150,177,150745,1,0,0:0:0:0:
126,272,151090,1,0,0:0:0:0:
31,246,151435,1,0,0:0:0:0:
424,92,151779,5,0,0:0:0:0:
330,117,152124,1,0,0:0:0:0:
354,212,152469,1,0,0:0:0:0:
449,186,152814,1,0,0:0:0:0:
112,304,153159,5,0,0:0:0:0:
400,308,153331,1,0,0:0:0:0:
112,228,153503,5,0,0:0:0:0:
400,232,153675,1,0,0:0:0:0:
112,156,153848,5,0,0:0:0:0:
400,160,154020,1,0,0:0:0:0:
112,80,154193,5,0,0:0:0:0:
400,80,154365,1,0,0:0:0:0:
172,196,154538,5,0,0:0:0:0:
304,96,154710,2,0,L|336:72,2,35
80,264,155055,1,0,0:0:0:0:
247,137,155228,2,0,L|313:88,1,70
135,221,155572,2,0,L|72:269,1,70
336,232,155917,6,0,L|389:216,1,35
289,317,156262,2,0,L|305:369,1,35
204,269,156607,2,0,L|152:285,1,35
252,184,156952,2,0,L|236:131,1,35
264,12,157297,6,0,L|279:43,1,35
215,150,157642,2,0,L|246:133,1,35
354,198,157987,2,0,L|337:166,1,35
401,59,158332,2,0,L|369:74,1,35
120,204,158676,6,0,L|151:188,1,35
258,253,159021,2,0,L|241:221,1,35
306,114,159366,2,0,L|274:130,1,35
167,67,159711,2,0,L|182:98,1,35
216,228,160055,6,0,L|200:196,1,35
308,260,160400,2,0,L|339:243,1,35
275,351,160745,2,0,L|291:382,1,35
185,318,161090,2,0,L|153:333,1,35
416,184,161435,6,0,L|448:168,1,35
384,276,161780,2,0,L|401:307,1,35
293,243,162125,2,0,L|262:259,1,35
326,153,162470,2,0,L|311:121,1,35
148,36,162814,6,0,L|163:68,1,35
99,174,163159,2,0,L|130:158,1,35
238,222,163504,2,0,L|221:191,1,35
285,83,163849,2,0,L|253:99,1,35
36,228,164193,6,0,L|68:213,1,35
174,277,164538,2,0,L|158:246,1,35
222,138,164883,2,0,L|191:155,1,35
83,91,165228,2,0,L|99:123,1,35
124,0,165572,5,0,0:0:0:0:
222,224,165745,1,0,0:0:0:0:
124,0,165917,1,0,0:0:0:0:
222,224,166089,1,0,0:0:0:0:
133,18,166434,2,0,L|150:59,1,35
280,260,166952,6,0,L|225:71,1,140
227,76,167470,2,0,L|220:52,4,17.5
300,330,167814,2,0,L|233:348,1,70
286,250,168331,6,0,L|482:272,1,140
474,273,168849,2,0,L|498:276,4,17.5
214,242,169193,2,0,L|208:311,1,70
296,212,169710,6,0,L|342:20,1,140
342,26,170228,2,0,L|347:1,4,17.5
278,282,170572,2,0,L|210:264,1,70
284,195,171090,6,0,L|480:199,1,140
475,198,171608,2,0,L|499:198,4,17.5
210,193,171952,2,0,L|209:262,1,70
360,200,172469,6,0,L|305:11,1,140
307,16,172987,2,0,L|300:-8,4,17.5
380,270,173331,2,0,L|313:288,1,70
184,188,173848,6,0,L|380:192,1,140
375,191,174366,2,0,L|399:191,4,17.5
111,186,174710,2,0,L|110:255,1,70
264,200,175228,6,0,L|436:105,1,140
431,107,175746,2,0,L|452:94,4,17.5
200,235,176090,2,0,L|234:295,1,70
320,196,176607,6,0,L|192:132,1,140
420,244,177469,2,0,L|497:283,1,70
332,112,177986,6,0,L|198:59,1,140
427,147,178504,2,0,L|443:153,4,17.5
137,34,178848,2,0,L|217:66,1,70
294,200,179366,6,0,L|153:171,1,140
394,218,179884,2,0,L|411:221,4,17.5
89,158,180228,2,0,L|173:175,1,70
316,304,180745,6,0,L|178:263,1,140
414,330,181263,2,0,L|431:335,4,17.5
115,244,181607,2,0,L|197:269,1,70
188,152,182124,6,0,L|60:87,1,140
279,194,182642,2,0,L|295:202,4,17.5
0,58,182986,2,0,L|76:97,1,70
251,90,183503,6,0,L|118:38,1,140
346,124,184021,2,0,L|362:131,4,17.5
56,13,184365,2,0,L|136:45,1,70
368,132,184883,6,0,L|226:153,1,140
467,113,185401,2,0,L|484:111,4,17.5
160,164,185745,2,0,L|245:149,1,70
212,264,186262,6,0,L|70:248,1,140
312,271,186780,2,0,L|329:273,4,17.5
3,239,187124,2,0,L|88:249,1,70
256,192,187641,5,0,0:0:0:0:
256,192,187900,5,0,0:0:0:0:
256,192,188159,5,0,0:0:0:0:
256,192,188417,5,0,0:0:0:0:
256,192,188676,1,0,0:0:0:0:
360,76,189021,6,0,L|218:97,1,140
472,60,189539,2,0,L|488:57,4,17.5
132,112,189883,2,0,L|212:99,1,70
288,180,190400,6,0,L|145:188,1,140
400,172,190918,2,0,L|417:171,4,17.5
53,195,191262,2,0,L|138:190,1,70
380,256,191779,6,0,L|237:252,1,140
492,260,192297,2,0,L|509:260,4,17.5
144,250,192641,2,0,L|229:252,1,70
188,164,193159,5,0,0:0:0:0:
368,76,193503,2,0,L|288:116,1,70
40,232,193848,2,0,L|120:194,1,70
368,76,194193,2,0,L|288:116,1,70
119,162,194538,6,0,L|258:128,1,140
9,187,195056,2,0,L|-6:191,4,17.5
352,108,195400,2,0,L|268:127,1,70
236,28,195917,6,0,L|378:44,1,140
124,13,196435,2,0,L|106:11,4,17.5
468,56,196779,2,0,L|383:46,1,70
180,152,197297,6,0,L|322:143,1,140
67,156,197815,2,0,L|49:157,4,17.5
413,139,198159,2,0,L|327:143,1,70
272,40,198676,6,0,L|424:60,1,140
168,24,199538,2,0,L|156:96,1,70
208,212,200055,6,0,L|266:70,1,140
180,276,200572,2,0,L|172:296,4,17.5
296,0,200917,2,0,L|364:28,1,70
316,104,201435,6,0,L|164:123,1,140
385,93,201952,2,0,L|406:90,4,17.5
88,134,202297,2,0,L|97:206,1,70
248,208,202814,6,0,L|154:86,1,140
292,262,203331,2,0,L|304:279,4,17.5
108,25,203676,2,0,L|49:69,1,70
348,92,204193,6,0,L|195:111,1,140
416,80,204710,2,0,L|437:77,4,17.5
119,121,205055,2,0,L|128:193,1,70
224,264,205572,6,0,L|256:113,1,140
206,330,206089,2,0,L|201:350,4,17.5
272,38,206434,2,0,L|342:53,1,70
400,108,206952,6,0,L|247:127,1,140
468,96,207469,2,0,L|489:93,4,17.5
171,137,207814,2,0,L|180:209,1,70
352,88,208331,6,0,L|330:240,1,140
364,20,208848,2,0,L|367:-4,4,17.5
317,314,209193,2,0,L|385:326,1,70
252,240,209710,6,0,L|104:284,1,140
344,212,210572,2,0,L|324:140,1,70
256,340,211090,5,0,0:0:0:0:
256,192,230400,12,0,232469,0:0:0:0:
158,324,233159,6,0,L|300:345,1,140
46,308,233677,2,0,L|30:305,4,17.5
386,360,234021,2,0,L|306:347,1,70
256,233,234538,6,0,L|399:241,1,140
144,226,235056,2,0,L|122:224,4,17.5
487,246,235400,2,0,L|406:242,1,70
250,140,235917,6,0,L|392:123,1,140
137,153,236435,2,0,L|120:155,4,17.5
479,114,236779,2,0,L|398:123,1,70
245,106,237297,5,0,0:0:0:0:
55,40,237641,2,0,L|139:68,1,70
397,162,237986,2,0,L|313:132,1,70
55,40,238331,2,0,L|132:67,1,70
322,96,238676,6,0,L|206:181,1,140
412,28,239194,2,0,L|427:17,4,17.5
135,231,239538,2,0,L|200:183,1,70
402,187,240055,6,0,L|279:262,1,140
497,127,240573,2,0,L|512:117,4,17.5
205,308,240917,2,0,L|274:264,1,70
306,123,241435,6,0,L|168:163,1,140
413,89,241953,2,0,L|430:83,4,17.5
84,188,242297,2,0,L|162:163,1,70
332,284,242814,6,0,L|181:248,1,140
425,305,243676,2,0,L|443:232,1,70
258,67,244193,6,0,L|336:247,1,140
335,241,244711,2,0,L|344:264,4,17.5
228,0,245055,2,0,L|165:29,1,70
237,113,245572,6,0,L|432:83,1,140
425,83,246090,2,0,L|449:79,4,17.5
165,123,246434,2,0,L|177:191,1,70
268,281,246952,6,0,L|290:85,1,140
288,91,247470,2,0,L|291:66,4,17.5
260,353,247814,2,0,L|329:359,1,70
247,226,248331,6,0,L|51:248,1,140
57,246,248849,2,0,L|32:249,4,17.5
319,218,249193,2,0,L|325:287,1,70
456,97,249710,6,0,L|434:293,1,140
436,287,250228,2,0,L|433:312,4,17.5
464,25,250572,2,0,L|395:19,1,70
180,75,251090,6,0,L|373:113,1,140
367,111,251608,2,0,L|391:116,4,17.5
108,60,251952,2,0,L|96:128,1,70
165,282,252469,6,0,L|236:98,1,140
233,103,252987,2,0,L|242:79,4,17.5
137,349,253331,2,0,L|202:372,1,70
172,112,253848,5,0,0:0:0:0:
236,188,254021,2,0,L|260:216,2,35
104,32,254366,1,0,0:0:0:0:
280,236,254538,2,0,L|328:292,1,70
188,132,254883,2,0,L|140:76,1,70
372,344,255228,1,0,0:0:0:0:
256,192,255249,12,0,257986,0:0:0:0:
