osu file format v14

[General]
AudioFilename: senya utakata.mp3
AudioLeadIn: 0
PreviewTime: 120275
Countdown: 0
SampleSet: None
StackLeniency: 0.7
Mode: 3
LetterboxInBreaks: 0
SpecialStyle: 0
WidescreenStoryboard: 1

[Editor]
DistanceSpacing: 1
BeatDivisor: 8
GridSize: 16
TimelineZoom: 2.2

[Metadata]
Title:Utakata, Ai No Mahoroba
TitleUnicode:泡沫、哀のまほろば
Artist:senya
ArtistUnicode:senya
Creator:LostCool
Version:Lv.58
Source:東方永夜抄 ~ Imperishable Night
Tags:かませ虎 senya Iceon HiZuMi Yuuhei Satellite
BeatmapID:1985194
BeatmapSetID:950582

[Difficulty]
HPDrainRate:7
CircleSize:7
OverallDifficulty:5
ApproachRate:5
SliderMultiplier:1.4
SliderTickRate:1

[Events]
//Background and Video events
0,0,"background.jpg",0,0
//Break Periods
//Storyboard Layer 0 (Background)
//Storyboard Layer 1 (Fail)
//Storyboard Layer 2 (Pass)
//Storyboard Layer 3 (Foreground)
//Storyboard Sound Samples

[TimingPoints]
1063,387.096774193548,4,1,0,0,1,0
13450,258.064516129032,4,1,0,0,1,0
13837,774.193548387097,4,1,0,0,1,0
14224,387.096774193548,4,1,0,0,1,0
24287,258.064516129032,4,1,0,0,1,0
24384,774.193548387097,4,1,0,0,1,0
24481,387.096774193548,4,1,0,0,1,0
24577,774.193548387097,4,1,0,0,1,0
24626,258.064516129032,4,1,0,0,1,0
24674,774.193548387097,4,1,0,0,1,0
24723,258.064516129032,4,1,0,0,1,0
24771,387.096774193548,4,1,0,0,1,0
25061,258.064516129032,4,1,0,0,1,0
25158,774.193548387097,4,1,0,0,1,0
25255,387.096774193548,4,1,0,0,1,0
25352,774.193548387097,4,1,0,0,1,0
25400,258.064516129032,4,1,0,0,1,0
25448,774.193548387097,4,1,0,0,1,0
25497,258.064516129032,4,1,0,0,1,0
25545,387.096774193548,4,1,0,0,1,0
25835,258.064516129032,4,1,0,0,1,0
25932,774.193548387097,4,1,0,0,1,0
26029,258.064516129032,4,1,0,0,1,0
26126,774.193548387097,4,1,0,0,1,0
26222,387.096774193548,4,1,0,0,1,0
26319,774.193548387097,4,1,0,0,1,0
26368,258.064516129032,4,1,0,0,1,0
26416,387.096774193548,4,1,0,0,1,0
27384,774.193548387097,4,1,0,0,1,0
39771,387.096774193548,4,1,0,0,1,0
42867,258.064516129032,4,1,0,0,1,0
42964,774.193548387097,4,1,0,0,1,0
43061,387.096774193548,4,1,0,0,1,0
43254,258.064516129032,4,1,0,0,1,0
43351,774.193548387097,4,1,0,0,1,0
43448,387.096774193548,4,1,0,0,1,0
43641,258.064516129032,4,1,0,0,1,0
43738,774.193548387097,4,1,0,0,1,0
43835,387.096774193548,4,1,0,0,1,0
44028,258.064516129032,4,1,0,0,1,0
44125,774.193548387097,4,1,0,0,1,0
44222,387.096774193548,4,1,0,0,1,0
44996,258.064516129032,4,1,0,0,1,0
45189,774.193548387097,4,1,0,0,1,0
45383,387.096774193548,4,1,0,0,1,0
53704,258.064516129032,4,1,0,0,1,0
54091,774.193548387097,4,1,0,0,1,0
54478,387.096774193548,4,1,0,0,1,0
66864,258.064516129032,4,1,0,0,1,0
66912,774.193548387097,4,1,0,0,1,0
66961,258.064516129032,4,1,0,0,1,0
67009,774.193548387097,4,1,0,0,1,0
67057,258.064516129032,4,1,0,0,1,0
67106,774.193548387097,4,1,0,0,1,0
67154,258.064516129032,4,1,0,0,1,0
67203,774.193548387097,4,1,0,0,1,0
67251,258.064516129032,4,1,0,0,1,0
67299,774.193548387097,4,1,0,0,1,0
67348,258.064516129032,4,1,0,0,1,0
67396,774.193548387097,4,1,0,0,1,0
67445,258.064516129032,4,1,0,0,1,0
67493,774.193548387097,4,1,0,0,1,0
67541,258.064516129032,4,1,0,0,1,0
67590,774.193548387097,4,1,0,0,1,0
67638,387.096774193548,4,1,0,0,1,0
89313,258.064516129032,4,1,0,0,1,0
89409,774.193548387097,4,1,0,0,1,0
89506,387.096774193548,4,1,0,0,1,0
89603,774.193548387097,4,1,0,0,1,0
89651,258.064516129032,4,1,0,0,1,0
89700,774.193548387097,4,1,0,0,1,0
89748,258.064516129032,4,1,0,0,1,0
89796,387.096774193548,4,1,0,0,1,0
90087,258.064516129032,4,1,0,0,1,0
90184,774.193548387097,4,1,0,0,1,0
90280,387.096774193548,4,1,0,0,1,0
90377,774.193548387097,4,1,0,0,1,0
90425,258.064516129032,4,1,0,0,1,0
90474,774.193548387097,4,1,0,0,1,0
90522,258.064516129032,4,1,0,0,1,0
90571,387.096774193548,4,1,0,0,1,0
91248,774.193548387097,4,1,0,0,1,0
91296,258.064516129032,4,1,0,0,1,0
91345,774.193548387097,4,1,0,0,1,0
91441,258.064516129032,4,1,0,0,1,0
91538,387.096774193548,4,1,0,0,1,0
92409,387.096774193548,4,1,0,0,1,0
114086,258.064516129032,4,1,0,0,1,0
114150,774.193548387097,4,1,0,0,1,0
114279,258.064516129032,4,1,0,0,1,0
114343,774.193548387097,4,1,0,0,1,0
114472,258.064516129032,4,1,0,0,1,0
114536,774.193548387097,4,1,0,0,1,0
114665,258.064516129032,4,1,0,0,1,0
114729,774.193548387097,4,1,0,0,1,0
114858,258.064516129032,4,1,0,0,1,0
114922,774.193548387097,4,1,0,0,1,0
115051,258.064516129032,4,1,0,0,1,0
115115,774.193548387097,4,1,0,0,1,0
115244,258.064516129032,4,1,0,0,1,0
115308,774.193548387097,4,1,0,0,1,0
115437,258.064516129032,4,1,0,0,1,0
115501,774.193548387097,4,1,0,0,1,0
115630,387.096774193548,4,1,0,0,1,0
144279,258.064516129032,4,1,0,0,1,0
144327,774.193548387097,4,1,0,0,1,0
144376,258.064516129032,4,1,0,0,1,0
144424,774.193548387097,4,1,0,0,1,0
144473,258.064516129032,4,1,0,0,1,0
144521,774.193548387097,4,1,0,0,1,0
144569,258.064516129032,4,1,0,0,1,0
144618,774.193548387097,4,1,0,0,1,0
144666,258.064516129032,4,1,0,0,1,0
144714,774.193548387097,4,1,0,0,1,0
144763,258.064516129032,4,1,0,0,1,0
144811,774.193548387097,4,1,0,0,1,0
144860,258.064516129032,4,1,0,0,1,0
144908,774.193548387097,4,1,0,0,1,0
144956,258.064516129032,4,1,0,0,1,0
145005,774.193548387097,4,1,0,0,1,0
145053,387.096774193548,4,1,0,0,1,0
158214,774.193548387097,4,1,0,0,1,0
158262,258.064516129032,4,1,0,0,1,0
158310,387.096774193548,4,1,0,0,1,0
158504,258.064516129032,4,1,0,0,1,0
158601,774.193548387097,4,1,0,0,1,0
158697,387.096774193548,4,1,0,0,1,0
158988,774.193548387097,4,1,0,0,1,0
171373,387.096774193548,4,1,0,0,1,0
175824,258.064516129032,4,1,0,0,1,0
175921,774.193548387097,4,1,0,0,1,0
176018,387.096774193548,4,1,0,0,1,0
176598,258.064516129032,4,1,0,0,1,0
176695,774.193548387097,4,1,0,0,1,0
176792,387.096774193548,4,1,0,0,1,0
176985,258.064516129032,4,1,0,0,1,0
177082,774.193548387097,4,1,0,0,1,0
177179,258.064516129032,4,1,0,0,1,0
177276,774.193548387097,4,1,0,0,1,0
177373,258.064516129032,4,1,0,0,1,0
177469,774.193548387097,4,1,0,0,1,0
177566,387.096774193548,4,1,0,0,1,0
184533,774.193548387097,4,1,0,0,1,0
184581,258.064516129032,4,1,0,0,1,0
184630,387.096774193548,4,1,0,0,1,0
184823,258.064516129032,4,1,0,0,1,0
184920,774.193548387097,4,1,0,0,1,0
185017,258.064516129032,4,1,0,0,1,0
185065,774.193548387097,4,1,0,0,1,0
185114,387.096774193548,4,1,0,0,1,0
185210,774.193548387097,4,1,0,0,1,0
185259,258.064516129032,4,1,0,0,1,0
185307,387.096774193548,4,1,0,0,1,0
203888,387.096774193548,4,1,0,0,1,0
204275,387.096774193548,4,1,0,0,1,0
204661,387.096774193548,4,1,0,0,1,0
205048,387.096774193548,4,1,0,0,1,0
205435,387.096774193548,4,1,0,0,1,0
205822,387.096774193548,4,1,0,0,1,0
206209,387.096774193548,4,1,0,0,1,0
206596,387.096774193548,4,1,0,0,1,0
206983,387.096774193548,4,1,0,0,1,0
209305,774.193548387097,4,1,0,0,1,0
209354,258.064516129032,4,1,0,0,1,0
209402,774.193548387097,4,1,0,0,1,0
209451,258.064516129032,4,1,0,0,1,0
209499,774.193548387097,4,1,0,0,1,0
209547,258.064516129032,4,1,0,0,1,0
209596,774.193548387097,4,1,0,0,1,0
209644,258.064516129032,4,1,0,0,1,0
209692,774.193548387097,4,1,0,0,1,0
209741,258.064516129032,4,1,0,0,1,0
209789,774.193548387097,4,1,0,0,1,0
209838,258.064516129032,4,1,0,0,1,0
209886,774.193548387097,4,1,0,0,1,0
209934,258.064516129032,4,1,0,0,1,0
209983,774.193548387097,4,1,0,0,1,0
210031,258.064516129032,4,1,0,0,1,0
210080,387.096774193548,4,1,0,0,1,0
213225,500,4,1,0,0,1,0

[HitObjects]
36,0,1063,128,0,1837:0:0:0:0:soft-hitnormal2.ogg
475,192,1063,1,0,0:0:0:0:soft-hitnormal2.ogg
402,192,1256,1,0,0:0:0:0:soft-hitnormal2.ogg
329,192,1450,1,0,0:0:0:0:soft-hitnormal2.ogg
329,192,1643,1,0,0:0:0:0:soft-hitnormal2.ogg
475,192,1643,1,0,0:0:0:0:soft-hitnormal2.ogg
182,0,1837,128,0,2611:0:0:0:0:soft-hitnormal2.ogg
402,0,2224,128,0,2611:0:0:0:0:soft-hitnormal2.ogg
36,192,2611,1,0,0:0:0:0:soft-hitnormal2.ogg
329,0,2611,128,0,3385:0:0:0:0:soft-hitnormal2.ogg
109,192,2804,1,0,0:0:0:0:soft-hitnormal2.ogg
182,192,2998,1,0,0:0:0:0:soft-hitnormal2.ogg
36,192,3192,1,0,0:0:0:0:soft-hitnormal2.ogg
182,192,3192,1,0,0:0:0:0:soft-hitnormal2.ogg
475,0,3385,128,0,4159:0:0:0:0:soft-hitnormal2.ogg
109,0,3772,128,0,4159:0:0:0:0:soft-hitnormal2.ogg
182,0,4159,128,0,4933:0:0:0:0:soft-hitnormal2.ogg
329,0,4159,128,0,4933:0:0:0:0:soft-hitnormal2.ogg
256,0,4159,128,0,5708:0:0:0:0:soft-hitnormal2.ogg
475,192,4353,1,0,0:0:0:0:soft-hitnormal2.ogg
36,192,4546,1,0,0:0:0:0:soft-hitnormal2.ogg
36,0,4740,128,0,5708:0:0:0:0:soft-hitnormal2.ogg
475,0,4740,128,0,5708:0:0:0:0:soft-hitnormal2.ogg
109,0,5321,128,0,5708:0:0:0:0:soft-hitnormal2.ogg
402,0,5321,128,0,5708:0:0:0:0:soft-hitnormal2.ogg
182,0,5708,128,0,7256:0:0:0:0:soft-hitnormal2.ogg
329,0,5708,128,0,7256:0:0:0:0:soft-hitnormal2.ogg
402,0,6095,128,0,7256:0:0:0:0:soft-hitnormal2.ogg
475,192,6482,1,0,0:0:0:0:soft-hitnormal2.ogg
109,0,6675,128,0,7256:0:0:0:0:soft-hitnormal2.ogg
36,192,6869,1,0,0:0:0:0:soft-hitnormal2.ogg
36,192,7256,1,0,0:0:0:0:soft-hitnormal2.ogg
256,192,7256,1,0,0:0:0:0:soft-hitnormal2.ogg
475,192,7256,1,0,0:0:0:0:soft-hitnormal2.ogg
36,192,7450,1,0,0:0:0:0:soft-hitnormal2.ogg
475,192,7450,1,0,0:0:0:0:soft-hitnormal2.ogg
109,192,7546,1,0,0:0:0:0:soft-hitnormal2.ogg
402,192,7546,1,0,0:0:0:0:soft-hitnormal2.ogg
182,192,7643,1,0,0:0:0:0:soft-hitnormal2.ogg
329,192,7643,1,0,0:0:0:0:soft-hitnormal2.ogg
36,192,7837,1,0,0:0:0:0:soft-hitnormal2.ogg
475,192,7837,1,0,0:0:0:0:soft-hitnormal2.ogg
36,192,8030,1,0,0:0:0:0:soft-hitnormal2.ogg
329,192,8030,1,0,0:0:0:0:soft-hitnormal2.ogg
182,192,8224,1,0,0:0:0:0:soft-hitnormal2.ogg
475,192,8224,1,0,0:0:0:0:soft-hitnormal2.ogg
402,192,8321,1,0,0:0:0:0:soft-hitnormal2.ogg
36,192,8417,1,0,0:0:0:0:soft-hitnormal2.ogg
329,192,8417,1,0,0:0:0:0:soft-hitnormal2.ogg
109,192,8514,1,0,0:0:0:0:soft-hitnormal2.ogg
182,192,8611,1,0,0:0:0:0:soft-hitnormal2.ogg
475,192,8611,1,0,0:0:0:0:soft-hitnormal2.ogg
36,192,8804,1,0,0:0:0:0:soft-hitnormal2.ogg
109,192,8804,1,0,0:0:0:0:soft-hitnormal2.ogg
182,192,8804,1,0,0:0:0:0:soft-hitnormal2.ogg
256,192,8804,1,0,0:0:0:0:soft-hitnormal2.ogg
329,192,8804,1,0,0:0:0:0:soft-hitnormal2.ogg
402,192,8804,1,0,0:0:0:0:soft-hitnormal2.ogg
475,192,8804,1,0,0:0:0:0:soft-hitnormal2.ogg
109,192,8998,1,0,0:0:0:0:soft-hitnormal2.ogg
329,192,8998,1,0,0:0:0:0:soft-hitnormal2.ogg
182,192,9095,1,0,0:0:0:0:soft-hitnormal2.ogg
402,192,9095,1,0,0:0:0:0:soft-hitnormal2.ogg
256,192,9192,1,0,0:0:0:0:soft-hitnormal2.ogg
475,192,9192,1,0,0:0:0:0:soft-hitnormal2.ogg
109,192,9385,1,0,0:0:0:0:soft-hitnormal2.ogg
329,192,9385,1,0,0:0:0:0:soft-hitnormal2.ogg
36,192,9482,1,0,0:0:0:0:soft-hitnormal2.ogg
256,192,9482,1,0,0:0:0:0:soft-hitnormal2.ogg
109,192,9579,1,0,0:0:0:0:soft-hitnormal2.ogg
329,192,9579,1,0,0:0:0:0:soft-hitnormal2.ogg
256,192,9772,1,0,0:0:0:0:soft-hitnormal2.ogg
475,192,9772,1,0,0:0:0:0:soft-hitnormal2.ogg
329,192,9869,1,0,0:0:0:0:soft-hitnormal2.ogg
402,192,9869,1,0,0:0:0:0:soft-hitnormal2.ogg
182,192,9966,1,0,0:0:0:0:soft-hitnormal2.ogg
256,192,9966,1,0,0:0:0:0:soft-hitnormal2.ogg
402,192,10062,1,0,0:0:0:0:soft-hitnormal2.ogg
475,192,10062,1,0,0:0:0:0:soft-hitnormal2.ogg
109,192,10159,1,0,0:0:0:0:soft-hitnormal2.ogg
182,192,10159,1,0,0:0:0:0:soft-hitnormal2.ogg
256,192,10256,1,0,0:0:0:0:soft-hitnormal2.ogg
329,192,10256,1,0,0:0:0:0:soft-hitnormal2.ogg
36,192,10353,1,0,0:0:0:0:soft-hitnormal2.ogg
109,192,10353,1,0,0:0:0:0:soft-hitnormal2.ogg
256,192,10353,1,0,0:0:0:0:soft-hitnormal2.ogg
402,0,10353,128,0,11804:0:0:0:0:soft-hitnormal2.ogg
475,0,10353,128,0,11804:0:0:0:0:soft-hitnormal2.ogg
182,192,10450,1,0,0:0:0:0:soft-hitnormal2.ogg
329,192,10450,1,0,0:0:0:0:soft-hitnormal2.ogg
109,192,10546,1,0,0:0:0:0:soft-hitnormal2.ogg
256,192,10546,1,0,0:0:0:0:soft-hitnormal2.ogg
36,192,10643,1,0,0:0:0:0:soft-hitnormal2.ogg
329,192,10643,1,0,0:0:0:0:soft-hitnormal2.ogg
109,192,10740,1,0,0:0:0:0:soft-hitnormal2.ogg
182,192,10740,1,0,0:0:0:0:soft-hitnormal2.ogg
256,192,10837,1,0,0:0:0:0:soft-hitnormal2.ogg
329,192,10837,1,0,0:0:0:0:soft-hitnormal2.ogg
109,192,10933,1,0,0:0:0:0:soft-hitnormal2.ogg
182,192,10933,1,0,0:0:0:0:soft-hitnormal2.ogg
36,192,11030,1,0,0:0:0:0:soft-hitnormal2.ogg
109,192,11127,1,0,0:0:0:0:soft-hitnormal2.ogg
182,192,11127,1,0,0:0:0:0:soft-hitnormal2.ogg
256,192,11127,1,0,0:0:0:0:soft-hitnormal2.ogg
329,192,11127,1,0,0:0:0:0:soft-hitnormal2.ogg
36,192,11224,1,0,0:0:0:0:soft-hitnormal2.ogg
109,192,11321,1,0,0:0:0:0:soft-hitnormal2.ogg
329,192,11321,1,0,0:0:0:0:soft-hitnormal2.ogg
182,192,11417,1,0,0:0:0:0:soft-hitnormal2.ogg
256,192,11417,1,0,0:0:0:0:soft-hitnormal2.ogg
36,192,11514,1,0,0:0:0:0:soft-hitnormal2.ogg
109,192,11514,1,0,0:0:0:0:soft-hitnormal2.ogg
182,192,11611,1,0,0:0:0:0:soft-hitnormal2.ogg
256,192,11611,1,0,0:0:0:0:soft-hitnormal2.ogg
36,192,11708,1,0,0:0:0:0:soft-hitnormal2.ogg
109,192,11708,1,0,0:0:0:0:soft-hitnormal2.ogg
256,192,11804,1,0,0:0:0:0:soft-hitnormal2.ogg
329,192,11804,1,0,0:0:0:0:soft-hitnormal2.ogg
36,192,11901,1,0,0:0:0:0:soft-hitnormal2.ogg
109,192,11901,1,0,0:0:0:0:soft-hitnormal2.ogg
182,192,11901,1,0,0:0:0:0:soft-hitnormal2.ogg
402,192,11901,1,0,0:0:0:0:soft-hitnormal2.ogg
475,192,11901,1,0,0:0:0:0:soft-hitnormal2.ogg
329,192,11998,1,0,0:0:0:0:soft-hitnormal2.ogg
36,192,12095,1,0,0:0:0:0:soft-hitnormal2.ogg
256,192,12095,1,0,0:0:0:0:soft-hitnormal2.ogg
329,192,12095,1,0,0:0:0:0:soft-hitnormal2.ogg
109,192,12192,1,0,0:0:0:0:soft-hitnormal2.ogg
182,192,12288,1,0,0:0:0:0:soft-hitnormal2.ogg
402,192,12288,1,0,0:0:0:0:soft-hitnormal2.ogg
475,192,12288,1,0,0:0:0:0:soft-hitnormal2.ogg
109,192,12385,1,0,0:0:0:0:soft-hitnormal2.ogg
256,192,12385,1,0,0:0:0:0:soft-hitnormal2.ogg
36,192,12482,1,0,0:0:0:0:soft-hitnormal2.ogg
109,192,12482,1,0,0:0:0:0:soft-hitnormal2.ogg
329,192,12482,1,0,0:0:0:0:soft-hitnormal2.ogg
256,192,12579,1,0,0:0:0:0:soft-hitnormal2.ogg
402,192,12579,1,0,0:0:0:0:soft-hitnormal2.ogg
182,192,12675,1,0,0:0:0:0:soft-hitnormal2.ogg
256,192,12675,1,0,0:0:0:0:soft-hitnormal2.ogg
475,192,12675,1,0,0:0:0:0:soft-hitnormal2.ogg
36,192,12772,1,0,0:0:0:0:soft-hitnormal2.ogg
402,192,12772,1,0,0:0:0:0:soft-hitnormal2.ogg
109,192,12869,1,0,0:0:0:0:soft-hitnormal2.ogg
329,192,12869,1,0,0:0:0:0:soft-hitnormal2.ogg
402,192,12869,1,0,0:0:0:0:soft-hitnormal2.ogg
182,192,12966,1,0,0:0:0:0:soft-hitnormal2.ogg
475,192,12966,1,0,0:0:0:0:soft-hitnormal2.ogg
36,192,13062,1,0,0:0:0:0:soft-hitnormal2.ogg
109,192,13062,1,0,0:0:0:0:soft-hitnormal2.ogg
256,192,13062,1,0,0:0:0:0:soft-hitnormal2.ogg
182,192,13159,1,0,0:0:0:0:soft-hitnormal2.ogg
329,192,13159,1,0,0:0:0:0:soft-hitnormal2.ogg
36,192,13256,1,0,0:0:0:0:soft-hitnormal2.ogg
256,192,13256,1,0,0:0:0:0:soft-hitnormal2.ogg
402,192,13256,1,0,0:0:0:0:soft-hitnormal2.ogg
109,192,13353,1,0,0:0:0:0:soft-hitnormal2.ogg
329,192,13353,1,0,0:0:0:0:soft-hitnormal2.ogg
475,192,13353,1,0,0:0:0:0:soft-hitnormal2.ogg
256,192,13450,1,0,0:0:0:0:soft-hitnormal2.ogg
402,192,13450,1,0,0:0:0:0:soft-hitnormal2.ogg
36,0,13450,128,0,14998:0:0:0:0:soft-hitnormal2.ogg
182,0,13450,128,0,14998:0:0:0:0:soft-hitnormal2.ogg
402,192,14224,1,0,0:0:0:0:soft-hitnormal2.ogg
475,0,14224,128,0,14998:0:0:0:0:soft-hitnormal2.ogg
329,192,14320,1,0,0:0:0:0:soft-hitnormal2.ogg
256,192,14417,1,0,0:0:0:0:soft-hitnormal2.ogg
329,192,14465,1,0,0:0:0:0:soft-hitnormal2.ogg
402,192,14514,1,0,0:0:0:0:soft-hitnormal2.ogg
329,192,14562,1,0,0:0:0:0:soft-hitnormal2.ogg
256,192,14611,1,0,0:0:0:0:soft-hitnormal2.ogg
402,192,14707,1,0,0:0:0:0:soft-hitnormal2.ogg
329,192,14804,1,0,0:0:0:0:soft-hitnormal2.ogg
256,192,14901,1,0,0:0:0:0:soft-hitnormal2.ogg
402,0,14998,128,0,15772:0:0:0:0:soft-hitnormal2.ogg
109,192,14998,1,0,0:0:0:0:soft-hitnormal2.ogg
256,192,15094,1,0,0:0:0:0:soft-hitnormal2.ogg
475,192,15191,1,0,0:0:0:0:soft-hitnormal2.ogg
256,192,15288,1,0,0:0:0:0:soft-hitnormal2.ogg
109,192,15385,1,0,0:0:0:0:soft-hitnormal2.ogg
182,192,15482,1,0,0:0:0:0:soft-hitnormal2.ogg
475,192,15578,1,0,0:0:0:0:soft-hitnormal2.ogg
182,192,15675,1,0,0:0:0:0:soft-hitnormal2.ogg
109,192,15772,1,0,0:0:0:0:soft-hitnormal2.ogg
329,0,15772,128,0,16546:0:0:0:0:soft-hitnormal2.ogg
36,192,15869,1,0,0:0:0:0:soft-hitnormal2.ogg
256,0,15965,128,0,16062:0:0:0:0:soft-hitnormal2.ogg
475,192,15965,1,0,0:0:0:0:soft-hitnormal2.ogg
36,192,16062,1,0,0:0:0:0:soft-hitnormal2.ogg
109,192,16159,1,0,0:0:0:0:soft-hitnormal2.ogg
182,0,16159,128,0,16256:0:0:0:0:soft-hitnormal2.ogg
36,192,16256,1,0,0:0:0:0:soft-hitnormal2.ogg
109,0,16353,128,0,16449:0:0:0:0:soft-hitnormal2.ogg
475,192,16353,1,0,0:0:0:0:soft-hitnormal2.ogg
36,192,16449,1,0,0:0:0:0:soft-hitnormal2.ogg
182,0,16546,128,0,17320:0:0:0:0:soft-hitnormal2.ogg
256,192,16546,1,0,0:0:0:0:soft-hitnormal2.ogg
402,192,16546,1,0,0:0:0:0:soft-hitnormal2.ogg
475,192,16643,1,0,0:0:0:0:soft-hitnormal2.ogg
36,192,16740,1,0,0:0:0:0:soft-hitnormal2.ogg
475,192,16836,1,0,0:0:0:0:soft-hitnormal2.ogg
402,192,16933,1,0,0:0:0:0:soft-hitnormal2.ogg
329,192,17030,1,0,0:0:0:0:soft-hitnormal2.ogg
36,192,17127,1,0,0:0:0:0:soft-hitnormal2.ogg
329,192,17223,1,0,0:0:0:0:soft-hitnormal2.ogg
402,192,17320,1,0,0:0:0:0:soft-hitnormal2.ogg
109,0,17320,128,0,18094:0:0:0:0:soft-hitnormal2.ogg
182,192,17417,1,0,0:0:0:0:soft-hitnormal2.ogg
36,192,17514,1,0,0:0:0:0:soft-hitnormal2.ogg
256,0,17514,128,0,17611:0:0:0:0:soft-hitnormal2.ogg
182,192,17611,1,0,0:0:0:0:soft-hitnormal2.ogg
329,0,17707,128,0,17804:0:0:0:0:soft-hitnormal2.ogg
402,192,17707,1,0,0:0:0:0:soft-hitnormal2.ogg
182,192,17804,1,0,0:0:0:0:soft-hitnormal2.ogg
36,192,17901,1,0,0:0:0:0:soft-hitnormal2.ogg
402,0,17901,128,0,17998:0:0:0:0:soft-hitnormal2.ogg
182,192,17998,1,0,0:0:0:0:soft-hitnormal2.ogg
36,0,18094,128,0,18482:0:0:0:0:soft-hitnormal2.ogg
256,192,18094,1,0,0:0:0:0:soft-hitnormal2.ogg
475,0,18094,128,0,18482:0:0:0:0:soft-hitnormal2.ogg
182,192,18288,1,0,0:0:0:0:soft-hitnormal2.ogg
329,192,18288,1,0,0:0:0:0:soft-hitnormal2.ogg
109,192,18385,1,0,0:0:0:0:soft-hitnormal2.ogg
402,192,18385,1,0,0:0:0:0:soft-hitnormal2.ogg
182,0,18482,128,0,18869:0:0:0:0:soft-hitnormal2.ogg
256,192,18482,1,0,0:0:0:0:soft-hitnormal2.ogg
329,0,18482,128,0,18869:0:0:0:0:soft-hitnormal2.ogg
109,192,18675,1,0,0:0:0:0:soft-hitnormal2.ogg
402,192,18675,1,0,0:0:0:0:soft-hitnormal2.ogg
36,192,18772,1,0,0:0:0:0:soft-hitnormal2.ogg
475,192,18772,1,0,0:0:0:0:soft-hitnormal2.ogg
109,0,18869,128,0,19256:0:0:0:0:soft-hitnormal2.ogg
256,192,18869,1,0,0:0:0:0:soft-hitnormal2.ogg
402,0,18869,128,0,19256:0:0:0:0:soft-hitnormal2.ogg
36,192,19062,1,0,0:0:0:0:soft-hitnormal2.ogg
475,192,19062,1,0,0:0:0:0:soft-hitnormal2.ogg
182,192,19159,1,0,0:0:0:0:soft-hitnormal2.ogg
329,192,19159,1,0,0:0:0:0:soft-hitnormal2.ogg
256,192,19256,1,0,0:0:0:0:soft-hitnormal2.ogg
36,0,19256,128,0,19643:0:0:0:0:soft-hitnormal2.ogg
475,0,19256,128,0,19643:0:0:0:0:soft-hitnormal2.ogg
109,192,19449,1,0,0:0:0:0:soft-hitnormal2.ogg
402,192,19449,1,0,0:0:0:0:soft-hitnormal2.ogg
329,192,19546,1,0,0:0:0:0:soft-hitnormal2.ogg
182,192,19643,1,0,0:0:0:0:soft-hitnormal2.ogg
256,0,19643,128,0,20223:0:0:0:0:soft-hitnormal2.ogg
329,192,19643,1,0,0:0:0:0:soft-hitnormal2.ogg
329,192,20030,1,0,0:0:0:0:soft-hitnormal2.ogg
182,192,20223,1,0,0:0:0:0:soft-hitnormal2.ogg
329,192,20223,1,0,0:0:0:0:soft-hitnormal2.ogg
109,0,20223,128,0,21191:0:0:0:0:soft-hitnormal2.ogg
402,0,20223,128,0,21191:0:0:0:0:soft-hitnormal2.ogg
256,192,20611,1,0,0:0:0:0:soft-hitnormal2.ogg
329,192,20804,1,0,0:0:0:0:soft-hitnormal2.ogg
182,192,20998,1,0,0:0:0:0:soft-hitnormal2.ogg
256,192,21094,1,0,0:0:0:0:soft-hitnormal2.ogg
182,192,21191,1,0,0:0:0:0:soft-hitnormal2.ogg
329,192,21191,1,0,0:0:0:0:soft-hitnormal2.ogg
475,192,21191,1,0,0:0:0:0:soft-hitnormal2.ogg
36,0,21191,128,0,22740:0:0:0:0:soft-hitnormal2.ogg
256,192,21288,1,0,0:0:0:0:soft-hitnormal2.ogg
475,192,21385,1,0,0:0:0:0:soft-hitnormal2.ogg
256,192,21482,1,0,0:0:0:0:soft-hitnormal2.ogg
402,192,21578,1,0,0:0:0:0:soft-hitnormal2.ogg
256,192,21675,1,0,0:0:0:0:soft-hitnormal2.ogg
329,192,21772,1,0,0:0:0:0:soft-hitnormal2.ogg
256,192,21869,1,0,0:0:0:0:soft-hitnormal2.ogg
182,192,21965,1,0,0:0:0:0:soft-hitnormal2.ogg
475,0,21965,128,0,22643:0:0:0:0:soft-hitnormal2.ogg
256,192,22062,1,0,0:0:0:0:soft-hitnormal2.ogg
109,192,22159,1,0,0:0:0:0:soft-hitnormal2.ogg
402,0,22159,128,0,22643:0:0:0:0:soft-hitnormal2.ogg
256,192,22256,1,0,0:0:0:0:soft-hitnormal2.ogg
182,192,22353,1,0,0:0:0:0:soft-hitnormal2.ogg
329,0,22353,128,0,22643:0:0:0:0:soft-hitnormal2.ogg
109,192,22449,1,0,0:0:0:0:soft-hitnormal2.ogg
182,192,22546,1,0,0:0:0:0:soft-hitnormal2.ogg
256,0,22546,128,0,22643:0:0:0:0:soft-hitnormal2.ogg
109,192,22643,1,0,0:0:0:0:soft-hitnormal2.ogg
182,192,22740,1,0,0:0:0:0:soft-hitnormal2.ogg
475,0,22740,128,0,24191:0:0:0:0:soft-hitnormal2.ogg
256,192,22836,1,0,0:0:0:0:soft-hitnormal2.ogg
329,192,22933,1,0,0:0:0:0:soft-hitnormal2.ogg
256,192,23030,1,0,0:0:0:0:soft-hitnormal2.ogg
109,192,23127,1,0,0:0:0:0:soft-hitnormal2.ogg
256,192,23223,1,0,0:0:0:0:soft-hitnormal2.ogg
36,0,23320,128,0,24191:0:0:0:0:soft-hitnormal2.ogg
402,192,23320,1,0,0:0:0:0:soft-hitnormal2.ogg
256,192,23417,1,0,0:0:0:0:soft-hitnormal2.ogg
182,0,23514,128,0,23611:0:0:0:0:soft-hitnormal2.ogg
329,0,23514,128,0,23611:0:0:0:0:soft-hitnormal2.ogg
109,192,23707,1,0,0:0:0:0:soft-hitnormal2.ogg
402,192,23707,1,0,0:0:0:0:soft-hitnormal2.ogg
182,192,23901,1,0,0:0:0:0:soft-hitnormal2.ogg
256,192,23901,1,0,0:0:0:0:soft-hitnormal2.ogg
329,192,23901,1,0,0:0:0:0:soft-hitnormal2.ogg
109,192,24094,1,0,0:0:0:0:soft-hitnormal2.ogg
402,192,24094,1,0,0:0:0:0:soft-hitnormal2.ogg
36,0,24287,128,0,24367:0:0:0:0:soft-hitnormal2.ogg
256,192,24287,1,0,0:0:0:0:soft-hitnormal2.ogg
475,192,24287,1,0,0:0:0:0:soft-hitnormal2.ogg
475,0,24481,128,0,24505:0:0:0:0:soft-hitnormal2.ogg
109,192,24625,1,0,0:0:0:0:soft-hitnormal2.ogg
402,192,24625,1,0,0:0:0:0:soft-hitnormal2.ogg
36,0,24722,128,0,24744:0:0:0:0:soft-hitnormal2.ogg
109,192,24722,1,0,0:0:0:0:soft-hitnormal2.ogg
182,192,24722,1,0,0:0:0:0:soft-hitnormal2.ogg
256,192,24722,1,0,0:0:0:0:soft-hitnormal2.ogg
329,192,24722,1,0,0:0:0:0:soft-hitnormal2.ogg
402,192,24722,1,0,0:0:0:0:soft-hitnormal2.ogg
256,192,24867,1,0,0:0:0:0:soft-hitnormal2.ogg
475,0,24867,128,0,24964:0:0:0:0:soft-hitnormal2.ogg
36,0,25061,128,0,25141:0:0:0:0:soft-hitnormal2.ogg
182,192,25061,1,0,0:0:0:0:soft-hitnormal2.ogg
329,192,25061,1,0,0:0:0:0:soft-hitnormal2.ogg
475,192,25061,1,0,0:0:0:0:soft-hitnormal2.ogg
475,0,25255,128,0,25303:0:0:0:0:soft-hitnormal2.ogg
402,192,25352,1,0,0:0:0:0:soft-hitnormal2.ogg
109,192,25352,1,0,0:0:0:0:soft-hitnormal2.ogg
475,192,25448,1,0,0:0:0:0:soft-hitnormal2.ogg
402,192,25448,1,0,0:0:0:0:soft-hitnormal2.ogg
256,192,25448,1,0,0:0:0:0:soft-hitnormal2.ogg
109,192,25448,1,0,0:0:0:0:soft-hitnormal2.ogg
36,0,25448,128,0,25496:0:0:0:0:soft-hitnormal2.ogg
475,0,25641,128,0,25738:0:0:0:0:soft-hitnormal2.ogg
329,192,25641,1,0,0:0:0:0:soft-hitnormal2.ogg
182,192,25641,1,0,0:0:0:0:soft-hitnormal2.ogg
36,0,25835,128,0,25915:0:0:0:0:soft-hitnormal2.ogg
109,192,25835,1,0,0:0:0:0:soft-hitnormal2.ogg
256,192,25835,1,0,0:0:0:0:soft-hitnormal2.ogg
402,192,25835,1,0,0:0:0:0:soft-hitnormal2.ogg
182,192,26029,1,0,0:0:0:0:soft-hitnormal2.ogg
329,192,26029,1,0,0:0:0:0:soft-hitnormal2.ogg
475,0,26029,128,0,26109:0:0:0:0:soft-hitnormal2.ogg
256,192,26222,1,0,0:0:0:0:soft-hitnormal2.ogg
109,0,26319,128,0,26368:0:0:0:0:soft-hitnormal2.ogg
256,0,26319,128,0,26367:0:0:0:0:soft-hitnormal2.ogg
182,0,26319,128,0,26367:0:0:0:0:soft-hitnormal2.ogg
36,0,26319,128,0,26368:0:0:0:0:soft-hitnormal2.ogg
329,0,26319,1,0,0:0:0:0:soft-hitnormal2.ogg
475,0,26488,128,0,26778:0:0:0:0:soft-hitnormal2.ogg
36,0,26512,128,0,27335:0:0:0:0:soft-hitnormal2.ogg
256,192,26512,1,0,0:0:0:0:soft-hitnormal2.ogg
329,192,26803,1,0,0:0:0:0:soft-hitnormal2.ogg
402,192,26803,1,0,0:0:0:0:soft-hitnormal2.ogg
256,192,26996,1,0,0:0:0:0:soft-hitnormal2.ogg
329,192,26996,1,0,0:0:0:0:soft-hitnormal2.ogg
182,192,27190,1,0,0:0:0:0:soft-hitnormal2.ogg
256,192,27190,1,0,0:0:0:0:soft-hitnormal2.ogg
36,0,27384,128,0,27964:0:0:0:0:soft-hitnormal2.ogg
109,192,27384,1,0,0:0:0:0:soft-hitnormal2.ogg
182,192,27384,1,0,0:0:0:0:soft-hitnormal2.ogg
329,192,27577,1,0,0:0:0:0:soft-hitnormal2.ogg
475,192,27577,1,0,0:0:0:0:soft-hitnormal2.ogg
256,192,27771,1,0,0:0:0:0:soft-hitnormal2.ogg
402,192,27771,1,0,0:0:0:0:soft-hitnormal2.ogg
182,192,27964,1,0,0:0:0:0:soft-hitnormal2.ogg
329,192,27964,1,0,0:0:0:0:soft-hitnormal2.ogg
36,192,28932,1,0,0:0:0:0:soft-hitnormal2.ogg
109,0,28932,128,0,29513:0:0:0:0:soft-hitnormal2.ogg
182,192,28932,1,0,0:0:0:0:soft-hitnormal2.ogg
329,192,29077,1,0,0:0:0:0:soft-hitnormal2.ogg
475,192,29077,1,0,0:0:0:0:soft-hitnormal2.ogg
256,192,29319,1,0,0:0:0:0:soft-hitnormal2.ogg
402,192,29319,1,0,0:0:0:0:soft-hitnormal2.ogg
182,192,29513,1,0,0:0:0:0:soft-hitnormal2.ogg
329,192,29513,1,0,0:0:0:0:soft-hitnormal2.ogg
182,192,29900,1,0,0:0:0:0:soft-hitnormal2.ogg
329,192,30093,1,0,0:0:0:0:soft-hitnormal2.ogg
109,192,30287,1,0,0:0:0:0:soft-hitnormal2.ogg
402,192,30287,1,0,0:0:0:0:soft-hitnormal2.ogg
36,192,30480,1,0,0:0:0:0:soft-hitnormal2.ogg
256,0,30480,128,0,31158:0:0:0:0:soft-hitnormal2.ogg
475,192,30480,1,0,0:0:0:0:soft-hitnormal2.ogg
109,192,30674,1,0,0:0:0:0:soft-hitnormal2.ogg
402,192,30674,1,0,0:0:0:0:soft-hitnormal2.ogg
182,192,30867,1,0,0:0:0:0:soft-hitnormal2.ogg
329,192,30867,1,0,0:0:0:0:soft-hitnormal2.ogg
109,0,31061,128,0,31109:0:0:0:0:soft-hitnormal2.ogg
182,0,31061,128,0,31109:0:0:0:0:soft-hitnormal2.ogg
36,0,31061,128,0,31109:0:0:0:0:soft-hitnormal2.ogg
402,0,31061,128,0,31109:0:0:0:0:soft-hitnormal2.ogg
329,0,31061,128,0,31109:0:0:0:0:soft-hitnormal2.ogg
475,0,31061,128,0,31109:0:0:0:0:soft-hitnormal2.ogg
256,192,31448,1,0,0:0:0:0:soft-hitnormal2.ogg
475,192,31835,1,0,0:0:0:0:soft-hitnormal2.ogg
329,192,32029,1,0,0:0:0:0:soft-hitnormal2.ogg
402,0,32029,128,0,32609:0:0:0:0:soft-hitnormal2.ogg
475,192,32029,1,0,0:0:0:0:soft-hitnormal2.ogg
36,192,32222,1,0,0:0:0:0:soft-hitnormal2.ogg
182,192,32222,1,0,0:0:0:0:soft-hitnormal2.ogg
109,192,32416,1,0,0:0:0:0:soft-hitnormal2.ogg
256,192,32416,1,0,0:0:0:0:soft-hitnormal2.ogg
329,192,32609,1,0,0:0:0:0:soft-hitnormal2.ogg
182,192,32609,1,0,0:0:0:0:soft-hitnormal2.ogg
256,192,32803,1,0,0:0:0:0:soft-hitnormal2.ogg
329,192,32996,1,0,0:0:0:0:soft-hitnormal2.ogg
402,192,33190,1,0,0:0:0:0:soft-hitnormal2.ogg
475,192,33384,1,0,0:0:0:0:soft-hitnormal2.ogg
109,192,33577,1,0,0:0:0:0:soft-hitnormal2.ogg
256,192,33577,1,0,0:0:0:0:soft-hitnormal2.ogg
475,0,33577,128,0,34158:0:0:0:0:soft-hitnormal2.ogg
182,192,33771,1,0,0:0:0:0:soft-hitnormal2.ogg
329,192,33771,1,0,0:0:0:0:soft-hitnormal2.ogg
109,192,33964,1,0,0:0:0:0:soft-hitnormal2.ogg
256,192,33964,1,0,0:0:0:0:soft-hitnormal2.ogg
109,192,34545,1,0,0:0:0:0:soft-hitnormal2.ogg
182,192,34738,1,0,0:0:0:0:soft-hitnormal2.ogg
256,192,34932,1,0,0:0:0:0:soft-hitnormal2.ogg
329,0,35125,128,0,35706:0:0:0:0:soft-hitnormal2.ogg
402,192,35125,1,0,0:0:0:0:soft-hitnormal2.ogg
475,192,35125,1,0,0:0:0:0:soft-hitnormal2.ogg
109,192,35319,1,0,0:0:0:0:soft-hitnormal2.ogg
36,192,35319,1,0,0:0:0:0:soft-hitnormal2.ogg
109,192,35513,1,0,0:0:0:0:soft-hitnormal2.ogg
182,192,35513,1,0,0:0:0:0:soft-hitnormal2.ogg
256,192,36093,1,0,0:0:0:0:soft-hitnormal2.ogg
182,192,36287,1,0,0:0:0:0:soft-hitnormal2.ogg
109,192,36480,1,0,0:0:0:0:soft-hitnormal2.ogg
36,192,36674,1,0,0:0:0:0:soft-hitnormal2.ogg
109,192,36674,1,0,0:0:0:0:soft-hitnormal2.ogg
182,0,36674,128,0,37254:0:0:0:0:soft-hitnormal2.ogg
256,192,36867,1,0,0:0:0:0:soft-hitnormal2.ogg
329,192,36867,1,0,0:0:0:0:soft-hitnormal2.ogg
329,192,37061,1,0,0:0:0:0:soft-hitnormal2.ogg
402,192,37061,1,0,0:0:0:0:soft-hitnormal2.ogg
329,192,37448,1,0,0:0:0:0:soft-hitnormal2.ogg
256,192,37642,1,0,0:0:0:0:soft-hitnormal2.ogg
182,192,37835,1,0,0:0:0:0:soft-hitnormal2.ogg
109,192,38029,1,0,0:0:0:0:soft-hitnormal2.ogg
36,0,38222,128,0,39674:0:0:0:0:soft-hitnormal2.ogg
109,0,38222,128,0,38319:0:0:0:0:soft-hitnormal2.ogg
182,0,38222,128,0,38319:0:0:0:0:soft-hitnormal2.ogg
329,192,38222,1,0,0:0:0:0:soft-hitnormal2.ogg
402,192,38319,1,0,0:0:0:0:soft-hitnormal2.ogg
475,192,38416,1,0,0:0:0:0:soft-hitnormal2.ogg
402,192,38513,1,0,0:0:0:0:soft-hitnormal2.ogg
109,0,38609,128,0,38706:0:0:0:0:soft-hitnormal2.ogg
329,192,38609,1,0,0:0:0:0:soft-hitnormal2.ogg
402,192,38706,1,0,0:0:0:0:soft-hitnormal2.ogg
475,192,38803,1,0,0:0:0:0:soft-hitnormal2.ogg
182,192,38803,128,0,38900:0:0:0:0:
402,192,38900,1,0,0:0:0:0:soft-hitnormal2.ogg
256,0,38996,128,0,39093:0:0:0:0:soft-hitnormal2.ogg
329,192,38996,1,0,0:0:0:0:soft-hitnormal2.ogg
402,192,39093,1,0,0:0:0:0:soft-hitnormal2.ogg
475,192,39190,1,0,0:0:0:0:soft-hitnormal2.ogg
182,0,39190,128,0,39287:0:0:0:0:soft-hitnormal2.ogg
402,192,39287,1,0,0:0:0:0:soft-hitnormal2.ogg
329,192,39384,1,0,0:0:0:0:soft-hitnormal2.ogg
109,0,39384,128,0,39480:0:0:0:0:soft-hitnormal2.ogg
402,192,39480,1,0,0:0:0:0:soft-hitnormal2.ogg
475,192,39577,1,0,0:0:0:0:soft-hitnormal2.ogg
182,0,39577,128,0,39674:0:0:0:0:soft-hitnormal2.ogg
402,192,39674,1,0,0:0:0:0:soft-hitnormal2.ogg
36,0,39771,128,0,41222:0:0:0:0:soft-hitnormal2.ogg
109,0,39771,128,0,41222:0:0:0:0:soft-hitnormal2.ogg
256,192,39771,1,0,0:0:0:0:soft-hitnormal2.ogg
329,192,39771,1,0,0:0:0:0:soft-hitnormal2.ogg
475,192,39771,1,0,0:0:0:0:soft-hitnormal2.ogg
182,192,39964,1,0,0:0:0:0:soft-hitnormal2.ogg
256,192,39964,1,0,0:0:0:0:soft-hitnormal2.ogg
475,192,40061,1,0,0:0:0:0:soft-hitnormal2.ogg
256,192,40158,1,0,0:0:0:0:soft-hitnormal2.ogg
329,192,40158,1,0,0:0:0:0:soft-hitnormal2.ogg
182,192,40351,1,0,0:0:0:0:soft-hitnormal2.ogg
256,192,40351,1,0,0:0:0:0:soft-hitnormal2.ogg
329,192,40351,1,0,0:0:0:0:soft-hitnormal2.ogg
475,192,40448,1,0,0:0:0:0:soft-hitnormal2.ogg
182,192,40545,1,0,0:0:0:0:soft-hitnormal2.ogg
329,192,40545,1,0,0:0:0:0:soft-hitnormal2.ogg
329,192,40738,1,0,0:0:0:0:soft-hitnormal2.ogg
402,192,40738,1,0,0:0:0:0:soft-hitnormal2.ogg
475,192,40738,1,0,0:0:0:0:soft-hitnormal2.ogg
182,192,40835,1,0,0:0:0:0:soft-hitnormal2.ogg
256,192,40932,1,0,0:0:0:0:soft-hitnormal2.ogg
329,192,40932,1,0,0:0:0:0:soft-hitnormal2.ogg
182,192,41125,1,0,0:0:0:0:soft-hitnormal2.ogg
475,192,41222,1,0,0:0:0:0:soft-hitnormal2.ogg
256,192,41319,1,0,0:0:0:0:soft-hitnormal2.ogg
329,192,41319,1,0,0:0:0:0:soft-hitnormal2.ogg
402,192,41319,1,0,0:0:0:0:soft-hitnormal2.ogg
109,0,41319,128,0,42867:0:0:0:0:soft-hitnormal2.ogg
182,0,41319,128,0,42867:0:0:0:0:soft-hitnormal2.ogg
329,192,41512,1,0,0:0:0:0:soft-hitnormal2.ogg
475,192,41512,1,0,0:0:0:0:soft-hitnormal2.ogg
256,192,41609,1,0,0:0:0:0:soft-hitnormal2.ogg
402,192,41609,1,0,0:0:0:0:soft-hitnormal2.ogg
36,192,41706,1,0,0:0:0:0:soft-hitnormal2.ogg
329,192,41706,1,0,0:0:0:0:soft-hitnormal2.ogg
256,192,41900,1,0,0:0:0:0:soft-hitnormal2.ogg
329,192,41900,1,0,0:0:0:0:soft-hitnormal2.ogg
402,192,41900,1,0,0:0:0:0:soft-hitnormal2.ogg
475,192,41900,1,0,0:0:0:0:soft-hitnormal2.ogg
36,192,41996,1,0,0:0:0:0:soft-hitnormal2.ogg
256,192,42093,1,0,0:0:0:0:soft-hitnormal2.ogg
329,192,42093,1,0,0:0:0:0:soft-hitnormal2.ogg
36,192,42287,1,0,0:0:0:0:soft-hitnormal2.ogg
256,192,42287,1,0,0:0:0:0:soft-hitnormal2.ogg
402,192,42287,1,0,0:0:0:0:soft-hitnormal2.ogg
475,192,42287,1,0,0:0:0:0:soft-hitnormal2.ogg
329,192,42383,1,0,0:0:0:0:soft-hitnormal2.ogg
402,192,42480,1,0,0:0:0:0:soft-hitnormal2.ogg
256,192,42480,1,0,0:0:0:0:soft-hitnormal2.ogg
475,192,42480,1,0,0:0:0:0:
36,192,42674,1,0,0:0:0:0:soft-hitnormal2.ogg
256,192,42771,1,0,0:0:0:0:soft-hitnormal2.ogg
36,192,42867,1,0,0:0:0:0:soft-hitnormal2.ogg
329,0,42867,128,0,44294:0:0:0:0:soft-hitnormal2.ogg
402,0,42867,128,0,44294:0:0:0:0:soft-hitnormal2.ogg
475,192,42867,1,0,0:0:0:0:soft-hitnormal2.ogg
36,192,43061,1,0,0:0:0:0:soft-hitnormal2.ogg
256,192,43061,1,0,0:0:0:0:soft-hitnormal2.ogg
182,192,43157,1,0,0:0:0:0:soft-hitnormal2.ogg
36,192,43254,1,0,0:0:0:0:soft-hitnormal2.ogg
109,192,43254,1,0,0:0:0:0:soft-hitnormal2.ogg
256,192,43254,1,0,0:0:0:0:soft-hitnormal2.ogg
475,192,43254,1,0,0:0:0:0:
36,192,43448,1,0,0:0:0:0:soft-hitnormal2.ogg
109,192,43448,1,0,0:0:0:0:soft-hitnormal2.ogg
182,192,43448,1,0,0:0:0:0:soft-hitnormal2.ogg
256,192,43448,1,0,0:0:0:0:soft-hitnormal2.ogg
475,192,43544,1,0,0:0:0:0:soft-hitnormal2.ogg
182,192,43641,1,0,0:0:0:0:soft-hitnormal2.ogg
36,192,43641,1,0,0:0:0:0:soft-hitnormal2.ogg
109,192,43835,1,0,0:0:0:0:soft-hitnormal2.ogg
36,192,43835,1,0,0:0:0:0:soft-hitnormal2.ogg
256,192,43835,1,0,0:0:0:0:soft-hitnormal2.ogg
182,192,43931,1,0,0:0:0:0:soft-hitnormal2.ogg
475,192,44028,1,0,0:0:0:0:soft-hitnormal2.ogg
36,192,44028,1,0,0:0:0:0:soft-hitnormal2.ogg
256,192,44028,1,0,0:0:0:0:soft-hitnormal2.ogg
109,192,44222,1,0,0:0:0:0:soft-hitnormal2.ogg
256,192,44222,1,0,0:0:0:0:soft-hitnormal2.ogg
182,192,44318,1,0,0:0:0:0:soft-hitnormal2.ogg
475,0,44415,128,0,45963:0:0:0:0:soft-hitnormal2.ogg
402,0,44415,128,0,45963:0:0:0:0:soft-hitnormal2.ogg
36,192,44415,1,0,0:0:0:0:soft-hitnormal2.ogg
329,192,44415,1,0,0:0:0:0:soft-hitnormal2.ogg
256,192,44415,1,0,0:0:0:0:soft-hitnormal2.ogg
109,192,44512,1,0,0:0:0:0:soft-hitnormal2.ogg
36,192,44609,1,0,0:0:0:0:soft-hitnormal2.ogg
182,192,44609,1,0,0:0:0:0:soft-hitnormal2.ogg
109,192,44705,1,0,0:0:0:0:soft-hitnormal2.ogg
256,192,44705,1,0,0:0:0:0:soft-hitnormal2.ogg
36,192,44802,1,0,0:0:0:0:soft-hitnormal2.ogg
182,192,44802,1,0,0:0:0:0:soft-hitnormal2.ogg
329,192,44802,1,0,0:0:0:0:soft-hitnormal2.ogg
109,192,44996,1,0,0:0:0:0:soft-hitnormal2.ogg
182,192,44996,1,0,0:0:0:0:soft-hitnormal2.ogg
256,192,44996,1,0,0:0:0:0:soft-hitnormal2.ogg
329,192,44996,1,0,0:0:0:0:soft-hitnormal2.ogg
329,192,45189,128,0,45383:0:0:0:0:
36,192,45383,1,0,0:0:0:0:soft-hitnormal2.ogg
109,192,45383,1,0,0:0:0:0:soft-hitnormal2.ogg
256,192,45383,1,0,0:0:0:0:soft-hitnormal2.ogg
329,192,45576,1,0,0:0:0:0:soft-hitnormal2.ogg
109,192,45576,1,0,0:0:0:0:soft-hitnormal2.ogg
182,192,45576,1,0,0:0:0:0:soft-hitnormal2.ogg
329,192,45770,1,0,0:0:0:0:soft-hitnormal2.ogg
256,192,45770,1,0,0:0:0:0:soft-hitnormal2.ogg
36,192,45770,1,0,0:0:0:0:soft-hitnormal2.ogg
182,192,45866,1,0,0:0:0:0:soft-hitnormal2.ogg
256,192,45963,1,0,0:0:0:0:soft-hitnormal2.ogg
329,0,45963,128,0,47512:0:0:0:0:soft-hitnormal2.ogg
36,192,46157,1,0,0:0:0:0:soft-hitnormal2.ogg
182,192,46157,1,0,0:0:0:0:soft-hitnormal2.ogg
36,192,46253,1,0,0:0:0:0:soft-hitnormal2.ogg
402,192,46350,1,0,0:0:0:0:soft-hitnormal2.ogg
36,192,46350,1,0,0:0:0:0:soft-hitnormal2.ogg
109,192,46544,1,0,0:0:0:0:soft-hitnormal2.ogg
256,192,46544,1,0,0:0:0:0:soft-hitnormal2.ogg
109,192,46641,1,0,0:0:0:0:soft-hitnormal2.ogg
475,192,46737,1,0,0:0:0:0:soft-hitnormal2.ogg
109,192,46737,1,0,0:0:0:0:soft-hitnormal2.ogg
182,192,46931,1,0,0:0:0:0:soft-hitnormal2.ogg
402,192,46931,1,0,0:0:0:0:soft-hitnormal2.ogg
182,192,47028,1,0,0:0:0:0:soft-hitnormal2.ogg
182,192,47124,1,0,0:0:0:0:soft-hitnormal2.ogg
475,192,47124,1,0,0:0:0:0:soft-hitnormal2.ogg
36,192,47318,1,0,0:0:0:0:soft-hitnormal2.ogg
402,192,47318,1,0,0:0:0:0:soft-hitnormal2.ogg
402,192,47415,1,0,0:0:0:0:soft-hitnormal2.ogg
182,192,47512,1,0,0:0:0:0:soft-hitnormal2.ogg
402,192,47512,1,0,0:0:0:0:soft-hitnormal2.ogg
256,0,47512,128,0,49060:0:0:0:0:soft-hitnormal2.ogg
36,192,47705,1,0,0:0:0:0:soft-hitnormal2.ogg
475,192,47705,1,0,0:0:0:0:soft-hitnormal2.ogg
475,192,47802,1,0,0:0:0:0:soft-hitnormal2.ogg
109,192,47899,1,0,0:0:0:0:soft-hitnormal2.ogg
475,192,47899,1,0,0:0:0:0:soft-hitnormal2.ogg
36,192,48092,1,0,0:0:0:0:soft-hitnormal2.ogg
402,192,48092,1,0,0:0:0:0:soft-hitnormal2.ogg
402,192,48189,1,0,0:0:0:0:soft-hitnormal2.ogg
182,192,48286,1,0,0:0:0:0:soft-hitnormal2.ogg
402,192,48286,1,0,0:0:0:0:soft-hitnormal2.ogg
36,192,48479,1,0,0:0:0:0:soft-hitnormal2.ogg
329,192,48479,1,0,0:0:0:0:soft-hitnormal2.ogg
329,192,48576,1,0,0:0:0:0:soft-hitnormal2.ogg
109,192,48673,1,0,0:0:0:0:soft-hitnormal2.ogg
329,192,48673,1,0,0:0:0:0:soft-hitnormal2.ogg
36,192,48866,1,0,0:0:0:0:soft-hitnormal2.ogg
182,192,48866,1,0,0:0:0:0:soft-hitnormal2.ogg
182,192,48963,1,0,0:0:0:0:soft-hitnormal2.ogg
36,192,49060,1,0,0:0:0:0:soft-hitnormal2.ogg
109,192,49060,1,0,0:0:0:0:soft-hitnormal2.ogg
329,192,49060,1,0,0:0:0:0:soft-hitnormal2.ogg
402,192,49060,1,0,0:0:0:0:soft-hitnormal2.ogg
475,192,49060,1,0,0:0:0:0:soft-hitnormal2.ogg
182,0,49060,128,0,50608:0:0:0:0:soft-hitnormal2.ogg
36,192,49253,1,0,0:0:0:0:soft-hitnormal2.ogg
109,192,49253,1,0,0:0:0:0:soft-hitnormal2.ogg
256,192,49253,1,0,0:0:0:0:soft-hitnormal2.ogg
329,192,49253,1,0,0:0:0:0:soft-hitnormal2.ogg
402,192,49253,1,0,0:0:0:0:soft-hitnormal2.ogg
36,192,49447,1,0,0:0:0:0:soft-hitnormal2.ogg
109,192,49447,1,0,0:0:0:0:soft-hitnormal2.ogg
256,192,49447,1,0,0:0:0:0:soft-hitnormal2.ogg
329,192,49447,1,0,0:0:0:0:soft-hitnormal2.ogg
36,192,49641,1,0,0:0:0:0:soft-hitnormal2.ogg
109,192,49641,1,0,0:0:0:0:soft-hitnormal2.ogg
256,192,49641,1,0,0:0:0:0:soft-hitnormal2.ogg
109,192,49834,1,0,0:0:0:0:soft-hitnormal2.ogg
256,192,49834,1,0,0:0:0:0:soft-hitnormal2.ogg
329,192,49834,1,0,0:0:0:0:soft-hitnormal2.ogg
402,192,49834,1,0,0:0:0:0:soft-hitnormal2.ogg
475,192,49834,1,0,0:0:0:0:soft-hitnormal2.ogg
256,192,50028,1,0,0:0:0:0:soft-hitnormal2.ogg
329,192,50028,1,0,0:0:0:0:soft-hitnormal2.ogg
402,192,50028,1,0,0:0:0:0:soft-hitnormal2.ogg
475,192,50028,1,0,0:0:0:0:soft-hitnormal2.ogg
329,192,50221,1,0,0:0:0:0:soft-hitnormal2.ogg
402,192,50221,1,0,0:0:0:0:soft-hitnormal2.ogg
475,192,50221,1,0,0:0:0:0:soft-hitnormal2.ogg
402,192,50415,1,0,0:0:0:0:soft-hitnormal2.ogg
475,192,50415,1,0,0:0:0:0:soft-hitnormal2.ogg
475,0,50608,128,0,50705:0:0:0:0:soft-hitnormal2.ogg
329,0,50608,128,0,52157:0:0:0:0:soft-hitnormal2.ogg
36,0,50705,128,0,50802:0:0:0:0:soft-hitnormal2.ogg
109,0,50802,128,0,50899:0:0:0:0:soft-hitnormal2.ogg
182,0,50899,128,0,50995:0:0:0:0:soft-hitnormal2.ogg
256,0,50995,128,0,51092:0:0:0:0:soft-hitnormal2.ogg
402,0,51092,128,0,51189:0:0:0:0:soft-hitnormal2.ogg
182,0,51189,128,0,52157:0:0:0:0:soft-hitnormal2.ogg
475,192,51189,1,0,0:0:0:0:
36,192,51189,1,0,0:0:0:0:
475,192,51576,1,0,0:0:0:0:soft-hitnormal2.ogg
402,192,51576,1,0,0:0:0:0:soft-hitnormal2.ogg
256,192,51576,1,0,0:0:0:0:soft-hitnormal2.ogg
109,192,51576,1,0,0:0:0:0:soft-hitnormal2.ogg
36,192,51576,1,0,0:0:0:0:soft-hitnormal2.ogg
475,192,51770,1,0,0:0:0:0:soft-hitnormal2.ogg
36,192,51770,1,0,0:0:0:0:
256,192,51963,1,0,0:0:0:0:
109,0,52157,128,0,53608:0:0:0:0:soft-hitnormal2.ogg
36,0,52157,128,0,52205:0:0:0:0:soft-hitnormal2.ogg
475,0,52253,128,0,52302:0:0:0:0:soft-hitnormal2.ogg
402,0,52350,128,0,52399:0:0:0:0:soft-hitnormal2.ogg
329,0,52447,128,0,52495:0:0:0:0:soft-hitnormal2.ogg
256,0,52544,128,0,52592:0:0:0:0:soft-hitnormal2.ogg
182,0,52641,128,0,52689:0:0:0:0:soft-hitnormal2.ogg
36,0,52737,128,0,52786:0:0:0:0:soft-hitnormal2.ogg
329,192,52737,1,0,0:0:0:0:
475,192,52737,1,0,0:0:0:0:
36,192,53124,1,0,0:0:0:0:soft-hitnormal2.ogg
182,192,53124,1,0,0:0:0:0:soft-hitnormal2.ogg
256,192,53124,1,0,0:0:0:0:soft-hitnormal2.ogg
329,192,53124,1,0,0:0:0:0:soft-hitnormal2.ogg
475,192,53124,1,0,0:0:0:0:soft-hitnormal2.ogg
36,192,53318,1,0,0:0:0:0:soft-hitnormal2.ogg
36,0,53512,128,0,53560:0:0:0:0:soft-hitnormal2.ogg
182,0,53560,128,0,53608:0:0:0:0:soft-hitnormal2.ogg
329,0,53608,128,0,53657:0:0:0:0:soft-hitnormal2.ogg
475,0,53657,128,0,53704:0:0:0:0:soft-hitnormal2.ogg
402,0,53704,128,0,55155:0:0:0:0:soft-hitnormal2.ogg
36,192,54478,1,0,0:0:0:0:soft-hitnormal2.ogg
182,192,54478,1,0,0:0:0:0:soft-hitnormal2.ogg
256,192,54478,1,0,0:0:0:0:soft-hitnormal2.ogg
329,192,54478,1,0,0:0:0:0:soft-hitnormal2.ogg
475,192,54478,1,0,0:0:0:0:soft-hitnormal2.ogg
475,192,54574,1,0,0:0:0:0:soft-hitnormal2.ogg
329,192,54574,1,0,0:0:0:0:soft-hitnormal2.ogg
256,192,54574,1,0,0:0:0:0:soft-hitnormal2.ogg
182,192,54574,1,0,0:0:0:0:soft-hitnormal2.ogg
36,192,54574,1,0,0:0:0:0:soft-hitnormal2.ogg
182,192,54768,1,0,0:0:0:0:soft-hitnormal2.ogg
256,192,54768,1,0,0:0:0:0:soft-hitnormal2.ogg
329,192,54768,1,0,0:0:0:0:soft-hitnormal2.ogg
36,192,54961,1,0,0:0:0:0:soft-hitnormal2.ogg
182,192,54961,1,0,0:0:0:0:soft-hitnormal2.ogg
256,192,55058,1,0,0:0:0:0:soft-hitnormal2.ogg
109,192,55058,1,0,0:0:0:0:soft-hitnormal2.ogg
329,192,55155,1,0,0:0:0:0:soft-hitnormal2.ogg
182,192,55155,1,0,0:0:0:0:soft-hitnormal2.ogg
36,0,55252,128,0,56703:0:0:0:0:soft-hitnormal2.ogg
109,0,55252,128,0,55348:0:0:0:0:soft-hitnormal2.ogg
475,0,55252,128,0,55348:0:0:0:0:soft-hitnormal2.ogg
256,192,55252,1,0,0:0:0:0:soft-hitnormal2.ogg
402,192,55252,1,0,0:0:0:0:
182,0,55348,128,0,55445:0:0:0:0:soft-hitnormal2.ogg
402,0,55348,128,0,55445:0:0:0:0:soft-hitnormal2.ogg
256,0,55445,128,0,55542:0:0:0:0:soft-hitnormal2.ogg
329,0,55445,128,0,55542:0:0:0:0:soft-hitnormal2.ogg
182,0,55542,128,0,55639:0:0:0:0:soft-hitnormal2.ogg
475,0,55542,128,0,55639:0:0:0:0:soft-hitnormal2.ogg
109,0,55639,128,0,55736:0:0:0:0:soft-hitnormal2.ogg
402,0,55639,128,0,55736:0:0:0:0:soft-hitnormal2.ogg
182,0,55736,128,0,55832:0:0:0:0:soft-hitnormal2.ogg
329,0,55736,128,0,55832:0:0:0:0:soft-hitnormal2.ogg
256,0,55832,128,0,55929:0:0:0:0:soft-hitnormal2.ogg
475,0,55832,128,0,55929:0:0:0:0:soft-hitnormal2.ogg
402,0,55929,128,0,56026:0:0:0:0:soft-hitnormal2.ogg
109,0,56026,128,0,56703:0:0:0:0:soft-hitnormal2.ogg
182,0,56026,128,0,56123:0:0:0:0:soft-hitnormal2.ogg
329,0,56026,128,0,56123:0:0:0:0:soft-hitnormal2.ogg
256,0,56123,128,0,56219:0:0:0:0:soft-hitnormal2.ogg
402,0,56123,128,0,56219:0:0:0:0:soft-hitnormal2.ogg
329,0,56219,128,0,56316:0:0:0:0:soft-hitnormal2.ogg
475,0,56219,128,0,56316:0:0:0:0:soft-hitnormal2.ogg
182,0,56316,128,0,56413:0:0:0:0:soft-hitnormal2.ogg
256,0,56316,128,0,56413:0:0:0:0:soft-hitnormal2.ogg
402,0,56413,128,0,56510:0:0:0:0:soft-hitnormal2.ogg
475,0,56413,128,0,56510:0:0:0:0:soft-hitnormal2.ogg
182,0,56510,128,0,56607:0:0:0:0:soft-hitnormal2.ogg
256,0,56510,128,0,56607:0:0:0:0:soft-hitnormal2.ogg
329,0,56607,128,0,56703:0:0:0:0:soft-hitnormal2.ogg
402,0,56607,128,0,56703:0:0:0:0:soft-hitnormal2.ogg
256,0,56703,128,0,56800:0:0:0:0:soft-hitnormal2.ogg
475,0,56703,128,0,56800:0:0:0:0:soft-hitnormal2.ogg
109,0,56800,128,0,58252:0:0:0:0:soft-hitnormal2.ogg
182,0,56800,128,0,56897:0:0:0:0:soft-hitnormal2.ogg
329,0,56800,128,0,56897:0:0:0:0:soft-hitnormal2.ogg
36,0,56897,128,0,56994:0:0:0:0:soft-hitnormal2.ogg
475,0,56897,128,0,56994:0:0:0:0:soft-hitnormal2.ogg
256,0,56994,128,0,57090:0:0:0:0:soft-hitnormal2.ogg
402,0,56994,128,0,57090:0:0:0:0:soft-hitnormal2.ogg
182,0,57090,128,0,57187:0:0:0:0:soft-hitnormal2.ogg
329,0,57090,128,0,57187:0:0:0:0:soft-hitnormal2.ogg
36,0,57187,128,0,57284:0:0:0:0:soft-hitnormal2.ogg
475,0,57187,128,0,57284:0:0:0:0:soft-hitnormal2.ogg
182,0,57284,128,0,57381:0:0:0:0:soft-hitnormal2.ogg
402,0,57284,128,0,57381:0:0:0:0:soft-hitnormal2.ogg
256,0,57381,128,0,57478:0:0:0:0:soft-hitnormal2.ogg
329,0,57381,128,0,57478:0:0:0:0:soft-hitnormal2.ogg
475,0,57478,128,0,57574:0:0:0:0:soft-hitnormal2.ogg
36,0,57574,128,0,57671:0:0:0:0:soft-hitnormal2.ogg
182,0,57574,128,0,58252:0:0:0:0:soft-hitnormal2.ogg
329,0,57574,128,0,57671:0:0:0:0:soft-hitnormal2.ogg
256,0,57671,128,0,57768:0:0:0:0:soft-hitnormal2.ogg
402,0,57671,128,0,57768:0:0:0:0:soft-hitnormal2.ogg
329,0,57768,128,0,57865:0:0:0:0:soft-hitnormal2.ogg
475,0,57768,128,0,57865:0:0:0:0:soft-hitnormal2.ogg
36,0,57865,128,0,57961:0:0:0:0:soft-hitnormal2.ogg
402,0,57961,128,0,58058:0:0:0:0:soft-hitnormal2.ogg
475,0,57961,128,0,58058:0:0:0:0:soft-hitnormal2.ogg
256,0,58058,128,0,58155:0:0:0:0:soft-hitnormal2.ogg
329,0,58058,128,0,58155:0:0:0:0:soft-hitnormal2.ogg
36,0,58155,128,0,58252:0:0:0:0:soft-hitnormal2.ogg
402,0,58155,128,0,58252:0:0:0:0:soft-hitnormal2.ogg
329,0,58252,128,0,58348:0:0:0:0:soft-hitnormal2.ogg
475,0,58252,128,0,58348:0:0:0:0:soft-hitnormal2.ogg
109,0,58348,128,0,58445:0:0:0:0:soft-hitnormal2.ogg
256,192,58348,1,0,0:0:0:0:soft-hitnormal2.ogg
402,192,58348,1,0,0:0:0:0:soft-hitnormal2.ogg
36,0,58348,128,0,59897:0:0:0:0:soft-hitnormal2.ogg
182,0,58445,128,0,58542:0:0:0:0:soft-hitnormal2.ogg
329,192,58445,1,0,0:0:0:0:soft-hitnormal2.ogg
256,0,58542,128,0,58639:0:0:0:0:soft-hitnormal2.ogg
402,192,58542,1,0,0:0:0:0:soft-hitnormal2.ogg
329,0,58639,128,0,58736:0:0:0:0:soft-hitnormal2.ogg
475,192,58639,1,0,0:0:0:0:soft-hitnormal2.ogg
109,192,58736,1,0,0:0:0:0:soft-hitnormal2.ogg
182,192,58736,1,0,0:0:0:0:soft-hitnormal2.ogg
402,0,58736,128,0,58832:0:0:0:0:soft-hitnormal2.ogg
256,192,58832,1,0,0:0:0:0:soft-hitnormal2.ogg
475,0,58832,128,0,58929:0:0:0:0:soft-hitnormal2.ogg
109,0,58929,128,0,59026:0:0:0:0:soft-hitnormal2.ogg
329,192,58929,1,0,0:0:0:0:soft-hitnormal2.ogg
182,0,59026,128,0,59123:0:0:0:0:soft-hitnormal2.ogg
402,192,59026,1,0,0:0:0:0:soft-hitnormal2.ogg
109,192,59123,1,0,0:0:0:0:soft-hitnormal2.ogg
256,0,59123,128,0,59219:0:0:0:0:soft-hitnormal2.ogg
475,192,59123,1,0,0:0:0:0:soft-hitnormal2.ogg
182,192,59219,1,0,0:0:0:0:soft-hitnormal2.ogg
329,0,59219,128,0,59316:0:0:0:0:soft-hitnormal2.ogg
109,192,59316,1,0,0:0:0:0:soft-hitnormal2.ogg
402,0,59316,128,0,59413:0:0:0:0:soft-hitnormal2.ogg
329,192,59413,1,0,0:0:0:0:soft-hitnormal2.ogg
475,0,59413,128,0,59510:0:0:0:0:soft-hitnormal2.ogg
109,192,59510,1,0,0:0:0:0:soft-hitnormal2.ogg
256,192,59510,1,0,0:0:0:0:soft-hitnormal2.ogg
402,0,59510,128,0,59607:0:0:0:0:soft-hitnormal2.ogg
182,192,59607,1,0,0:0:0:0:soft-hitnormal2.ogg
329,0,59607,128,0,59703:0:0:0:0:soft-hitnormal2.ogg
109,192,59703,1,0,0:0:0:0:soft-hitnormal2.ogg
256,0,59703,128,0,59800:0:0:0:0:soft-hitnormal2.ogg
475,192,59800,1,0,0:0:0:0:soft-hitnormal2.ogg
182,0,59800,128,0,59897:0:0:0:0:soft-hitnormal2.ogg
109,192,59897,1,0,0:0:0:0:soft-hitnormal2.ogg
256,192,59897,1,0,0:0:0:0:soft-hitnormal2.ogg
329,192,59897,1,0,0:0:0:0:soft-hitnormal2.ogg
402,192,59897,1,0,0:0:0:0:soft-hitnormal2.ogg
182,192,59994,1,0,0:0:0:0:soft-hitnormal2.ogg
475,192,59994,1,0,0:0:0:0:soft-hitnormal2.ogg
36,192,60090,1,0,0:0:0:0:soft-hitnormal2.ogg
329,192,60090,1,0,0:0:0:0:soft-hitnormal2.ogg
182,192,60187,1,0,0:0:0:0:soft-hitnormal2.ogg
475,192,60187,1,0,0:0:0:0:soft-hitnormal2.ogg
36,192,60284,1,0,0:0:0:0:soft-hitnormal2.ogg
109,192,60284,1,0,0:0:0:0:soft-hitnormal2.ogg
329,192,60284,1,0,0:0:0:0:soft-hitnormal2.ogg
402,192,60284,1,0,0:0:0:0:soft-hitnormal2.ogg
182,192,60381,1,0,0:0:0:0:soft-hitnormal2.ogg
475,192,60381,1,0,0:0:0:0:soft-hitnormal2.ogg
256,192,60477,1,0,0:0:0:0:soft-hitnormal2.ogg
402,192,60477,1,0,0:0:0:0:soft-hitnormal2.ogg
182,192,60574,1,0,0:0:0:0:soft-hitnormal2.ogg
475,192,60574,1,0,0:0:0:0:soft-hitnormal2.ogg
36,192,60671,1,0,0:0:0:0:soft-hitnormal2.ogg
109,192,60671,1,0,0:0:0:0:soft-hitnormal2.ogg
256,192,60671,1,0,0:0:0:0:soft-hitnormal2.ogg
402,192,60671,1,0,0:0:0:0:soft-hitnormal2.ogg
329,192,60768,1,0,0:0:0:0:soft-hitnormal2.ogg
36,192,60865,1,0,0:0:0:0:soft-hitnormal2.ogg
256,192,60865,1,0,0:0:0:0:soft-hitnormal2.ogg
109,192,60961,1,0,0:0:0:0:soft-hitnormal2.ogg
402,192,60961,1,0,0:0:0:0:soft-hitnormal2.ogg
36,192,61058,1,0,0:0:0:0:soft-hitnormal2.ogg
256,192,61058,1,0,0:0:0:0:soft-hitnormal2.ogg
329,192,61058,1,0,0:0:0:0:soft-hitnormal2.ogg
475,192,61058,1,0,0:0:0:0:soft-hitnormal2.ogg
182,192,61155,1,0,0:0:0:0:soft-hitnormal2.ogg
402,192,61155,1,0,0:0:0:0:soft-hitnormal2.ogg
36,192,61252,1,0,0:0:0:0:soft-hitnormal2.ogg
329,192,61252,1,0,0:0:0:0:soft-hitnormal2.ogg
182,192,61348,1,0,0:0:0:0:soft-hitnormal2.ogg
256,192,61348,1,0,0:0:0:0:soft-hitnormal2.ogg
36,0,61445,128,0,61542:0:0:0:0:soft-hitnormal2.ogg
109,0,61445,128,0,61542:0:0:0:0:soft-hitnormal2.ogg
329,0,61445,128,0,61542:0:0:0:0:soft-hitnormal2.ogg
402,0,61445,128,0,61542:0:0:0:0:soft-hitnormal2.ogg
475,0,61445,128,0,62897:0:0:0:0:soft-hitnormal2.ogg
182,0,61542,128,0,61639:0:0:0:0:soft-hitnormal2.ogg
256,0,61542,128,0,61639:0:0:0:0:soft-hitnormal2.ogg
329,0,61639,128,0,61736:0:0:0:0:soft-hitnormal2.ogg
402,0,61639,128,0,61736:0:0:0:0:soft-hitnormal2.ogg
36,0,61736,128,0,61832:0:0:0:0:soft-hitnormal2.ogg
109,0,61736,128,0,61832:0:0:0:0:soft-hitnormal2.ogg
182,0,61832,128,0,61929:0:0:0:0:soft-hitnormal2.ogg
256,0,61832,128,0,61929:0:0:0:0:soft-hitnormal2.ogg
109,0,61929,128,0,62026:0:0:0:0:soft-hitnormal2.ogg
402,0,61929,128,0,62026:0:0:0:0:soft-hitnormal2.ogg
36,0,62026,128,0,62123:0:0:0:0:soft-hitnormal2.ogg
329,0,62026,128,0,62123:0:0:0:0:soft-hitnormal2.ogg
109,0,62123,128,0,62219:0:0:0:0:soft-hitnormal2.ogg
256,0,62123,128,0,62219:0:0:0:0:soft-hitnormal2.ogg
182,0,62219,128,0,62316:0:0:0:0:soft-hitnormal2.ogg
329,0,62219,128,0,62316:0:0:0:0:soft-hitnormal2.ogg
402,0,62219,128,0,62897:0:0:0:0:soft-hitnormal2.ogg
36,0,62316,128,0,62413:0:0:0:0:soft-hitnormal2.ogg
109,0,62316,128,0,62413:0:0:0:0:soft-hitnormal2.ogg
182,0,62413,128,0,62510:0:0:0:0:soft-hitnormal2.ogg
256,0,62413,128,0,62510:0:0:0:0:soft-hitnormal2.ogg
109,0,62510,128,0,62607:0:0:0:0:soft-hitnormal2.ogg
329,0,62510,128,0,62607:0:0:0:0:soft-hitnormal2.ogg
36,0,62607,128,0,62703:0:0:0:0:soft-hitnormal2.ogg
256,0,62607,128,0,62703:0:0:0:0:soft-hitnormal2.ogg
109,0,62703,128,0,62800:0:0:0:0:soft-hitnormal2.ogg
182,0,62703,128,0,62800:0:0:0:0:soft-hitnormal2.ogg
256,0,62800,128,0,62897:0:0:0:0:soft-hitnormal2.ogg
329,0,62800,128,0,62897:0:0:0:0:soft-hitnormal2.ogg
36,0,62897,128,0,62994:0:0:0:0:soft-hitnormal2.ogg
182,0,62897,128,0,62994:0:0:0:0:soft-hitnormal2.ogg
109,0,62994,128,0,63090:0:0:0:0:soft-hitnormal2.ogg
329,0,62994,128,0,63090:0:0:0:0:soft-hitnormal2.ogg
402,0,62994,128,0,64445:0:0:0:0:soft-hitnormal2.ogg
36,0,63090,128,0,63187:0:0:0:0:soft-hitnormal2.ogg
256,0,63090,128,0,63187:0:0:0:0:soft-hitnormal2.ogg
182,0,63187,128,0,63284:0:0:0:0:soft-hitnormal2.ogg
475,0,63187,128,0,63284:0:0:0:0:soft-hitnormal2.ogg
109,0,63284,128,0,63381:0:0:0:0:soft-hitnormal2.ogg
329,0,63284,128,0,63381:0:0:0:0:soft-hitnormal2.ogg
36,0,63381,128,0,63477:0:0:0:0:soft-hitnormal2.ogg
256,0,63381,128,0,63477:0:0:0:0:soft-hitnormal2.ogg
182,0,63477,128,0,63574:0:0:0:0:soft-hitnormal2.ogg
475,0,63477,128,0,63574:0:0:0:0:soft-hitnormal2.ogg
109,0,63574,128,0,63671:0:0:0:0:soft-hitnormal2.ogg
329,0,63574,128,0,63671:0:0:0:0:soft-hitnormal2.ogg
36,0,63671,128,0,63768:0:0:0:0:soft-hitnormal2.ogg
256,0,63671,128,0,63768:0:0:0:0:soft-hitnormal2.ogg
109,0,63768,128,0,63865:0:0:0:0:soft-hitnormal2.ogg
329,0,63768,128,0,64445:0:0:0:0:soft-hitnormal2.ogg
475,0,63768,128,0,63865:0:0:0:0:soft-hitnormal2.ogg
36,0,63865,128,0,63961:0:0:0:0:soft-hitnormal2.ogg
182,0,63865,128,0,63961:0:0:0:0:soft-hitnormal2.ogg
256,0,63961,128,0,64058:0:0:0:0:soft-hitnormal2.ogg
475,0,63961,128,0,64058:0:0:0:0:soft-hitnormal2.ogg
36,0,64058,128,0,64155:0:0:0:0:soft-hitnormal2.ogg
182,0,64058,128,0,64155:0:0:0:0:soft-hitnormal2.ogg
109,0,64155,128,0,64252:0:0:0:0:soft-hitnormal2.ogg
256,0,64155,128,0,64252:0:0:0:0:soft-hitnormal2.ogg
182,0,64252,128,0,64348:0:0:0:0:soft-hitnormal2.ogg
475,0,64252,128,0,64348:0:0:0:0:soft-hitnormal2.ogg
36,0,64348,128,0,64445:0:0:0:0:soft-hitnormal2.ogg
256,0,64348,128,0,64445:0:0:0:0:soft-hitnormal2.ogg
182,0,64445,128,0,64542:0:0:0:0:soft-hitnormal2.ogg
109,192,64542,1,0,0:0:0:0:soft-hitnormal2.ogg
256,192,64542,1,0,0:0:0:0:soft-hitnormal2.ogg
402,0,64542,128,0,64639:0:0:0:0:soft-hitnormal2.ogg
475,0,64542,128,0,66090:0:0:0:0:soft-hitnormal2.ogg
182,192,64639,1,0,0:0:0:0:soft-hitnormal2.ogg
329,0,64639,128,0,64736:0:0:0:0:soft-hitnormal2.ogg
109,192,64736,1,0,0:0:0:0:soft-hitnormal2.ogg
256,0,64736,128,0,64832:0:0:0:0:soft-hitnormal2.ogg
36,192,64832,1,0,0:0:0:0:soft-hitnormal2.ogg
182,0,64832,128,0,64929:0:0:0:0:soft-hitnormal2.ogg
109,0,64929,128,0,65026:0:0:0:0:soft-hitnormal2.ogg
329,192,64929,1,0,0:0:0:0:soft-hitnormal2.ogg
402,192,64929,1,0,0:0:0:0:soft-hitnormal2.ogg
36,0,65026,128,0,65123:0:0:0:0:soft-hitnormal2.ogg
256,192,65026,1,0,0:0:0:0:soft-hitnormal2.ogg
182,192,65123,1,0,0:0:0:0:soft-hitnormal2.ogg
402,0,65123,128,0,65219:0:0:0:0:soft-hitnormal2.ogg
109,192,65219,1,0,0:0:0:0:soft-hitnormal2.ogg
329,0,65219,128,0,65316:0:0:0:0:soft-hitnormal2.ogg
36,192,65316,1,0,0:0:0:0:soft-hitnormal2.ogg
256,0,65316,128,0,65413:0:0:0:0:soft-hitnormal2.ogg
402,192,65316,1,0,0:0:0:0:soft-hitnormal2.ogg
182,0,65413,128,0,65510:0:0:0:0:soft-hitnormal2.ogg
329,192,65413,1,0,0:0:0:0:soft-hitnormal2.ogg
109,0,65510,128,0,65607:0:0:0:0:soft-hitnormal2.ogg
402,192,65510,1,0,0:0:0:0:soft-hitnormal2.ogg
36,0,65607,128,0,65703:0:0:0:0:soft-hitnormal2.ogg
182,192,65607,1,0,0:0:0:0:soft-hitnormal2.ogg
109,0,65703,128,0,65800:0:0:0:0:soft-hitnormal2.ogg
256,192,65703,1,0,0:0:0:0:soft-hitnormal2.ogg
402,192,65703,1,0,0:0:0:0:soft-hitnormal2.ogg
182,0,65800,128,0,65897:0:0:0:0:soft-hitnormal2.ogg
329,192,65800,1,0,0:0:0:0:soft-hitnormal2.ogg
256,0,65897,128,0,65994:0:0:0:0:soft-hitnormal2.ogg
402,192,65897,1,0,0:0:0:0:soft-hitnormal2.ogg
36,192,65994,1,0,0:0:0:0:soft-hitnormal2.ogg
329,0,65994,128,0,66090:0:0:0:0:soft-hitnormal2.ogg
109,192,66090,1,0,0:0:0:0:soft-hitnormal2.ogg
182,192,66090,1,0,0:0:0:0:soft-hitnormal2.ogg
256,192,66090,1,0,0:0:0:0:soft-hitnormal2.ogg
402,192,66090,1,0,0:0:0:0:soft-hitnormal2.ogg
36,192,66187,1,0,0:0:0:0:soft-hitnormal2.ogg
329,192,66187,1,0,0:0:0:0:soft-hitnormal2.ogg
182,192,66284,1,0,0:0:0:0:soft-hitnormal2.ogg
475,192,66284,1,0,0:0:0:0:soft-hitnormal2.ogg
36,192,66381,1,0,0:0:0:0:soft-hitnormal2.ogg
329,192,66381,1,0,0:0:0:0:soft-hitnormal2.ogg
109,192,66477,1,0,0:0:0:0:soft-hitnormal2.ogg
182,192,66477,1,0,0:0:0:0:soft-hitnormal2.ogg
402,192,66477,1,0,0:0:0:0:soft-hitnormal2.ogg
475,192,66477,1,0,0:0:0:0:soft-hitnormal2.ogg
36,192,66574,1,0,0:0:0:0:soft-hitnormal2.ogg
329,192,66574,1,0,0:0:0:0:soft-hitnormal2.ogg
109,192,66671,1,0,0:0:0:0:soft-hitnormal2.ogg
256,192,66671,1,0,0:0:0:0:soft-hitnormal2.ogg
36,192,66768,1,0,0:0:0:0:soft-hitnormal2.ogg
329,192,66768,1,0,0:0:0:0:soft-hitnormal2.ogg
109,192,66864,1,0,0:0:0:0:soft-hitnormal2.ogg
256,192,66864,1,0,0:0:0:0:soft-hitnormal2.ogg
402,192,66864,1,0,0:0:0:0:soft-hitnormal2.ogg
475,192,66864,1,0,0:0:0:0:soft-hitnormal2.ogg
182,192,66961,1,0,0:0:0:0:soft-hitnormal2.ogg
256,192,67057,1,0,0:0:0:0:soft-hitnormal2.ogg
475,192,67057,1,0,0:0:0:0:soft-hitnormal2.ogg
402,192,67154,1,0,0:0:0:0:soft-hitnormal2.ogg
109,192,67154,1,0,0:0:0:0:soft-hitnormal2.ogg
475,192,67251,1,0,0:0:0:0:soft-hitnormal2.ogg
182,192,67251,1,0,0:0:0:0:soft-hitnormal2.ogg
256,192,67251,1,0,0:0:0:0:soft-hitnormal2.ogg
36,192,67251,1,0,0:0:0:0:soft-hitnormal2.ogg
329,192,67348,1,0,0:0:0:0:soft-hitnormal2.ogg
109,192,67348,1,0,0:0:0:0:soft-hitnormal2.ogg
475,192,67445,1,0,0:0:0:0:soft-hitnormal2.ogg
256,192,67445,1,0,0:0:0:0:soft-hitnormal2.ogg
182,192,67541,1,0,0:0:0:0:soft-hitnormal2.ogg
329,192,67541,1,0,0:0:0:0:soft-hitnormal2.ogg
109,192,67638,1,0,0:0:0:0:
36,0,67638,128,0,68025:0:0:0:0:soft-hitnormal2.ogg
256,192,67638,1,0,0:0:0:0:soft-hitnormal2.ogg
402,0,67638,128,0,67734:0:0:0:0:soft-hitnormal2.ogg
182,192,67734,1,0,0:0:0:0:soft-hitnormal2.ogg
475,0,67734,128,0,67831:0:0:0:0:soft-hitnormal2.ogg
402,0,67831,128,0,67928:0:0:0:0:soft-hitnormal2.ogg
109,192,67831,1,0,0:0:0:0:soft-hitnormal2.ogg
475,0,67928,128,0,68025:0:0:0:0:soft-hitnormal2.ogg
256,192,67928,1,0,0:0:0:0:soft-hitnormal2.ogg
109,192,68025,1,0,0:0:0:0:soft-hitnormal2.ogg
182,0,68025,128,0,68412:0:0:0:0:soft-hitnormal2.ogg
329,0,68025,128,0,68121:0:0:0:0:soft-hitnormal2.ogg
36,192,68121,1,0,0:0:0:0:soft-hitnormal2.ogg
256,0,68121,128,0,68218:0:0:0:0:soft-hitnormal2.ogg
329,0,68218,128,0,68315:0:0:0:0:soft-hitnormal2.ogg
475,192,68218,1,0,0:0:0:0:soft-hitnormal2.ogg
256,0,68315,128,0,68412:0:0:0:0:soft-hitnormal2.ogg
402,192,68315,1,0,0:0:0:0:soft-hitnormal2.ogg
109,0,68412,128,0,68508:0:0:0:0:soft-hitnormal2.ogg
329,0,68412,128,0,68799:0:0:0:0:soft-hitnormal2.ogg
475,192,68412,1,0,0:0:0:0:soft-hitnormal2.ogg
36,0,68508,128,0,68605:0:0:0:0:soft-hitnormal2.ogg
256,192,68508,1,0,0:0:0:0:soft-hitnormal2.ogg
109,0,68605,128,0,68702:0:0:0:0:soft-hitnormal2.ogg
475,192,68605,1,0,0:0:0:0:soft-hitnormal2.ogg
36,0,68702,128,0,68799:0:0:0:0:soft-hitnormal2.ogg
256,192,68702,1,0,0:0:0:0:soft-hitnormal2.ogg
182,0,68799,128,0,68896:0:0:0:0:soft-hitnormal2.ogg
402,192,68799,1,0,0:0:0:0:soft-hitnormal2.ogg
475,0,68799,128,0,69186:0:0:0:0:soft-hitnormal2.ogg
256,0,68896,128,0,68992:0:0:0:0:soft-hitnormal2.ogg
329,192,68896,1,0,0:0:0:0:soft-hitnormal2.ogg
182,0,68992,128,0,69089:0:0:0:0:soft-hitnormal2.ogg
402,192,68992,1,0,0:0:0:0:soft-hitnormal2.ogg
329,192,69089,1,0,0:0:0:0:soft-hitnormal2.ogg
256,0,69089,128,0,69186:0:0:0:0:soft-hitnormal2.ogg
36,0,69186,128,0,69283:0:0:0:0:soft-hitnormal2.ogg
109,0,69186,128,0,69573:0:0:0:0:soft-hitnormal2.ogg
402,192,69186,1,0,0:0:0:0:soft-hitnormal2.ogg
182,0,69283,128,0,69379:0:0:0:0:soft-hitnormal2.ogg
329,192,69283,1,0,0:0:0:0:soft-hitnormal2.ogg
36,0,69379,128,0,69476:0:0:0:0:soft-hitnormal2.ogg
256,192,69379,1,0,0:0:0:0:soft-hitnormal2.ogg
182,0,69476,128,0,69573:0:0:0:0:soft-hitnormal2.ogg
329,192,69476,1,0,0:0:0:0:soft-hitnormal2.ogg
36,192,69573,1,0,0:0:0:0:soft-hitnormal2.ogg
402,0,69573,128,0,69960:0:0:0:0:soft-hitnormal2.ogg
475,0,69573,128,0,69670:0:0:0:0:soft-hitnormal2.ogg
109,192,69670,1,0,0:0:0:0:soft-hitnormal2.ogg
329,0,69670,128,0,69767:0:0:0:0:soft-hitnormal2.ogg
182,192,69767,1,0,0:0:0:0:soft-hitnormal2.ogg
475,0,69767,128,0,69863:0:0:0:0:soft-hitnormal2.ogg
256,192,69863,1,0,0:0:0:0:soft-hitnormal2.ogg
329,0,69863,128,0,69960:0:0:0:0:soft-hitnormal2.ogg
36,0,69960,128,0,70057:0:0:0:0:soft-hitnormal2.ogg
109,0,69960,128,0,70347:0:0:0:0:soft-hitnormal2.ogg
475,192,69960,1,0,0:0:0:0:soft-hitnormal2.ogg
182,0,70057,128,0,70154:0:0:0:0:soft-hitnormal2.ogg
402,192,70057,1,0,0:0:0:0:soft-hitnormal2.ogg
36,0,70154,128,0,70250:0:0:0:0:soft-hitnormal2.ogg
329,192,70154,1,0,0:0:0:0:soft-hitnormal2.ogg
182,0,70250,128,0,70347:0:0:0:0:soft-hitnormal2.ogg
256,192,70250,1,0,0:0:0:0:soft-hitnormal2.ogg
36,192,70347,1,0,0:0:0:0:soft-hitnormal2.ogg
475,0,70347,128,0,70444:0:0:0:0:soft-hitnormal2.ogg
402,0,70347,128,0,70734:0:0:0:0:soft-hitnormal2.ogg
109,192,70444,1,0,0:0:0:0:soft-hitnormal2.ogg
329,0,70444,128,0,70541:0:0:0:0:soft-hitnormal2.ogg
182,192,70541,1,0,0:0:0:0:soft-hitnormal2.ogg
475,0,70541,128,0,70638:0:0:0:0:soft-hitnormal2.ogg
256,192,70638,1,0,0:0:0:0:soft-hitnormal2.ogg
329,0,70638,128,0,70734:0:0:0:0:soft-hitnormal2.ogg
109,0,70734,128,0,70831:0:0:0:0:soft-hitnormal2.ogg
182,192,70734,1,0,0:0:0:0:soft-hitnormal2.ogg
475,0,70734,128,0,71121:0:0:0:0:soft-hitnormal2.ogg
36,0,70831,128,0,70928:0:0:0:0:soft-hitnormal2.ogg
329,192,70831,1,0,0:0:0:0:soft-hitnormal2.ogg
109,0,70928,128,0,71025:0:0:0:0:soft-hitnormal2.ogg
182,192,70928,1,0,0:0:0:0:soft-hitnormal2.ogg
36,0,71025,128,0,71121:0:0:0:0:soft-hitnormal2.ogg
256,192,71025,1,0,0:0:0:0:soft-hitnormal2.ogg
182,0,71121,128,0,71218:0:0:0:0:soft-hitnormal2.ogg
329,0,71121,128,0,71508:0:0:0:0:soft-hitnormal2.ogg
402,192,71121,1,0,0:0:0:0:soft-hitnormal2.ogg
36,192,71218,1,0,0:0:0:0:soft-hitnormal2.ogg
109,0,71218,128,0,71315:0:0:0:0:soft-hitnormal2.ogg
182,0,71315,128,0,71412:0:0:0:0:soft-hitnormal2.ogg
475,192,71315,1,0,0:0:0:0:soft-hitnormal2.ogg
109,0,71412,128,0,71508:0:0:0:0:soft-hitnormal2.ogg
256,192,71412,1,0,0:0:0:0:soft-hitnormal2.ogg
36,192,71508,1,0,0:0:0:0:soft-hitnormal2.ogg
182,0,71508,128,0,71896:0:0:0:0:soft-hitnormal2.ogg
402,0,71508,128,0,71605:0:0:0:0:soft-hitnormal2.ogg
256,192,71605,1,0,0:0:0:0:soft-hitnormal2.ogg
475,0,71605,128,0,71702:0:0:0:0:soft-hitnormal2.ogg
109,192,71702,1,0,0:0:0:0:soft-hitnormal2.ogg
402,0,71702,128,0,71799:0:0:0:0:soft-hitnormal2.ogg
256,192,71799,1,0,0:0:0:0:soft-hitnormal2.ogg
475,0,71799,128,0,71896:0:0:0:0:soft-hitnormal2.ogg
109,192,71896,1,0,0:0:0:0:soft-hitnormal2.ogg
329,0,71896,128,0,71992:0:0:0:0:soft-hitnormal2.ogg
36,0,71896,128,0,72283:0:0:0:0:soft-hitnormal2.ogg
182,192,71992,1,0,0:0:0:0:soft-hitnormal2.ogg
402,0,71992,128,0,72089:0:0:0:0:soft-hitnormal2.ogg
109,192,72089,1,0,0:0:0:0:soft-hitnormal2.ogg
329,0,72089,128,0,72186:0:0:0:0:soft-hitnormal2.ogg
182,192,72186,1,0,0:0:0:0:soft-hitnormal2.ogg
402,0,72186,128,0,72283:0:0:0:0:soft-hitnormal2.ogg
256,0,72283,128,0,73734:0:0:0:0:soft-hitnormal2.ogg
329,192,72283,1,0,0:0:0:0:soft-hitnormal2.ogg
475,0,72283,128,0,72379:0:0:0:0:soft-hitnormal2.ogg
36,0,72379,128,0,72476:0:0:0:0:soft-hitnormal2.ogg
182,192,72379,1,0,0:0:0:0:soft-hitnormal2.ogg
329,192,72476,1,0,0:0:0:0:soft-hitnormal2.ogg
402,0,72476,128,0,72573:0:0:0:0:soft-hitnormal2.ogg
109,0,72573,128,0,72670:0:0:0:0:soft-hitnormal2.ogg
182,192,72573,1,0,0:0:0:0:soft-hitnormal2.ogg
329,0,72670,128,0,72767:0:0:0:0:soft-hitnormal2.ogg
475,192,72670,1,0,0:0:0:0:soft-hitnormal2.ogg
36,192,72767,1,0,0:0:0:0:soft-hitnormal2.ogg
182,0,72767,128,0,72863:0:0:0:0:soft-hitnormal2.ogg
402,0,72863,128,0,72960:0:0:0:0:soft-hitnormal2.ogg
475,192,72863,1,0,0:0:0:0:soft-hitnormal2.ogg
36,192,72960,1,0,0:0:0:0:soft-hitnormal2.ogg
109,0,72960,128,0,73057:0:0:0:0:soft-hitnormal2.ogg
329,192,73057,1,0,0:0:0:0:soft-hitnormal2.ogg
475,0,73057,128,0,73154:0:0:0:0:soft-hitnormal2.ogg
36,0,73154,128,0,73250:0:0:0:0:soft-hitnormal2.ogg
182,192,73154,1,0,0:0:0:0:soft-hitnormal2.ogg
329,192,73250,1,0,0:0:0:0:soft-hitnormal2.ogg
402,0,73250,128,0,73347:0:0:0:0:soft-hitnormal2.ogg
109,0,73347,128,0,73444:0:0:0:0:soft-hitnormal2.ogg
182,192,73347,1,0,0:0:0:0:soft-hitnormal2.ogg
329,0,73444,128,0,73541:0:0:0:0:soft-hitnormal2.ogg
475,192,73444,1,0,0:0:0:0:soft-hitnormal2.ogg
36,192,73541,1,0,0:0:0:0:soft-hitnormal2.ogg
182,0,73541,128,0,73638:0:0:0:0:soft-hitnormal2.ogg
402,0,73638,128,0,73734:0:0:0:0:soft-hitnormal2.ogg
475,192,73638,1,0,0:0:0:0:soft-hitnormal2.ogg
36,192,73734,1,0,0:0:0:0:soft-hitnormal2.ogg
475,192,73831,1,0,0:0:0:0:soft-hitnormal2.ogg
402,192,73928,1,0,0:0:0:0:soft-hitnormal2.ogg
36,192,74025,1,0,0:0:0:0:soft-hitnormal2.ogg
329,192,74025,1,0,0:0:0:0:soft-hitnormal2.ogg
36,192,74121,1,0,0:0:0:0:soft-hitnormal2.ogg
256,192,74121,1,0,0:0:0:0:soft-hitnormal2.ogg
109,192,74218,1,0,0:0:0:0:soft-hitnormal2.ogg
182,192,74218,1,0,0:0:0:0:soft-hitnormal2.ogg
256,192,74315,1,0,0:0:0:0:soft-hitnormal2.ogg
36,192,74412,1,0,0:0:0:0:soft-hitnormal2.ogg
329,192,74412,1,0,0:0:0:0:soft-hitnormal2.ogg
402,192,74508,1,0,0:0:0:0:soft-hitnormal2.ogg
36,192,74605,1,0,0:0:0:0:soft-hitnormal2.ogg
475,192,74605,1,0,0:0:0:0:soft-hitnormal2.ogg
109,192,74702,1,0,0:0:0:0:soft-hitnormal2.ogg
182,192,74799,1,0,0:0:0:0:soft-hitnormal2.ogg
475,192,74799,1,0,0:0:0:0:soft-hitnormal2.ogg
256,192,74896,1,0,0:0:0:0:soft-hitnormal2.ogg
475,192,74896,1,0,0:0:0:0:soft-hitnormal2.ogg
329,192,74992,1,0,0:0:0:0:soft-hitnormal2.ogg
402,192,74992,1,0,0:0:0:0:soft-hitnormal2.ogg
256,192,75089,1,0,0:0:0:0:soft-hitnormal2.ogg
182,192,75186,1,0,0:0:0:0:soft-hitnormal2.ogg
475,192,75186,1,0,0:0:0:0:soft-hitnormal2.ogg
109,192,75283,1,0,0:0:0:0:soft-hitnormal2.ogg
36,192,75379,1,0,0:0:0:0:soft-hitnormal2.ogg
256,192,75379,1,0,0:0:0:0:soft-hitnormal2.ogg
475,0,75379,128,0,75476:0:0:0:0:soft-hitnormal2.ogg
402,0,75476,128,0,75573:0:0:0:0:soft-hitnormal2.ogg
36,192,75573,1,0,0:0:0:0:soft-hitnormal2.ogg
329,0,75573,128,0,75670:0:0:0:0:soft-hitnormal2.ogg
36,192,75670,1,0,0:0:0:0:soft-hitnormal2.ogg
256,0,75670,128,0,75767:0:0:0:0:soft-hitnormal2.ogg
109,192,75767,1,0,0:0:0:0:soft-hitnormal2.ogg
182,0,75767,128,0,75863:0:0:0:0:soft-hitnormal2.ogg
256,0,75863,128,0,75960:0:0:0:0:soft-hitnormal2.ogg
36,192,75960,1,0,0:0:0:0:soft-hitnormal2.ogg
329,0,75960,128,0,76057:0:0:0:0:soft-hitnormal2.ogg
402,0,76057,128,0,76154:0:0:0:0:soft-hitnormal2.ogg
36,0,76154,128,0,76250:0:0:0:0:soft-hitnormal2.ogg
256,192,76154,1,0,0:0:0:0:soft-hitnormal2.ogg
475,0,76154,128,0,76250:0:0:0:0:soft-hitnormal2.ogg
109,0,76250,128,0,76347:0:0:0:0:soft-hitnormal2.ogg
182,0,76347,128,0,76444:0:0:0:0:soft-hitnormal2.ogg
475,192,76347,1,0,0:0:0:0:soft-hitnormal2.ogg
256,0,76444,128,0,76541:0:0:0:0:soft-hitnormal2.ogg
475,192,76444,1,0,0:0:0:0:soft-hitnormal2.ogg
329,0,76541,128,0,76638:0:0:0:0:soft-hitnormal2.ogg
402,192,76541,1,0,0:0:0:0:soft-hitnormal2.ogg
256,0,76638,128,0,76734:0:0:0:0:soft-hitnormal2.ogg
182,0,76734,128,0,76831:0:0:0:0:soft-hitnormal2.ogg
475,192,76734,1,0,0:0:0:0:soft-hitnormal2.ogg
109,0,76831,128,0,76928:0:0:0:0:soft-hitnormal2.ogg
36,0,76928,128,0,77025:0:0:0:0:soft-hitnormal2.ogg
256,0,76928,128,0,77025:0:0:0:0:soft-hitnormal2.ogg
109,0,77025,128,0,77121:0:0:0:0:soft-hitnormal2.ogg
329,0,77025,128,0,77121:0:0:0:0:soft-hitnormal2.ogg
182,0,77121,128,0,77218:0:0:0:0:soft-hitnormal2.ogg
402,0,77121,128,0,77218:0:0:0:0:soft-hitnormal2.ogg
256,0,77218,128,0,77315:0:0:0:0:soft-hitnormal2.ogg
475,0,77218,128,0,77315:0:0:0:0:soft-hitnormal2.ogg
36,0,77315,128,0,77412:0:0:0:0:soft-hitnormal2.ogg
329,0,77315,128,0,77412:0:0:0:0:soft-hitnormal2.ogg
109,0,77412,128,0,77508:0:0:0:0:soft-hitnormal2.ogg
402,0,77412,128,0,77508:0:0:0:0:soft-hitnormal2.ogg
182,0,77508,128,0,77605:0:0:0:0:soft-hitnormal2.ogg
475,0,77508,128,0,77605:0:0:0:0:soft-hitnormal2.ogg
256,0,77605,128,0,77702:0:0:0:0:soft-hitnormal2.ogg
402,0,77605,128,0,77702:0:0:0:0:soft-hitnormal2.ogg
36,0,77702,128,0,77799:0:0:0:0:soft-hitnormal2.ogg
329,0,77702,128,0,77799:0:0:0:0:soft-hitnormal2.ogg
109,0,77799,128,0,77896:0:0:0:0:soft-hitnormal2.ogg
402,0,77799,128,0,77896:0:0:0:0:soft-hitnormal2.ogg
182,0,77896,128,0,77992:0:0:0:0:soft-hitnormal2.ogg
475,0,77896,128,0,77992:0:0:0:0:soft-hitnormal2.ogg
109,0,77992,128,0,78089:0:0:0:0:soft-hitnormal2.ogg
402,0,77992,128,0,78089:0:0:0:0:soft-hitnormal2.ogg
36,0,78089,128,0,78186:0:0:0:0:soft-hitnormal2.ogg
329,0,78089,128,0,78186:0:0:0:0:soft-hitnormal2.ogg
256,0,78186,128,0,78283:0:0:0:0:soft-hitnormal2.ogg
475,0,78186,128,0,78283:0:0:0:0:soft-hitnormal2.ogg
182,0,78283,128,0,78379:0:0:0:0:soft-hitnormal2.ogg
402,0,78283,128,0,78379:0:0:0:0:soft-hitnormal2.ogg
109,0,78379,128,0,78476:0:0:0:0:soft-hitnormal2.ogg
329,0,78379,128,0,78476:0:0:0:0:soft-hitnormal2.ogg
36,192,78476,1,0,0:0:0:0:soft-hitnormal2.ogg
475,192,78476,1,0,0:0:0:0:soft-hitnormal2.ogg
109,192,78573,1,0,0:0:0:0:soft-hitnormal2.ogg
36,192,78670,1,0,0:0:0:0:soft-hitnormal2.ogg
182,192,78670,1,0,0:0:0:0:soft-hitnormal2.ogg
475,192,78670,1,0,0:0:0:0:soft-hitnormal2.ogg
256,192,78767,1,0,0:0:0:0:soft-hitnormal2.ogg
36,192,78863,1,0,0:0:0:0:soft-hitnormal2.ogg
329,192,78863,1,0,0:0:0:0:soft-hitnormal2.ogg
475,192,78863,1,0,0:0:0:0:soft-hitnormal2.ogg
402,192,78960,1,0,0:0:0:0:soft-hitnormal2.ogg
36,192,79057,1,0,0:0:0:0:soft-hitnormal2.ogg
329,192,79057,1,0,0:0:0:0:soft-hitnormal2.ogg
475,192,79057,1,0,0:0:0:0:soft-hitnormal2.ogg
256,192,79154,1,0,0:0:0:0:soft-hitnormal2.ogg
36,192,79250,1,0,0:0:0:0:soft-hitnormal2.ogg
182,192,79250,1,0,0:0:0:0:soft-hitnormal2.ogg
475,192,79250,1,0,0:0:0:0:soft-hitnormal2.ogg
256,192,79347,1,0,0:0:0:0:soft-hitnormal2.ogg
475,192,79347,1,0,0:0:0:0:soft-hitnormal2.ogg
36,192,79444,1,0,0:0:0:0:soft-hitnormal2.ogg
109,192,79444,1,0,0:0:0:0:soft-hitnormal2.ogg
256,192,79541,1,0,0:0:0:0:soft-hitnormal2.ogg
475,192,79541,1,0,0:0:0:0:soft-hitnormal2.ogg
36,192,79637,1,0,0:0:0:0:soft-hitnormal2.ogg
402,192,79637,1,0,0:0:0:0:soft-hitnormal2.ogg
109,0,79637,128,0,80799:0:0:0:0:soft-hitnormal2.ogg
256,192,79734,1,0,0:0:0:0:soft-hitnormal2.ogg
329,192,79831,1,0,0:0:0:0:soft-hitnormal2.ogg
475,192,79831,1,0,0:0:0:0:soft-hitnormal2.ogg
402,0,79831,128,0,80992:0:0:0:0:soft-hitnormal2.ogg
36,192,79928,1,0,0:0:0:0:soft-hitnormal2.ogg
256,192,79928,1,0,0:0:0:0:soft-hitnormal2.ogg
182,192,80025,1,0,0:0:0:0:soft-hitnormal2.ogg
329,0,80025,128,0,81379:0:0:0:0:soft-hitnormal2.ogg
475,192,80025,1,0,0:0:0:0:soft-hitnormal2.ogg
36,192,80218,1,0,0:0:0:0:soft-hitnormal2.ogg
256,192,80412,1,0,0:0:0:0:soft-hitnormal2.ogg
475,192,80412,1,0,0:0:0:0:soft-hitnormal2.ogg
36,192,80605,1,0,0:0:0:0:soft-hitnormal2.ogg
182,192,80799,1,0,0:0:0:0:soft-hitnormal2.ogg
256,192,80799,1,0,0:0:0:0:soft-hitnormal2.ogg
36,0,80799,128,0,81573:0:0:0:0:soft-hitnormal2.ogg
109,192,80992,1,0,0:0:0:0:soft-hitnormal2.ogg
475,0,80992,128,0,81573:0:0:0:0:soft-hitnormal2.ogg
256,192,81186,1,0,0:0:0:0:soft-hitnormal2.ogg
402,192,81186,1,0,0:0:0:0:soft-hitnormal2.ogg
182,0,81186,128,0,81573:0:0:0:0:soft-hitnormal2.ogg
109,192,81379,1,0,0:0:0:0:soft-hitnormal2.ogg
402,0,81379,128,0,81573:0:0:0:0:soft-hitnormal2.ogg
109,192,81573,1,0,0:0:0:0:soft-hitnormal2.ogg
256,0,81573,128,0,83025:0:0:0:0:soft-hitnormal2.ogg
329,192,81573,1,0,0:0:0:0:soft-hitnormal2.ogg
402,192,81767,1,0,0:0:0:0:soft-hitnormal2.ogg
182,192,81960,1,0,0:0:0:0:soft-hitnormal2.ogg
329,192,81960,1,0,0:0:0:0:soft-hitnormal2.ogg
109,192,82154,1,0,0:0:0:0:soft-hitnormal2.ogg
182,192,82347,1,0,0:0:0:0:soft-hitnormal2.ogg
329,192,82347,1,0,0:0:0:0:soft-hitnormal2.ogg
402,192,82541,1,0,0:0:0:0:soft-hitnormal2.ogg
475,0,82541,128,0,82637:0:0:0:0:soft-hitnormal2.ogg
182,192,82734,1,0,0:0:0:0:soft-hitnormal2.ogg
329,192,82734,1,0,0:0:0:0:soft-hitnormal2.ogg
402,0,82734,128,0,82831:0:0:0:0:soft-hitnormal2.ogg
109,0,82928,128,0,83025:0:0:0:0:soft-hitnormal2.ogg
36,0,83121,128,0,83218:0:0:0:0:soft-hitnormal2.ogg
182,0,83121,128,0,83315:0:0:0:0:soft-hitnormal2.ogg
256,192,83121,1,0,0:0:0:0:soft-hitnormal2.ogg
329,0,83121,128,0,83412:0:0:0:0:soft-hitnormal2.ogg
475,192,83121,1,0,0:0:0:0:soft-hitnormal2.ogg
36,192,83508,1,0,0:0:0:0:soft-hitnormal2.ogg
109,0,83508,128,0,83799:0:0:0:0:soft-hitnormal2.ogg
182,192,83508,1,0,0:0:0:0:soft-hitnormal2.ogg
256,0,83508,128,0,83605:0:0:0:0:soft-hitnormal2.ogg
402,0,83508,128,0,83702:0:0:0:0:soft-hitnormal2.ogg
182,0,83896,128,0,84186:0:0:0:0:soft-hitnormal2.ogg
256,192,83896,1,0,0:0:0:0:soft-hitnormal2.ogg
329,0,83896,128,0,84089:0:0:0:0:soft-hitnormal2.ogg
475,0,83896,128,0,83992:0:0:0:0:soft-hitnormal2.ogg
109,0,84283,128,0,84476:0:0:0:0:soft-hitnormal2.ogg
256,0,84283,128,0,84573:0:0:0:0:soft-hitnormal2.ogg
329,192,84283,1,0,0:0:0:0:soft-hitnormal2.ogg
402,0,84283,128,0,84379:0:0:0:0:soft-hitnormal2.ogg
475,192,84283,1,0,0:0:0:0:soft-hitnormal2.ogg
109,0,84670,128,0,85250:0:0:0:0:soft-hitnormal2.ogg
256,192,84670,1,0,0:0:0:0:soft-hitnormal2.ogg
475,0,84670,128,0,84767:0:0:0:0:soft-hitnormal2.ogg
402,0,84767,128,0,84863:0:0:0:0:soft-hitnormal2.ogg
329,0,84863,128,0,84960:0:0:0:0:soft-hitnormal2.ogg
256,0,84960,128,0,85057:0:0:0:0:soft-hitnormal2.ogg
182,0,85057,128,0,85250:0:0:0:0:soft-hitnormal2.ogg
256,192,85250,1,0,0:0:0:0:soft-hitnormal2.ogg
329,192,85250,1,0,0:0:0:0:soft-hitnormal2.ogg
475,192,85250,1,0,0:0:0:0:soft-hitnormal2.ogg
36,0,85250,128,0,86218:0:0:0:0:soft-hitnormal2.ogg
402,0,85250,128,0,86218:0:0:0:0:soft-hitnormal2.ogg
256,192,85637,1,0,0:0:0:0:soft-hitnormal2.ogg
256,192,85831,1,0,0:0:0:0:soft-hitnormal2.ogg
109,192,86025,1,0,0:0:0:0:soft-hitnormal2.ogg
256,0,86025,128,0,86218:0:0:0:0:soft-hitnormal2.ogg
329,0,86121,128,0,86218:0:0:0:0:soft-hitnormal2.ogg
109,0,86218,128,0,86315:0:0:0:0:soft-hitnormal2.ogg
182,0,86267,128,0,86315:0:0:0:0:soft-hitnormal2.ogg
36,0,86315,128,0,86412:0:0:0:0:soft-hitnormal2.ogg
109,0,86363,128,0,86412:0:0:0:0:soft-hitnormal2.ogg
182,0,86412,128,0,86508:0:0:0:0:soft-hitnormal2.ogg
256,0,86460,128,0,86508:0:0:0:0:soft-hitnormal2.ogg
329,0,86508,128,0,86605:0:0:0:0:soft-hitnormal2.ogg
402,0,86557,128,0,86605:0:0:0:0:soft-hitnormal2.ogg
182,0,86605,128,0,86702:0:0:0:0:soft-hitnormal2.ogg
329,0,86654,128,0,86702:0:0:0:0:soft-hitnormal2.ogg
109,0,86702,128,0,86799:0:0:0:0:soft-hitnormal2.ogg
256,0,86750,128,0,86799:0:0:0:0:soft-hitnormal2.ogg
475,0,86799,128,0,86896:0:0:0:0:soft-hitnormal2.ogg
402,0,86847,128,0,86896:0:0:0:0:soft-hitnormal2.ogg
182,0,86896,128,0,86992:0:0:0:0:soft-hitnormal2.ogg
109,0,86944,128,0,86992:0:0:0:0:soft-hitnormal2.ogg
402,0,86992,128,0,87089:0:0:0:0:soft-hitnormal2.ogg
329,0,87041,128,0,87089:0:0:0:0:soft-hitnormal2.ogg
256,0,87089,128,0,87186:0:0:0:0:soft-hitnormal2.ogg
182,0,87137,128,0,87186:0:0:0:0:soft-hitnormal2.ogg
329,0,87186,128,0,87283:0:0:0:0:soft-hitnormal2.ogg
256,0,87234,128,0,87283:0:0:0:0:soft-hitnormal2.ogg
109,0,87283,128,0,87379:0:0:0:0:soft-hitnormal2.ogg
36,0,87331,128,0,87379:0:0:0:0:soft-hitnormal2.ogg
182,0,87379,128,0,87476:0:0:0:0:soft-hitnormal2.ogg
256,0,87428,128,0,87476:0:0:0:0:soft-hitnormal2.ogg
329,0,87476,128,0,87573:0:0:0:0:soft-hitnormal2.ogg
402,0,87525,128,0,87573:0:0:0:0:soft-hitnormal2.ogg
109,0,87573,128,0,87670:0:0:0:0:soft-hitnormal2.ogg
182,0,87621,128,0,87670:0:0:0:0:soft-hitnormal2.ogg
402,0,87670,128,0,87767:0:0:0:0:soft-hitnormal2.ogg
329,0,87718,128,0,87767:0:0:0:0:soft-hitnormal2.ogg
256,0,87767,128,0,88154:0:0:0:0:soft-hitnormal2.ogg
109,0,88154,128,0,88347:0:0:0:0:soft-hitnormal2.ogg
182,192,88154,1,0,0:0:0:0:soft-hitnormal2.ogg
329,192,88154,1,0,0:0:0:0:soft-hitnormal2.ogg
402,0,88154,128,0,88347:0:0:0:0:soft-hitnormal2.ogg
36,0,88347,128,0,88928:0:0:0:0:soft-hitnormal2.ogg
256,192,88347,1,0,0:0:0:0:soft-hitnormal2.ogg
475,0,88347,128,0,88928:0:0:0:0:soft-hitnormal2.ogg
256,192,88734,1,0,0:0:0:0:soft-hitnormal2.ogg
109,192,88928,1,0,0:0:0:0:soft-hitnormal2.ogg
256,192,88928,1,0,0:0:0:0:soft-hitnormal2.ogg
402,192,88928,1,0,0:0:0:0:soft-hitnormal2.ogg
182,0,88928,128,0,89329:0:0:0:0:soft-hitnormal2.ogg
329,0,88928,128,0,89329:0:0:0:0:soft-hitnormal2.ogg
36,0,89313,128,0,89334:0:0:0:0:soft-hitnormal2.ogg
109,0,89313,128,0,89334:0:0:0:0:soft-hitnormal2.ogg
256,0,89313,128,0,89506:0:0:0:0:soft-hitnormal2.ogg
402,0,89313,128,0,89334:0:0:0:0:soft-hitnormal2.ogg
475,0,89313,128,0,89334:0:0:0:0:soft-hitnormal2.ogg
182,0,89506,128,0,89700:0:0:0:0:soft-hitnormal2.ogg
329,0,89506,128,0,89530:0:0:0:0:soft-hitnormal2.ogg
402,0,89506,128,0,89530:0:0:0:0:soft-hitnormal2.ogg
36,192,89603,1,0,0:0:0:0:soft-hitnormal2.ogg
475,192,89603,1,0,0:0:0:0:soft-hitnormal2.ogg
36,0,89700,128,0,89748:0:0:0:0:soft-hitnormal2.ogg
109,0,89700,128,0,89748:0:0:0:0:soft-hitnormal2.ogg
256,0,89700,128,0,89892:0:0:0:0:soft-hitnormal2.ogg
402,0,89700,128,0,89748:0:0:0:0:soft-hitnormal2.ogg
329,192,89700,1,0,0:0:0:0:soft-hitnormal2.ogg
475,192,89700,1,0,0:0:0:0:soft-hitnormal2.ogg
109,0,89892,128,0,89941:0:0:0:0:soft-hitnormal2.ogg
182,0,89892,128,0,89941:0:0:0:0:soft-hitnormal2.ogg
329,0,89892,128,0,90119:0:0:0:0:soft-hitnormal2.ogg
109,0,90087,128,0,90119:0:0:0:0:soft-hitnormal2.ogg
182,0,90087,128,0,90119:0:0:0:0:soft-hitnormal2.ogg
475,0,90087,128,0,90280:0:0:0:0:soft-hitnormal2.ogg
256,0,90280,128,0,90474:0:0:0:0:soft-hitnormal2.ogg
329,0,90280,128,0,90304:0:0:0:0:soft-hitnormal2.ogg
402,0,90280,128,0,90304:0:0:0:0:soft-hitnormal2.ogg
475,192,90376,1,0,0:0:0:0:soft-hitnormal2.ogg
36,192,90377,1,0,0:0:0:0:soft-hitnormal2.ogg
329,192,90474,1,0,0:0:0:0:soft-hitnormal2.ogg
402,192,90474,1,0,0:0:0:0:soft-hitnormal2.ogg
475,192,90474,1,0,0:0:0:0:soft-hitnormal2.ogg
36,0,90474,128,0,90667:0:0:0:0:soft-hitnormal2.ogg
109,0,90474,128,0,90522:0:0:0:0:soft-hitnormal2.ogg
182,0,90474,128,0,90522:0:0:0:0:soft-hitnormal2.ogg
402,0,90667,128,0,90716:0:0:0:0:soft-hitnormal2.ogg
329,0,90667,128,0,90716:0:0:0:0:soft-hitnormal2.ogg
256,0,90667,128,0,90909:0:0:0:0:soft-hitnormal2.ogg
109,192,90667,1,0,0:0:0:0:soft-hitnormal2.ogg
475,192,90861,1,0,0:0:0:0:soft-hitnormal2.ogg
402,0,90861,128,0,91103:0:0:0:0:soft-hitnormal2.ogg
36,0,90861,128,0,90909:0:0:0:0:soft-hitnormal2.ogg
182,0,90861,128,0,90909:0:0:0:0:soft-hitnormal2.ogg
475,0,91054,128,0,91103:0:0:0:0:soft-hitnormal2.ogg
329,0,91054,128,0,91103:0:0:0:0:soft-hitnormal2.ogg
256,0,91054,128,0,91296:0:0:0:0:soft-hitnormal2.ogg
36,192,91054,1,0,0:0:0:0:soft-hitnormal2.ogg
402,192,91296,1,0,0:0:0:0:soft-hitnormal2.ogg
109,0,91296,128,0,91441:0:0:0:0:soft-hitnormal2.ogg
256,0,91393,128,0,91538:0:0:0:0:soft-hitnormal2.ogg
402,192,91393,1,0,0:0:0:0:soft-hitnormal2.ogg
36,0,91538,128,0,92312:0:0:0:0:soft-hitnormal2.ogg
109,0,91538,128,0,92312:0:0:0:0:soft-hitnormal2.ogg
475,0,91538,128,0,92312:0:0:0:0:soft-hitnormal2.ogg
402,0,91538,128,0,92312:0:0:0:0:soft-hitnormal2.ogg
182,0,92408,128,0,92457:0:0:0:0:soft-hitnormal2.ogg
475,0,92408,128,0,92602:0:0:0:0:soft-hitnormal2.ogg
109,0,92602,128,0,92650:0:0:0:0:soft-hitnormal2.ogg
256,192,92602,1,0,0:0:0:0:soft-hitnormal2.ogg
402,0,92602,128,0,92796:0:0:0:0:soft-hitnormal2.ogg
256,192,92699,1,0,0:0:0:0:soft-hitnormal2.ogg
36,0,92796,128,0,92844:0:0:0:0:soft-hitnormal2.ogg
256,192,92796,1,0,0:0:0:0:soft-hitnormal2.ogg
329,0,92796,128,0,92989:0:0:0:0:soft-hitnormal2.ogg
109,0,92989,128,0,93038:0:0:0:0:soft-hitnormal2.ogg
256,0,92989,128,0,93183:0:0:0:0:soft-hitnormal2.ogg
475,192,92989,1,0,0:0:0:0:soft-hitnormal2.ogg
475,192,93086,1,0,0:0:0:0:soft-hitnormal2.ogg
36,0,93183,128,0,93231:0:0:0:0:soft-hitnormal2.ogg
329,0,93183,128,0,93376:0:0:0:0:soft-hitnormal2.ogg
475,192,93183,1,0,0:0:0:0:soft-hitnormal2.ogg
36,192,93376,1,0,0:0:0:0:soft-hitnormal2.ogg
182,0,93376,128,0,93425:0:0:0:0:soft-hitnormal2.ogg
402,0,93376,128,0,93763:0:0:0:0:soft-hitnormal2.ogg
36,192,93473,1,0,0:0:0:0:soft-hitnormal2.ogg
36,192,93570,1,0,0:0:0:0:soft-hitnormal2.ogg
182,0,93570,128,0,93618:0:0:0:0:soft-hitnormal2.ogg
329,192,93763,1,0,0:0:0:0:soft-hitnormal2.ogg
475,0,93763,128,0,93957:0:0:0:0:soft-hitnormal2.ogg
329,192,93860,1,0,0:0:0:0:soft-hitnormal2.ogg
36,0,93957,128,0,94150:0:0:0:0:soft-hitnormal2.ogg
256,0,93957,128,0,94005:0:0:0:0:soft-hitnormal2.ogg
329,192,93957,1,0,0:0:0:0:soft-hitnormal2.ogg
109,0,94150,128,0,94344:0:0:0:0:soft-hitnormal2.ogg
256,192,94150,1,0,0:0:0:0:soft-hitnormal2.ogg
329,0,94150,128,0,94199:0:0:0:0:soft-hitnormal2.ogg
256,192,94247,1,0,0:0:0:0:soft-hitnormal2.ogg
182,0,94344,128,0,94538:0:0:0:0:soft-hitnormal2.ogg
256,192,94344,1,0,0:0:0:0:soft-hitnormal2.ogg
402,0,94344,128,0,94392:0:0:0:0:soft-hitnormal2.ogg
36,0,94538,128,0,94731:0:0:0:0:soft-hitnormal2.ogg
329,192,94538,1,0,0:0:0:0:soft-hitnormal2.ogg
475,0,94538,128,0,94586:0:0:0:0:soft-hitnormal2.ogg
329,192,94634,1,0,0:0:0:0:soft-hitnormal2.ogg
182,0,94731,128,0,94925:0:0:0:0:soft-hitnormal2.ogg
329,192,94731,1,0,0:0:0:0:soft-hitnormal2.ogg
402,0,94731,128,0,94779:0:0:0:0:soft-hitnormal2.ogg
329,0,94925,128,0,94973:0:0:0:0:soft-hitnormal2.ogg
475,192,94925,1,0,0:0:0:0:soft-hitnormal2.ogg
109,0,94925,128,0,95505:0:0:0:0:soft-hitnormal2.ogg
475,192,95021,1,0,0:0:0:0:soft-hitnormal2.ogg
256,0,95118,128,0,95167:0:0:0:0:soft-hitnormal2.ogg
475,192,95118,1,0,0:0:0:0:soft-hitnormal2.ogg
182,0,95312,128,0,95360:0:0:0:0:soft-hitnormal2.ogg
329,192,95312,1,0,0:0:0:0:soft-hitnormal2.ogg
329,192,95409,1,0,0:0:0:0:soft-hitnormal2.ogg
36,0,95505,128,0,95554:0:0:0:0:soft-hitnormal2.ogg
329,192,95505,1,0,0:0:0:0:soft-hitnormal2.ogg
475,0,95505,128,0,95699:0:0:0:0:soft-hitnormal2.ogg
109,0,95699,128,0,95747:0:0:0:0:soft-hitnormal2.ogg
256,192,95699,1,0,0:0:0:0:soft-hitnormal2.ogg
329,0,95699,128,0,95892:0:0:0:0:soft-hitnormal2.ogg
256,192,95796,1,0,0:0:0:0:soft-hitnormal2.ogg
182,0,95892,128,0,95941:0:0:0:0:soft-hitnormal2.ogg
256,192,95892,1,0,0:0:0:0:soft-hitnormal2.ogg
402,0,95892,128,0,96086:0:0:0:0:soft-hitnormal2.ogg
109,0,96086,128,0,96134:0:0:0:0:soft-hitnormal2.ogg
182,192,96086,1,0,0:0:0:0:soft-hitnormal2.ogg
329,0,96086,128,0,96279:0:0:0:0:soft-hitnormal2.ogg
182,192,96183,1,0,0:0:0:0:soft-hitnormal2.ogg
36,0,96279,128,0,96328:0:0:0:0:soft-hitnormal2.ogg
182,192,96279,1,0,0:0:0:0:soft-hitnormal2.ogg
402,0,96279,128,0,96473:0:0:0:0:soft-hitnormal2.ogg
36,192,96473,1,0,0:0:0:0:soft-hitnormal2.ogg
256,0,96473,128,0,96521:0:0:0:0:soft-hitnormal2.ogg
475,0,96473,128,0,96860:0:0:0:0:soft-hitnormal2.ogg
36,192,96570,1,0,0:0:0:0:soft-hitnormal2.ogg
329,0,96570,128,0,96618:0:0:0:0:soft-hitnormal2.ogg
36,192,96667,1,0,0:0:0:0:soft-hitnormal2.ogg
402,0,96667,128,0,96715:0:0:0:0:soft-hitnormal2.ogg
109,0,96860,128,0,96909:0:0:0:0:soft-hitnormal2.ogg
182,192,96860,1,0,0:0:0:0:soft-hitnormal2.ogg
256,0,96860,128,0,97054:0:0:0:0:soft-hitnormal2.ogg
182,192,96957,1,0,0:0:0:0:soft-hitnormal2.ogg
36,0,97054,128,0,97247:0:0:0:0:soft-hitnormal2.ogg
182,192,97054,1,0,0:0:0:0:soft-hitnormal2.ogg
402,0,97054,128,0,97102:0:0:0:0:soft-hitnormal2.ogg
182,0,97247,128,0,97441:0:0:0:0:soft-hitnormal2.ogg
329,0,97247,128,0,97296:0:0:0:0:soft-hitnormal2.ogg
475,192,97247,1,0,0:0:0:0:soft-hitnormal2.ogg
475,192,97344,1,0,0:0:0:0:soft-hitnormal2.ogg
109,0,97441,128,0,97634:0:0:0:0:soft-hitnormal2.ogg
402,0,97441,128,0,97489:0:0:0:0:soft-hitnormal2.ogg
475,192,97441,1,0,0:0:0:0:soft-hitnormal2.ogg
36,192,97634,1,0,0:0:0:0:soft-hitnormal2.ogg
182,0,97634,128,0,97828:0:0:0:0:soft-hitnormal2.ogg
329,0,97634,128,0,97683:0:0:0:0:soft-hitnormal2.ogg
36,192,97731,1,0,0:0:0:0:soft-hitnormal2.ogg
36,192,97828,1,0,0:0:0:0:soft-hitnormal2.ogg
109,0,97828,128,0,98021:0:0:0:0:soft-hitnormal2.ogg
256,0,97828,128,0,97876:0:0:0:0:soft-hitnormal2.ogg
36,0,98021,128,0,98505:0:0:0:0:soft-hitnormal2.ogg
182,0,98021,128,0,98070:0:0:0:0:soft-hitnormal2.ogg
402,192,98021,1,0,0:0:0:0:soft-hitnormal2.ogg
402,192,98118,1,0,0:0:0:0:soft-hitnormal2.ogg
256,0,98215,128,0,98505:0:0:0:0:soft-hitnormal2.ogg
402,192,98215,1,0,0:0:0:0:soft-hitnormal2.ogg
475,0,98215,128,0,98263:0:0:0:0:soft-hitnormal2.ogg
329,192,98409,1,0,0:0:0:0:soft-hitnormal2.ogg
475,0,98409,128,0,98457:0:0:0:0:soft-hitnormal2.ogg
329,192,98505,1,0,0:0:0:0:soft-hitnormal2.ogg
329,192,98602,1,0,0:0:0:0:soft-hitnormal2.ogg
402,0,98602,128,0,98796:0:0:0:0:soft-hitnormal2.ogg
36,0,98796,128,0,98844:0:0:0:0:soft-hitnormal2.ogg
182,192,98796,1,0,0:0:0:0:soft-hitnormal2.ogg
329,0,98796,128,0,98989:0:0:0:0:soft-hitnormal2.ogg
182,192,98892,1,0,0:0:0:0:soft-hitnormal2.ogg
109,0,98989,128,0,99038:0:0:0:0:soft-hitnormal2.ogg
182,192,98989,1,0,0:0:0:0:soft-hitnormal2.ogg
256,0,98989,128,0,99183:0:0:0:0:soft-hitnormal2.ogg
36,0,99183,128,0,99231:0:0:0:0:soft-hitnormal2.ogg
329,192,99183,1,0,0:0:0:0:soft-hitnormal2.ogg
475,0,99183,128,0,99376:0:0:0:0:soft-hitnormal2.ogg
329,192,99279,1,0,0:0:0:0:soft-hitnormal2.ogg
182,0,99376,128,0,99425:0:0:0:0:soft-hitnormal2.ogg
329,192,99376,1,0,0:0:0:0:soft-hitnormal2.ogg
402,0,99376,128,0,99570:0:0:0:0:soft-hitnormal2.ogg
36,192,99570,1,0,0:0:0:0:soft-hitnormal2.ogg
182,0,99570,128,0,99618:0:0:0:0:soft-hitnormal2.ogg
329,0,99570,128,0,99957:0:0:0:0:soft-hitnormal2.ogg
36,192,99667,1,0,0:0:0:0:soft-hitnormal2.ogg
36,192,99763,1,0,0:0:0:0:soft-hitnormal2.ogg
109,0,99957,128,0,100005:0:0:0:0:soft-hitnormal2.ogg
475,192,99957,1,0,0:0:0:0:soft-hitnormal2.ogg
256,0,99957,128,0,100150:0:0:0:0:soft-hitnormal2.ogg
475,192,100054,1,0,0:0:0:0:soft-hitnormal2.ogg
182,0,100150,128,0,100199:0:0:0:0:soft-hitnormal2.ogg
475,192,100150,1,0,0:0:0:0:soft-hitnormal2.ogg
36,0,100344,128,0,100538:0:0:0:0:soft-hitnormal2.ogg
182,192,100344,1,0,0:0:0:0:soft-hitnormal2.ogg
402,0,100344,128,0,100392:0:0:0:0:soft-hitnormal2.ogg
182,192,100441,1,0,0:0:0:0:soft-hitnormal2.ogg
109,0,100538,128,0,100828:0:0:0:0:soft-hitnormal2.ogg
182,192,100538,1,0,0:0:0:0:soft-hitnormal2.ogg
329,0,100538,128,0,100586:0:0:0:0:soft-hitnormal2.ogg
329,192,100731,1,0,0:0:0:0:soft-hitnormal2.ogg
475,0,100731,128,0,100779:0:0:0:0:soft-hitnormal2.ogg
329,192,100828,1,0,0:0:0:0:soft-hitnormal2.ogg
182,0,100828,128,0,101699:0:0:0:0:soft-hitnormal2.ogg
329,192,100925,1,0,0:0:0:0:soft-hitnormal2.ogg
475,192,101118,1,0,0:0:0:0:soft-hitnormal2.ogg
475,192,101215,1,0,0:0:0:0:soft-hitnormal2.ogg
329,0,101312,128,0,101360:0:0:0:0:soft-hitnormal2.ogg
475,192,101312,1,0,0:0:0:0:soft-hitnormal2.ogg
36,192,101505,1,0,0:0:0:0:soft-hitnormal2.ogg
402,0,101505,128,0,101554:0:0:0:0:soft-hitnormal2.ogg
36,192,101602,1,0,0:0:0:0:soft-hitnormal2.ogg
36,192,101699,1,0,0:0:0:0:soft-hitnormal2.ogg
256,192,101699,1,0,0:0:0:0:soft-hitnormal2.ogg
475,0,101699,128,0,101747:0:0:0:0:soft-hitnormal2.ogg
329,192,101796,1,0,0:0:0:0:soft-hitnormal2.ogg
182,192,101892,1,0,0:0:0:0:soft-hitnormal2.ogg
402,0,101892,128,0,101941:0:0:0:0:soft-hitnormal2.ogg
256,192,101989,1,0,0:0:0:0:soft-hitnormal2.ogg
109,192,102086,1,0,0:0:0:0:soft-hitnormal2.ogg
329,0,102086,128,0,102134:0:0:0:0:soft-hitnormal2.ogg
182,192,102183,1,0,0:0:0:0:soft-hitnormal2.ogg
36,192,102279,1,0,0:0:0:0:soft-hitnormal2.ogg
256,0,102279,128,0,102328:0:0:0:0:soft-hitnormal2.ogg
109,192,102376,1,0,0:0:0:0:soft-hitnormal2.ogg
182,0,102473,128,0,102521:0:0:0:0:soft-hitnormal2.ogg
402,192,102473,1,0,0:0:0:0:soft-hitnormal2.ogg
475,192,102570,1,0,0:0:0:0:soft-hitnormal2.ogg
109,0,102667,128,0,102715:0:0:0:0:soft-hitnormal2.ogg
329,192,102667,1,0,0:0:0:0:soft-hitnormal2.ogg
402,192,102763,1,0,0:0:0:0:soft-hitnormal2.ogg
36,0,102860,128,0,102908:0:0:0:0:soft-hitnormal2.ogg
256,192,102860,1,0,0:0:0:0:soft-hitnormal2.ogg
475,0,102860,128,0,102908:0:0:0:0:soft-hitnormal2.ogg
329,192,102957,1,0,0:0:0:0:soft-hitnormal2.ogg
182,192,103054,1,0,0:0:0:0:soft-hitnormal2.ogg
256,192,103150,1,0,0:0:0:0:soft-hitnormal2.ogg
36,192,103247,1,0,0:0:0:0:soft-hitnormal2.ogg
109,192,103247,1,0,0:0:0:0:soft-hitnormal2.ogg
182,192,103344,1,0,0:0:0:0:soft-hitnormal2.ogg
256,192,103441,1,0,0:0:0:0:soft-hitnormal2.ogg
329,192,103538,1,0,0:0:0:0:soft-hitnormal2.ogg
402,192,103634,1,0,0:0:0:0:soft-hitnormal2.ogg
475,192,103634,1,0,0:0:0:0:soft-hitnormal2.ogg
329,192,103731,1,0,0:0:0:0:soft-hitnormal2.ogg
256,192,103828,1,0,0:0:0:0:soft-hitnormal2.ogg
182,192,103925,1,0,0:0:0:0:soft-hitnormal2.ogg
36,192,104021,1,0,0:0:0:0:soft-hitnormal2.ogg
109,192,104021,1,0,0:0:0:0:soft-hitnormal2.ogg
182,192,104118,1,0,0:0:0:0:soft-hitnormal2.ogg
256,192,104215,1,0,0:0:0:0:soft-hitnormal2.ogg
329,192,104312,1,0,0:0:0:0:soft-hitnormal2.ogg
402,192,104408,1,0,0:0:0:0:soft-hitnormal2.ogg
475,192,104408,1,0,0:0:0:0:soft-hitnormal2.ogg
329,192,104505,1,0,0:0:0:0:soft-hitnormal2.ogg
256,192,104602,1,0,0:0:0:0:soft-hitnormal2.ogg
182,192,104699,1,0,0:0:0:0:soft-hitnormal2.ogg
36,192,104796,1,0,0:0:0:0:soft-hitnormal2.ogg
109,192,104796,1,0,0:0:0:0:soft-hitnormal2.ogg
402,0,104796,128,0,105086:0:0:0:0:soft-hitnormal2.ogg
475,0,104796,128,0,105086:0:0:0:0:soft-hitnormal2.ogg
329,192,104989,1,0,0:0:0:0:soft-hitnormal2.ogg
329,192,105086,1,0,0:0:0:0:soft-hitnormal2.ogg
402,192,105183,1,0,0:0:0:0:soft-hitnormal2.ogg
475,192,105183,1,0,0:0:0:0:soft-hitnormal2.ogg
402,0,105376,128,0,105667:0:0:0:0:soft-hitnormal2.ogg
475,0,105376,128,0,105667:0:0:0:0:soft-hitnormal2.ogg
256,192,105473,1,0,0:0:0:0:soft-hitnormal2.ogg
256,192,105570,1,0,0:0:0:0:soft-hitnormal2.ogg
402,192,105763,1,0,0:0:0:0:soft-hitnormal2.ogg
475,192,105763,1,0,0:0:0:0:soft-hitnormal2.ogg
182,192,105860,1,0,0:0:0:0:soft-hitnormal2.ogg
182,192,105957,1,0,0:0:0:0:soft-hitnormal2.ogg
402,0,105957,128,0,106247:0:0:0:0:soft-hitnormal2.ogg
475,0,105957,128,0,106247:0:0:0:0:soft-hitnormal2.ogg
109,192,106150,1,0,0:0:0:0:soft-hitnormal2.ogg
109,192,106247,1,0,0:0:0:0:soft-hitnormal2.ogg
36,0,106344,128,0,106634:0:0:0:0:soft-hitnormal2.ogg
109,0,106344,128,0,106634:0:0:0:0:soft-hitnormal2.ogg
402,192,106344,1,0,0:0:0:0:soft-hitnormal2.ogg
475,192,106344,1,0,0:0:0:0:soft-hitnormal2.ogg
182,192,106538,1,0,0:0:0:0:soft-hitnormal2.ogg
182,192,106634,1,0,0:0:0:0:soft-hitnormal2.ogg
36,192,106731,1,0,0:0:0:0:soft-hitnormal2.ogg
109,192,106731,1,0,0:0:0:0:soft-hitnormal2.ogg
36,0,106925,128,0,107215:0:0:0:0:soft-hitnormal2.ogg
109,0,106925,128,0,107215:0:0:0:0:soft-hitnormal2.ogg
256,192,107021,1,0,0:0:0:0:soft-hitnormal2.ogg
256,192,107118,1,0,0:0:0:0:soft-hitnormal2.ogg
36,192,107312,1,0,0:0:0:0:soft-hitnormal2.ogg
109,192,107312,1,0,0:0:0:0:soft-hitnormal2.ogg
329,192,107408,1,0,0:0:0:0:soft-hitnormal2.ogg
36,0,107505,128,0,107796:0:0:0:0:soft-hitnormal2.ogg
109,0,107505,128,0,107796:0:0:0:0:soft-hitnormal2.ogg
329,192,107505,1,0,0:0:0:0:soft-hitnormal2.ogg
402,192,107699,1,0,0:0:0:0:soft-hitnormal2.ogg
402,192,107796,1,0,0:0:0:0:soft-hitnormal2.ogg
36,192,107892,1,0,0:0:0:0:soft-hitnormal2.ogg
109,192,107892,1,0,0:0:0:0:soft-hitnormal2.ogg
402,0,107892,128,0,108183:0:0:0:0:soft-hitnormal2.ogg
475,0,107892,128,0,108183:0:0:0:0:soft-hitnormal2.ogg
329,192,108086,1,0,0:0:0:0:soft-hitnormal2.ogg
329,192,108183,1,0,0:0:0:0:soft-hitnormal2.ogg
402,192,108279,1,0,0:0:0:0:soft-hitnormal2.ogg
475,192,108279,1,0,0:0:0:0:soft-hitnormal2.ogg
402,0,108473,128,0,108763:0:0:0:0:soft-hitnormal2.ogg
475,0,108473,128,0,108763:0:0:0:0:soft-hitnormal2.ogg
256,192,108570,1,0,0:0:0:0:soft-hitnormal2.ogg
256,192,108667,1,0,0:0:0:0:soft-hitnormal2.ogg
402,192,108860,1,0,0:0:0:0:soft-hitnormal2.ogg
475,192,108860,1,0,0:0:0:0:soft-hitnormal2.ogg
182,192,108957,1,0,0:0:0:0:soft-hitnormal2.ogg
182,192,109054,1,0,0:0:0:0:soft-hitnormal2.ogg
402,0,109054,128,0,109344:0:0:0:0:soft-hitnormal2.ogg
475,0,109054,128,0,109344:0:0:0:0:soft-hitnormal2.ogg
109,192,109247,1,0,0:0:0:0:soft-hitnormal2.ogg
109,192,109344,1,0,0:0:0:0:soft-hitnormal2.ogg
36,192,109441,1,0,0:0:0:0:soft-hitnormal2.ogg
109,192,109441,1,0,0:0:0:0:soft-hitnormal2.ogg
256,0,109441,128,0,109731:0:0:0:0:soft-hitnormal2.ogg
402,192,109441,1,0,0:0:0:0:soft-hitnormal2.ogg
475,192,109441,1,0,0:0:0:0:soft-hitnormal2.ogg
109,0,109828,128,0,110505:0:0:0:0:soft-hitnormal2.ogg
256,192,109828,1,0,0:0:0:0:soft-hitnormal2.ogg
402,0,109828,128,0,110505:0:0:0:0:soft-hitnormal2.ogg
36,0,110021,128,0,110505:0:0:0:0:soft-hitnormal2.ogg
256,0,110021,128,0,110312:0:0:0:0:soft-hitnormal2.ogg
475,0,110021,128,0,110505:0:0:0:0:soft-hitnormal2.ogg
256,192,110408,1,0,0:0:0:0:soft-hitnormal2.ogg
36,0,110602,128,0,110892:0:0:0:0:soft-hitnormal2.ogg
109,0,110602,128,0,110892:0:0:0:0:soft-hitnormal2.ogg
182,192,110602,1,0,0:0:0:0:soft-hitnormal2.ogg
256,0,110602,128,0,110892:0:0:0:0:soft-hitnormal2.ogg
402,0,110602,128,0,110892:0:0:0:0:soft-hitnormal2.ogg
475,0,110602,128,0,110892:0:0:0:0:soft-hitnormal2.ogg
329,192,110699,1,0,0:0:0:0:soft-hitnormal2.ogg
182,192,110796,1,0,0:0:0:0:soft-hitnormal2.ogg
329,192,110892,1,0,0:0:0:0:soft-hitnormal2.ogg
36,192,110989,1,0,0:0:0:0:soft-hitnormal2.ogg
109,192,110989,1,0,0:0:0:0:soft-hitnormal2.ogg
182,0,110989,128,0,112441:0:0:0:0:soft-hitnormal2.ogg
256,192,110989,1,0,0:0:0:0:soft-hitnormal2.ogg
329,192,110989,1,0,0:0:0:0:soft-hitnormal2.ogg
475,192,111086,1,0,0:0:0:0:soft-hitnormal2.ogg
402,192,111183,1,0,0:0:0:0:soft-hitnormal2.ogg
329,192,111279,1,0,0:0:0:0:soft-hitnormal2.ogg
256,192,111376,1,0,0:0:0:0:soft-hitnormal2.ogg
402,0,111376,128,0,111763:0:0:0:0:soft-hitnormal2.ogg
475,192,111376,1,0,0:0:0:0:soft-hitnormal2.ogg
329,192,111473,1,0,0:0:0:0:soft-hitnormal2.ogg
36,192,111570,1,0,0:0:0:0:soft-hitnormal2.ogg
109,192,111667,1,0,0:0:0:0:soft-hitnormal2.ogg
36,192,111763,1,0,0:0:0:0:soft-hitnormal2.ogg
256,192,111763,1,0,0:0:0:0:soft-hitnormal2.ogg
329,192,111860,1,0,0:0:0:0:soft-hitnormal2.ogg
475,192,111957,1,0,0:0:0:0:soft-hitnormal2.ogg
402,192,112054,1,0,0:0:0:0:soft-hitnormal2.ogg
36,192,112150,1,0,0:0:0:0:soft-hitnormal2.ogg
256,192,112150,1,0,0:0:0:0:soft-hitnormal2.ogg
329,0,112150,128,0,112538:0:0:0:0:soft-hitnormal2.ogg
109,192,112247,1,0,0:0:0:0:soft-hitnormal2.ogg
36,192,112344,1,0,0:0:0:0:soft-hitnormal2.ogg
256,192,112441,1,0,0:0:0:0:soft-hitnormal2.ogg
36,192,112538,1,0,0:0:0:0:soft-hitnormal2.ogg
402,192,112538,1,0,0:0:0:0:soft-hitnormal2.ogg
475,0,112538,128,0,113989:0:0:0:0:soft-hitnormal2.ogg
109,192,112634,1,0,0:0:0:0:soft-hitnormal2.ogg
182,192,112731,1,0,0:0:0:0:soft-hitnormal2.ogg
256,192,112828,1,0,0:0:0:0:soft-hitnormal2.ogg
36,192,112925,1,0,0:0:0:0:soft-hitnormal2.ogg
109,0,112925,128,0,113312:0:0:0:0:soft-hitnormal2.ogg
182,192,112925,1,0,0:0:0:0:soft-hitnormal2.ogg
256,192,113021,1,0,0:0:0:0:soft-hitnormal2.ogg
329,192,113118,1,0,0:0:0:0:soft-hitnormal2.ogg
402,192,113215,1,0,0:0:0:0:soft-hitnormal2.ogg
36,192,113312,1,0,0:0:0:0:soft-hitnormal2.ogg
329,192,113312,1,0,0:0:0:0:soft-hitnormal2.ogg
256,192,113408,1,0,0:0:0:0:soft-hitnormal2.ogg
182,192,113505,1,0,0:0:0:0:soft-hitnormal2.ogg
109,192,113602,1,0,0:0:0:0:soft-hitnormal2.ogg
36,192,113699,1,0,0:0:0:0:soft-hitnormal2.ogg
402,192,113699,1,0,0:0:0:0:soft-hitnormal2.ogg
182,0,113699,128,0,114086:0:0:0:0:soft-hitnormal2.ogg
256,192,113796,1,0,0:0:0:0:soft-hitnormal2.ogg
329,192,113892,1,0,0:0:0:0:soft-hitnormal2.ogg
402,192,113989,1,0,0:0:0:0:soft-hitnormal2.ogg
36,192,114086,1,0,0:0:0:0:soft-hitnormal2.ogg
109,192,114086,1,0,0:0:0:0:soft-hitnormal2.ogg
256,0,114086,128,0,115437:0:0:0:0:soft-hitnormal2.ogg
329,192,114086,1,0,0:0:0:0:soft-hitnormal2.ogg
475,192,114086,1,0,0:0:0:0:soft-hitnormal2.ogg
36,192,114279,1,0,0:0:0:0:soft-hitnormal2.ogg
109,192,114279,1,0,0:0:0:0:soft-hitnormal2.ogg
182,192,114279,1,0,0:0:0:0:soft-hitnormal2.ogg
329,192,114279,1,0,0:0:0:0:soft-hitnormal2.ogg
402,192,114279,1,0,0:0:0:0:soft-hitnormal2.ogg
109,192,114473,1,0,0:0:0:0:soft-hitnormal2.ogg
182,192,114473,1,0,0:0:0:0:soft-hitnormal2.ogg
329,192,114473,1,0,0:0:0:0:soft-hitnormal2.ogg
402,192,114473,1,0,0:0:0:0:soft-hitnormal2.ogg
475,192,114473,1,0,0:0:0:0:soft-hitnormal2.ogg
182,192,114667,1,0,0:0:0:0:soft-hitnormal2.ogg
329,192,114667,1,0,0:0:0:0:soft-hitnormal2.ogg
402,192,114667,1,0,0:0:0:0:soft-hitnormal2.ogg
475,192,114667,1,0,0:0:0:0:soft-hitnormal2.ogg
36,192,114860,1,0,0:0:0:0:soft-hitnormal2.ogg
329,192,114860,1,0,0:0:0:0:soft-hitnormal2.ogg
402,192,114860,1,0,0:0:0:0:soft-hitnormal2.ogg
475,192,114860,1,0,0:0:0:0:soft-hitnormal2.ogg
36,192,115054,1,0,0:0:0:0:soft-hitnormal2.ogg
109,192,115054,1,0,0:0:0:0:soft-hitnormal2.ogg
402,192,115054,1,0,0:0:0:0:soft-hitnormal2.ogg
475,192,115054,1,0,0:0:0:0:soft-hitnormal2.ogg
36,192,115247,1,0,0:0:0:0:soft-hitnormal2.ogg
109,192,115247,1,0,0:0:0:0:soft-hitnormal2.ogg
182,192,115247,1,0,0:0:0:0:soft-hitnormal2.ogg
329,192,115247,1,0,0:0:0:0:soft-hitnormal2.ogg
36,192,115441,1,0,0:0:0:0:soft-hitnormal2.ogg
109,192,115441,1,0,0:0:0:0:soft-hitnormal2.ogg
182,192,115441,1,0,0:0:0:0:soft-hitnormal2.ogg
329,192,115441,1,0,0:0:0:0:soft-hitnormal2.ogg
402,192,115441,1,0,0:0:0:0:soft-hitnormal2.ogg
109,192,115630,1,0,0:0:0:0:soft-hitnormal2.ogg
36,192,115630,1,0,0:0:0:0:soft-hitnormal2.ogg
182,192,115630,1,0,0:0:0:0:soft-hitnormal2.ogg
329,192,115630,1,0,0:0:0:0:soft-hitnormal2.ogg
402,192,115630,1,0,0:0:0:0:soft-hitnormal2.ogg
475,192,115630,1,0,0:0:0:0:soft-hitnormal2.ogg
256,192,115630,128,0,115726:0:0:0:0:
36,0,115726,128,0,115823:0:0:0:0:soft-hitnormal2.ogg
182,0,115823,128,0,115920:0:0:0:0:soft-hitnormal2.ogg
329,0,115920,128,0,116017:0:0:0:0:soft-hitnormal2.ogg
475,192,116017,128,0,116113:0:0:0:0:
256,192,116113,128,0,116210:0:0:0:0:
36,0,116210,128,0,117105:0:0:0:0:soft-hitnormal2.ogg
182,0,116210,128,0,117105:0:0:0:0:soft-hitnormal2.ogg
329,0,116210,128,0,117105:0:0:0:0:soft-hitnormal2.ogg
475,0,116210,128,0,117105:0:0:0:0:soft-hitnormal2.ogg
256,192,116597,1,0,0:0:0:0:soft-hitnormal2.ogg
256,192,116791,1,0,0:0:0:0:soft-hitnormal2.ogg
402,192,116791,1,0,0:0:0:0:soft-hitnormal2.ogg
109,192,116791,1,0,0:0:0:0:soft-hitnormal2.ogg
256,192,116984,1,0,0:0:0:0:soft-hitnormal2.ogg
36,0,117183,128,0,117570:0:0:0:0:soft-hitnormal2.ogg
182,0,117183,128,0,117279:0:0:0:0:soft-hitnormal2.ogg
256,0,117183,128,0,118634:0:0:0:0:soft-hitnormal2.ogg
475,0,117183,128,0,117570:0:0:0:0:soft-hitnormal2.ogg
329,0,117279,128,0,117376:0:0:0:0:soft-hitnormal2.ogg
109,0,117376,128,0,117473:0:0:0:0:soft-hitnormal2.ogg
402,0,117473,128,0,117570:0:0:0:0:soft-hitnormal2.ogg
109,192,117570,1,0,0:0:0:0:soft-hitnormal2.ogg
182,192,117570,1,0,0:0:0:0:soft-hitnormal2.ogg
329,192,117667,1,0,0:0:0:0:soft-hitnormal2.ogg
402,192,117667,1,0,0:0:0:0:soft-hitnormal2.ogg
36,192,117763,1,0,0:0:0:0:soft-hitnormal2.ogg
109,192,117763,1,0,0:0:0:0:soft-hitnormal2.ogg
402,192,117860,1,0,0:0:0:0:soft-hitnormal2.ogg
475,192,117860,1,0,0:0:0:0:soft-hitnormal2.ogg
109,192,118150,1,0,0:0:0:0:soft-hitnormal2.ogg
402,192,118150,1,0,0:0:0:0:soft-hitnormal2.ogg
182,192,118344,1,0,0:0:0:0:soft-hitnormal2.ogg
329,192,118344,1,0,0:0:0:0:soft-hitnormal2.ogg
256,192,118726,1,0,0:0:0:0:
36,0,118731,128,0,120183:0:0:0:0:soft-hitnormal2.ogg
475,0,118731,128,0,120183:0:0:0:0:soft-hitnormal2.ogg
256,192,119505,1,0,0:0:0:0:soft-hitnormal2.ogg
109,192,119602,1,0,0:0:0:0:soft-hitnormal2.ogg
182,192,119602,1,0,0:0:0:0:soft-hitnormal2.ogg
256,192,119602,1,0,0:0:0:0:soft-hitnormal2.ogg
329,192,119602,1,0,0:0:0:0:soft-hitnormal2.ogg
402,192,119602,1,0,0:0:0:0:soft-hitnormal2.ogg
329,192,119796,1,0,0:0:0:0:soft-hitnormal2.ogg
182,192,119796,1,0,0:0:0:0:soft-hitnormal2.ogg
109,192,119989,1,0,0:0:0:0:soft-hitnormal2.ogg
256,192,119989,1,0,0:0:0:0:soft-hitnormal2.ogg
402,192,119989,1,0,0:0:0:0:soft-hitnormal2.ogg
182,192,120086,1,0,0:0:0:0:soft-hitnormal2.ogg
329,192,120086,1,0,0:0:0:0:
256,192,120183,1,0,0:0:0:0:
36,0,120279,128,0,120376:0:0:0:0:soft-hitnormal2.ogg
109,0,120279,128,0,121731:0:0:0:0:soft-hitnormal2.ogg
256,0,120279,128,0,120376:0:0:0:0:soft-hitnormal2.ogg
402,0,120279,128,0,120376:0:0:0:0:soft-hitnormal2.ogg
475,0,120279,128,0,120667:0:0:0:0:soft-hitnormal2.ogg
182,0,120376,128,0,120473:0:0:0:0:soft-hitnormal2.ogg
329,0,120376,128,0,120473:0:0:0:0:soft-hitnormal2.ogg
256,0,120473,128,0,120570:0:0:0:0:soft-hitnormal2.ogg
36,0,120570,128,0,120667:0:0:0:0:soft-hitnormal2.ogg
402,0,120570,128,0,120667:0:0:0:0:soft-hitnormal2.ogg
182,0,120667,128,0,121054:0:0:0:0:soft-hitnormal2.ogg
256,0,120667,128,0,120763:0:0:0:0:soft-hitnormal2.ogg
329,0,120667,128,0,120763:0:0:0:0:soft-hitnormal2.ogg
402,0,120763,128,0,120860:0:0:0:0:soft-hitnormal2.ogg
475,0,120763,128,0,120860:0:0:0:0:soft-hitnormal2.ogg
36,0,120860,128,0,120957:0:0:0:0:soft-hitnormal2.ogg
256,0,120860,128,0,120957:0:0:0:0:soft-hitnormal2.ogg
402,0,120957,128,0,121054:0:0:0:0:soft-hitnormal2.ogg
256,0,121054,128,0,121150:0:0:0:0:soft-hitnormal2.ogg
329,0,121054,128,0,121731:0:0:0:0:soft-hitnormal2.ogg
475,0,121054,128,0,121441:0:0:0:0:soft-hitnormal2.ogg
182,0,121150,128,0,121247:0:0:0:0:soft-hitnormal2.ogg
36,0,121247,128,0,121344:0:0:0:0:soft-hitnormal2.ogg
256,0,121247,128,0,121344:0:0:0:0:soft-hitnormal2.ogg
182,0,121344,128,0,121441:0:0:0:0:soft-hitnormal2.ogg
402,0,121344,128,0,121441:0:0:0:0:soft-hitnormal2.ogg
36,0,121441,128,0,121538:0:0:0:0:soft-hitnormal2.ogg
256,0,121441,128,0,121828:0:0:0:0:soft-hitnormal2.ogg
402,0,121538,128,0,121634:0:0:0:0:soft-hitnormal2.ogg
182,0,121634,128,0,121731:0:0:0:0:soft-hitnormal2.ogg
475,0,121634,128,0,121731:0:0:0:0:soft-hitnormal2.ogg
36,0,121731,128,0,121828:0:0:0:0:soft-hitnormal2.ogg
182,0,121828,128,0,122215:0:0:0:0:soft-hitnormal2.ogg
329,0,121828,128,0,121925:0:0:0:0:soft-hitnormal2.ogg
402,0,121828,128,0,123279:0:0:0:0:soft-hitnormal2.ogg
475,0,121828,128,0,121925:0:0:0:0:soft-hitnormal2.ogg
109,0,121925,128,0,122021:0:0:0:0:soft-hitnormal2.ogg
256,0,121925,128,0,122021:0:0:0:0:soft-hitnormal2.ogg
36,0,122021,128,0,122118:0:0:0:0:soft-hitnormal2.ogg
329,0,122021,128,0,122118:0:0:0:0:soft-hitnormal2.ogg
109,0,122118,128,0,122215:0:0:0:0:soft-hitnormal2.ogg
475,0,122118,128,0,122215:0:0:0:0:soft-hitnormal2.ogg
256,0,122215,128,0,122312:0:0:0:0:soft-hitnormal2.ogg
329,0,122215,128,0,122602:0:0:0:0:soft-hitnormal2.ogg
36,0,122312,128,0,122408:0:0:0:0:soft-hitnormal2.ogg
475,0,122312,128,0,122408:0:0:0:0:soft-hitnormal2.ogg
109,0,122408,128,0,122505:0:0:0:0:soft-hitnormal2.ogg
256,0,122408,128,0,122505:0:0:0:0:soft-hitnormal2.ogg
475,0,122505,128,0,122602:0:0:0:0:soft-hitnormal2.ogg
36,0,122602,128,0,122989:0:0:0:0:soft-hitnormal2.ogg
109,0,122602,128,0,122699:0:0:0:0:soft-hitnormal2.ogg
182,0,122602,128,0,123279:0:0:0:0:soft-hitnormal2.ogg
256,0,122602,128,0,122699:0:0:0:0:soft-hitnormal2.ogg
329,0,122699,128,0,122796:0:0:0:0:soft-hitnormal2.ogg
256,0,122796,128,0,122892:0:0:0:0:soft-hitnormal2.ogg
475,0,122796,128,0,122892:0:0:0:0:soft-hitnormal2.ogg
109,0,122892,128,0,122989:0:0:0:0:soft-hitnormal2.ogg
329,0,122989,128,0,123086:0:0:0:0:soft-hitnormal2.ogg
475,0,122989,128,0,123376:0:0:0:0:soft-hitnormal2.ogg
36,0,123086,128,0,123183:0:0:0:0:soft-hitnormal2.ogg
256,0,123086,128,0,123183:0:0:0:0:soft-hitnormal2.ogg
109,0,123183,128,0,123279:0:0:0:0:soft-hitnormal2.ogg
36,0,123279,128,0,123376:0:0:0:0:soft-hitnormal2.ogg
329,0,123279,128,0,123376:0:0:0:0:soft-hitnormal2.ogg
109,0,123376,128,0,123473:0:0:0:0:soft-hitnormal2.ogg
402,0,123376,128,0,123473:0:0:0:0:soft-hitnormal2.ogg
256,0,123376,128,0,124925:0:0:0:0:soft-hitnormal2.ogg
182,0,123473,128,0,123570:0:0:0:0:soft-hitnormal2.ogg
329,0,123473,128,0,123570:0:0:0:0:soft-hitnormal2.ogg
109,0,123570,128,0,123667:0:0:0:0:soft-hitnormal2.ogg
402,0,123570,128,0,123667:0:0:0:0:soft-hitnormal2.ogg
36,0,123667,128,0,123763:0:0:0:0:soft-hitnormal2.ogg
475,0,123667,128,0,123763:0:0:0:0:soft-hitnormal2.ogg
109,0,123763,128,0,123860:0:0:0:0:soft-hitnormal2.ogg
402,0,123763,128,0,123860:0:0:0:0:soft-hitnormal2.ogg
182,0,123860,128,0,123957:0:0:0:0:soft-hitnormal2.ogg
329,0,123860,128,0,123957:0:0:0:0:soft-hitnormal2.ogg
36,0,123957,128,0,124054:0:0:0:0:soft-hitnormal2.ogg
475,0,123957,128,0,124054:0:0:0:0:soft-hitnormal2.ogg
109,0,124054,128,0,124150:0:0:0:0:soft-hitnormal2.ogg
402,0,124054,128,0,124150:0:0:0:0:soft-hitnormal2.ogg
182,0,124150,128,0,124247:0:0:0:0:soft-hitnormal2.ogg
329,0,124150,128,0,124247:0:0:0:0:soft-hitnormal2.ogg
36,0,124247,128,0,124344:0:0:0:0:soft-hitnormal2.ogg
109,0,124247,128,0,124344:0:0:0:0:soft-hitnormal2.ogg
402,0,124247,128,0,124344:0:0:0:0:soft-hitnormal2.ogg
475,0,124247,128,0,124344:0:0:0:0:soft-hitnormal2.ogg
182,0,124344,128,0,124441:0:0:0:0:soft-hitnormal2.ogg
329,0,124344,128,0,124441:0:0:0:0:soft-hitnormal2.ogg
109,0,124441,128,0,124538:0:0:0:0:soft-hitnormal2.ogg
402,0,124441,128,0,124538:0:0:0:0:soft-hitnormal2.ogg
36,0,124538,128,0,124634:0:0:0:0:soft-hitnormal2.ogg
475,0,124538,128,0,124634:0:0:0:0:soft-hitnormal2.ogg
182,0,124634,128,0,124731:0:0:0:0:soft-hitnormal2.ogg
329,0,124634,128,0,124731:0:0:0:0:soft-hitnormal2.ogg
36,0,124731,128,0,124828:0:0:0:0:soft-hitnormal2.ogg
475,0,124731,128,0,124828:0:0:0:0:soft-hitnormal2.ogg
109,0,124828,128,0,124925:0:0:0:0:soft-hitnormal2.ogg
402,0,124828,128,0,124925:0:0:0:0:soft-hitnormal2.ogg
36,192,124925,1,0,0:0:0:0:soft-hitnormal2.ogg
182,192,124925,1,0,0:0:0:0:soft-hitnormal2.ogg
329,192,124925,1,0,0:0:0:0:soft-hitnormal2.ogg
109,192,125021,1,0,0:0:0:0:soft-hitnormal2.ogg
256,192,125021,1,0,0:0:0:0:soft-hitnormal2.ogg
329,192,125118,1,0,0:0:0:0:soft-hitnormal2.ogg
402,192,125118,1,0,0:0:0:0:soft-hitnormal2.ogg
109,192,125215,1,0,0:0:0:0:soft-hitnormal2.ogg
475,192,125215,1,0,0:0:0:0:soft-hitnormal2.ogg
36,192,125312,1,0,0:0:0:0:soft-hitnormal2.ogg
256,192,125312,1,0,0:0:0:0:soft-hitnormal2.ogg
329,192,125312,1,0,0:0:0:0:soft-hitnormal2.ogg
402,192,125312,1,0,0:0:0:0:soft-hitnormal2.ogg
182,192,125408,1,0,0:0:0:0:soft-hitnormal2.ogg
475,192,125408,1,0,0:0:0:0:soft-hitnormal2.ogg
109,192,125505,1,0,0:0:0:0:soft-hitnormal2.ogg
402,192,125505,1,0,0:0:0:0:soft-hitnormal2.ogg
36,192,125602,1,0,0:0:0:0:soft-hitnormal2.ogg
329,192,125602,1,0,0:0:0:0:soft-hitnormal2.ogg
256,192,125699,1,0,0:0:0:0:soft-hitnormal2.ogg
402,192,125699,1,0,0:0:0:0:soft-hitnormal2.ogg
475,192,125699,1,0,0:0:0:0:soft-hitnormal2.ogg
109,192,125796,1,0,0:0:0:0:soft-hitnormal2.ogg
182,192,125796,1,0,0:0:0:0:soft-hitnormal2.ogg
36,192,125892,1,0,0:0:0:0:soft-hitnormal2.ogg
256,192,125892,1,0,0:0:0:0:soft-hitnormal2.ogg
329,192,125989,1,0,0:0:0:0:soft-hitnormal2.ogg
475,192,125989,1,0,0:0:0:0:soft-hitnormal2.ogg
36,192,126086,1,0,0:0:0:0:soft-hitnormal2.ogg
182,192,126086,1,0,0:0:0:0:soft-hitnormal2.ogg
256,192,126086,1,0,0:0:0:0:soft-hitnormal2.ogg
402,192,126086,1,0,0:0:0:0:soft-hitnormal2.ogg
329,192,126183,1,0,0:0:0:0:soft-hitnormal2.ogg
475,192,126183,1,0,0:0:0:0:soft-hitnormal2.ogg
36,192,126279,1,0,0:0:0:0:soft-hitnormal2.ogg
182,192,126279,1,0,0:0:0:0:soft-hitnormal2.ogg
402,192,126279,1,0,0:0:0:0:soft-hitnormal2.ogg
109,192,126376,1,0,0:0:0:0:soft-hitnormal2.ogg
329,192,126376,1,0,0:0:0:0:soft-hitnormal2.ogg
36,0,126473,128,0,126570:0:0:0:0:soft-hitnormal2.ogg
182,0,126473,128,0,127925:0:0:0:0:soft-hitnormal2.ogg
256,0,126473,128,0,126570:0:0:0:0:soft-hitnormal2.ogg
475,0,126473,128,0,126860:0:0:0:0:soft-hitnormal2.ogg
109,0,126570,128,0,126667:0:0:0:0:soft-hitnormal2.ogg
256,0,126667,128,0,126763:0:0:0:0:soft-hitnormal2.ogg
402,0,126667,128,0,126763:0:0:0:0:soft-hitnormal2.ogg
109,0,126763,128,0,126860:0:0:0:0:soft-hitnormal2.ogg
36,0,126860,128,0,126957:0:0:0:0:soft-hitnormal2.ogg
256,0,126860,128,0,127247:0:0:0:0:soft-hitnormal2.ogg
329,0,126860,128,0,126957:0:0:0:0:soft-hitnormal2.ogg
402,0,126957,128,0,127054:0:0:0:0:soft-hitnormal2.ogg
109,0,127054,128,0,127150:0:0:0:0:soft-hitnormal2.ogg
475,0,127054,128,0,127150:0:0:0:0:soft-hitnormal2.ogg
329,0,127150,128,0,127247:0:0:0:0:soft-hitnormal2.ogg
36,0,127247,128,0,127634:0:0:0:0:soft-hitnormal2.ogg
109,0,127247,128,0,127344:0:0:0:0:soft-hitnormal2.ogg
402,0,127247,128,0,127925:0:0:0:0:soft-hitnormal2.ogg
475,0,127247,128,0,127344:0:0:0:0:soft-hitnormal2.ogg
329,0,127344,128,0,127441:0:0:0:0:soft-hitnormal2.ogg
256,0,127441,128,0,127538:0:0:0:0:soft-hitnormal2.ogg
475,0,127538,128,0,127634:0:0:0:0:soft-hitnormal2.ogg
256,0,127634,128,0,127731:0:0:0:0:soft-hitnormal2.ogg
329,0,127634,128,0,127731:0:0:0:0:soft-hitnormal2.ogg
109,0,127634,128,0,128021:0:0:0:0:soft-hitnormal2.ogg
475,0,127731,128,0,127828:0:0:0:0:soft-hitnormal2.ogg
36,0,127828,128,0,127925:0:0:0:0:soft-hitnormal2.ogg
329,0,127828,128,0,127925:0:0:0:0:soft-hitnormal2.ogg
475,0,127925,128,0,128021:0:0:0:0:soft-hitnormal2.ogg
36,0,128021,128,0,128118:0:0:0:0:soft-hitnormal2.ogg
182,0,128021,128,0,128118:0:0:0:0:soft-hitnormal2.ogg
256,0,128021,128,0,128408:0:0:0:0:soft-hitnormal2.ogg
329,0,128021,128,0,129473:0:0:0:0:soft-hitnormal2.ogg
109,0,128118,128,0,128215:0:0:0:0:soft-hitnormal2.ogg
402,0,128118,128,0,128215:0:0:0:0:soft-hitnormal2.ogg
182,0,128215,128,0,128312:0:0:0:0:soft-hitnormal2.ogg
475,0,128215,128,0,128312:0:0:0:0:soft-hitnormal2.ogg
36,0,128312,128,0,128408:0:0:0:0:soft-hitnormal2.ogg
109,0,128408,128,0,128505:0:0:0:0:soft-hitnormal2.ogg
402,0,128408,128,0,128505:0:0:0:0:soft-hitnormal2.ogg
475,0,128408,128,0,128796:0:0:0:0:soft-hitnormal2.ogg
256,0,128505,128,0,128602:0:0:0:0:soft-hitnormal2.ogg
36,0,128602,128,0,128699:0:0:0:0:soft-hitnormal2.ogg
182,0,128602,128,0,128699:0:0:0:0:soft-hitnormal2.ogg
256,0,128699,128,0,128796:0:0:0:0:soft-hitnormal2.ogg
36,0,128796,128,0,128892:0:0:0:0:soft-hitnormal2.ogg
109,0,128796,128,0,129473:0:0:0:0:soft-hitnormal2.ogg
182,0,128796,128,0,129183:0:0:0:0:soft-hitnormal2.ogg
402,0,128796,128,0,128892:0:0:0:0:soft-hitnormal2.ogg
256,0,128892,128,0,128989:0:0:0:0:soft-hitnormal2.ogg
475,0,128989,128,0,129086:0:0:0:0:soft-hitnormal2.ogg
36,0,129086,128,0,129183:0:0:0:0:soft-hitnormal2.ogg
256,0,129183,128,0,129279:0:0:0:0:soft-hitnormal2.ogg
475,0,129183,128,0,129279:0:0:0:0:soft-hitnormal2.ogg
402,0,129183,128,0,129570:0:0:0:0:soft-hitnormal2.ogg
182,0,129279,128,0,129376:0:0:0:0:soft-hitnormal2.ogg
36,0,129376,128,0,129473:0:0:0:0:soft-hitnormal2.ogg
256,0,129376,128,0,129473:0:0:0:0:soft-hitnormal2.ogg
182,0,129473,128,0,129570:0:0:0:0:soft-hitnormal2.ogg
36,0,129570,128,0,129667:0:0:0:0:soft-hitnormal2.ogg
475,0,129570,128,0,129667:0:0:0:0:soft-hitnormal2.ogg
256,0,129570,128,0,131118:0:0:0:0:soft-hitnormal2.ogg
109,0,129667,128,0,129763:0:0:0:0:soft-hitnormal2.ogg
402,0,129667,128,0,129763:0:0:0:0:soft-hitnormal2.ogg
36,0,129763,128,0,129860:0:0:0:0:soft-hitnormal2.ogg
182,0,129763,128,0,129860:0:0:0:0:soft-hitnormal2.ogg
329,0,129763,128,0,129860:0:0:0:0:soft-hitnormal2.ogg
475,0,129763,128,0,129860:0:0:0:0:soft-hitnormal2.ogg
109,0,129860,128,0,129957:0:0:0:0:soft-hitnormal2.ogg
402,0,129860,128,0,129957:0:0:0:0:soft-hitnormal2.ogg
36,0,129957,128,0,130054:0:0:0:0:soft-hitnormal2.ogg
475,0,129957,128,0,130054:0:0:0:0:soft-hitnormal2.ogg
182,0,130054,128,0,130150:0:0:0:0:soft-hitnormal2.ogg
329,0,130054,128,0,130150:0:0:0:0:soft-hitnormal2.ogg
36,0,130150,128,0,130247:0:0:0:0:soft-hitnormal2.ogg
475,0,130150,128,0,130247:0:0:0:0:soft-hitnormal2.ogg
109,0,130247,128,0,130344:0:0:0:0:soft-hitnormal2.ogg
402,0,130247,128,0,130344:0:0:0:0:soft-hitnormal2.ogg
182,0,130344,128,0,130441:0:0:0:0:soft-hitnormal2.ogg
329,0,130344,128,0,130441:0:0:0:0:soft-hitnormal2.ogg
109,0,130441,128,0,130538:0:0:0:0:soft-hitnormal2.ogg
402,0,130441,128,0,130538:0:0:0:0:soft-hitnormal2.ogg
36,0,130538,128,0,130634:0:0:0:0:soft-hitnormal2.ogg
475,0,130538,128,0,130634:0:0:0:0:soft-hitnormal2.ogg
109,0,130634,128,0,130731:0:0:0:0:soft-hitnormal2.ogg
402,0,130634,128,0,130731:0:0:0:0:soft-hitnormal2.ogg
182,0,130731,128,0,130828:0:0:0:0:soft-hitnormal2.ogg
329,0,130731,128,0,130828:0:0:0:0:soft-hitnormal2.ogg
36,0,130828,128,0,130925:0:0:0:0:soft-hitnormal2.ogg
109,0,130828,128,0,130925:0:0:0:0:soft-hitnormal2.ogg
402,0,130828,128,0,130925:0:0:0:0:soft-hitnormal2.ogg
475,0,130828,128,0,130925:0:0:0:0:soft-hitnormal2.ogg
182,0,130925,128,0,131021:0:0:0:0:soft-hitnormal2.ogg
329,0,130925,128,0,131021:0:0:0:0:soft-hitnormal2.ogg
36,0,131021,128,0,131118:0:0:0:0:soft-hitnormal2.ogg
475,0,131021,128,0,131118:0:0:0:0:soft-hitnormal2.ogg
109,192,131118,1,0,0:0:0:0:soft-hitnormal2.ogg
182,192,131118,1,0,0:0:0:0:soft-hitnormal2.ogg
329,192,131118,1,0,0:0:0:0:soft-hitnormal2.ogg
402,192,131118,1,0,0:0:0:0:soft-hitnormal2.ogg
256,192,131215,1,0,0:0:0:0:soft-hitnormal2.ogg
109,192,131312,1,0,0:0:0:0:soft-hitnormal2.ogg
402,192,131312,1,0,0:0:0:0:soft-hitnormal2.ogg
256,192,131408,1,0,0:0:0:0:soft-hitnormal2.ogg
109,192,131505,1,0,0:0:0:0:soft-hitnormal2.ogg
182,192,131505,1,0,0:0:0:0:soft-hitnormal2.ogg
329,192,131505,1,0,0:0:0:0:soft-hitnormal2.ogg
402,192,131505,1,0,0:0:0:0:soft-hitnormal2.ogg
256,192,131602,1,0,0:0:0:0:soft-hitnormal2.ogg
36,192,131699,1,0,0:0:0:0:soft-hitnormal2.ogg
182,192,131699,1,0,0:0:0:0:soft-hitnormal2.ogg
329,192,131699,1,0,0:0:0:0:soft-hitnormal2.ogg
475,192,131699,1,0,0:0:0:0:soft-hitnormal2.ogg
256,192,131796,1,0,0:0:0:0:soft-hitnormal2.ogg
182,192,131892,1,0,0:0:0:0:soft-hitnormal2.ogg
329,192,131892,1,0,0:0:0:0:soft-hitnormal2.ogg
475,192,131892,1,0,0:0:0:0:soft-hitnormal2.ogg
109,192,131989,1,0,0:0:0:0:soft-hitnormal2.ogg
256,192,131989,1,0,0:0:0:0:soft-hitnormal2.ogg
402,192,131989,1,0,0:0:0:0:soft-hitnormal2.ogg
329,192,132086,1,0,0:0:0:0:soft-hitnormal2.ogg
182,192,132086,1,0,0:0:0:0:soft-hitnormal2.ogg
36,192,132086,1,0,0:0:0:0:soft-hitnormal2.ogg
256,192,132183,1,0,0:0:0:0:soft-hitnormal2.ogg
109,192,132183,1,0,0:0:0:0:soft-hitnormal2.ogg
402,192,132183,1,0,0:0:0:0:soft-hitnormal2.ogg
329,192,132279,1,0,0:0:0:0:soft-hitnormal2.ogg
182,192,132279,1,0,0:0:0:0:soft-hitnormal2.ogg
475,192,132279,1,0,0:0:0:0:soft-hitnormal2.ogg
36,192,132376,1,0,0:0:0:0:soft-hitnormal2.ogg
256,192,132376,1,0,0:0:0:0:soft-hitnormal2.ogg
402,192,132376,1,0,0:0:0:0:soft-hitnormal2.ogg
329,192,132473,1,0,0:0:0:0:soft-hitnormal2.ogg
475,192,132473,1,0,0:0:0:0:soft-hitnormal2.ogg
109,192,132473,1,0,0:0:0:0:soft-hitnormal2.ogg
36,192,132570,1,0,0:0:0:0:soft-hitnormal2.ogg
182,192,132570,1,0,0:0:0:0:soft-hitnormal2.ogg
402,192,132570,1,0,0:0:0:0:soft-hitnormal2.ogg
109,0,132667,128,0,132739:0:0:0:0:soft-hitnormal2.ogg
256,0,132667,128,0,132739:0:0:0:0:soft-hitnormal2.ogg
475,0,132667,128,0,132739:0:0:0:0:soft-hitnormal2.ogg
329,0,132667,128,0,134215:0:0:0:0:soft-hitnormal2.ogg
402,0,132763,128,0,132812:0:0:0:0:soft-hitnormal2.ogg
36,0,132860,128,0,133054:0:0:0:0:soft-hitnormal2.ogg
182,0,132860,128,0,132957:0:0:0:0:soft-hitnormal2.ogg
256,0,132860,128,0,132957:0:0:0:0:soft-hitnormal2.ogg
402,0,132957,128,0,133005:0:0:0:0:soft-hitnormal2.ogg
475,0,133054,128,0,133150:0:0:0:0:soft-hitnormal2.ogg
109,0,133054,128,0,133150:0:0:0:0:soft-hitnormal2.ogg
256,0,133150,128,0,133199:0:0:0:0:soft-hitnormal2.ogg
402,0,133247,128,0,133344:0:0:0:0:soft-hitnormal2.ogg
36,0,133247,128,0,133344:0:0:0:0:soft-hitnormal2.ogg
182,0,133247,128,0,133441:0:0:0:0:soft-hitnormal2.ogg
109,0,133344,128,0,133392:0:0:0:0:soft-hitnormal2.ogg
402,0,133441,128,0,133538:0:0:0:0:soft-hitnormal2.ogg
36,0,133441,128,0,133538:0:0:0:0:soft-hitnormal2.ogg
256,0,133538,128,0,133586:0:0:0:0:soft-hitnormal2.ogg
182,0,133634,128,0,133731:0:0:0:0:soft-hitnormal2.ogg
475,0,133634,128,0,133828:0:0:0:0:soft-hitnormal2.ogg
402,0,133634,128,0,133731:0:0:0:0:soft-hitnormal2.ogg
109,0,133731,128,0,133779:0:0:0:0:soft-hitnormal2.ogg
36,0,133828,128,0,134021:0:0:0:0:soft-hitnormal2.ogg
256,0,133828,128,0,133925:0:0:0:0:soft-hitnormal2.ogg
182,0,133828,128,0,133925:0:0:0:0:soft-hitnormal2.ogg
109,0,133925,128,0,133973:0:0:0:0:soft-hitnormal2.ogg
475,0,134021,128,0,134118:0:0:0:0:soft-hitnormal2.ogg
402,0,134021,128,0,134118:0:0:0:0:soft-hitnormal2.ogg
109,0,134118,128,0,134167:0:0:0:0:soft-hitnormal2.ogg
475,0,134215,128,0,134312:0:0:0:0:soft-hitnormal2.ogg
256,0,134215,128,0,135763:0:0:0:0:soft-hitnormal2.ogg
182,0,134215,128,0,134408:0:0:0:0:soft-hitnormal2.ogg
36,0,134215,128,0,134312:0:0:0:0:soft-hitnormal2.ogg
329,0,134312,128,0,134360:0:0:0:0:soft-hitnormal2.ogg
36,0,134408,128,0,134505:0:0:0:0:soft-hitnormal2.ogg
402,0,134408,128,0,134505:0:0:0:0:soft-hitnormal2.ogg
109,0,134505,128,0,134554:0:0:0:0:soft-hitnormal2.ogg
475,0,134602,128,0,134796:0:0:0:0:soft-hitnormal2.ogg
329,0,134602,128,0,134699:0:0:0:0:soft-hitnormal2.ogg
182,0,134602,128,0,134699:0:0:0:0:soft-hitnormal2.ogg
402,0,134699,128,0,134747:0:0:0:0:soft-hitnormal2.ogg
36,0,134796,128,0,134892:0:0:0:0:soft-hitnormal2.ogg
109,0,134796,128,0,134892:0:0:0:0:soft-hitnormal2.ogg
182,0,134892,128,0,134941:0:0:0:0:soft-hitnormal2.ogg
475,0,134989,128,0,135086:0:0:0:0:soft-hitnormal2.ogg
329,0,134989,128,0,135183:0:0:0:0:soft-hitnormal2.ogg
402,0,134989,128,0,135086:0:0:0:0:soft-hitnormal2.ogg
36,0,135086,128,0,135134:0:0:0:0:soft-hitnormal2.ogg
109,0,135183,128,0,135279:0:0:0:0:soft-hitnormal2.ogg
402,0,135183,128,0,135279:0:0:0:0:soft-hitnormal2.ogg
329,0,135279,128,0,135328:0:0:0:0:soft-hitnormal2.ogg
36,0,135376,128,0,135473:0:0:0:0:soft-hitnormal2.ogg
182,0,135376,128,0,135570:0:0:0:0:soft-hitnormal2.ogg
475,0,135376,128,0,135473:0:0:0:0:soft-hitnormal2.ogg
402,0,135473,128,0,135521:0:0:0:0:soft-hitnormal2.ogg
329,0,135570,128,0,135667:0:0:0:0:soft-hitnormal2.ogg
109,0,135570,128,0,135667:0:0:0:0:soft-hitnormal2.ogg
402,0,135667,128,0,135715:0:0:0:0:soft-hitnormal2.ogg
182,0,135763,128,0,137312:0:0:0:0:soft-hitnormal2.ogg
329,0,135763,128,0,135860:0:0:0:0:soft-hitnormal2.ogg
475,0,135763,128,0,135860:0:0:0:0:soft-hitnormal2.ogg
36,0,135763,128,0,135957:0:0:0:0:soft-hitnormal2.ogg
402,0,135860,128,0,135908:0:0:0:0:soft-hitnormal2.ogg
256,0,135957,128,0,136054:0:0:0:0:soft-hitnormal2.ogg
109,0,135957,128,0,136054:0:0:0:0:soft-hitnormal2.ogg
475,0,136054,128,0,136102:0:0:0:0:soft-hitnormal2.ogg
36,0,136150,128,0,136247:0:0:0:0:soft-hitnormal2.ogg
329,0,136150,128,0,136344:0:0:0:0:soft-hitnormal2.ogg
256,0,136150,128,0,136247:0:0:0:0:soft-hitnormal2.ogg
475,0,136247,128,0,136296:0:0:0:0:soft-hitnormal2.ogg
402,0,136344,128,0,136441:0:0:0:0:soft-hitnormal2.ogg
109,0,136344,128,0,136441:0:0:0:0:soft-hitnormal2.ogg
36,0,136441,128,0,136489:0:0:0:0:soft-hitnormal2.ogg
475,0,136538,128,0,136731:0:0:0:0:soft-hitnormal2.ogg
256,0,136538,128,0,136634:0:0:0:0:soft-hitnormal2.ogg
329,0,136538,128,0,136634:0:0:0:0:soft-hitnormal2.ogg
109,0,136634,128,0,136683:0:0:0:0:soft-hitnormal2.ogg
256,0,136731,128,0,136828:0:0:0:0:soft-hitnormal2.ogg
36,0,136731,128,0,136828:0:0:0:0:soft-hitnormal2.ogg
402,0,136828,128,0,136876:0:0:0:0:soft-hitnormal2.ogg
36,0,136925,128,0,137021:0:0:0:0:soft-hitnormal2.ogg
475,0,136925,128,0,137021:0:0:0:0:soft-hitnormal2.ogg
329,0,136925,128,0,137118:0:0:0:0:soft-hitnormal2.ogg
109,0,137021,128,0,137070:0:0:0:0:soft-hitnormal2.ogg
256,0,137118,128,0,137215:0:0:0:0:soft-hitnormal2.ogg
402,0,137118,128,0,137215:0:0:0:0:soft-hitnormal2.ogg
36,0,137215,128,0,137263:0:0:0:0:soft-hitnormal2.ogg
256,192,137312,1,0,0:0:0:0:soft-hitnormal2.ogg
475,0,137312,128,0,137408:0:0:0:0:soft-hitnormal2.ogg
182,192,137408,1,0,0:0:0:0:soft-hitnormal2.ogg
329,0,137408,128,0,137505:0:0:0:0:soft-hitnormal2.ogg
109,192,137505,1,0,0:0:0:0:soft-hitnormal2.ogg
402,0,137505,128,0,137602:0:0:0:0:soft-hitnormal2.ogg
36,192,137602,1,0,0:0:0:0:soft-hitnormal2.ogg
256,0,137602,128,0,137699:0:0:0:0:soft-hitnormal2.ogg
109,192,137699,1,0,0:0:0:0:soft-hitnormal2.ogg
329,0,137699,128,0,137796:0:0:0:0:soft-hitnormal2.ogg
36,192,137796,1,0,0:0:0:0:soft-hitnormal2.ogg
182,0,137796,128,0,137892:0:0:0:0:soft-hitnormal2.ogg
256,0,137892,128,0,137989:0:0:0:0:soft-hitnormal2.ogg
475,192,137892,1,0,0:0:0:0:soft-hitnormal2.ogg
109,0,137989,128,0,138086:0:0:0:0:soft-hitnormal2.ogg
402,192,137989,1,0,0:0:0:0:soft-hitnormal2.ogg
182,0,138086,128,0,138183:0:0:0:0:soft-hitnormal2.ogg
329,192,138086,1,0,0:0:0:0:soft-hitnormal2.ogg
36,0,138183,128,0,138279:0:0:0:0:soft-hitnormal2.ogg
256,192,138183,1,0,0:0:0:0:soft-hitnormal2.ogg
109,0,138279,128,0,138376:0:0:0:0:soft-hitnormal2.ogg
329,192,138279,1,0,0:0:0:0:soft-hitnormal2.ogg
182,0,138376,128,0,138473:0:0:0:0:soft-hitnormal2.ogg
402,192,138376,1,0,0:0:0:0:soft-hitnormal2.ogg
36,192,138473,1,0,0:0:0:0:soft-hitnormal2.ogg
256,0,138473,128,0,138570:0:0:0:0:soft-hitnormal2.ogg
475,192,138473,1,0,0:0:0:0:soft-hitnormal2.ogg
109,192,138570,1,0,0:0:0:0:soft-hitnormal2.ogg
329,0,138570,128,0,138667:0:0:0:0:soft-hitnormal2.ogg
182,192,138667,1,0,0:0:0:0:soft-hitnormal2.ogg
402,0,138667,128,0,138763:0:0:0:0:soft-hitnormal2.ogg
36,192,138763,1,0,0:0:0:0:soft-hitnormal2.ogg
256,192,138763,1,0,0:0:0:0:soft-hitnormal2.ogg
475,0,138763,128,0,138860:0:0:0:0:soft-hitnormal2.ogg
109,192,138860,1,0,0:0:0:0:soft-hitnormal2.ogg
329,192,138860,1,0,0:0:0:0:soft-hitnormal2.ogg
182,192,138957,1,0,0:0:0:0:soft-hitnormal2.ogg
402,192,138957,1,0,0:0:0:0:soft-hitnormal2.ogg
36,192,139054,1,0,0:0:0:0:soft-hitnormal2.ogg
256,192,139054,1,0,0:0:0:0:soft-hitnormal2.ogg
109,192,139150,1,0,0:0:0:0:soft-hitnormal2.ogg
402,192,139150,1,0,0:0:0:0:soft-hitnormal2.ogg
182,192,139247,1,0,0:0:0:0:soft-hitnormal2.ogg
329,192,139247,1,0,0:0:0:0:soft-hitnormal2.ogg
475,192,139247,1,0,0:0:0:0:soft-hitnormal2.ogg
36,192,139344,1,0,0:0:0:0:soft-hitnormal2.ogg
402,192,139344,1,0,0:0:0:0:soft-hitnormal2.ogg
109,192,139441,1,0,0:0:0:0:soft-hitnormal2.ogg
256,192,139441,1,0,0:0:0:0:soft-hitnormal2.ogg
475,192,139441,1,0,0:0:0:0:soft-hitnormal2.ogg
182,192,139538,1,0,0:0:0:0:soft-hitnormal2.ogg
329,192,139538,1,0,0:0:0:0:soft-hitnormal2.ogg
36,192,139634,1,0,0:0:0:0:soft-hitnormal2.ogg
402,192,139634,1,0,0:0:0:0:soft-hitnormal2.ogg
475,192,139634,1,0,0:0:0:0:soft-hitnormal2.ogg
182,192,139731,1,0,0:0:0:0:soft-hitnormal2.ogg
36,192,139828,1,0,0:0:0:0:soft-hitnormal2.ogg
256,192,139828,1,0,0:0:0:0:soft-hitnormal2.ogg
475,192,139828,1,0,0:0:0:0:soft-hitnormal2.ogg
109,192,139925,1,0,0:0:0:0:soft-hitnormal2.ogg
182,192,139925,1,0,0:0:0:0:soft-hitnormal2.ogg
402,192,139925,1,0,0:0:0:0:soft-hitnormal2.ogg
36,192,140021,1,0,0:0:0:0:soft-hitnormal2.ogg
329,192,140021,1,0,0:0:0:0:soft-hitnormal2.ogg
256,192,140118,1,0,0:0:0:0:soft-hitnormal2.ogg
475,192,140118,1,0,0:0:0:0:soft-hitnormal2.ogg
109,192,140215,1,0,0:0:0:0:soft-hitnormal2.ogg
182,192,140215,1,0,0:0:0:0:soft-hitnormal2.ogg
402,192,140215,1,0,0:0:0:0:soft-hitnormal2.ogg
36,192,140312,1,0,0:0:0:0:soft-hitnormal2.ogg
329,192,140312,1,0,0:0:0:0:soft-hitnormal2.ogg
109,192,140408,1,0,0:0:0:0:soft-hitnormal2.ogg
256,192,140408,1,0,0:0:0:0:soft-hitnormal2.ogg
475,0,140408,128,0,141957:0:0:0:0:soft-hitnormal2.ogg
182,192,140505,1,0,0:0:0:0:soft-hitnormal2.ogg
329,192,140505,1,0,0:0:0:0:soft-hitnormal2.ogg
256,192,140602,1,0,0:0:0:0:soft-hitnormal2.ogg
402,192,140602,1,0,0:0:0:0:soft-hitnormal2.ogg
182,192,140699,1,0,0:0:0:0:soft-hitnormal2.ogg
329,192,140699,1,0,0:0:0:0:soft-hitnormal2.ogg
109,192,140796,1,0,0:0:0:0:soft-hitnormal2.ogg
256,192,140796,1,0,0:0:0:0:soft-hitnormal2.ogg
36,192,140892,1,0,0:0:0:0:soft-hitnormal2.ogg
182,192,140892,1,0,0:0:0:0:soft-hitnormal2.ogg
109,192,140989,1,0,0:0:0:0:soft-hitnormal2.ogg
256,192,140989,1,0,0:0:0:0:soft-hitnormal2.ogg
182,192,141086,1,0,0:0:0:0:soft-hitnormal2.ogg
329,192,141086,1,0,0:0:0:0:soft-hitnormal2.ogg
36,192,141183,1,0,0:0:0:0:soft-hitnormal2.ogg
109,0,141183,128,0,141279:0:0:0:0:soft-hitnormal2.ogg
256,192,141183,1,0,0:0:0:0:soft-hitnormal2.ogg
402,0,141183,128,0,142731:0:0:0:0:soft-hitnormal2.ogg
182,192,141279,1,0,0:0:0:0:soft-hitnormal2.ogg
329,192,141279,1,0,0:0:0:0:soft-hitnormal2.ogg
36,192,141376,1,0,0:0:0:0:soft-hitnormal2.ogg
256,0,141376,128,0,141473:0:0:0:0:soft-hitnormal2.ogg
182,192,141473,1,0,0:0:0:0:soft-hitnormal2.ogg
109,0,141570,128,0,141667:0:0:0:0:soft-hitnormal2.ogg
329,192,141570,1,0,0:0:0:0:soft-hitnormal2.ogg
36,192,141667,1,0,0:0:0:0:soft-hitnormal2.ogg
182,192,141667,1,0,0:0:0:0:soft-hitnormal2.ogg
256,0,141763,128,0,141860:0:0:0:0:soft-hitnormal2.ogg
109,192,141860,1,0,0:0:0:0:soft-hitnormal2.ogg
182,192,141860,1,0,0:0:0:0:soft-hitnormal2.ogg
36,0,141957,128,0,142054:0:0:0:0:soft-hitnormal2.ogg
256,192,141957,1,0,0:0:0:0:soft-hitnormal2.ogg
329,0,141957,128,0,143505:0:0:0:0:soft-hitnormal2.ogg
109,192,142054,1,0,0:0:0:0:soft-hitnormal2.ogg
182,0,142150,128,0,142247:0:0:0:0:soft-hitnormal2.ogg
475,192,142150,1,0,0:0:0:0:soft-hitnormal2.ogg
256,192,142247,1,0,0:0:0:0:soft-hitnormal2.ogg
36,0,142344,128,0,142441:0:0:0:0:soft-hitnormal2.ogg
109,192,142344,1,0,0:0:0:0:soft-hitnormal2.ogg
256,192,142441,1,0,0:0:0:0:soft-hitnormal2.ogg
36,192,142538,1,0,0:0:0:0:soft-hitnormal2.ogg
182,0,142538,128,0,142634:0:0:0:0:soft-hitnormal2.ogg
109,192,142634,1,0,0:0:0:0:soft-hitnormal2.ogg
475,192,142634,1,0,0:0:0:0:soft-hitnormal2.ogg
36,0,142731,128,0,142828:0:0:0:0:soft-hitnormal2.ogg
182,192,142731,1,0,0:0:0:0:soft-hitnormal2.ogg
256,0,142731,128,0,144279:0:0:0:0:soft-hitnormal2.ogg
475,192,142828,1,0,0:0:0:0:soft-hitnormal2.ogg
109,0,142925,128,0,143021:0:0:0:0:soft-hitnormal2.ogg
402,192,143021,1,0,0:0:0:0:soft-hitnormal2.ogg
36,0,143118,128,0,143215:0:0:0:0:soft-hitnormal2.ogg
182,192,143118,1,0,0:0:0:0:soft-hitnormal2.ogg
475,192,143215,1,0,0:0:0:0:soft-hitnormal2.ogg
109,0,143312,128,0,143408:0:0:0:0:soft-hitnormal2.ogg
402,192,143312,1,0,0:0:0:0:soft-hitnormal2.ogg
182,192,143408,1,0,0:0:0:0:soft-hitnormal2.ogg
36,192,143505,1,0,0:0:0:0:soft-hitnormal2.ogg
109,192,143505,1,0,0:0:0:0:soft-hitnormal2.ogg
402,192,143505,1,0,0:0:0:0:soft-hitnormal2.ogg
475,192,143505,1,0,0:0:0:0:soft-hitnormal2.ogg
182,192,143602,1,0,0:0:0:0:soft-hitnormal2.ogg
329,192,143602,1,0,0:0:0:0:soft-hitnormal2.ogg
36,192,143699,1,0,0:0:0:0:soft-hitnormal2.ogg
109,192,143699,1,0,0:0:0:0:soft-hitnormal2.ogg
402,192,143699,1,0,0:0:0:0:soft-hitnormal2.ogg
475,192,143699,1,0,0:0:0:0:soft-hitnormal2.ogg
182,192,143796,1,0,0:0:0:0:soft-hitnormal2.ogg
329,192,143796,1,0,0:0:0:0:soft-hitnormal2.ogg
36,192,143892,1,0,0:0:0:0:soft-hitnormal2.ogg
109,192,143892,1,0,0:0:0:0:soft-hitnormal2.ogg
402,192,143892,1,0,0:0:0:0:soft-hitnormal2.ogg
475,192,143892,1,0,0:0:0:0:soft-hitnormal2.ogg
182,192,143989,1,0,0:0:0:0:soft-hitnormal2.ogg
329,192,143989,1,0,0:0:0:0:soft-hitnormal2.ogg
36,192,144086,1,0,0:0:0:0:soft-hitnormal2.ogg
109,192,144086,1,0,0:0:0:0:soft-hitnormal2.ogg
402,192,144086,1,0,0:0:0:0:soft-hitnormal2.ogg
475,192,144086,1,0,0:0:0:0:soft-hitnormal2.ogg
182,192,144183,1,0,0:0:0:0:soft-hitnormal2.ogg
329,192,144183,1,0,0:0:0:0:soft-hitnormal2.ogg
36,192,144279,1,0,0:0:0:0:soft-hitnormal2.ogg
109,192,144279,1,0,0:0:0:0:soft-hitnormal2.ogg
402,192,144279,1,0,0:0:0:0:soft-hitnormal2.ogg
475,192,144279,1,0,0:0:0:0:soft-hitnormal2.ogg
109,192,144376,1,0,0:0:0:0:soft-hitnormal2.ogg
182,192,144376,1,0,0:0:0:0:soft-hitnormal2.ogg
329,192,144376,1,0,0:0:0:0:soft-hitnormal2.ogg
402,192,144376,1,0,0:0:0:0:soft-hitnormal2.ogg
402,192,144473,1,0,0:0:0:0:soft-hitnormal2.ogg
475,192,144473,1,0,0:0:0:0:soft-hitnormal2.ogg
109,192,144473,1,0,0:0:0:0:soft-hitnormal2.ogg
36,192,144473,1,0,0:0:0:0:soft-hitnormal2.ogg
182,192,144569,1,0,0:0:0:0:soft-hitnormal2.ogg
329,192,144569,1,0,0:0:0:0:soft-hitnormal2.ogg
256,192,144666,1,0,0:0:0:0:soft-hitnormal2.ogg
256,192,144762,1,0,0:0:0:0:soft-hitnormal2.ogg
182,192,144859,1,0,0:0:0:0:soft-hitnormal2.ogg
329,192,144859,1,0,0:0:0:0:soft-hitnormal2.ogg
109,192,144956,1,0,0:0:0:0:soft-hitnormal2.ogg
402,192,144956,1,0,0:0:0:0:soft-hitnormal2.ogg
36,0,145053,128,0,145803:0:0:0:0:soft-hitnormal2.ogg
256,192,145053,1,0,0:0:0:0:soft-hitnormal2.ogg
475,192,145053,1,0,0:0:0:0:soft-hitnormal2.ogg
182,192,145246,1,0,0:0:0:0:soft-hitnormal2.ogg
109,192,145440,1,0,0:0:0:0:soft-hitnormal2.ogg
329,0,145440,128,0,145633:0:0:0:0:soft-hitnormal2.ogg
475,192,145440,1,0,0:0:0:0:soft-hitnormal2.ogg
182,192,145633,1,0,0:0:0:0:soft-hitnormal2.ogg
256,0,145633,128,0,146020:0:0:0:0:soft-hitnormal2.ogg
329,192,145827,1,0,0:0:0:0:soft-hitnormal2.ogg
475,192,145827,1,0,0:0:0:0:soft-hitnormal2.ogg
109,0,146020,128,0,146407:0:0:0:0:soft-hitnormal2.ogg
182,192,146020,1,0,0:0:0:0:soft-hitnormal2.ogg
256,192,146214,1,0,0:0:0:0:soft-hitnormal2.ogg
475,192,146214,1,0,0:0:0:0:soft-hitnormal2.ogg
182,0,146214,128,0,147375:0:0:0:0:soft-hitnormal2.ogg
329,192,146407,1,0,0:0:0:0:soft-hitnormal2.ogg
36,0,146407,128,0,146988:0:0:0:0:soft-hitnormal2.ogg
402,192,146601,1,0,0:0:0:0:soft-hitnormal2.ogg
475,192,146601,1,0,0:0:0:0:soft-hitnormal2.ogg
256,0,146794,128,0,147762:0:0:0:0:soft-hitnormal2.ogg
329,192,146794,1,0,0:0:0:0:soft-hitnormal2.ogg
109,0,146988,128,0,147375:0:0:0:0:soft-hitnormal2.ogg
402,192,146988,1,0,0:0:0:0:soft-hitnormal2.ogg
475,192,146988,1,0,0:0:0:0:soft-hitnormal2.ogg
329,192,147182,1,0,0:0:0:0:soft-hitnormal2.ogg
36,0,147182,128,0,148149:0:0:0:0:soft-hitnormal2.ogg
402,192,147375,1,0,0:0:0:0:soft-hitnormal2.ogg
475,192,147375,1,0,0:0:0:0:soft-hitnormal2.ogg
329,192,147569,1,0,0:0:0:0:soft-hitnormal2.ogg
182,0,147762,128,0,147956:0:0:0:0:soft-hitnormal2.ogg
402,192,147762,1,0,0:0:0:0:soft-hitnormal2.ogg
475,192,147762,1,0,0:0:0:0:soft-hitnormal2.ogg
256,0,147956,128,0,148149:0:0:0:0:soft-hitnormal2.ogg
329,0,148149,128,0,148198:0:0:0:0:soft-hitnormal2.ogg
475,0,148149,128,0,148198:0:0:0:0:soft-hitnormal2.ogg
36,0,148343,128,0,148391:0:0:0:0:soft-hitnormal2.ogg
182,0,148343,128,0,148391:0:0:0:0:soft-hitnormal2.ogg
256,192,148343,1,0,0:0:0:0:soft-hitnormal2.ogg
402,192,148440,1,0,0:0:0:0:soft-hitnormal2.ogg
329,0,148536,128,0,148585:0:0:0:0:soft-hitnormal2.ogg
475,0,148536,128,0,148585:0:0:0:0:soft-hitnormal2.ogg
36,0,148730,128,0,148778:0:0:0:0:soft-hitnormal2.ogg
182,0,148730,128,0,148778:0:0:0:0:soft-hitnormal2.ogg
256,192,148827,1,0,0:0:0:0:soft-hitnormal2.ogg
109,192,148923,1,0,0:0:0:0:soft-hitnormal2.ogg
329,0,148923,128,0,148972:0:0:0:0:soft-hitnormal2.ogg
475,0,148923,128,0,148972:0:0:0:0:soft-hitnormal2.ogg
256,0,149117,128,0,149165:0:0:0:0:soft-hitnormal2.ogg
402,0,149117,128,0,149165:0:0:0:0:soft-hitnormal2.ogg
475,192,149214,1,0,0:0:0:0:soft-hitnormal2.ogg
36,192,149311,1,0,0:0:0:0:soft-hitnormal2.ogg
182,0,149311,128,0,149359:0:0:0:0:soft-hitnormal2.ogg
329,0,149311,128,0,149359:0:0:0:0:soft-hitnormal2.ogg
109,0,149504,128,0,149553:0:0:0:0:soft-hitnormal2.ogg
256,0,149504,128,0,149553:0:0:0:0:soft-hitnormal2.ogg
402,192,149601,1,0,0:0:0:0:soft-hitnormal2.ogg
36,0,149698,128,0,150278:0:0:0:0:soft-hitnormal2.ogg
182,0,149698,128,0,149891:0:0:0:0:soft-hitnormal2.ogg
329,192,149698,1,0,0:0:0:0:soft-hitnormal2.ogg
109,0,149891,128,0,150859:0:0:0:0:soft-hitnormal2.ogg
475,192,149891,1,0,0:0:0:0:soft-hitnormal2.ogg
182,0,150085,128,0,150472:0:0:0:0:soft-hitnormal2.ogg
329,192,150085,1,0,0:0:0:0:soft-hitnormal2.ogg
402,192,150085,1,0,0:0:0:0:soft-hitnormal2.ogg
256,192,150278,1,0,0:0:0:0:soft-hitnormal2.ogg
329,192,150278,1,0,0:0:0:0:soft-hitnormal2.ogg
402,192,150278,1,0,0:0:0:0:soft-hitnormal2.ogg
475,192,150278,1,0,0:0:0:0:soft-hitnormal2.ogg
36,0,150472,128,0,151246:0:0:0:0:soft-hitnormal2.ogg
402,192,150665,1,0,0:0:0:0:soft-hitnormal2.ogg
182,192,150859,1,0,0:0:0:0:soft-hitnormal2.ogg
256,192,150859,1,0,0:0:0:0:soft-hitnormal2.ogg
182,192,151053,1,0,0:0:0:0:soft-hitnormal2.ogg
329,0,151053,128,0,151101:0:0:0:0:soft-hitnormal2.ogg
402,0,151149,128,0,151198:0:0:0:0:soft-hitnormal2.ogg
182,192,151246,1,0,0:0:0:0:soft-hitnormal2.ogg
475,0,151246,128,0,151294:0:0:0:0:soft-hitnormal2.ogg
256,192,151440,1,0,0:0:0:0:soft-hitnormal2.ogg
329,0,151536,128,0,151585:0:0:0:0:soft-hitnormal2.ogg
36,192,151633,1,0,0:0:0:0:soft-hitnormal2.ogg
182,192,151633,1,0,0:0:0:0:soft-hitnormal2.ogg
256,192,151827,1,0,0:0:0:0:soft-hitnormal2.ogg
402,0,151827,128,0,151875:0:0:0:0:soft-hitnormal2.ogg
109,192,152020,1,0,0:0:0:0:soft-hitnormal2.ogg
182,192,152020,1,0,0:0:0:0:soft-hitnormal2.ogg
475,0,152020,128,0,152069:0:0:0:0:soft-hitnormal2.ogg
256,192,152214,1,0,0:0:0:0:soft-hitnormal2.ogg
402,0,152311,128,0,152359:0:0:0:0:soft-hitnormal2.ogg
36,192,152407,1,0,0:0:0:0:soft-hitnormal2.ogg
109,192,152407,1,0,0:0:0:0:soft-hitnormal2.ogg
182,0,152601,128,0,152649:0:0:0:0:soft-hitnormal2.ogg
256,192,152601,1,0,0:0:0:0:soft-hitnormal2.ogg
36,0,152794,128,0,152843:0:0:0:0:soft-hitnormal2.ogg
329,192,152794,1,0,0:0:0:0:soft-hitnormal2.ogg
402,192,152794,1,0,0:0:0:0:soft-hitnormal2.ogg
256,192,152988,1,0,0:0:0:0:soft-hitnormal2.ogg
109,0,153085,128,0,153133:0:0:0:0:soft-hitnormal2.ogg
402,192,153182,1,0,0:0:0:0:soft-hitnormal2.ogg
475,192,153182,1,0,0:0:0:0:soft-hitnormal2.ogg
182,0,153375,128,0,153423:0:0:0:0:soft-hitnormal2.ogg
256,192,153375,1,0,0:0:0:0:soft-hitnormal2.ogg
109,0,153569,128,0,153714:0:0:0:0:soft-hitnormal2.ogg
329,192,153569,1,0,0:0:0:0:soft-hitnormal2.ogg
402,192,153569,1,0,0:0:0:0:soft-hitnormal2.ogg
256,192,153762,1,0,0:0:0:0:soft-hitnormal2.ogg
109,0,153859,128,0,153907:0:0:0:0:soft-hitnormal2.ogg
329,192,153956,1,0,0:0:0:0:soft-hitnormal2.ogg
475,192,153956,1,0,0:0:0:0:soft-hitnormal2.ogg
36,0,154149,128,0,154198:0:0:0:0:soft-hitnormal2.ogg
256,192,154149,1,0,0:0:0:0:soft-hitnormal2.ogg
109,0,154246,128,0,154294:0:0:0:0:soft-hitnormal2.ogg
36,192,154343,1,0,0:0:0:0:soft-hitnormal2.ogg
182,0,154343,128,0,155843:0:0:0:0:soft-hitnormal2.ogg
329,192,154343,1,0,0:0:0:0:soft-hitnormal2.ogg
475,192,154343,1,0,0:0:0:0:soft-hitnormal2.ogg
329,192,154633,1,0,0:0:0:0:soft-hitnormal2.ogg
109,192,154730,1,0,0:0:0:0:soft-hitnormal2.ogg
256,192,154730,1,0,0:0:0:0:soft-hitnormal2.ogg
329,192,154730,1,0,0:0:0:0:soft-hitnormal2.ogg
402,192,154730,1,0,0:0:0:0:soft-hitnormal2.ogg
256,192,154923,1,0,0:0:0:0:soft-hitnormal2.ogg
109,192,155117,1,0,0:0:0:0:soft-hitnormal2.ogg
256,192,155117,1,0,0:0:0:0:soft-hitnormal2.ogg
402,192,155117,1,0,0:0:0:0:soft-hitnormal2.ogg
256,192,155407,1,0,0:0:0:0:soft-hitnormal2.ogg
256,192,155698,1,0,0:0:0:0:soft-hitnormal2.ogg
182,0,155891,128,0,155940:0:0:0:0:soft-hitnormal2.ogg
256,0,155891,128,0,155940:0:0:0:0:soft-hitnormal2.ogg
329,0,155891,128,0,155940:0:0:0:0:soft-hitnormal2.ogg
36,0,156085,128,0,156133:0:0:0:0:soft-hitnormal2.ogg
475,0,156085,128,0,156133:0:0:0:0:soft-hitnormal2.ogg
109,0,156278,128,0,156327:0:0:0:0:soft-hitnormal2.ogg
402,0,156278,128,0,156327:0:0:0:0:soft-hitnormal2.ogg
182,0,156375,128,0,156423:0:0:0:0:soft-hitnormal2.ogg
329,0,156375,128,0,156423:0:0:0:0:soft-hitnormal2.ogg
256,0,156569,128,0,157440:0:0:0:0:soft-hitnormal2.ogg
36,0,157440,128,0,158890:0:0:0:0:soft-hitnormal2.ogg
109,0,157440,128,0,158890:0:0:0:0:soft-hitnormal2.ogg
402,0,157440,128,0,158890:0:0:0:0:soft-hitnormal2.ogg
475,0,157440,128,0,158890:0:0:0:0:soft-hitnormal2.ogg
256,192,158214,1,0,0:0:0:0:soft-hitnormal2.ogg
182,192,158310,1,0,0:0:0:0:soft-hitnormal2.ogg
256,192,158310,1,0,0:0:0:0:soft-hitnormal2.ogg
329,192,158310,1,0,0:0:0:0:soft-hitnormal2.ogg
256,192,158504,1,0,0:0:0:0:soft-hitnormal2.ogg
182,192,158697,1,0,0:0:0:0:soft-hitnormal2.ogg
329,192,158697,1,0,0:0:0:0:soft-hitnormal2.ogg
256,192,158793,1,0,0:0:0:0:soft-hitnormal2.ogg
182,192,158890,1,0,0:0:0:0:soft-hitnormal2.ogg
329,192,158890,1,0,0:0:0:0:soft-hitnormal2.ogg
36,0,158987,128,0,159036:0:0:0:0:soft-hitnormal2.ogg
109,0,158987,128,0,159229:0:0:0:0:soft-hitnormal2.ogg
182,0,158987,128,0,159423:0:0:0:0:soft-hitnormal2.ogg
256,0,158987,128,0,159617:0:0:0:0:soft-hitnormal2.ogg
329,0,158987,128,0,160004:0:0:0:0:soft-hitnormal2.ogg
402,0,158987,128,0,160391:0:0:0:0:soft-hitnormal2.ogg
475,0,158987,128,0,161165:0:0:0:0:soft-hitnormal2.ogg
36,192,159181,1,0,0:0:0:0:soft-hitnormal2.ogg
109,192,159375,1,0,0:0:0:0:soft-hitnormal2.ogg
182,192,159568,1,0,0:0:0:0:soft-hitnormal2.ogg
256,192,159762,1,0,0:0:0:0:soft-hitnormal2.ogg
329,192,160149,1,0,0:0:0:0:soft-hitnormal2.ogg
402,0,160536,128,0,161939:0:0:0:0:soft-hitnormal2.ogg
329,0,160729,128,0,161939:0:0:0:0:soft-hitnormal2.ogg
256,0,160923,128,0,161939:0:0:0:0:soft-hitnormal2.ogg
182,0,161117,128,0,161939:0:0:0:0:soft-hitnormal2.ogg
475,192,161310,1,0,0:0:0:0:soft-hitnormal2.ogg
36,192,161697,1,0,0:0:0:0:soft-hitnormal2.ogg
36,0,162084,128,0,164262:0:0:0:0:soft-hitnormal2.ogg
109,0,162084,128,0,163488:0:0:0:0:soft-hitnormal2.ogg
182,0,162084,128,0,163100:0:0:0:0:soft-hitnormal2.ogg
256,0,162084,128,0,163100:0:0:0:0:soft-hitnormal2.ogg
329,0,162084,128,0,162520:0:0:0:0:soft-hitnormal2.ogg
402,0,162084,128,0,162326:0:0:0:0:soft-hitnormal2.ogg
475,0,162084,128,0,162133:0:0:0:0:soft-hitnormal2.ogg
475,192,162278,1,0,0:0:0:0:soft-hitnormal2.ogg
402,192,162471,1,0,0:0:0:0:soft-hitnormal2.ogg
329,192,162665,1,0,0:0:0:0:soft-hitnormal2.ogg
182,0,163246,128,0,165036:0:0:0:0:soft-hitnormal2.ogg
256,0,163246,128,0,165036:0:0:0:0:soft-hitnormal2.ogg
109,0,163633,128,0,164068:0:0:0:0:soft-hitnormal2.ogg
109,192,164213,1,0,0:0:0:0:soft-hitnormal2.ogg
36,192,164407,1,0,0:0:0:0:soft-hitnormal2.ogg
402,192,164794,1,0,0:0:0:0:soft-hitnormal2.ogg
36,0,165181,128,0,165229:0:0:0:0:soft-hitnormal2.ogg
109,0,165181,128,0,168133:0:0:0:0:soft-hitnormal2.ogg
182,0,165181,128,0,167165:0:0:0:0:soft-hitnormal2.ogg
256,0,165181,128,0,166197:0:0:0:0:soft-hitnormal2.ogg
329,0,165181,128,0,166197:0:0:0:0:soft-hitnormal2.ogg
402,0,165181,128,0,165617:0:0:0:0:soft-hitnormal2.ogg
475,0,165181,128,0,165423:0:0:0:0:soft-hitnormal2.ogg
36,192,165375,1,0,0:0:0:0:soft-hitnormal2.ogg
475,192,165568,1,0,0:0:0:0:soft-hitnormal2.ogg
402,192,165762,1,0,0:0:0:0:soft-hitnormal2.ogg
329,192,166342,1,0,0:0:0:0:soft-hitnormal2.ogg
36,0,166729,128,0,168133:0:0:0:0:soft-hitnormal2.ogg
256,0,166729,128,0,166778:0:0:0:0:soft-hitnormal2.ogg
329,0,166729,128,0,166971:0:0:0:0:soft-hitnormal2.ogg
402,0,166729,128,0,167165:0:0:0:0:soft-hitnormal2.ogg
475,0,166729,128,0,167746:0:0:0:0:soft-hitnormal2.ogg
256,192,166923,1,0,0:0:0:0:soft-hitnormal2.ogg
329,192,167117,1,0,0:0:0:0:soft-hitnormal2.ogg
182,0,167310,128,0,168133:0:0:0:0:soft-hitnormal2.ogg
402,0,167310,128,0,168133:0:0:0:0:soft-hitnormal2.ogg
475,192,167891,1,0,0:0:0:0:soft-hitnormal2.ogg
36,0,168278,128,0,168520:0:0:0:0:soft-hitnormal2.ogg
109,0,168278,128,0,168713:0:0:0:0:soft-hitnormal2.ogg
182,0,168278,128,0,169681:0:0:0:0:soft-hitnormal2.ogg
256,0,168278,128,0,171036:0:0:0:0:soft-hitnormal2.ogg
402,0,168278,128,0,171229:0:0:0:0:soft-hitnormal2.ogg
475,0,168278,128,0,168326:0:0:0:0:soft-hitnormal2.ogg
475,192,168471,1,0,0:0:0:0:soft-hitnormal2.ogg
36,192,168665,1,0,0:0:0:0:soft-hitnormal2.ogg
109,192,168858,1,0,0:0:0:0:soft-hitnormal2.ogg
329,0,169439,128,0,171229:0:0:0:0:soft-hitnormal2.ogg
182,0,169826,128,0,170842:0:0:0:0:soft-hitnormal2.ogg
109,0,170020,128,0,170649:0:0:0:0:soft-hitnormal2.ogg
36,192,170213,1,0,0:0:0:0:soft-hitnormal2.ogg
475,0,170407,128,0,171373:0:0:0:0:soft-hitnormal2.ogg
36,0,170600,128,0,170649:0:0:0:0:soft-hitnormal2.ogg
109,0,170794,128,0,170842:0:0:0:0:soft-hitnormal2.ogg
182,0,170988,128,0,171036:0:0:0:0:soft-hitnormal2.ogg
256,0,171181,128,0,171229:0:0:0:0:soft-hitnormal2.ogg
182,192,171373,1,0,0:0:0:0:soft-hitnormal2.ogg
402,192,171373,1,0,0:0:0:0:soft-hitnormal2.ogg
329,192,171373,1,0,0:0:0:0:soft-hitnormal2.ogg
109,192,171373,1,0,0:0:0:0:soft-hitnormal2.ogg
36,192,171566,1,0,0:0:0:0:soft-hitnormal2.ogg
256,192,171566,1,0,0:0:0:0:soft-hitnormal2.ogg
36,192,171663,1,0,0:0:0:0:soft-hitnormal2.ogg
36,192,171760,1,0,0:0:0:0:soft-hitnormal2.ogg
109,192,171760,1,0,0:0:0:0:soft-hitnormal2.ogg
402,192,171760,1,0,0:0:0:0:soft-hitnormal2.ogg
182,192,171953,1,0,0:0:0:0:soft-hitnormal2.ogg
256,192,171953,1,0,0:0:0:0:soft-hitnormal2.ogg
182,192,172050,1,0,0:0:0:0:soft-hitnormal2.ogg
109,192,172147,1,0,0:0:0:0:soft-hitnormal2.ogg
182,192,172147,1,0,0:0:0:0:soft-hitnormal2.ogg
402,192,172147,1,0,0:0:0:0:soft-hitnormal2.ogg
256,192,172340,1,0,0:0:0:0:soft-hitnormal2.ogg
329,192,172340,1,0,0:0:0:0:soft-hitnormal2.ogg
329,192,172437,1,0,0:0:0:0:soft-hitnormal2.ogg
109,192,172534,1,0,0:0:0:0:soft-hitnormal2.ogg
329,192,172534,1,0,0:0:0:0:soft-hitnormal2.ogg
402,192,172534,1,0,0:0:0:0:soft-hitnormal2.ogg
256,192,172727,1,0,0:0:0:0:soft-hitnormal2.ogg
475,192,172727,1,0,0:0:0:0:soft-hitnormal2.ogg
475,192,172824,1,0,0:0:0:0:soft-hitnormal2.ogg
36,192,172921,1,0,0:0:0:0:soft-hitnormal2.ogg
182,192,172921,1,0,0:0:0:0:soft-hitnormal2.ogg
475,192,172921,1,0,0:0:0:0:soft-hitnormal2.ogg
256,192,173114,1,0,0:0:0:0:soft-hitnormal2.ogg
402,192,173114,1,0,0:0:0:0:soft-hitnormal2.ogg
402,192,173211,1,0,0:0:0:0:soft-hitnormal2.ogg
36,192,173308,1,0,0:0:0:0:soft-hitnormal2.ogg
182,192,173308,1,0,0:0:0:0:soft-hitnormal2.ogg
402,192,173308,1,0,0:0:0:0:soft-hitnormal2.ogg
256,192,173502,1,0,0:0:0:0:soft-hitnormal2.ogg
329,192,173502,1,0,0:0:0:0:soft-hitnormal2.ogg
329,192,173598,1,0,0:0:0:0:soft-hitnormal2.ogg
36,192,173695,1,0,0:0:0:0:soft-hitnormal2.ogg
182,192,173695,1,0,0:0:0:0:soft-hitnormal2.ogg
329,192,173695,1,0,0:0:0:0:soft-hitnormal2.ogg
182,192,173889,1,0,0:0:0:0:soft-hitnormal2.ogg
256,192,173889,1,0,0:0:0:0:soft-hitnormal2.ogg
182,192,173985,1,0,0:0:0:0:soft-hitnormal2.ogg
182,192,174082,1,0,0:0:0:0:soft-hitnormal2.ogg
329,192,174082,1,0,0:0:0:0:soft-hitnormal2.ogg
475,192,174082,1,0,0:0:0:0:soft-hitnormal2.ogg
109,192,174276,1,0,0:0:0:0:soft-hitnormal2.ogg
256,192,174276,1,0,0:0:0:0:soft-hitnormal2.ogg
109,192,174373,1,0,0:0:0:0:soft-hitnormal2.ogg
109,192,174469,1,0,0:0:0:0:soft-hitnormal2.ogg
329,0,174469,128,0,174663:0:0:0:0:soft-hitnormal2.ogg
475,192,174469,1,0,0:0:0:0:soft-hitnormal2.ogg
256,0,174663,128,0,174856:0:0:0:0:soft-hitnormal2.ogg
36,192,174856,1,0,0:0:0:0:soft-hitnormal2.ogg
182,0,174856,128,0,175050:0:0:0:0:soft-hitnormal2.ogg
256,0,175050,128,0,175243:0:0:0:0:soft-hitnormal2.ogg
36,192,175243,1,0,0:0:0:0:soft-hitnormal2.ogg
182,0,175243,128,0,175437:0:0:0:0:soft-hitnormal2.ogg
256,0,175437,128,0,175631:0:0:0:0:soft-hitnormal2.ogg
329,0,175631,128,0,175824:0:0:0:0:soft-hitnormal2.ogg
475,192,175631,1,0,0:0:0:0:soft-hitnormal2.ogg
256,0,175824,128,0,176018:0:0:0:0:soft-hitnormal2.ogg
475,192,176018,1,0,0:0:0:0:soft-hitnormal2.ogg
182,192,176018,1,0,0:0:0:0:soft-hitnormal2.ogg
36,192,176018,1,0,0:0:0:0:soft-hitnormal2.ogg
329,192,176018,1,0,0:0:0:0:soft-hitnormal2.ogg
109,192,176211,1,0,0:0:0:0:soft-hitnormal2.ogg
182,192,176405,1,0,0:0:0:0:soft-hitnormal2.ogg
402,192,176598,1,0,0:0:0:0:soft-hitnormal2.ogg
182,192,176792,1,0,0:0:0:0:soft-hitnormal2.ogg
256,192,176792,1,0,0:0:0:0:soft-hitnormal2.ogg
329,192,176792,1,0,0:0:0:0:soft-hitnormal2.ogg
475,192,176985,1,0,0:0:0:0:soft-hitnormal2.ogg
182,192,177179,1,0,0:0:0:0:soft-hitnormal2.ogg
256,192,177179,1,0,0:0:0:0:soft-hitnormal2.ogg
329,192,177179,1,0,0:0:0:0:soft-hitnormal2.ogg
109,192,177373,1,0,0:0:0:0:soft-hitnormal2.ogg
182,192,177373,1,0,0:0:0:0:soft-hitnormal2.ogg
256,192,177373,1,0,0:0:0:0:soft-hitnormal2.ogg
329,192,177373,1,0,0:0:0:0:soft-hitnormal2.ogg
402,192,177373,1,0,0:0:0:0:soft-hitnormal2.ogg
36,192,177566,1,0,0:0:0:0:soft-hitnormal2.ogg
109,192,177566,1,0,0:0:0:0:soft-hitnormal2.ogg
182,192,177566,1,0,0:0:0:0:soft-hitnormal2.ogg
256,192,177566,1,0,0:0:0:0:soft-hitnormal2.ogg
329,192,177566,1,0,0:0:0:0:soft-hitnormal2.ogg
402,192,177566,1,0,0:0:0:0:soft-hitnormal2.ogg
475,192,177566,1,0,0:0:0:0:soft-hitnormal2.ogg
36,192,177759,1,0,0:0:0:0:soft-hitnormal2.ogg
329,192,177759,1,0,0:0:0:0:soft-hitnormal2.ogg
109,192,177856,1,0,0:0:0:0:soft-hitnormal2.ogg
402,192,177856,1,0,0:0:0:0:soft-hitnormal2.ogg
182,192,177953,1,0,0:0:0:0:soft-hitnormal2.ogg
256,192,177953,1,0,0:0:0:0:soft-hitnormal2.ogg
475,192,177953,1,0,0:0:0:0:soft-hitnormal2.ogg
182,192,178146,1,0,0:0:0:0:soft-hitnormal2.ogg
475,192,178146,1,0,0:0:0:0:soft-hitnormal2.ogg
109,192,178243,1,0,0:0:0:0:soft-hitnormal2.ogg
402,192,178243,1,0,0:0:0:0:soft-hitnormal2.ogg
36,192,178340,1,0,0:0:0:0:soft-hitnormal2.ogg
256,192,178340,1,0,0:0:0:0:soft-hitnormal2.ogg
329,192,178340,1,0,0:0:0:0:soft-hitnormal2.ogg
182,192,178533,1,0,0:0:0:0:soft-hitnormal2.ogg
329,192,178533,1,0,0:0:0:0:soft-hitnormal2.ogg
36,192,178630,1,0,0:0:0:0:soft-hitnormal2.ogg
475,192,178630,1,0,0:0:0:0:soft-hitnormal2.ogg
182,192,178727,1,0,0:0:0:0:soft-hitnormal2.ogg
256,192,178727,1,0,0:0:0:0:soft-hitnormal2.ogg
329,192,178727,1,0,0:0:0:0:soft-hitnormal2.ogg
109,192,178920,1,0,0:0:0:0:soft-hitnormal2.ogg
402,192,178920,1,0,0:0:0:0:soft-hitnormal2.ogg
36,192,179017,1,0,0:0:0:0:soft-hitnormal2.ogg
475,192,179017,1,0,0:0:0:0:soft-hitnormal2.ogg
182,192,179114,1,0,0:0:0:0:soft-hitnormal2.ogg
256,192,179114,1,0,0:0:0:0:soft-hitnormal2.ogg
329,192,179114,1,0,0:0:0:0:soft-hitnormal2.ogg
182,192,179307,1,0,0:0:0:0:soft-hitnormal2.ogg
329,192,179307,1,0,0:0:0:0:soft-hitnormal2.ogg
36,192,179404,1,0,0:0:0:0:soft-hitnormal2.ogg
475,192,179404,1,0,0:0:0:0:soft-hitnormal2.ogg
109,192,179501,1,0,0:0:0:0:soft-hitnormal2.ogg
256,192,179501,1,0,0:0:0:0:soft-hitnormal2.ogg
402,192,179501,1,0,0:0:0:0:soft-hitnormal2.ogg
36,192,179695,1,0,0:0:0:0:soft-hitnormal2.ogg
475,192,179695,1,0,0:0:0:0:soft-hitnormal2.ogg
109,192,179791,1,0,0:0:0:0:soft-hitnormal2.ogg
402,192,179791,1,0,0:0:0:0:soft-hitnormal2.ogg
36,192,179888,1,0,0:0:0:0:soft-hitnormal2.ogg
256,192,179888,1,0,0:0:0:0:soft-hitnormal2.ogg
475,192,179888,1,0,0:0:0:0:soft-hitnormal2.ogg
109,192,180082,1,0,0:0:0:0:soft-hitnormal2.ogg
402,192,180082,1,0,0:0:0:0:soft-hitnormal2.ogg
182,192,180178,1,0,0:0:0:0:soft-hitnormal2.ogg
329,192,180178,1,0,0:0:0:0:soft-hitnormal2.ogg
109,192,180275,1,0,0:0:0:0:soft-hitnormal2.ogg
256,192,180275,1,0,0:0:0:0:soft-hitnormal2.ogg
402,192,180275,1,0,0:0:0:0:soft-hitnormal2.ogg
36,192,180469,1,0,0:0:0:0:soft-hitnormal2.ogg
475,192,180469,1,0,0:0:0:0:soft-hitnormal2.ogg
109,192,180566,1,0,0:0:0:0:soft-hitnormal2.ogg
402,192,180566,1,0,0:0:0:0:soft-hitnormal2.ogg
182,192,180662,1,0,0:0:0:0:soft-hitnormal2.ogg
256,192,180662,1,0,0:0:0:0:soft-hitnormal2.ogg
329,192,180662,1,0,0:0:0:0:soft-hitnormal2.ogg
256,192,180856,1,0,0:0:0:0:soft-hitnormal2.ogg
256,192,180953,1,0,0:0:0:0:soft-hitnormal2.ogg
256,192,181049,1,0,0:0:0:0:soft-hitnormal2.ogg
256,192,181243,1,0,0:0:0:0:soft-hitnormal2.ogg
256,192,181340,1,0,0:0:0:0:soft-hitnormal2.ogg
36,192,181436,1,0,0:0:0:0:soft-hitnormal2.ogg
109,192,181436,1,0,0:0:0:0:soft-hitnormal2.ogg
182,192,181436,1,0,0:0:0:0:soft-hitnormal2.ogg
256,192,181436,1,0,0:0:0:0:soft-hitnormal2.ogg
329,192,181436,1,0,0:0:0:0:soft-hitnormal2.ogg
402,192,181436,1,0,0:0:0:0:soft-hitnormal2.ogg
475,192,181436,1,0,0:0:0:0:soft-hitnormal2.ogg
256,192,181630,1,0,0:0:0:0:soft-hitnormal2.ogg
256,192,181727,1,0,0:0:0:0:soft-hitnormal2.ogg
256,192,181824,1,0,0:0:0:0:soft-hitnormal2.ogg
256,192,182017,1,0,0:0:0:0:soft-hitnormal2.ogg
256,192,182114,1,0,0:0:0:0:soft-hitnormal2.ogg
36,192,182211,1,0,0:0:0:0:soft-hitnormal2.ogg
109,192,182211,1,0,0:0:0:0:soft-hitnormal2.ogg
182,192,182211,1,0,0:0:0:0:soft-hitnormal2.ogg
256,192,182211,1,0,0:0:0:0:soft-hitnormal2.ogg
329,192,182211,1,0,0:0:0:0:soft-hitnormal2.ogg
402,192,182211,1,0,0:0:0:0:soft-hitnormal2.ogg
475,192,182211,1,0,0:0:0:0:soft-hitnormal2.ogg
182,192,182404,1,0,0:0:0:0:soft-hitnormal2.ogg
329,192,182404,1,0,0:0:0:0:soft-hitnormal2.ogg
256,192,182501,1,0,0:0:0:0:soft-hitnormal2.ogg
36,192,182598,1,0,0:0:0:0:soft-hitnormal2.ogg
109,192,182598,1,0,0:0:0:0:soft-hitnormal2.ogg
182,192,182598,1,0,0:0:0:0:soft-hitnormal2.ogg
256,192,182598,1,0,0:0:0:0:soft-hitnormal2.ogg
329,192,182598,1,0,0:0:0:0:soft-hitnormal2.ogg
402,192,182598,1,0,0:0:0:0:soft-hitnormal2.ogg
475,192,182598,1,0,0:0:0:0:soft-hitnormal2.ogg
109,192,182791,1,0,0:0:0:0:soft-hitnormal2.ogg
402,192,182791,1,0,0:0:0:0:soft-hitnormal2.ogg
256,192,182888,1,0,0:0:0:0:soft-hitnormal2.ogg
36,192,182985,1,0,0:0:0:0:soft-hitnormal2.ogg
109,192,182985,1,0,0:0:0:0:soft-hitnormal2.ogg
182,192,182985,1,0,0:0:0:0:soft-hitnormal2.ogg
256,192,182985,1,0,0:0:0:0:soft-hitnormal2.ogg
329,192,182985,1,0,0:0:0:0:soft-hitnormal2.ogg
402,192,182985,1,0,0:0:0:0:soft-hitnormal2.ogg
475,192,182985,1,0,0:0:0:0:soft-hitnormal2.ogg
36,192,183178,1,0,0:0:0:0:soft-hitnormal2.ogg
475,192,183178,1,0,0:0:0:0:soft-hitnormal2.ogg
256,192,183275,1,0,0:0:0:0:soft-hitnormal2.ogg
36,192,183372,1,0,0:0:0:0:soft-hitnormal2.ogg
109,192,183372,1,0,0:0:0:0:soft-hitnormal2.ogg
182,192,183372,1,0,0:0:0:0:soft-hitnormal2.ogg
256,192,183372,1,0,0:0:0:0:soft-hitnormal2.ogg
329,192,183372,1,0,0:0:0:0:soft-hitnormal2.ogg
402,192,183372,1,0,0:0:0:0:soft-hitnormal2.ogg
475,192,183372,1,0,0:0:0:0:soft-hitnormal2.ogg
256,192,183566,1,0,0:0:0:0:soft-hitnormal2.ogg
256,192,183662,1,0,0:0:0:0:soft-hitnormal2.ogg
256,0,183759,128,0,185210:0:0:0:0:soft-hitnormal2.ogg
182,192,184533,1,0,0:0:0:0:soft-hitnormal2.ogg
329,192,184533,1,0,0:0:0:0:soft-hitnormal2.ogg
402,192,184630,1,0,0:0:0:0:soft-hitnormal2.ogg
329,192,184630,1,0,0:0:0:0:soft-hitnormal2.ogg
182,192,184630,1,0,0:0:0:0:soft-hitnormal2.ogg
109,192,184630,1,0,0:0:0:0:soft-hitnormal2.ogg
36,192,184823,1,0,0:0:0:0:soft-hitnormal2.ogg
475,192,184823,1,0,0:0:0:0:soft-hitnormal2.ogg
109,192,185017,1,0,0:0:0:0:soft-hitnormal2.ogg
402,192,185017,1,0,0:0:0:0:soft-hitnormal2.ogg
329,192,185114,1,0,0:0:0:0:soft-hitnormal2.ogg
182,192,185114,1,0,0:0:0:0:soft-hitnormal2.ogg
36,192,185210,1,0,0:0:0:0:soft-hitnormal2.ogg
475,192,185210,1,0,0:0:0:0:soft-hitnormal2.ogg
109,0,185307,128,0,185403:0:0:0:0:soft-hitnormal2.ogg
256,0,185307,128,0,185403:0:0:0:0:soft-hitnormal2.ogg
402,0,185307,128,0,186855:0:0:0:0:soft-hitnormal2.ogg
36,0,185403,128,0,185500:0:0:0:0:soft-hitnormal2.ogg
182,0,185403,128,0,185500:0:0:0:0:soft-hitnormal2.ogg
256,0,185500,128,0,185597:0:0:0:0:soft-hitnormal2.ogg
109,0,185500,128,0,185597:0:0:0:0:soft-hitnormal2.ogg
329,0,185597,128,0,185694:0:0:0:0:soft-hitnormal2.ogg
182,0,185597,128,0,185694:0:0:0:0:soft-hitnormal2.ogg
256,0,185694,128,0,185790:0:0:0:0:soft-hitnormal2.ogg
475,0,185694,128,0,185790:0:0:0:0:soft-hitnormal2.ogg
182,0,185790,128,0,185887:0:0:0:0:soft-hitnormal2.ogg
329,0,185790,128,0,185887:0:0:0:0:soft-hitnormal2.ogg
109,0,185887,128,0,185984:0:0:0:0:soft-hitnormal2.ogg
256,0,185887,128,0,185984:0:0:0:0:soft-hitnormal2.ogg
36,0,185984,128,0,186081:0:0:0:0:soft-hitnormal2.ogg
182,0,185984,128,0,186081:0:0:0:0:soft-hitnormal2.ogg
475,0,186081,128,0,186177:0:0:0:0:soft-hitnormal2.ogg
329,0,186081,128,0,186177:0:0:0:0:soft-hitnormal2.ogg
256,0,186081,128,0,186855:0:0:0:0:soft-hitnormal2.ogg
36,0,186177,128,0,186274:0:0:0:0:soft-hitnormal2.ogg
182,0,186177,128,0,186274:0:0:0:0:soft-hitnormal2.ogg
475,0,186274,128,0,186371:0:0:0:0:soft-hitnormal2.ogg
329,0,186274,128,0,186371:0:0:0:0:soft-hitnormal2.ogg
182,0,186371,128,0,186468:0:0:0:0:soft-hitnormal2.ogg
109,0,186371,128,0,186468:0:0:0:0:soft-hitnormal2.ogg
329,0,186468,128,0,186565:0:0:0:0:soft-hitnormal2.ogg
36,0,186468,128,0,186565:0:0:0:0:soft-hitnormal2.ogg
109,0,186565,128,0,186661:0:0:0:0:soft-hitnormal2.ogg
182,0,186565,128,0,186661:0:0:0:0:soft-hitnormal2.ogg
475,0,186661,128,0,186758:0:0:0:0:soft-hitnormal2.ogg
329,0,186661,128,0,186758:0:0:0:0:soft-hitnormal2.ogg
36,0,186758,128,0,186855:0:0:0:0:soft-hitnormal2.ogg
182,0,186758,128,0,186855:0:0:0:0:soft-hitnormal2.ogg
109,0,186855,128,0,188403:0:0:0:0:soft-hitnormal2.ogg
329,0,186855,128,0,186952:0:0:0:0:soft-hitnormal2.ogg
475,0,186855,128,0,186952:0:0:0:0:soft-hitnormal2.ogg
256,0,186952,128,0,187048:0:0:0:0:soft-hitnormal2.ogg
402,0,186952,128,0,187048:0:0:0:0:soft-hitnormal2.ogg
182,0,187048,128,0,187145:0:0:0:0:soft-hitnormal2.ogg
329,0,187048,128,0,187145:0:0:0:0:soft-hitnormal2.ogg
36,0,187145,128,0,187242:0:0:0:0:soft-hitnormal2.ogg
256,0,187145,128,0,187242:0:0:0:0:soft-hitnormal2.ogg
182,0,187242,128,0,187339:0:0:0:0:soft-hitnormal2.ogg
329,0,187242,128,0,187339:0:0:0:0:soft-hitnormal2.ogg
256,0,187339,128,0,187436:0:0:0:0:soft-hitnormal2.ogg
402,0,187339,128,0,187436:0:0:0:0:soft-hitnormal2.ogg
329,0,187436,128,0,187532:0:0:0:0:soft-hitnormal2.ogg
475,0,187436,128,0,187532:0:0:0:0:soft-hitnormal2.ogg
182,0,187532,128,0,187629:0:0:0:0:soft-hitnormal2.ogg
402,0,187532,128,0,187629:0:0:0:0:soft-hitnormal2.ogg
256,0,187629,128,0,188403:0:0:0:0:soft-hitnormal2.ogg
329,0,187629,128,0,187726:0:0:0:0:soft-hitnormal2.ogg
475,0,187629,128,0,187726:0:0:0:0:soft-hitnormal2.ogg
36,0,187726,128,0,187823:0:0:0:0:soft-hitnormal2.ogg
182,0,187726,128,0,187823:0:0:0:0:soft-hitnormal2.ogg
402,0,187823,128,0,187919:0:0:0:0:soft-hitnormal2.ogg
475,0,187823,128,0,187919:0:0:0:0:soft-hitnormal2.ogg
36,0,187919,128,0,188016:0:0:0:0:soft-hitnormal2.ogg
182,0,187919,128,0,188016:0:0:0:0:soft-hitnormal2.ogg
329,0,188016,128,0,188113:0:0:0:0:soft-hitnormal2.ogg
402,0,188016,128,0,188113:0:0:0:0:soft-hitnormal2.ogg
36,0,188113,128,0,188210:0:0:0:0:soft-hitnormal2.ogg
182,0,188113,128,0,188210:0:0:0:0:soft-hitnormal2.ogg
402,0,188210,128,0,188307:0:0:0:0:soft-hitnormal2.ogg
475,0,188210,128,0,188307:0:0:0:0:soft-hitnormal2.ogg
36,0,188307,128,0,188403:0:0:0:0:soft-hitnormal2.ogg
329,0,188307,128,0,188403:0:0:0:0:soft-hitnormal2.ogg
182,0,188403,128,0,188597:0:0:0:0:soft-hitnormal2.ogg
402,0,188403,128,0,188500:0:0:0:0:soft-hitnormal2.ogg
475,0,188403,128,0,188694:0:0:0:0:soft-hitnormal2.ogg
256,0,188500,128,0,188597:0:0:0:0:soft-hitnormal2.ogg
109,0,188597,128,0,188790:0:0:0:0:soft-hitnormal2.ogg
402,0,188597,128,0,188694:0:0:0:0:soft-hitnormal2.ogg
182,0,188694,128,0,188790:0:0:0:0:soft-hitnormal2.ogg
36,0,188790,128,0,188984:0:0:0:0:soft-hitnormal2.ogg
256,0,188790,128,0,188887:0:0:0:0:soft-hitnormal2.ogg
329,0,188790,128,0,189081:0:0:0:0:soft-hitnormal2.ogg
475,192,188790,128,0,188887:0:0:0:0:
109,0,188887,128,0,188984:0:0:0:0:soft-hitnormal2.ogg
182,0,188984,128,0,189081:0:0:0:0:soft-hitnormal2.ogg
475,0,188984,128,0,189177:0:0:0:0:soft-hitnormal2.ogg
36,0,189081,128,0,189177:0:0:0:0:soft-hitnormal2.ogg
182,0,189177,128,0,189468:0:0:0:0:soft-hitnormal2.ogg
256,0,189177,128,0,189274:0:0:0:0:soft-hitnormal2.ogg
402,0,189177,128,0,189371:0:0:0:0:soft-hitnormal2.ogg
329,192,189177,128,0,189274:0:0:0:0:
109,0,189274,128,0,189371:0:0:0:0:soft-hitnormal2.ogg
329,0,189371,128,0,189565:0:0:0:0:soft-hitnormal2.ogg
475,0,189371,128,0,189468:0:0:0:0:soft-hitnormal2.ogg
256,0,189468,128,0,189565:0:0:0:0:soft-hitnormal2.ogg
36,0,189565,128,0,189855:0:0:0:0:soft-hitnormal2.ogg
109,0,189565,128,0,189661:0:0:0:0:soft-hitnormal2.ogg
182,0,189565,128,0,189758:0:0:0:0:soft-hitnormal2.ogg
402,0,189661,128,0,189758:0:0:0:0:soft-hitnormal2.ogg
256,0,189758,128,0,189855:0:0:0:0:soft-hitnormal2.ogg
475,0,189758,128,0,189952:0:0:0:0:soft-hitnormal2.ogg
329,0,189855,128,0,189952:0:0:0:0:soft-hitnormal2.ogg
36,0,189952,128,0,190242:0:0:0:0:soft-hitnormal2.ogg
109,0,189952,128,0,191403:0:0:0:0:soft-hitnormal2.ogg
256,0,189952,128,0,191403:0:0:0:0:soft-hitnormal2.ogg
402,0,189952,128,0,191403:0:0:0:0:soft-hitnormal2.ogg
182,192,190048,1,0,0:0:0:0:soft-hitnormal2.ogg
329,192,190145,1,0,0:0:0:0:soft-hitnormal2.ogg
475,192,190242,1,0,0:0:0:0:soft-hitnormal2.ogg
329,0,190339,128,0,190629:0:0:0:0:soft-hitnormal2.ogg
36,192,190339,1,0,0:0:0:0:soft-hitnormal2.ogg
182,192,190436,1,0,0:0:0:0:soft-hitnormal2.ogg
475,192,190532,1,0,0:0:0:0:soft-hitnormal2.ogg
182,192,190629,1,0,0:0:0:0:soft-hitnormal2.ogg
36,0,190726,128,0,191016:0:0:0:0:soft-hitnormal2.ogg
329,192,190726,1,0,0:0:0:0:soft-hitnormal2.ogg
475,192,190823,1,0,0:0:0:0:
329,192,190919,1,0,0:0:0:0:soft-hitnormal2.ogg
182,192,191016,1,0,0:0:0:0:soft-hitnormal2.ogg
36,192,191113,1,0,0:0:0:0:soft-hitnormal2.ogg
475,0,191113,128,0,191403:0:0:0:0:soft-hitnormal2.ogg
182,192,191210,1,0,0:0:0:0:soft-hitnormal2.ogg
329,192,191307,1,0,0:0:0:0:soft-hitnormal2.ogg
182,192,191403,1,0,0:0:0:0:soft-hitnormal2.ogg
36,0,191500,128,0,192952:0:0:0:0:soft-hitnormal2.ogg
329,0,191500,128,0,191597:0:0:0:0:soft-hitnormal2.ogg
402,0,191500,128,0,191694:0:0:0:0:soft-hitnormal2.ogg
475,0,191500,128,0,192274:0:0:0:0:soft-hitnormal2.ogg
109,192,191500,128,0,191597:0:0:0:0:
182,0,191597,128,0,191694:0:0:0:0:soft-hitnormal2.ogg
109,0,191694,128,0,191887:0:0:0:0:soft-hitnormal2.ogg
329,0,191694,128,0,191790:0:0:0:0:soft-hitnormal2.ogg
256,0,191790,128,0,191887:0:0:0:0:soft-hitnormal2.ogg
182,0,191887,128,0,191984:0:0:0:0:soft-hitnormal2.ogg
402,0,191887,128,0,192081:0:0:0:0:soft-hitnormal2.ogg
256,0,191984,128,0,192081:0:0:0:0:soft-hitnormal2.ogg
109,0,192081,128,0,192274:0:0:0:0:soft-hitnormal2.ogg
329,0,192081,128,0,192177:0:0:0:0:soft-hitnormal2.ogg
182,0,192177,128,0,192274:0:0:0:0:soft-hitnormal2.ogg
256,0,192274,128,0,193048:0:0:0:0:soft-hitnormal2.ogg
329,0,192274,128,0,192468:0:0:0:0:soft-hitnormal2.ogg
402,0,192274,128,0,192371:0:0:0:0:soft-hitnormal2.ogg
475,0,192371,128,0,192468:0:0:0:0:soft-hitnormal2.ogg
109,0,192468,128,0,192565:0:0:0:0:soft-hitnormal2.ogg
182,0,192468,128,0,192661:0:0:0:0:soft-hitnormal2.ogg
402,0,192565,128,0,192661:0:0:0:0:soft-hitnormal2.ogg
329,0,192661,128,0,192855:0:0:0:0:soft-hitnormal2.ogg
475,0,192661,128,0,192758:0:0:0:0:soft-hitnormal2.ogg
402,0,192758,128,0,192855:0:0:0:0:soft-hitnormal2.ogg
109,0,192855,128,0,192952:0:0:0:0:soft-hitnormal2.ogg
182,0,192855,128,0,193048:0:0:0:0:soft-hitnormal2.ogg
329,0,192952,128,0,193048:0:0:0:0:soft-hitnormal2.ogg
36,0,193048,128,0,193823:0:0:0:0:soft-hitnormal2.ogg
109,0,193048,128,0,193145:0:0:0:0:soft-hitnormal2.ogg
402,0,193048,128,0,193242:0:0:0:0:soft-hitnormal2.ogg
475,0,193048,128,0,194597:0:0:0:0:soft-hitnormal2.ogg
256,0,193145,128,0,193242:0:0:0:0:soft-hitnormal2.ogg
109,0,193242,128,0,193436:0:0:0:0:soft-hitnormal2.ogg
182,0,193242,128,0,193339:0:0:0:0:soft-hitnormal2.ogg
329,0,193339,128,0,193436:0:0:0:0:soft-hitnormal2.ogg
182,0,193436,128,0,193532:0:0:0:0:soft-hitnormal2.ogg
402,0,193436,128,0,193629:0:0:0:0:soft-hitnormal2.ogg
256,0,193532,128,0,193629:0:0:0:0:soft-hitnormal2.ogg
109,0,193629,128,0,193823:0:0:0:0:soft-hitnormal2.ogg
329,0,193629,128,0,193726:0:0:0:0:soft-hitnormal2.ogg
182,0,193726,128,0,193823:0:0:0:0:soft-hitnormal2.ogg
256,0,193823,128,0,194597:0:0:0:0:soft-hitnormal2.ogg
329,0,193823,128,0,194016:0:0:0:0:soft-hitnormal2.ogg
402,0,193823,128,0,193919:0:0:0:0:soft-hitnormal2.ogg
109,0,193919,128,0,194016:0:0:0:0:soft-hitnormal2.ogg
36,0,194016,128,0,194210:0:0:0:0:soft-hitnormal2.ogg
402,0,194016,128,0,194113:0:0:0:0:soft-hitnormal2.ogg
182,0,194113,128,0,194210:0:0:0:0:soft-hitnormal2.ogg
109,0,194210,128,0,194307:0:0:0:0:soft-hitnormal2.ogg
329,0,194210,128,0,194403:0:0:0:0:soft-hitnormal2.ogg
182,0,194307,128,0,194403:0:0:0:0:soft-hitnormal2.ogg
402,0,194403,128,0,194500:0:0:0:0:soft-hitnormal2.ogg
36,0,194403,128,0,194597:0:0:0:0:soft-hitnormal2.ogg
182,0,194500,128,0,194597:0:0:0:0:soft-hitnormal2.ogg
109,0,194597,128,0,196048:0:0:0:0:soft-hitnormal2.ogg
329,0,194597,128,0,194694:0:0:0:0:soft-hitnormal2.ogg
402,0,194597,128,0,196048:0:0:0:0:soft-hitnormal2.ogg
182,0,194694,128,0,194790:0:0:0:0:soft-hitnormal2.ogg
329,0,194790,128,0,194887:0:0:0:0:soft-hitnormal2.ogg
182,0,194887,128,0,194984:0:0:0:0:soft-hitnormal2.ogg
329,0,194984,128,0,195081:0:0:0:0:soft-hitnormal2.ogg
36,192,194984,128,0,195274:0:0:0:0:
475,192,194984,128,0,195371:0:0:0:0:
182,0,195081,128,0,195177:0:0:0:0:soft-hitnormal2.ogg
329,0,195177,128,0,195274:0:0:0:0:soft-hitnormal2.ogg
182,0,195274,128,0,195371:0:0:0:0:soft-hitnormal2.ogg
36,0,195371,128,0,195468:0:0:0:0:soft-hitnormal2.ogg
256,0,195468,128,0,195565:0:0:0:0:soft-hitnormal2.ogg
475,0,195565,128,0,195661:0:0:0:0:soft-hitnormal2.ogg
256,0,195661,128,0,195758:0:0:0:0:soft-hitnormal2.ogg
36,0,195758,128,0,195855:0:0:0:0:soft-hitnormal2.ogg
329,192,195758,128,0,196048:0:0:0:0:
182,192,195758,128,0,196048:0:0:0:0:
256,0,195855,128,0,195952:0:0:0:0:soft-hitnormal2.ogg
475,0,195952,128,0,196048:0:0:0:0:soft-hitnormal2.ogg
256,0,196048,128,0,196145:0:0:0:0:soft-hitnormal2.ogg
36,0,196145,128,0,197597:0:0:0:0:soft-hitnormal2.ogg
109,0,196145,128,0,197597:0:0:0:0:soft-hitnormal2.ogg
182,192,196145,1,0,0:0:0:0:soft-hitnormal2.ogg
402,0,196145,128,0,197597:0:0:0:0:soft-hitnormal2.ogg
475,0,196145,128,0,197597:0:0:0:0:soft-hitnormal2.ogg
329,192,196242,1,0,0:0:0:0:soft-hitnormal2.ogg
182,192,196339,1,0,0:0:0:0:soft-hitnormal2.ogg
329,192,196436,1,0,0:0:0:0:soft-hitnormal2.ogg
182,192,196532,1,0,0:0:0:0:soft-hitnormal2.ogg
256,192,196532,128,0,196823:0:0:0:0:
329,192,196629,1,0,0:0:0:0:soft-hitnormal2.ogg
182,192,196726,1,0,0:0:0:0:soft-hitnormal2.ogg
329,192,196823,1,0,0:0:0:0:soft-hitnormal2.ogg
182,192,196919,1,0,0:0:0:0:soft-hitnormal2.ogg
256,192,196919,128,0,197210:0:0:0:0:
329,192,197016,1,0,0:0:0:0:soft-hitnormal2.ogg
182,192,197113,1,0,0:0:0:0:soft-hitnormal2.ogg
329,192,197210,1,0,0:0:0:0:soft-hitnormal2.ogg
182,192,197307,1,0,0:0:0:0:soft-hitnormal2.ogg
256,192,197307,128,0,197403:0:0:0:0:
329,192,197403,1,0,0:0:0:0:soft-hitnormal2.ogg
182,192,197500,1,0,0:0:0:0:soft-hitnormal2.ogg
256,192,197500,128,0,197597:0:0:0:0:
329,192,197597,1,0,0:0:0:0:soft-hitnormal2.ogg
36,0,197694,128,0,198419:0:0:0:0:soft-hitnormal2.ogg
109,0,197694,128,0,197790:0:0:0:0:soft-hitnormal2.ogg
256,0,197694,128,0,198419:0:0:0:0:soft-hitnormal2.ogg
475,192,197694,1,0,0:0:0:0:soft-hitnormal2.ogg
182,0,197790,128,0,197887:0:0:0:0:soft-hitnormal2.ogg
402,192,197790,1,0,0:0:0:0:soft-hitnormal2.ogg
329,192,197887,1,0,0:0:0:0:soft-hitnormal2.ogg
475,0,197887,128,0,197984:0:0:0:0:soft-hitnormal2.ogg
109,192,197984,1,0,0:0:0:0:soft-hitnormal2.ogg
402,0,197984,128,0,198081:0:0:0:0:soft-hitnormal2.ogg
182,192,198081,1,0,0:0:0:0:soft-hitnormal2.ogg
329,0,198081,128,0,198177:0:0:0:0:soft-hitnormal2.ogg
109,192,198177,1,0,0:0:0:0:soft-hitnormal2.ogg
402,0,198177,128,0,198274:0:0:0:0:soft-hitnormal2.ogg
182,192,198274,1,0,0:0:0:0:soft-hitnormal2.ogg
475,0,198274,128,0,198371:0:0:0:0:soft-hitnormal2.ogg
109,192,198371,1,0,0:0:0:0:soft-hitnormal2.ogg
329,0,198371,128,0,198468:0:0:0:0:soft-hitnormal2.ogg
36,0,198468,128,0,198516:0:0:0:0:soft-hitnormal2.ogg
256,0,198468,128,0,199242:0:0:0:0:soft-hitnormal2.ogg
402,0,198468,128,0,198565:0:0:0:0:soft-hitnormal2.ogg
475,0,198468,128,0,199242:0:0:0:0:soft-hitnormal2.ogg
109,0,198565,128,0,198661:0:0:0:0:soft-hitnormal2.ogg
182,0,198565,128,0,198613:0:0:0:0:soft-hitnormal2.ogg
36,0,198661,128,0,198758:0:0:0:0:soft-hitnormal2.ogg
329,0,198661,128,0,198710:0:0:0:0:soft-hitnormal2.ogg
182,0,198758,128,0,198807:0:0:0:0:soft-hitnormal2.ogg
402,0,198758,128,0,198855:0:0:0:0:soft-hitnormal2.ogg
36,0,198855,128,0,198903:0:0:0:0:soft-hitnormal2.ogg
329,0,198855,128,0,198952:0:0:0:0:soft-hitnormal2.ogg
109,0,198952,128,0,199048:0:0:0:0:soft-hitnormal2.ogg
402,0,198952,128,0,199000:0:0:0:0:soft-hitnormal2.ogg
182,0,199048,128,0,199097:0:0:0:0:soft-hitnormal2.ogg
329,0,199048,128,0,199145:0:0:0:0:soft-hitnormal2.ogg
36,0,199145,128,0,199194:0:0:0:0:soft-hitnormal2.ogg
109,0,199242,128,0,200016:0:0:0:0:soft-hitnormal2.ogg
182,192,199242,1,0,0:0:0:0:soft-hitnormal2.ogg
329,0,199242,128,0,200016:0:0:0:0:soft-hitnormal2.ogg
402,0,199242,128,0,199339:0:0:0:0:soft-hitnormal2.ogg
256,192,199339,1,0,0:0:0:0:soft-hitnormal2.ogg
475,0,199339,128,0,199436:0:0:0:0:soft-hitnormal2.ogg
36,192,199436,1,0,0:0:0:0:soft-hitnormal2.ogg
182,0,199436,128,0,199532:0:0:0:0:soft-hitnormal2.ogg
256,0,199532,128,0,199629:0:0:0:0:soft-hitnormal2.ogg
402,192,199532,1,0,0:0:0:0:soft-hitnormal2.ogg
36,0,199629,128,0,199726:0:0:0:0:soft-hitnormal2.ogg
475,192,199629,1,0,0:0:0:0:soft-hitnormal2.ogg
182,0,199726,128,0,199823:0:0:0:0:soft-hitnormal2.ogg
402,192,199726,1,0,0:0:0:0:soft-hitnormal2.ogg
36,192,199823,1,0,0:0:0:0:soft-hitnormal2.ogg
256,0,199823,128,0,199919:0:0:0:0:soft-hitnormal2.ogg
475,0,199919,128,0,200016:0:0:0:0:soft-hitnormal2.ogg
36,0,200016,128,0,200065:0:0:0:0:soft-hitnormal2.ogg
182,0,200016,128,0,200742:0:0:0:0:soft-hitnormal2.ogg
256,0,200016,128,0,200113:0:0:0:0:soft-hitnormal2.ogg
402,0,200016,128,0,200742:0:0:0:0:soft-hitnormal2.ogg
329,0,200113,128,0,200161:0:0:0:0:soft-hitnormal2.ogg
475,0,200113,128,0,200210:0:0:0:0:soft-hitnormal2.ogg
36,0,200210,128,0,200307:0:0:0:0:soft-hitnormal2.ogg
256,0,200210,128,0,200258:0:0:0:0:soft-hitnormal2.ogg
109,0,200307,128,0,200355:0:0:0:0:soft-hitnormal2.ogg
329,0,200307,128,0,200403:0:0:0:0:soft-hitnormal2.ogg
36,0,200403,128,0,200500:0:0:0:0:soft-hitnormal2.ogg
256,0,200403,128,0,200452:0:0:0:0:soft-hitnormal2.ogg
109,0,200500,128,0,200597:0:0:0:0:soft-hitnormal2.ogg
475,0,200500,128,0,200548:0:0:0:0:soft-hitnormal2.ogg
256,0,200597,128,0,200645:0:0:0:0:soft-hitnormal2.ogg
329,0,200597,128,0,200694:0:0:0:0:soft-hitnormal2.ogg
36,0,200694,128,0,200742:0:0:0:0:soft-hitnormal2.ogg
475,0,200694,128,0,200790:0:0:0:0:soft-hitnormal2.ogg
109,0,200790,128,0,202339:0:0:0:0:soft-hitnormal2.ogg
182,0,200790,128,0,200887:0:0:0:0:soft-hitnormal2.ogg
256,0,200790,128,0,200887:0:0:0:0:soft-hitnormal2.ogg
402,0,200790,128,0,200984:0:0:0:0:soft-hitnormal2.ogg
329,0,200887,128,0,200984:0:0:0:0:soft-hitnormal2.ogg
36,0,200984,128,0,201081:0:0:0:0:soft-hitnormal2.ogg
182,0,200984,128,0,201081:0:0:0:0:soft-hitnormal2.ogg
475,0,200984,128,0,201177:0:0:0:0:soft-hitnormal2.ogg
329,0,201081,128,0,201177:0:0:0:0:soft-hitnormal2.ogg
36,0,201177,128,0,201371:0:0:0:0:soft-hitnormal2.ogg
182,0,201177,128,0,201274:0:0:0:0:soft-hitnormal2.ogg
256,0,201177,128,0,201274:0:0:0:0:soft-hitnormal2.ogg
402,0,201274,128,0,201371:0:0:0:0:soft-hitnormal2.ogg
182,0,201371,128,0,201468:0:0:0:0:soft-hitnormal2.ogg
329,0,201371,128,0,201468:0:0:0:0:soft-hitnormal2.ogg
475,0,201468,128,0,201565:0:0:0:0:soft-hitnormal2.ogg
36,192,201468,128,0,201565:0:0:0:0:
182,0,201565,128,0,201758:0:0:0:0:soft-hitnormal2.ogg
256,0,201565,128,0,201661:0:0:0:0:soft-hitnormal2.ogg
329,0,201565,128,0,202339:0:0:0:0:soft-hitnormal2.ogg
402,0,201565,128,0,201661:0:0:0:0:soft-hitnormal2.ogg
36,0,201661,128,0,201758:0:0:0:0:soft-hitnormal2.ogg
256,0,201758,128,0,201952:0:0:0:0:soft-hitnormal2.ogg
475,0,201758,128,0,201855:0:0:0:0:soft-hitnormal2.ogg
182,0,201855,128,0,201952:0:0:0:0:soft-hitnormal2.ogg
36,0,201952,128,0,202048:0:0:0:0:soft-hitnormal2.ogg
402,0,201952,128,0,202048:0:0:0:0:soft-hitnormal2.ogg
475,0,201952,128,0,202145:0:0:0:0:soft-hitnormal2.ogg
256,0,202048,128,0,202145:0:0:0:0:soft-hitnormal2.ogg
36,0,202145,128,0,202242:0:0:0:0:soft-hitnormal2.ogg
402,0,202145,128,0,202242:0:0:0:0:soft-hitnormal2.ogg
182,0,202242,128,0,202339:0:0:0:0:soft-hitnormal2.ogg
36,0,202339,128,0,202532:0:0:0:0:soft-hitnormal2.ogg
256,0,202339,128,0,202436:0:0:0:0:soft-hitnormal2.ogg
402,0,202339,128,0,203839:0:0:0:0:soft-hitnormal2.ogg
475,0,202339,128,0,202436:0:0:0:0:soft-hitnormal2.ogg
182,0,202436,128,0,202532:0:0:0:0:soft-hitnormal2.ogg
109,0,202532,128,0,202726:0:0:0:0:soft-hitnormal2.ogg
256,0,202532,128,0,202629:0:0:0:0:soft-hitnormal2.ogg
475,0,202532,128,0,202629:0:0:0:0:soft-hitnormal2.ogg
182,0,202629,128,0,202726:0:0:0:0:soft-hitnormal2.ogg
36,0,202726,128,0,202823:0:0:0:0:soft-hitnormal2.ogg
256,0,202726,128,0,202919:0:0:0:0:soft-hitnormal2.ogg
329,0,202726,128,0,202823:0:0:0:0:soft-hitnormal2.ogg
475,0,202823,128,0,202919:0:0:0:0:soft-hitnormal2.ogg
36,0,202919,128,0,203113:0:0:0:0:soft-hitnormal2.ogg
182,0,202919,128,0,203016:0:0:0:0:soft-hitnormal2.ogg
329,0,202919,128,0,203016:0:0:0:0:soft-hitnormal2.ogg
109,0,203016,128,0,203113:0:0:0:0:soft-hitnormal2.ogg
475,192,203016,128,0,203113:0:0:0:0:
182,0,203113,128,0,203839:0:0:0:0:soft-hitnormal2.ogg
256,0,203113,128,0,203210:0:0:0:0:soft-hitnormal2.ogg
329,0,203113,128,0,203306:0:0:0:0:soft-hitnormal2.ogg
36,0,203210,128,0,203306:0:0:0:0:soft-hitnormal2.ogg
109,0,203306,128,0,203403:0:0:0:0:soft-hitnormal2.ogg
256,0,203306,128,0,203500:0:0:0:0:soft-hitnormal2.ogg
475,0,203306,128,0,203403:0:0:0:0:soft-hitnormal2.ogg
329,0,203403,128,0,203500:0:0:0:0:soft-hitnormal2.ogg
36,0,203500,128,0,203694:0:0:0:0:soft-hitnormal2.ogg
109,0,203500,128,0,203597:0:0:0:0:soft-hitnormal2.ogg
475,0,203500,128,0,203597:0:0:0:0:soft-hitnormal2.ogg
256,0,203597,128,0,203694:0:0:0:0:soft-hitnormal2.ogg
329,0,203694,128,0,203790:0:0:0:0:soft-hitnormal2.ogg
475,0,203694,128,0,203790:0:0:0:0:soft-hitnormal2.ogg
36,0,203790,128,0,203839:0:0:0:0:soft-hitnormal2.ogg
36,192,203887,1,0,0:0:0:0:soft-hitnormal2.ogg
109,192,203887,1,0,0:0:0:0:soft-hitnormal2.ogg
182,192,203887,1,0,0:0:0:0:soft-hitnormal2.ogg
256,0,203887,128,0,204613:0:0:0:0:soft-hitnormal2.ogg
329,192,203887,1,0,0:0:0:0:soft-hitnormal2.ogg
402,192,203887,1,0,0:0:0:0:soft-hitnormal2.ogg
475,192,203887,1,0,0:0:0:0:soft-hitnormal2.ogg
402,192,204081,1,0,0:0:0:0:soft-hitnormal2.ogg
402,192,204178,1,0,0:0:0:0:soft-hitnormal2.ogg
402,192,204275,1,0,0:0:0:0:soft-hitnormal2.ogg
402,192,204468,1,0,0:0:0:0:soft-hitnormal2.ogg
36,192,204661,1,0,0:0:0:0:soft-hitnormal2.ogg
109,192,204661,1,0,0:0:0:0:soft-hitnormal2.ogg
182,192,204661,1,0,0:0:0:0:soft-hitnormal2.ogg
256,0,204661,128,0,205386:0:0:0:0:soft-hitnormal2.ogg
329,192,204661,1,0,0:0:0:0:soft-hitnormal2.ogg
402,192,204661,1,0,0:0:0:0:soft-hitnormal2.ogg
475,192,204661,1,0,0:0:0:0:soft-hitnormal2.ogg
109,192,204854,1,0,0:0:0:0:soft-hitnormal2.ogg
109,192,204951,1,0,0:0:0:0:soft-hitnormal2.ogg
109,192,205048,1,0,0:0:0:0:soft-hitnormal2.ogg
109,192,205241,1,0,0:0:0:0:soft-hitnormal2.ogg
36,192,205435,1,0,0:0:0:0:soft-hitnormal2.ogg
109,192,205435,1,0,0:0:0:0:soft-hitnormal2.ogg
182,192,205435,1,0,0:0:0:0:soft-hitnormal2.ogg
256,0,205435,128,0,206160:0:0:0:0:soft-hitnormal2.ogg
329,192,205435,1,0,0:0:0:0:soft-hitnormal2.ogg
402,192,205435,1,0,0:0:0:0:soft-hitnormal2.ogg
475,192,205435,1,0,0:0:0:0:soft-hitnormal2.ogg
402,192,205628,1,0,0:0:0:0:soft-hitnormal2.ogg
402,192,205725,1,0,0:0:0:0:soft-hitnormal2.ogg
402,192,205822,1,0,0:0:0:0:soft-hitnormal2.ogg
402,192,206015,1,0,0:0:0:0:soft-hitnormal2.ogg
36,192,206209,1,0,0:0:0:0:soft-hitnormal2.ogg
109,192,206209,1,0,0:0:0:0:soft-hitnormal2.ogg
182,192,206209,1,0,0:0:0:0:soft-hitnormal2.ogg
256,0,206209,128,0,206934:0:0:0:0:soft-hitnormal2.ogg
329,192,206209,1,0,0:0:0:0:soft-hitnormal2.ogg
402,192,206209,1,0,0:0:0:0:soft-hitnormal2.ogg
475,192,206209,1,0,0:0:0:0:soft-hitnormal2.ogg
109,192,206402,1,0,0:0:0:0:soft-hitnormal2.ogg
402,192,206402,1,0,0:0:0:0:soft-hitnormal2.ogg
36,192,206499,1,0,0:0:0:0:soft-hitnormal2.ogg
475,192,206499,1,0,0:0:0:0:soft-hitnormal2.ogg
109,192,206596,1,0,0:0:0:0:soft-hitnormal2.ogg
402,192,206596,1,0,0:0:0:0:soft-hitnormal2.ogg
109,192,206789,1,0,0:0:0:0:soft-hitnormal2.ogg
402,192,206789,1,0,0:0:0:0:soft-hitnormal2.ogg
36,0,206983,128,0,207079:0:0:0:0:soft-hitnormal2.ogg
402,192,206983,1,0,0:0:0:0:soft-hitnormal2.ogg
475,192,206983,1,0,0:0:0:0:soft-hitnormal2.ogg
109,0,207079,128,0,207176:0:0:0:0:soft-hitnormal2.ogg
182,0,207176,128,0,207273:0:0:0:0:soft-hitnormal2.ogg
402,192,207176,1,0,0:0:0:0:soft-hitnormal2.ogg
475,192,207176,1,0,0:0:0:0:soft-hitnormal2.ogg
329,0,207273,128,0,207370:0:0:0:0:soft-hitnormal2.ogg
256,0,207370,128,0,207466:0:0:0:0:soft-hitnormal2.ogg
402,192,207370,1,0,0:0:0:0:soft-hitnormal2.ogg
475,192,207370,1,0,0:0:0:0:soft-hitnormal2.ogg
182,0,207466,128,0,207563:0:0:0:0:soft-hitnormal2.ogg
402,192,207563,1,0,0:0:0:0:soft-hitnormal2.ogg
475,192,207563,1,0,0:0:0:0:soft-hitnormal2.ogg
109,0,207563,128,0,207660:0:0:0:0:soft-hitnormal2.ogg
36,0,207660,128,0,207757:0:0:0:0:soft-hitnormal2.ogg
402,192,207757,1,0,0:0:0:0:soft-hitnormal2.ogg
475,192,207757,1,0,0:0:0:0:soft-hitnormal2.ogg
402,192,207853,1,0,0:0:0:0:soft-hitnormal2.ogg
475,192,207853,1,0,0:0:0:0:soft-hitnormal2.ogg
402,192,207950,1,0,0:0:0:0:soft-hitnormal2.ogg
475,192,207950,1,0,0:0:0:0:soft-hitnormal2.ogg
402,192,208047,1,0,0:0:0:0:soft-hitnormal2.ogg
475,192,208047,1,0,0:0:0:0:soft-hitnormal2.ogg
402,192,208144,1,0,0:0:0:0:soft-hitnormal2.ogg
475,192,208144,1,0,0:0:0:0:soft-hitnormal2.ogg
402,192,208337,1,0,0:0:0:0:soft-hitnormal2.ogg
475,192,208337,1,0,0:0:0:0:soft-hitnormal2.ogg
36,192,208531,1,0,0:0:0:0:soft-hitnormal2.ogg
109,192,208531,1,0,0:0:0:0:soft-hitnormal2.ogg
182,0,208531,128,0,208628:0:0:0:0:soft-hitnormal2.ogg
402,192,208531,1,0,0:0:0:0:soft-hitnormal2.ogg
475,192,208531,1,0,0:0:0:0:soft-hitnormal2.ogg
256,0,208628,128,0,208724:0:0:0:0:soft-hitnormal2.ogg
36,192,208724,1,0,0:0:0:0:soft-hitnormal2.ogg
109,192,208724,1,0,0:0:0:0:soft-hitnormal2.ogg
329,0,208724,128,0,208821:0:0:0:0:soft-hitnormal2.ogg
475,0,208821,128,0,208918:0:0:0:0:soft-hitnormal2.ogg
36,192,208918,1,0,0:0:0:0:soft-hitnormal2.ogg
109,192,208918,1,0,0:0:0:0:soft-hitnormal2.ogg
402,0,208918,128,0,209015:0:0:0:0:soft-hitnormal2.ogg
329,0,209015,128,0,209112:0:0:0:0:soft-hitnormal2.ogg
36,192,209112,1,0,0:0:0:0:soft-hitnormal2.ogg
109,192,209112,1,0,0:0:0:0:soft-hitnormal2.ogg
256,0,209112,128,0,209208:0:0:0:0:soft-hitnormal2.ogg
36,192,209305,1,0,0:0:0:0:soft-hitnormal2.ogg
109,192,209305,1,0,0:0:0:0:soft-hitnormal2.ogg
182,192,209305,1,0,0:0:0:0:soft-hitnormal2.ogg
256,192,209305,1,0,0:0:0:0:soft-hitnormal2.ogg
329,192,209305,1,0,0:0:0:0:soft-hitnormal2.ogg
402,192,209305,1,0,0:0:0:0:soft-hitnormal2.ogg
475,192,209305,1,0,0:0:0:0:soft-hitnormal2.ogg
36,192,209402,1,0,0:0:0:0:soft-hitnormal2.ogg
109,192,209402,1,0,0:0:0:0:soft-hitnormal2.ogg
182,192,209402,1,0,0:0:0:0:soft-hitnormal2.ogg
256,192,209402,1,0,0:0:0:0:soft-hitnormal2.ogg
329,192,209402,1,0,0:0:0:0:soft-hitnormal2.ogg
402,192,209402,1,0,0:0:0:0:soft-hitnormal2.ogg
475,192,209402,1,0,0:0:0:0:soft-hitnormal2.ogg
36,192,209499,1,0,0:0:0:0:soft-hitnormal2.ogg
109,192,209499,1,0,0:0:0:0:soft-hitnormal2.ogg
182,192,209499,1,0,0:0:0:0:soft-hitnormal2.ogg
256,192,209499,1,0,0:0:0:0:soft-hitnormal2.ogg
329,192,209499,1,0,0:0:0:0:soft-hitnormal2.ogg
402,192,209499,1,0,0:0:0:0:soft-hitnormal2.ogg
475,192,209499,1,0,0:0:0:0:soft-hitnormal2.ogg
36,192,209595,1,0,0:0:0:0:soft-hitnormal2.ogg
109,192,209595,1,0,0:0:0:0:soft-hitnormal2.ogg
182,192,209595,1,0,0:0:0:0:soft-hitnormal2.ogg
256,192,209595,1,0,0:0:0:0:soft-hitnormal2.ogg
329,192,209595,1,0,0:0:0:0:soft-hitnormal2.ogg
402,192,209595,1,0,0:0:0:0:soft-hitnormal2.ogg
475,192,209595,1,0,0:0:0:0:soft-hitnormal2.ogg
36,192,209692,1,0,0:0:0:0:soft-hitnormal2.ogg
109,192,209692,1,0,0:0:0:0:soft-hitnormal2.ogg
182,192,209692,1,0,0:0:0:0:soft-hitnormal2.ogg
256,192,209692,1,0,0:0:0:0:soft-hitnormal2.ogg
329,192,209692,1,0,0:0:0:0:soft-hitnormal2.ogg
402,192,209692,1,0,0:0:0:0:soft-hitnormal2.ogg
475,192,209692,1,0,0:0:0:0:soft-hitnormal2.ogg
36,192,209789,1,0,0:0:0:0:soft-hitnormal2.ogg
109,192,209789,1,0,0:0:0:0:soft-hitnormal2.ogg
182,192,209789,1,0,0:0:0:0:soft-hitnormal2.ogg
256,192,209789,1,0,0:0:0:0:soft-hitnormal2.ogg
329,192,209789,1,0,0:0:0:0:soft-hitnormal2.ogg
402,192,209789,1,0,0:0:0:0:soft-hitnormal2.ogg
475,192,209789,1,0,0:0:0:0:soft-hitnormal2.ogg
36,192,209886,1,0,0:0:0:0:soft-hitnormal2.ogg
109,192,209886,1,0,0:0:0:0:soft-hitnormal2.ogg
182,192,209886,1,0,0:0:0:0:soft-hitnormal2.ogg
256,192,209886,1,0,0:0:0:0:soft-hitnormal2.ogg
329,192,209886,1,0,0:0:0:0:soft-hitnormal2.ogg
402,192,209886,1,0,0:0:0:0:soft-hitnormal2.ogg
475,192,209886,1,0,0:0:0:0:soft-hitnormal2.ogg
475,192,209983,1,0,0:0:0:0:soft-hitnormal2.ogg
402,192,209983,1,0,0:0:0:0:soft-hitnormal2.ogg
329,192,209983,1,0,0:0:0:0:soft-hitnormal2.ogg
256,192,209983,1,0,0:0:0:0:soft-hitnormal2.ogg
182,192,209983,1,0,0:0:0:0:soft-hitnormal2.ogg
109,192,209983,1,0,0:0:0:0:soft-hitnormal2.ogg
36,192,209983,1,0,0:0:0:0:soft-hitnormal2.ogg
36,192,210080,1,0,0:0:0:0:soft-hitnormal2.ogg
109,192,210080,1,0,0:0:0:0:soft-hitnormal2.ogg
182,192,210080,1,0,0:0:0:0:soft-hitnormal2.ogg
256,192,210080,1,0,0:0:0:0:soft-hitnormal2.ogg
329,192,210080,1,0,0:0:0:0:soft-hitnormal2.ogg
402,192,210080,1,0,0:0:0:0:soft-hitnormal2.ogg
475,192,210080,1,0,0:0:0:0:soft-hitnormal2.ogg
36,0,213225,128,0,214850:0:0:0:0:soft-hitnormal2.ogg
109,0,213475,128,0,215100:0:0:0:0:soft-hitnormal2.ogg
182,0,213725,128,0,215350:0:0:0:0:soft-hitnormal2.ogg
256,0,213975,128,0,215600:0:0:0:0:soft-hitnormal2.ogg
329,0,214225,128,0,215850:0:0:0:0:soft-hitnormal2.ogg
402,0,214475,128,0,216100:0:0:0:0:soft-hitnormal2.ogg
475,0,214725,128,0,216350:0:0:0:0:soft-hitnormal2.ogg
36,0,214975,128,0,218600:0:0:0:0:soft-hitnormal2.ogg
109,0,215225,128,0,218350:0:0:0:0:soft-hitnormal2.ogg
182,0,215475,128,0,218100:0:0:0:0:soft-hitnormal2.ogg
256,0,215725,128,0,217850:0:0:0:0:soft-hitnormal2.ogg
329,0,215975,128,0,216850:0:0:0:0:soft-hitnormal2.ogg
402,0,216225,128,0,216600:0:0:0:0:soft-hitnormal2.ogg
475,0,216475,128,0,217100:0:0:0:0:soft-hitnormal2.ogg
402,0,216725,128,0,217350:0:0:0:0:soft-hitnormal2.ogg
329,0,216975,128,0,217600:0:0:0:0:soft-hitnormal2.ogg
475,0,217225,128,0,220100:0:0:0:0:soft-hitnormal2.ogg
402,0,217475,128,0,219850:0:0:0:0:soft-hitnormal2.ogg
329,0,217725,128,0,219600:0:0:0:0:soft-hitnormal2.ogg
256,0,217975,128,0,219350:0:0:0:0:soft-hitnormal2.ogg
182,0,218225,128,0,219100:0:0:0:0:soft-hitnormal2.ogg
109,0,218475,128,0,218850:0:0:0:0:soft-hitnormal2.ogg
36,0,218725,128,0,221100:0:0:0:0:soft-hitnormal2.ogg
109,0,218975,128,0,221600:0:0:0:0:soft-hitnormal2.ogg
182,0,219225,128,0,222100:0:0:0:0:soft-hitnormal2.ogg
256,0,219475,128,0,220850:0:0:0:0:soft-hitnormal2.ogg
329,0,219725,128,0,220600:0:0:0:0:soft-hitnormal2.ogg
402,0,219975,128,0,220350:0:0:0:0:soft-hitnormal2.ogg
475,0,220225,128,0,221350:0:0:0:0:soft-hitnormal2.ogg
402,0,220475,128,0,221850:0:0:0:0:soft-hitnormal2.ogg
329,0,220725,128,0,222391:0:0:0:0:soft-hitnormal2.ogg
256,192,220975,1,0,0:0:0:0:soft-hitnormal2.ogg
36,192,221225,1,0,0:0:0:0:soft-hitnormal2.ogg
475,192,221475,1,0,0:0:0:0:soft-hitnormal2.ogg
109,192,221725,1,0,0:0:0:0:soft-hitnormal2.ogg
402,192,221975,1,0,0:0:0:0:soft-hitnormal2.ogg
182,192,222225,1,0,0:0:0:0:soft-hitnormal2.ogg
329,192,222537,1,0,0:0:0:0:soft-hitnormal2.ogg
109,192,222850,1,0,0:0:0:0:soft-hitnormal2.ogg
402,192,223225,1,0,0:0:0:0:soft-hitnormal2.ogg
36,0,223631,128,0,231006:0:0:0:0:soft-hitnormal2.ogg
109,0,223662,128,0,231016:0:0:0:0:soft-hitnormal2.ogg
182,0,223693,128,0,231037:0:0:0:0:soft-hitnormal2.ogg
256,0,223725,128,0,231058:0:0:0:0:soft-hitnormal2.ogg
329,0,223766,128,0,231100:0:0:0:0:soft-hitnormal2.ogg
402,0,223818,128,0,231131:0:0:0:0:soft-hitnormal2.ogg
475,0,223850,128,0,231162:0:0:0:0:soft-hitnormal2.ogg
