osu file format v14

[General]
AudioFilename: virtual
AudioLeadIn: 0
PreviewTime: 0
Countdown: 0
SampleSet: Soft
StackLeniency: 0.7
Mode: 3
LetterboxInBreaks: 0
SpecialStyle: 0
WidescreenStoryboard: 0

[Editor]
DistanceSpacing: 0.8
BeatDivisor: 1
GridSize: 32
TimelineZoom: 1

[Metadata]
Title:Kimiiro Subliminal
TitleUnicode:Kimiiro Subliminal
Artist:Senya
ArtistUnicode:Senya
Creator:Hiraa-
Version:7k - hard lvl 81
Source:o2jam
Tags:Touhou
BeatmapID:2065505
BeatmapSetID:987365

[Difficulty]
HPDrainRate:7
CircleSize:7
OverallDifficulty:0
ApproachRate:5
SliderMultiplier:1.4
SliderTickRate:1

[Events]
//Background and Video events
0,0,"background.jpg",0,0
//Break Periods
//Storyboard Layer 0 (Background)
//Storyboard Layer 1 (Fail)
//Storyboard Layer 2 (Pass)
//Storyboard Layer 3 (Foreground)
//Storyboard Sound Samples
Sample,1600,0,"normal-hitnormal1002.ogg",100

[TimingPoints]
0,400,4,2,2,100,1,0
28000,200,4,2,2,100,1,0
28075,400,4,2,2,100,1,0
28150,800,4,2,2,100,1,0
28300,200,4,2,2,100,1,0
28375,400,4,2,2,100,1,0
28450,800,4,2,2,100,1,0
28600,400,4,2,2,100,1,0
54400,200,4,2,2,100,1,0
54800,400,4,2,2,100,1,0
55200,800,4,2,2,100,1,0
56000,400,4,2,2,100,1,0
86400,200,4,2,2,100,1,0
86475,400,4,2,2,100,1,0
86550,800,4,2,2,100,1,0
86700,200,4,2,2,100,1,0
86775,400,4,2,2,100,1,0
86850,800,4,2,2,100,1,0
87000,400,4,2,2,100,1,0
94350,571.428571428571,4,2,2,100,1,0
94421,400,4,2,2,100,1,0
119221,200,4,2,2,100,1,0
119296,400,4,2,2,100,1,0
119371,800,4,2,2,100,1,0
119521,200,4,2,2,100,1,0
119596,400,4,2,2,100,1,0
119671,800,4,2,2,100,1,0
119821,400,4,2,2,100,1,0
120021,800,4,2,2,100,1,0
126421,400,4,2,2,100,1,0
131221,200,4,2,2,100,1,0
131621,400,4,2,2,100,1,0
132021,800,4,2,2,100,1,0
132821,400,4,2,2,100,1,0
163221,200,4,2,2,100,1,0
163296,400,4,2,2,100,1,0
163371,800,4,2,2,100,1,0
163521,200,4,2,2,100,1,0
163596,400,4,2,2,100,1,0
163671,800,4,2,2,100,1,0
163821,400,4,2,2,100,1,0
171221,1600,4,2,2,100,1,0
184021,400,4,2,2,100,1,0

[HitObjects]
36,192,3200,5,0,0:0:0:0:soft-hitnormal2.ogg
475,192,3200,1,0,0:0:0:0:soft-hitnormal2.ogg
402,192,3300,1,0,0:0:0:0:soft-hitnormal2.ogg
329,192,3400,1,0,0:0:0:0:soft-hitnormal2.ogg
256,192,3500,1,0,0:0:0:0:soft-hitnormal2.ogg
182,192,3600,1,0,0:0:0:0:soft-hitnormal2.ogg
475,192,3600,1,0,0:0:0:0:soft-hitnormal2.ogg
256,192,3700,1,0,0:0:0:0:soft-hitnormal2.ogg
182,192,3800,1,0,0:0:0:0:soft-hitnormal2.ogg
109,192,3900,1,0,0:0:0:0:soft-hitnormal2.ogg
36,192,4000,1,0,0:0:0:0:soft-hitnormal2.ogg
402,192,4000,1,0,0:0:0:0:soft-hitnormal2.ogg
182,192,4100,1,0,0:0:0:0:soft-hitnormal2.ogg
109,192,4200,1,0,0:0:0:0:soft-hitnormal2.ogg
256,192,4300,1,0,0:0:0:0:soft-hitnormal2.ogg
36,192,4400,1,0,0:0:0:0:soft-hitnormal2.ogg
182,192,4400,1,0,0:0:0:0:soft-hitnormal2.ogg
329,192,4500,1,0,0:0:0:0:soft-hitnormal2.ogg
256,192,4600,1,0,0:0:0:0:soft-hitnormal2.ogg
402,192,4700,1,0,0:0:0:0:soft-hitnormal2.ogg
36,192,4800,1,0,0:0:0:0:soft-hitnormal2.ogg
475,192,4800,1,0,0:0:0:0:soft-hitnormal2.ogg
109,192,4900,1,0,0:0:0:0:soft-hitnormal2.ogg
182,192,5000,1,0,0:0:0:0:soft-hitnormal2.ogg
256,192,5100,1,0,0:0:0:0:soft-hitnormal2.ogg
36,192,5200,1,0,0:0:0:0:soft-hitnormal2.ogg
329,192,5200,1,0,0:0:0:0:soft-hitnormal2.ogg
256,192,5300,1,0,0:0:0:0:soft-hitnormal2.ogg
329,192,5400,1,0,0:0:0:0:soft-hitnormal2.ogg
402,192,5500,1,0,0:0:0:0:soft-hitnormal2.ogg
109,192,5600,1,0,0:0:0:0:soft-hitnormal2.ogg
475,192,5600,1,0,0:0:0:0:soft-hitnormal2.ogg
36,192,5700,1,0,0:0:0:0:soft-hitnormal2.ogg
329,192,5700,1,0,0:0:0:0:soft-hitnormal2.ogg
109,192,5800,1,0,0:0:0:0:soft-hitnormal2.ogg
402,192,5800,1,0,0:0:0:0:soft-hitnormal2.ogg
182,192,5900,1,0,0:0:0:0:soft-hitnormal2.ogg
256,192,5900,1,0,0:0:0:0:soft-hitnormal2.ogg
109,192,6000,1,0,0:0:0:0:soft-hitnormal2.ogg
329,192,6000,1,0,0:0:0:0:soft-hitnormal2.ogg
475,192,6000,1,0,0:0:0:0:soft-hitnormal2.ogg
36,192,6100,1,0,0:0:0:0:soft-hitnormal2.ogg
182,192,6100,1,0,0:0:0:0:soft-hitnormal2.ogg
256,192,6200,1,0,0:0:0:0:soft-hitnormal2.ogg
402,192,6200,1,0,0:0:0:0:soft-hitnormal2.ogg
109,192,6300,1,0,0:0:0:0:soft-hitnormal2.ogg
329,192,6300,1,0,0:0:0:0:soft-hitnormal2.ogg
36,192,6400,1,0,0:0:0:0:soft-hitnormal2.ogg
256,192,6400,1,0,0:0:0:0:soft-hitnormal2.ogg
402,192,6400,1,0,0:0:0:0:soft-hitnormal2.ogg
475,192,6400,1,0,0:0:0:0:soft-hitnormal2.ogg
182,192,6500,1,0,0:0:0:0:soft-hitnormal2.ogg
329,192,6500,1,0,0:0:0:0:soft-hitnormal2.ogg
256,192,6600,1,0,0:0:0:0:soft-hitnormal2.ogg
402,192,6600,1,0,0:0:0:0:soft-hitnormal2.ogg
182,192,6700,1,0,0:0:0:0:soft-hitnormal2.ogg
329,192,6700,1,0,0:0:0:0:soft-hitnormal2.ogg
109,192,6800,1,0,0:0:0:0:soft-hitnormal2.ogg
256,192,6800,1,0,0:0:0:0:soft-hitnormal2.ogg
182,192,6900,1,0,0:0:0:0:soft-hitnormal2.ogg
329,192,6900,1,0,0:0:0:0:soft-hitnormal2.ogg
109,192,7000,1,0,0:0:0:0:soft-hitnormal2.ogg
256,192,7000,1,0,0:0:0:0:soft-hitnormal2.ogg
36,192,7100,1,0,0:0:0:0:soft-hitnormal2.ogg
182,192,7100,1,0,0:0:0:0:soft-hitnormal2.ogg
256,192,7200,1,0,0:0:0:0:soft-hitnormal2.ogg
402,192,7200,1,0,0:0:0:0:soft-hitnormal2.ogg
475,192,7200,1,0,0:0:0:0:soft-hitnormal2.ogg
182,192,7300,1,0,0:0:0:0:soft-hitnormal2.ogg
329,192,7300,1,0,0:0:0:0:soft-hitnormal2.ogg
109,192,7400,1,0,0:0:0:0:soft-hitnormal2.ogg
256,192,7400,1,0,0:0:0:0:soft-hitnormal2.ogg
182,192,7500,1,0,0:0:0:0:soft-hitnormal2.ogg
329,192,7500,1,0,0:0:0:0:soft-hitnormal2.ogg
109,192,7600,1,0,0:0:0:0:soft-hitnormal2.ogg
256,192,7600,1,0,0:0:0:0:soft-hitnormal2.ogg
36,192,7700,1,0,0:0:0:0:soft-hitnormal2.ogg
182,192,7700,1,0,0:0:0:0:soft-hitnormal2.ogg
109,192,7800,1,0,0:0:0:0:soft-hitnormal2.ogg
256,192,7800,1,0,0:0:0:0:soft-hitnormal2.ogg
182,192,7900,1,0,0:0:0:0:soft-hitnormal2.ogg
329,192,7900,1,0,0:0:0:0:soft-hitnormal2.ogg
36,192,8000,1,0,0:0:0:0:soft-hitnormal2.ogg
256,192,8000,1,0,0:0:0:0:soft-hitnormal2.ogg
402,192,8000,1,0,0:0:0:0:soft-hitnormal2.ogg
36,0,8100,128,0,8200:0:0:0:0:soft-hitnormal2.ogg
475,192,8100,1,0,0:0:0:0:soft-hitnormal2.ogg
109,192,8200,1,0,0:0:0:0:soft-hitnormal2.ogg
475,0,8200,128,0,8300:0:0:0:0:soft-hitnormal2.ogg
109,0,8300,128,0,8400:0:0:0:0:soft-hitnormal2.ogg
402,192,8300,1,0,0:0:0:0:soft-hitnormal2.ogg
182,192,8400,1,0,0:0:0:0:soft-hitnormal2.ogg
402,0,8400,128,0,8500:0:0:0:0:soft-hitnormal2.ogg
182,0,8500,128,0,8600:0:0:0:0:soft-hitnormal2.ogg
329,192,8500,1,0,0:0:0:0:soft-hitnormal2.ogg
109,192,8600,1,0,0:0:0:0:soft-hitnormal2.ogg
329,0,8600,128,0,8700:0:0:0:0:soft-hitnormal2.ogg
109,0,8700,128,0,8800:0:0:0:0:soft-hitnormal2.ogg
402,192,8700,1,0,0:0:0:0:soft-hitnormal2.ogg
36,192,8800,1,0,0:0:0:0:soft-hitnormal2.ogg
182,192,8800,1,0,0:0:0:0:soft-hitnormal2.ogg
402,0,8800,128,0,8900:0:0:0:0:soft-hitnormal2.ogg
256,0,8800,128,0,9600:0:0:0:0:soft-hitnormal2.ogg
36,0,8900,128,0,9000:0:0:0:0:soft-hitnormal2.ogg
329,192,8900,1,0,0:0:0:0:soft-hitnormal2.ogg
475,192,8900,1,0,0:0:0:0:soft-hitnormal2.ogg
109,192,9000,1,0,0:0:0:0:soft-hitnormal2.ogg
182,192,9000,1,0,0:0:0:0:soft-hitnormal2.ogg
475,0,9000,128,0,9100:0:0:0:0:soft-hitnormal2.ogg
109,0,9100,128,0,9200:0:0:0:0:soft-hitnormal2.ogg
329,192,9100,1,0,0:0:0:0:soft-hitnormal2.ogg
402,192,9100,1,0,0:0:0:0:soft-hitnormal2.ogg
36,192,9200,1,0,0:0:0:0:soft-hitnormal2.ogg
182,192,9200,1,0,0:0:0:0:soft-hitnormal2.ogg
402,0,9200,128,0,9300:0:0:0:0:soft-hitnormal2.ogg
36,0,9300,128,0,9400:0:0:0:0:soft-hitnormal2.ogg
329,192,9300,1,0,0:0:0:0:soft-hitnormal2.ogg
475,192,9300,1,0,0:0:0:0:soft-hitnormal2.ogg
109,192,9400,1,0,0:0:0:0:soft-hitnormal2.ogg
182,192,9400,1,0,0:0:0:0:soft-hitnormal2.ogg
475,0,9400,128,0,9500:0:0:0:0:soft-hitnormal2.ogg
329,192,9500,1,0,0:0:0:0:soft-hitnormal2.ogg
402,192,9500,1,0,0:0:0:0:soft-hitnormal2.ogg
182,0,9500,128,0,9600:0:0:0:0:soft-hitnormal2.ogg
109,192,9600,1,0,0:0:0:0:soft-hitnormal2.ogg
329,0,9600,128,0,9700:0:0:0:0:soft-hitnormal2.ogg
36,0,9600,128,0,11200:0:0:0:0:soft-hitnormal2.ogg
256,0,9700,128,0,9800:0:0:0:0:soft-hitnormal2.ogg
182,0,9800,128,0,9900:0:0:0:0:soft-hitnormal2.ogg
475,192,9800,1,0,0:0:0:0:soft-hitnormal2.ogg
109,0,9900,128,0,10000:0:0:0:0:soft-hitnormal2.ogg
182,0,10000,128,0,10100:0:0:0:0:soft-hitnormal2.ogg
402,192,10000,1,0,0:0:0:0:soft-hitnormal2.ogg
256,0,10100,128,0,10200:0:0:0:0:soft-hitnormal2.ogg
182,0,10200,128,0,10300:0:0:0:0:soft-hitnormal2.ogg
329,192,10200,1,0,0:0:0:0:soft-hitnormal2.ogg
256,0,10300,128,0,10400:0:0:0:0:soft-hitnormal2.ogg
109,192,10400,1,0,0:0:0:0:soft-hitnormal2.ogg
329,0,10400,128,0,10500:0:0:0:0:soft-hitnormal2.ogg
475,0,10400,128,0,11200:0:0:0:0:soft-hitnormal2.ogg
402,0,10500,128,0,10700:0:0:0:0:soft-hitnormal2.ogg
182,192,10600,1,0,0:0:0:0:soft-hitnormal2.ogg
329,0,10600,128,0,10700:0:0:0:0:soft-hitnormal2.ogg
109,192,10700,1,0,0:0:0:0:soft-hitnormal2.ogg
256,0,10700,128,0,10800:0:0:0:0:soft-hitnormal2.ogg
329,0,10800,128,0,11000:0:0:0:0:soft-hitnormal2.ogg
402,192,10800,1,0,0:0:0:0:soft-hitnormal2.ogg
109,192,10900,1,0,0:0:0:0:soft-hitnormal2.ogg
256,0,10900,128,0,11100:0:0:0:0:soft-hitnormal2.ogg
182,0,11000,128,0,11100:0:0:0:0:soft-hitnormal2.ogg
402,192,11000,1,0,0:0:0:0:soft-hitnormal2.ogg
329,192,11100,1,0,0:0:0:0:soft-hitnormal2.ogg
109,0,11100,128,0,11200:0:0:0:0:soft-hitnormal2.ogg
182,0,11200,128,0,11300:0:0:0:0:soft-hitnormal2.ogg
256,192,11200,1,0,0:0:0:0:soft-hitnormal2.ogg
402,0,11200,128,0,12800:0:0:0:0:soft-hitnormal2.ogg
109,0,11300,128,0,11400:0:0:0:0:soft-hitnormal2.ogg
182,0,11400,128,0,11500:0:0:0:0:soft-hitnormal2.ogg
329,192,11400,1,0,0:0:0:0:soft-hitnormal2.ogg
256,0,11500,128,0,11600:0:0:0:0:soft-hitnormal2.ogg
182,0,11600,128,0,11700:0:0:0:0:soft-hitnormal2.ogg
475,192,11600,1,0,0:0:0:0:soft-hitnormal2.ogg
256,0,11700,128,0,11800:0:0:0:0:soft-hitnormal2.ogg
182,192,11800,1,0,0:0:0:0:soft-hitnormal2.ogg
329,0,11800,128,0,11900:0:0:0:0:soft-hitnormal2.ogg
475,0,11900,128,0,12000:0:0:0:0:soft-hitnormal2.ogg
36,192,12000,1,0,0:0:0:0:soft-hitnormal2.ogg
329,0,12000,128,0,12200:0:0:0:0:soft-hitnormal2.ogg
109,0,12000,128,0,12800:0:0:0:0:soft-hitnormal2.ogg
256,0,12100,128,0,12200:0:0:0:0:soft-hitnormal2.ogg
182,0,12200,128,0,12300:0:0:0:0:soft-hitnormal2.ogg
475,192,12200,1,0,0:0:0:0:soft-hitnormal2.ogg
256,0,12300,128,0,12400:0:0:0:0:soft-hitnormal2.ogg
329,192,12300,1,0,0:0:0:0:soft-hitnormal2.ogg
182,0,12400,128,0,12500:0:0:0:0:soft-hitnormal2.ogg
475,192,12400,1,0,0:0:0:0:soft-hitnormal2.ogg
36,0,12500,128,0,12600:0:0:0:0:soft-hitnormal2.ogg
256,192,12500,1,0,0:0:0:0:soft-hitnormal2.ogg
182,192,12600,1,0,0:0:0:0:soft-hitnormal2.ogg
329,0,12600,128,0,12800:0:0:0:0:soft-hitnormal2.ogg
36,192,12700,1,0,0:0:0:0:soft-hitnormal2.ogg
256,0,12700,128,0,12800:0:0:0:0:soft-hitnormal2.ogg
182,192,12800,1,0,0:0:0:0:soft-hitnormal2.ogg
475,192,12800,1,0,0:0:0:0:soft-hitnormal2.ogg
36,192,12900,1,0,0:0:0:0:soft-hitnormal2.ogg
256,192,12900,1,0,0:0:0:0:soft-hitnormal2.ogg
475,0,12900,128,0,13300:0:0:0:0:soft-hitnormal2.ogg
36,0,13000,128,0,13500:0:0:0:0:soft-hitnormal2.ogg
329,192,13000,1,0,0:0:0:0:soft-hitnormal2.ogg
402,192,13000,1,0,0:0:0:0:soft-hitnormal2.ogg
109,192,13100,1,0,0:0:0:0:soft-hitnormal2.ogg
256,192,13100,1,0,0:0:0:0:soft-hitnormal2.ogg
402,0,13100,128,0,13600:0:0:0:0:soft-hitnormal2.ogg
109,0,13200,128,0,13400:0:0:0:0:soft-hitnormal2.ogg
182,192,13200,1,0,0:0:0:0:soft-hitnormal2.ogg
329,192,13200,1,0,0:0:0:0:soft-hitnormal2.ogg
256,192,13300,1,0,0:0:0:0:soft-hitnormal2.ogg
329,0,13300,128,0,13600:0:0:0:0:soft-hitnormal2.ogg
475,0,13400,128,0,13600:0:0:0:0:soft-hitnormal2.ogg
109,0,13500,128,0,13700:0:0:0:0:soft-hitnormal2.ogg
182,192,13500,1,0,0:0:0:0:soft-hitnormal2.ogg
36,0,13600,128,0,13800:0:0:0:0:soft-hitnormal2.ogg
182,0,13600,128,0,13700:0:0:0:0:soft-hitnormal2.ogg
256,192,13600,1,0,0:0:0:0:soft-hitnormal2.ogg
329,0,13700,128,0,13800:0:0:0:0:soft-hitnormal2.ogg
402,192,13700,1,0,0:0:0:0:soft-hitnormal2.ogg
475,0,13700,128,0,14000:0:0:0:0:soft-hitnormal2.ogg
109,0,13800,128,0,13900:0:0:0:0:soft-hitnormal2.ogg
182,192,13800,1,0,0:0:0:0:soft-hitnormal2.ogg
256,192,13900,1,0,0:0:0:0:soft-hitnormal2.ogg
329,192,13900,1,0,0:0:0:0:soft-hitnormal2.ogg
402,0,13900,128,0,14000:0:0:0:0:soft-hitnormal2.ogg
36,0,14000,128,0,14100:0:0:0:0:soft-hitnormal2.ogg
109,192,14000,1,0,0:0:0:0:soft-hitnormal2.ogg
182,192,14000,1,0,0:0:0:0:soft-hitnormal2.ogg
329,192,14100,1,0,0:0:0:0:soft-hitnormal2.ogg
402,192,14100,1,0,0:0:0:0:soft-hitnormal2.ogg
475,0,14100,128,0,14200:0:0:0:0:soft-hitnormal2.ogg
36,192,14200,1,0,0:0:0:0:soft-hitnormal2.ogg
109,0,14200,128,0,14300:0:0:0:0:soft-hitnormal2.ogg
182,192,14200,1,0,0:0:0:0:soft-hitnormal2.ogg
329,192,14300,1,0,0:0:0:0:soft-hitnormal2.ogg
475,192,14300,1,0,0:0:0:0:soft-hitnormal2.ogg
402,0,14300,128,0,14400:0:0:0:0:soft-hitnormal2.ogg
36,192,14400,1,0,0:0:0:0:soft-hitnormal2.ogg
109,192,14400,1,0,0:0:0:0:soft-hitnormal2.ogg
182,0,14400,128,0,14750:0:0:0:0:soft-hitnormal2.ogg
256,192,14400,1,0,0:0:0:0:soft-hitnormal2.ogg
475,192,14400,1,0,0:0:0:0:soft-hitnormal2.ogg
329,192,14500,1,0,0:0:0:0:soft-hitnormal2.ogg
402,192,14500,1,0,0:0:0:0:soft-hitnormal2.ogg
109,192,14600,1,0,0:0:0:0:soft-hitnormal2.ogg
256,192,14600,1,0,0:0:0:0:soft-hitnormal2.ogg
402,192,14700,1,0,0:0:0:0:soft-hitnormal2.ogg
475,192,14700,1,0,0:0:0:0:soft-hitnormal2.ogg
36,192,14800,1,0,0:0:0:0:soft-hitnormal2.ogg
109,192,14800,1,0,0:0:0:0:soft-hitnormal2.ogg
256,192,14800,1,0,0:0:0:0:soft-hitnormal2.ogg
329,0,14800,128,0,15150:0:0:0:0:soft-hitnormal2.ogg
182,192,14900,1,0,0:0:0:0:soft-hitnormal2.ogg
402,192,14900,1,0,0:0:0:0:soft-hitnormal2.ogg
109,192,15000,1,0,0:0:0:0:soft-hitnormal2.ogg
256,192,15000,1,0,0:0:0:0:soft-hitnormal2.ogg
182,192,15100,1,0,0:0:0:0:soft-hitnormal2.ogg
475,192,15100,1,0,0:0:0:0:soft-hitnormal2.ogg
36,192,15200,1,0,0:0:0:0:soft-hitnormal2.ogg
109,0,15200,128,0,15450:0:0:0:0:soft-hitnormal2.ogg
256,192,15200,1,0,0:0:0:0:soft-hitnormal2.ogg
329,192,15200,1,0,0:0:0:0:soft-hitnormal2.ogg
402,192,15200,1,0,0:0:0:0:soft-hitnormal2.ogg
182,192,15300,1,0,0:0:0:0:soft-hitnormal2.ogg
475,192,15300,1,0,0:0:0:0:soft-hitnormal2.ogg
256,192,15400,1,0,0:0:0:0:soft-hitnormal2.ogg
329,192,15400,1,0,0:0:0:0:soft-hitnormal2.ogg
36,192,15500,1,0,0:0:0:0:soft-hitnormal2.ogg
109,0,15500,128,0,15950:0:0:0:0:soft-hitnormal2.ogg
182,192,15500,1,0,0:0:0:0:soft-hitnormal2.ogg
402,192,15500,1,0,0:0:0:0:soft-hitnormal2.ogg
475,192,15500,1,0,0:0:0:0:soft-hitnormal2.ogg
256,192,15600,1,0,0:0:0:0:soft-hitnormal2.ogg
329,192,15600,1,0,0:0:0:0:soft-hitnormal2.ogg
36,192,15700,1,0,0:0:0:0:soft-hitnormal2.ogg
182,192,15700,1,0,0:0:0:0:soft-hitnormal2.ogg
256,192,15800,1,0,0:0:0:0:soft-hitnormal2.ogg
329,192,15800,1,0,0:0:0:0:soft-hitnormal2.ogg
402,0,15800,128,0,15950:0:0:0:0:soft-hitnormal2.ogg
475,192,15800,1,0,0:0:0:0:soft-hitnormal2.ogg
36,192,15900,1,0,0:0:0:0:soft-hitnormal2.ogg
182,192,15900,1,0,0:0:0:0:soft-hitnormal2.ogg
36,192,16000,1,0,0:0:0:0:soft-hitnormal2.ogg
109,0,16000,128,0,16050:0:0:0:0:soft-hitnormal2.ogg
182,192,16000,1,0,0:0:0:0:soft-hitnormal2.ogg
256,0,16000,128,0,16100:0:0:0:0:soft-hitnormal2.ogg
329,192,16000,1,0,0:0:0:0:soft-hitnormal2.ogg
402,192,16000,1,0,0:0:0:0:soft-hitnormal2.ogg
475,0,16000,128,0,16300:0:0:0:0:soft-hitnormal2.ogg
329,0,16100,128,0,16200:0:0:0:0:soft-hitnormal2.ogg
109,192,16200,1,0,0:0:0:0:soft-hitnormal2.ogg
402,0,16200,128,0,16300:0:0:0:0:soft-hitnormal2.ogg
329,0,16300,128,0,16400:0:0:0:0:soft-hitnormal2.ogg
36,0,16400,128,0,16700:0:0:0:0:soft-hitnormal2.ogg
109,192,16400,1,0,0:0:0:0:soft-hitnormal2.ogg
182,192,16400,1,0,0:0:0:0:soft-hitnormal2.ogg
256,0,16400,128,0,16500:0:0:0:0:soft-hitnormal2.ogg
402,192,16400,1,0,0:0:0:0:soft-hitnormal2.ogg
475,192,16400,1,0,0:0:0:0:soft-hitnormal2.ogg
329,0,16500,128,0,16600:0:0:0:0:soft-hitnormal2.ogg
256,0,16600,128,0,16700:0:0:0:0:soft-hitnormal2.ogg
402,192,16600,1,0,0:0:0:0:soft-hitnormal2.ogg
182,0,16700,128,0,16800:0:0:0:0:soft-hitnormal2.ogg
36,192,16800,1,0,0:0:0:0:soft-hitnormal2.ogg
109,192,16800,1,0,0:0:0:0:soft-hitnormal2.ogg
256,0,16800,128,0,16900:0:0:0:0:soft-hitnormal2.ogg
329,192,16800,1,0,0:0:0:0:soft-hitnormal2.ogg
402,0,16800,128,0,17100:0:0:0:0:soft-hitnormal2.ogg
475,192,16800,1,0,0:0:0:0:soft-hitnormal2.ogg
182,0,16900,128,0,17000:0:0:0:0:soft-hitnormal2.ogg
109,0,17000,128,0,17100:0:0:0:0:soft-hitnormal2.ogg
329,192,17000,1,0,0:0:0:0:soft-hitnormal2.ogg
36,0,17100,128,0,17200:0:0:0:0:soft-hitnormal2.ogg
109,0,17200,128,0,17500:0:0:0:0:soft-hitnormal2.ogg
182,0,17200,128,0,17300:0:0:0:0:soft-hitnormal2.ogg
256,192,17200,1,0,0:0:0:0:soft-hitnormal2.ogg
329,192,17200,1,0,0:0:0:0:soft-hitnormal2.ogg
402,192,17200,1,0,0:0:0:0:soft-hitnormal2.ogg
475,192,17200,1,0,0:0:0:0:soft-hitnormal2.ogg
256,0,17300,128,0,17400:0:0:0:0:soft-hitnormal2.ogg
36,192,17400,1,0,0:0:0:0:soft-hitnormal2.ogg
329,0,17400,128,0,17500:0:0:0:0:soft-hitnormal2.ogg
402,0,17500,128,0,17600:0:0:0:0:soft-hitnormal2.ogg
36,192,17600,1,0,0:0:0:0:soft-hitnormal2.ogg
109,192,17600,1,0,0:0:0:0:soft-hitnormal2.ogg
182,0,17600,128,0,17900:0:0:0:0:soft-hitnormal2.ogg
329,0,17600,128,0,17700:0:0:0:0:soft-hitnormal2.ogg
475,0,17600,128,0,17650:0:0:0:0:soft-hitnormal2.ogg
256,0,17700,128,0,17800:0:0:0:0:soft-hitnormal2.ogg
109,0,17800,128,0,17900:0:0:0:0:soft-hitnormal2.ogg
402,192,17800,1,0,0:0:0:0:soft-hitnormal2.ogg
329,0,17900,128,0,18000:0:0:0:0:soft-hitnormal2.ogg
36,0,18000,128,0,18100:0:0:0:0:soft-hitnormal2.ogg
109,192,18000,1,0,0:0:0:0:soft-hitnormal2.ogg
182,192,18000,1,0,0:0:0:0:soft-hitnormal2.ogg
256,0,18000,128,0,18300:0:0:0:0:soft-hitnormal2.ogg
402,192,18000,1,0,0:0:0:0:soft-hitnormal2.ogg
475,192,18000,1,0,0:0:0:0:soft-hitnormal2.ogg
109,0,18100,128,0,18200:0:0:0:0:soft-hitnormal2.ogg
182,0,18200,128,0,18300:0:0:0:0:soft-hitnormal2.ogg
329,192,18200,1,0,0:0:0:0:soft-hitnormal2.ogg
109,0,18300,128,0,18400:0:0:0:0:soft-hitnormal2.ogg
36,192,18400,1,0,0:0:0:0:soft-hitnormal2.ogg
182,0,18400,128,0,18500:0:0:0:0:soft-hitnormal2.ogg
256,192,18400,1,0,0:0:0:0:soft-hitnormal2.ogg
329,0,18400,128,0,18700:0:0:0:0:soft-hitnormal2.ogg
402,192,18400,1,0,0:0:0:0:soft-hitnormal2.ogg
475,0,18400,128,0,18450:0:0:0:0:soft-hitnormal2.ogg
256,0,18500,128,0,18600:0:0:0:0:soft-hitnormal2.ogg
109,192,18600,1,0,0:0:0:0:soft-hitnormal2.ogg
402,0,18600,128,0,18700:0:0:0:0:soft-hitnormal2.ogg
256,0,18700,128,0,18800:0:0:0:0:soft-hitnormal2.ogg
36,0,18800,128,0,18850:0:0:0:0:soft-hitnormal2.ogg
109,192,18800,1,0,0:0:0:0:soft-hitnormal2.ogg
182,192,18800,1,0,0:0:0:0:soft-hitnormal2.ogg
329,0,18800,128,0,18900:0:0:0:0:soft-hitnormal2.ogg
402,0,18800,128,0,19100:0:0:0:0:soft-hitnormal2.ogg
475,192,18800,1,0,0:0:0:0:soft-hitnormal2.ogg
256,0,18900,128,0,19000:0:0:0:0:soft-hitnormal2.ogg
182,0,19000,128,0,19100:0:0:0:0:soft-hitnormal2.ogg
475,192,19000,1,0,0:0:0:0:soft-hitnormal2.ogg
109,0,19100,128,0,19200:0:0:0:0:soft-hitnormal2.ogg
36,0,19200,128,0,19300:0:0:0:0:soft-hitnormal2.ogg
182,0,19200,128,0,19500:0:0:0:0:soft-hitnormal2.ogg
256,192,19200,1,0,0:0:0:0:soft-hitnormal2.ogg
329,0,19200,128,0,19250:0:0:0:0:soft-hitnormal2.ogg
402,192,19200,1,0,0:0:0:0:soft-hitnormal2.ogg
475,192,19200,1,0,0:0:0:0:soft-hitnormal2.ogg
256,0,19300,128,0,19400:0:0:0:0:soft-hitnormal2.ogg
109,192,19400,1,0,0:0:0:0:soft-hitnormal2.ogg
329,0,19400,128,0,19500:0:0:0:0:soft-hitnormal2.ogg
402,0,19500,128,0,19600:0:0:0:0:soft-hitnormal2.ogg
36,192,19600,1,0,0:0:0:0:soft-hitnormal2.ogg
109,192,19600,1,0,0:0:0:0:soft-hitnormal2.ogg
182,0,19600,128,0,19900:0:0:0:0:soft-hitnormal2.ogg
256,192,19600,1,0,0:0:0:0:soft-hitnormal2.ogg
329,0,19600,128,0,19700:0:0:0:0:soft-hitnormal2.ogg
475,192,19600,1,0,0:0:0:0:soft-hitnormal2.ogg
402,0,19700,128,0,19800:0:0:0:0:soft-hitnormal2.ogg
36,192,19800,1,0,0:0:0:0:soft-hitnormal2.ogg
329,0,19800,128,0,19900:0:0:0:0:soft-hitnormal2.ogg
256,0,19900,128,0,20000:0:0:0:0:soft-hitnormal2.ogg
36,192,20000,1,0,0:0:0:0:soft-hitnormal2.ogg
109,192,20000,1,0,0:0:0:0:soft-hitnormal2.ogg
182,0,20000,128,0,20100:0:0:0:0:soft-hitnormal2.ogg
329,0,20000,128,0,20300:0:0:0:0:soft-hitnormal2.ogg
402,192,20000,1,0,0:0:0:0:soft-hitnormal2.ogg
475,192,20000,1,0,0:0:0:0:soft-hitnormal2.ogg
109,0,20100,128,0,20200:0:0:0:0:soft-hitnormal2.ogg
182,0,20200,128,0,20300:0:0:0:0:soft-hitnormal2.ogg
402,192,20200,1,0,0:0:0:0:soft-hitnormal2.ogg
109,0,20300,128,0,20400:0:0:0:0:soft-hitnormal2.ogg
36,192,20400,1,0,0:0:0:0:soft-hitnormal2.ogg
182,0,20400,128,0,20500:0:0:0:0:soft-hitnormal2.ogg
256,192,20400,1,0,0:0:0:0:soft-hitnormal2.ogg
329,192,20400,1,0,0:0:0:0:soft-hitnormal2.ogg
402,192,20400,1,0,0:0:0:0:soft-hitnormal2.ogg
475,0,20400,128,0,20700:0:0:0:0:soft-hitnormal2.ogg
256,0,20500,128,0,20600:0:0:0:0:soft-hitnormal2.ogg
182,192,20600,1,0,0:0:0:0:soft-hitnormal2.ogg
329,0,20600,128,0,20700:0:0:0:0:soft-hitnormal2.ogg
402,0,20700,128,0,20800:0:0:0:0:soft-hitnormal2.ogg
36,192,20800,1,0,0:0:0:0:soft-hitnormal2.ogg
109,192,20800,1,0,0:0:0:0:soft-hitnormal2.ogg
182,0,20800,128,0,20850:0:0:0:0:soft-hitnormal2.ogg
256,0,20800,128,0,21100:0:0:0:0:soft-hitnormal2.ogg
329,0,20800,128,0,20900:0:0:0:0:soft-hitnormal2.ogg
475,192,20800,1,0,0:0:0:0:soft-hitnormal2.ogg
109,0,20900,128,0,21000:0:0:0:0:soft-hitnormal2.ogg
36,0,21000,128,0,21100:0:0:0:0:soft-hitnormal2.ogg
402,192,21000,1,0,0:0:0:0:soft-hitnormal2.ogg
109,0,21100,128,0,21200:0:0:0:0:soft-hitnormal2.ogg
36,192,21200,1,0,0:0:0:0:soft-hitnormal2.ogg
182,0,21200,128,0,21300:0:0:0:0:soft-hitnormal2.ogg
256,192,21200,1,0,0:0:0:0:soft-hitnormal2.ogg
329,0,21200,128,0,21500:0:0:0:0:soft-hitnormal2.ogg
402,192,21200,1,0,0:0:0:0:soft-hitnormal2.ogg
475,192,21200,1,0,0:0:0:0:soft-hitnormal2.ogg
256,0,21300,128,0,21400:0:0:0:0:soft-hitnormal2.ogg
182,0,21400,128,0,21500:0:0:0:0:soft-hitnormal2.ogg
475,192,21400,1,0,0:0:0:0:soft-hitnormal2.ogg
256,0,21500,128,0,21600:0:0:0:0:soft-hitnormal2.ogg
36,192,21600,1,0,0:0:0:0:soft-hitnormal2.ogg
109,0,21600,128,0,21900:0:0:0:0:soft-hitnormal2.ogg
182,192,21600,1,0,0:0:0:0:soft-hitnormal2.ogg
329,0,21600,128,0,21700:0:0:0:0:soft-hitnormal2.ogg
402,192,21600,1,0,0:0:0:0:soft-hitnormal2.ogg
475,192,21600,1,0,0:0:0:0:soft-hitnormal2.ogg
402,0,21700,128,0,21800:0:0:0:0:soft-hitnormal2.ogg
182,192,21800,1,0,0:0:0:0:soft-hitnormal2.ogg
329,0,21800,128,0,21900:0:0:0:0:soft-hitnormal2.ogg
256,0,21900,128,0,22000:0:0:0:0:soft-hitnormal2.ogg
36,192,22000,1,0,0:0:0:0:soft-hitnormal2.ogg
109,192,22000,1,0,0:0:0:0:soft-hitnormal2.ogg
182,0,22000,128,0,22100:0:0:0:0:soft-hitnormal2.ogg
329,192,22000,1,0,0:0:0:0:soft-hitnormal2.ogg
402,0,22000,128,0,22300:0:0:0:0:soft-hitnormal2.ogg
475,192,22000,1,0,0:0:0:0:soft-hitnormal2.ogg
256,0,22100,128,0,22200:0:0:0:0:soft-hitnormal2.ogg
182,0,22200,128,0,22300:0:0:0:0:soft-hitnormal2.ogg
329,192,22200,1,0,0:0:0:0:soft-hitnormal2.ogg
109,0,22300,128,0,22600:0:0:0:0:soft-hitnormal2.ogg
36,0,22400,128,0,22450:0:0:0:0:soft-hitnormal2.ogg
182,192,22400,1,0,0:0:0:0:soft-hitnormal2.ogg
256,0,22400,128,0,22700:0:0:0:0:soft-hitnormal2.ogg
329,192,22400,1,0,0:0:0:0:soft-hitnormal2.ogg
402,192,22400,1,0,0:0:0:0:soft-hitnormal2.ogg
475,0,22400,128,0,22600:0:0:0:0:soft-hitnormal2.ogg
329,0,22500,128,0,22600:0:0:0:0:soft-hitnormal2.ogg
36,192,22600,1,0,0:0:0:0:soft-hitnormal2.ogg
182,0,22600,128,0,22800:0:0:0:0:soft-hitnormal2.ogg
402,0,22600,128,0,22700:0:0:0:0:soft-hitnormal2.ogg
329,0,22700,128,0,22800:0:0:0:0:soft-hitnormal2.ogg
36,0,22800,128,0,23100:0:0:0:0:soft-hitnormal2.ogg
109,192,22800,1,0,0:0:0:0:soft-hitnormal2.ogg
256,0,22800,128,0,22900:0:0:0:0:soft-hitnormal2.ogg
402,192,22800,1,0,0:0:0:0:soft-hitnormal2.ogg
475,192,22800,1,0,0:0:0:0:soft-hitnormal2.ogg
329,0,22900,128,0,23100:0:0:0:0:soft-hitnormal2.ogg
109,0,23000,128,0,23200:0:0:0:0:soft-hitnormal2.ogg
256,0,23000,128,0,23100:0:0:0:0:soft-hitnormal2.ogg
402,192,23000,1,0,0:0:0:0:soft-hitnormal2.ogg
182,0,23100,128,0,23200:0:0:0:0:soft-hitnormal2.ogg
36,192,23200,1,0,0:0:0:0:soft-hitnormal2.ogg
256,0,23200,128,0,23400:0:0:0:0:soft-hitnormal2.ogg
329,192,23200,1,0,0:0:0:0:soft-hitnormal2.ogg
402,0,23200,128,0,23500:0:0:0:0:soft-hitnormal2.ogg
475,192,23200,1,0,0:0:0:0:soft-hitnormal2.ogg
182,0,23300,128,0,23500:0:0:0:0:soft-hitnormal2.ogg
109,0,23400,128,0,23500:0:0:0:0:soft-hitnormal2.ogg
329,192,23400,1,0,0:0:0:0:soft-hitnormal2.ogg
475,0,23400,128,0,23600:0:0:0:0:soft-hitnormal2.ogg
36,0,23500,128,0,23600:0:0:0:0:soft-hitnormal2.ogg
109,0,23600,128,0,23900:0:0:0:0:soft-hitnormal2.ogg
182,0,23600,128,0,23800:0:0:0:0:soft-hitnormal2.ogg
256,192,23600,1,0,0:0:0:0:soft-hitnormal2.ogg
329,192,23600,1,0,0:0:0:0:soft-hitnormal2.ogg
402,192,23600,1,0,0:0:0:0:soft-hitnormal2.ogg
256,0,23700,128,0,24000:0:0:0:0:soft-hitnormal2.ogg
329,0,23800,128,0,23900:0:0:0:0:soft-hitnormal2.ogg
475,192,23800,1,0,0:0:0:0:soft-hitnormal2.ogg
36,0,23800,128,0,24000:0:0:0:0:soft-hitnormal2.ogg
402,0,23900,128,0,24300:0:0:0:0:soft-hitnormal2.ogg
109,192,24000,1,0,0:0:0:0:soft-hitnormal2.ogg
182,0,24000,128,0,24300:0:0:0:0:soft-hitnormal2.ogg
329,0,24000,128,0,24200:0:0:0:0:soft-hitnormal2.ogg
475,0,24000,128,0,24050:0:0:0:0:soft-hitnormal2.ogg
256,0,24100,128,0,24300:0:0:0:0:soft-hitnormal2.ogg
36,192,24200,1,0,0:0:0:0:soft-hitnormal2.ogg
109,0,24200,128,0,24300:0:0:0:0:soft-hitnormal2.ogg
475,0,24200,128,0,24400:0:0:0:0:soft-hitnormal2.ogg
329,0,24300,128,0,24400:0:0:0:0:soft-hitnormal2.ogg
36,0,24400,128,0,24700:0:0:0:0:soft-hitnormal2.ogg
109,192,24400,1,0,0:0:0:0:soft-hitnormal2.ogg
182,192,24400,1,0,0:0:0:0:soft-hitnormal2.ogg
256,0,24400,128,0,24700:0:0:0:0:soft-hitnormal2.ogg
402,192,24400,1,0,0:0:0:0:soft-hitnormal2.ogg
109,0,24500,128,0,24600:0:0:0:0:soft-hitnormal2.ogg
182,0,24600,128,0,24700:0:0:0:0:soft-hitnormal2.ogg
329,192,24600,1,0,0:0:0:0:soft-hitnormal2.ogg
402,0,24600,128,0,24800:0:0:0:0:soft-hitnormal2.ogg
109,0,24700,128,0,24900:0:0:0:0:soft-hitnormal2.ogg
36,192,24800,1,0,0:0:0:0:soft-hitnormal2.ogg
182,0,24800,128,0,25100:0:0:0:0:soft-hitnormal2.ogg
256,192,24800,1,0,0:0:0:0:soft-hitnormal2.ogg
329,0,24800,128,0,25100:0:0:0:0:soft-hitnormal2.ogg
475,0,24800,128,0,24850:0:0:0:0:soft-hitnormal2.ogg
256,0,24900,128,0,25000:0:0:0:0:soft-hitnormal2.ogg
36,192,25000,1,0,0:0:0:0:soft-hitnormal2.ogg
402,0,25000,128,0,25100:0:0:0:0:soft-hitnormal2.ogg
475,0,25000,128,0,25200:0:0:0:0:soft-hitnormal2.ogg
256,0,25100,128,0,25200:0:0:0:0:soft-hitnormal2.ogg
36,0,25200,128,0,25250:0:0:0:0:soft-hitnormal2.ogg
109,192,25200,1,0,0:0:0:0:soft-hitnormal2.ogg
182,192,25200,1,0,0:0:0:0:soft-hitnormal2.ogg
329,0,25200,128,0,25400:0:0:0:0:soft-hitnormal2.ogg
402,0,25200,128,0,25500:0:0:0:0:soft-hitnormal2.ogg
256,0,25300,128,0,25500:0:0:0:0:soft-hitnormal2.ogg
36,192,25400,1,0,0:0:0:0:soft-hitnormal2.ogg
182,0,25400,128,0,25500:0:0:0:0:soft-hitnormal2.ogg
475,0,25400,128,0,25600:0:0:0:0:soft-hitnormal2.ogg
109,0,25500,128,0,25700:0:0:0:0:soft-hitnormal2.ogg
36,0,25600,128,0,25900:0:0:0:0:soft-hitnormal2.ogg
182,0,25600,128,0,25900:0:0:0:0:soft-hitnormal2.ogg
256,192,25600,1,0,0:0:0:0:soft-hitnormal2.ogg
329,0,25600,128,0,25650:0:0:0:0:soft-hitnormal2.ogg
402,192,25600,1,0,0:0:0:0:soft-hitnormal2.ogg
256,0,25700,128,0,25900:0:0:0:0:soft-hitnormal2.ogg
109,192,25800,1,0,0:0:0:0:soft-hitnormal2.ogg
329,0,25800,128,0,25900:0:0:0:0:soft-hitnormal2.ogg
475,0,25800,128,0,26000:0:0:0:0:soft-hitnormal2.ogg
402,0,25900,128,0,26000:0:0:0:0:soft-hitnormal2.ogg
36,192,26000,1,0,0:0:0:0:soft-hitnormal2.ogg
109,192,26000,1,0,0:0:0:0:soft-hitnormal2.ogg
182,0,26000,128,0,26300:0:0:0:0:soft-hitnormal2.ogg
256,192,26000,1,0,0:0:0:0:soft-hitnormal2.ogg
329,0,26000,128,0,26100:0:0:0:0:soft-hitnormal2.ogg
402,0,26100,128,0,26300:0:0:0:0:soft-hitnormal2.ogg
36,0,26200,128,0,26400:0:0:0:0:soft-hitnormal2.ogg
329,0,26200,128,0,26300:0:0:0:0:soft-hitnormal2.ogg
475,192,26200,1,0,0:0:0:0:soft-hitnormal2.ogg
256,0,26300,128,0,26400:0:0:0:0:soft-hitnormal2.ogg
109,192,26400,1,0,0:0:0:0:soft-hitnormal2.ogg
182,0,26400,128,0,26500:0:0:0:0:soft-hitnormal2.ogg
329,0,26400,128,0,26500:0:0:0:0:soft-hitnormal2.ogg
402,192,26400,1,0,0:0:0:0:soft-hitnormal2.ogg
475,192,26400,1,0,0:0:0:0:soft-hitnormal2.ogg
109,0,26500,128,0,26600:0:0:0:0:soft-hitnormal2.ogg
256,192,26500,1,0,0:0:0:0:soft-hitnormal2.ogg
182,0,26600,128,0,26700:0:0:0:0:soft-hitnormal2.ogg
329,192,26600,1,0,0:0:0:0:soft-hitnormal2.ogg
402,0,26600,128,0,26800:0:0:0:0:soft-hitnormal2.ogg
109,0,26700,128,0,27100:0:0:0:0:soft-hitnormal2.ogg
475,192,26700,1,0,0:0:0:0:soft-hitnormal2.ogg
36,192,26800,1,0,0:0:0:0:soft-hitnormal2.ogg
182,0,26800,128,0,26900:0:0:0:0:soft-hitnormal2.ogg
256,192,26800,1,0,0:0:0:0:soft-hitnormal2.ogg
329,192,26800,1,0,0:0:0:0:soft-hitnormal2.ogg
475,0,26800,128,0,27000:0:0:0:0:soft-hitnormal2.ogg
256,0,26900,128,0,27100:0:0:0:0:soft-hitnormal2.ogg
402,192,26900,1,0,0:0:0:0:soft-hitnormal2.ogg
182,192,27000,1,0,0:0:0:0:soft-hitnormal2.ogg
329,0,27000,128,0,27100:0:0:0:0:soft-hitnormal2.ogg
36,0,27000,128,0,27200:0:0:0:0:soft-hitnormal2.ogg
475,192,27100,1,0,0:0:0:0:soft-hitnormal2.ogg
402,0,27100,128,0,27400:0:0:0:0:soft-hitnormal2.ogg
109,192,27200,1,0,0:0:0:0:soft-hitnormal2.ogg
182,0,27200,128,0,27250:0:0:0:0:soft-hitnormal2.ogg
256,0,27200,128,0,27500:0:0:0:0:soft-hitnormal2.ogg
329,0,27200,128,0,27600:0:0:0:0:soft-hitnormal2.ogg
109,0,27300,128,0,27400:0:0:0:0:soft-hitnormal2.ogg
475,192,27300,1,0,0:0:0:0:soft-hitnormal2.ogg
36,0,27400,128,0,27500:0:0:0:0:soft-hitnormal2.ogg
182,192,27400,1,0,0:0:0:0:soft-hitnormal2.ogg
109,0,27500,128,0,27600:0:0:0:0:soft-hitnormal2.ogg
402,192,27500,1,0,0:0:0:0:soft-hitnormal2.ogg
475,192,27500,1,0,0:0:0:0:soft-hitnormal2.ogg
182,192,27600,1,0,0:0:0:0:soft-hitnormal2.ogg
256,192,27600,1,0,0:0:0:0:soft-hitnormal2.ogg
36,192,27700,1,0,0:0:0:0:soft-hitnormal2.ogg
109,192,27700,1,0,0:0:0:0:soft-hitnormal2.ogg
329,192,27700,1,0,0:0:0:0:soft-hitnormal2.ogg
475,192,27700,1,0,0:0:0:0:soft-hitnormal2.ogg
182,192,27800,1,0,0:0:0:0:soft-hitnormal2.ogg
256,192,27800,1,0,0:0:0:0:soft-hitnormal2.ogg
402,192,27800,1,0,0:0:0:0:soft-hitnormal2.ogg
36,192,27900,1,0,0:0:0:0:soft-hitnormal2.ogg
109,192,27900,1,0,0:0:0:0:soft-hitnormal2.ogg
329,192,27900,1,0,0:0:0:0:soft-hitnormal2.ogg
36,192,28000,1,0,0:0:0:0:soft-hitnormal2.ogg
109,192,28000,1,0,0:0:0:0:soft-hitnormal2.ogg
182,192,28000,1,0,0:0:0:0:soft-hitnormal2.ogg
256,192,28000,1,0,0:0:0:0:soft-hitnormal2.ogg
402,192,28000,1,0,0:0:0:0:soft-hitnormal2.ogg
475,192,28000,1,0,0:0:0:0:soft-hitnormal2.ogg
109,192,28300,1,0,0:0:0:0:soft-hitnormal2.ogg
182,192,28300,1,0,0:0:0:0:soft-hitnormal2.ogg
329,192,28300,1,0,0:0:0:0:soft-hitnormal2.ogg
402,192,28300,1,0,0:0:0:0:soft-hitnormal2.ogg
182,192,28600,1,0,0:0:0:0:soft-hitnormal2.ogg
329,192,28600,1,0,0:0:0:0:soft-hitnormal2.ogg
36,192,28800,1,0,0:0:0:0:soft-hitnormal2.ogg
109,192,28800,1,0,0:0:0:0:soft-hitnormal2.ogg
256,192,28800,1,0,0:0:0:0:soft-hitnormal2.ogg
402,192,28800,1,0,0:0:0:0:soft-hitnormal2.ogg
475,192,28800,1,0,0:0:0:0:soft-hitnormal2.ogg
329,192,29000,1,0,0:0:0:0:soft-hitnormal2.ogg
402,192,29100,1,0,0:0:0:0:soft-hitnormal2.ogg
182,192,29200,1,0,0:0:0:0:soft-hitnormal2.ogg
256,192,29200,1,0,0:0:0:0:soft-hitnormal2.ogg
329,192,29200,1,0,0:0:0:0:soft-hitnormal2.ogg
402,192,29300,1,0,0:0:0:0:soft-hitnormal2.ogg
329,192,29400,1,0,0:0:0:0:soft-hitnormal2.ogg
256,192,29500,1,0,0:0:0:0:soft-hitnormal2.ogg
109,192,29600,1,0,0:0:0:0:soft-hitnormal2.ogg
182,192,29600,1,0,0:0:0:0:soft-hitnormal2.ogg
256,192,29800,1,0,0:0:0:0:soft-hitnormal2.ogg
329,192,29900,1,0,0:0:0:0:soft-hitnormal2.ogg
402,192,30000,1,0,0:0:0:0:soft-hitnormal2.ogg
475,192,30000,1,0,0:0:0:0:soft-hitnormal2.ogg
256,192,30100,1,0,0:0:0:0:soft-hitnormal2.ogg
329,192,30200,1,0,0:0:0:0:soft-hitnormal2.ogg
182,192,30300,1,0,0:0:0:0:soft-hitnormal2.ogg
36,192,30400,1,0,0:0:0:0:soft-hitnormal2.ogg
109,192,30400,1,0,0:0:0:0:soft-hitnormal2.ogg
182,192,30600,1,0,0:0:0:0:soft-hitnormal2.ogg
256,192,30700,1,0,0:0:0:0:soft-hitnormal2.ogg
109,192,30800,1,0,0:0:0:0:soft-hitnormal2.ogg
329,192,30800,1,0,0:0:0:0:soft-hitnormal2.ogg
402,192,30800,1,0,0:0:0:0:soft-hitnormal2.ogg
182,192,30900,1,0,0:0:0:0:soft-hitnormal2.ogg
256,192,31000,1,0,0:0:0:0:soft-hitnormal2.ogg
329,192,31100,1,0,0:0:0:0:soft-hitnormal2.ogg
109,192,31200,1,0,0:0:0:0:soft-hitnormal2.ogg
182,192,31200,1,0,0:0:0:0:soft-hitnormal2.ogg
36,192,31400,1,0,0:0:0:0:soft-hitnormal2.ogg
329,192,31400,1,0,0:0:0:0:soft-hitnormal2.ogg
256,192,31500,1,0,0:0:0:0:soft-hitnormal2.ogg
182,192,31600,1,0,0:0:0:0:soft-hitnormal2.ogg
402,192,31600,1,0,0:0:0:0:soft-hitnormal2.ogg
475,192,31600,1,0,0:0:0:0:soft-hitnormal2.ogg
256,192,31700,1,0,0:0:0:0:soft-hitnormal2.ogg
182,192,31800,1,0,0:0:0:0:soft-hitnormal2.ogg
402,192,31800,1,0,0:0:0:0:soft-hitnormal2.ogg
109,192,31900,1,0,0:0:0:0:soft-hitnormal2.ogg
182,192,32000,1,0,0:0:0:0:soft-hitnormal2.ogg
256,192,32000,1,0,0:0:0:0:soft-hitnormal2.ogg
182,192,32200,1,0,0:0:0:0:soft-hitnormal2.ogg
109,192,32300,1,0,0:0:0:0:soft-hitnormal2.ogg
36,192,32400,1,0,0:0:0:0:soft-hitnormal2.ogg
329,192,32400,1,0,0:0:0:0:soft-hitnormal2.ogg
402,192,32400,1,0,0:0:0:0:soft-hitnormal2.ogg
109,192,32500,1,0,0:0:0:0:soft-hitnormal2.ogg
182,192,32600,1,0,0:0:0:0:soft-hitnormal2.ogg
256,192,32700,1,0,0:0:0:0:soft-hitnormal2.ogg
109,192,32800,1,0,0:0:0:0:soft-hitnormal2.ogg
182,192,32800,1,0,0:0:0:0:soft-hitnormal2.ogg
256,192,33000,1,0,0:0:0:0:soft-hitnormal2.ogg
109,192,33100,1,0,0:0:0:0:soft-hitnormal2.ogg
329,192,33200,1,0,0:0:0:0:soft-hitnormal2.ogg
402,192,33200,1,0,0:0:0:0:soft-hitnormal2.ogg
475,192,33200,1,0,0:0:0:0:soft-hitnormal2.ogg
182,192,33300,1,0,0:0:0:0:soft-hitnormal2.ogg
256,192,33400,1,0,0:0:0:0:soft-hitnormal2.ogg
329,192,33500,1,0,0:0:0:0:soft-hitnormal2.ogg
36,192,33600,1,0,0:0:0:0:soft-hitnormal2.ogg
109,192,33600,1,0,0:0:0:0:soft-hitnormal2.ogg
402,192,33600,1,0,0:0:0:0:soft-hitnormal2.ogg
182,192,33800,1,0,0:0:0:0:soft-hitnormal2.ogg
256,192,33900,1,0,0:0:0:0:soft-hitnormal2.ogg
182,192,34000,1,0,0:0:0:0:soft-hitnormal2.ogg
329,192,34000,1,0,0:0:0:0:soft-hitnormal2.ogg
402,192,34000,1,0,0:0:0:0:soft-hitnormal2.ogg
109,192,34100,1,0,0:0:0:0:soft-hitnormal2.ogg
256,192,34200,1,0,0:0:0:0:soft-hitnormal2.ogg
329,192,34300,1,0,0:0:0:0:soft-hitnormal2.ogg
109,192,34400,1,0,0:0:0:0:soft-hitnormal2.ogg
182,192,34400,1,0,0:0:0:0:soft-hitnormal2.ogg
402,192,34400,1,0,0:0:0:0:soft-hitnormal2.ogg
475,192,34600,1,0,0:0:0:0:soft-hitnormal2.ogg
402,192,34700,1,0,0:0:0:0:soft-hitnormal2.ogg
36,192,34800,1,0,0:0:0:0:soft-hitnormal2.ogg
256,192,34800,1,0,0:0:0:0:soft-hitnormal2.ogg
329,192,34800,1,0,0:0:0:0:soft-hitnormal2.ogg
109,192,34900,1,0,0:0:0:0:soft-hitnormal2.ogg
182,192,35000,1,0,0:0:0:0:soft-hitnormal2.ogg
256,192,35100,1,0,0:0:0:0:soft-hitnormal2.ogg
36,192,35200,1,0,0:0:0:0:soft-hitnormal2.ogg
109,192,35200,1,0,0:0:0:0:soft-hitnormal2.ogg
402,192,35200,1,0,0:0:0:0:soft-hitnormal2.ogg
475,192,35200,1,0,0:0:0:0:soft-hitnormal2.ogg
256,192,35400,1,0,0:0:0:0:soft-hitnormal2.ogg
329,0,35400,128,0,35500:0:0:0:0:soft-hitnormal2.ogg
109,192,35500,1,0,0:0:0:0:soft-hitnormal2.ogg
36,192,35600,1,0,0:0:0:0:soft-hitnormal2.ogg
182,0,35600,128,0,35700:0:0:0:0:soft-hitnormal2.ogg
402,192,35600,1,0,0:0:0:0:soft-hitnormal2.ogg
475,192,35600,1,0,0:0:0:0:soft-hitnormal2.ogg
109,192,35700,1,0,0:0:0:0:soft-hitnormal2.ogg
256,0,35800,128,0,35900:0:0:0:0:soft-hitnormal2.ogg
329,192,35800,1,0,0:0:0:0:soft-hitnormal2.ogg
402,192,35900,1,0,0:0:0:0:soft-hitnormal2.ogg
109,192,36000,1,0,0:0:0:0:soft-hitnormal2.ogg
182,192,36000,1,0,0:0:0:0:soft-hitnormal2.ogg
475,192,36000,1,0,0:0:0:0:soft-hitnormal2.ogg
36,0,36200,128,0,36300:0:0:0:0:soft-hitnormal2.ogg
256,192,36200,1,0,0:0:0:0:soft-hitnormal2.ogg
182,192,36300,1,0,0:0:0:0:soft-hitnormal2.ogg
109,192,36400,1,0,0:0:0:0:soft-hitnormal2.ogg
256,0,36400,128,0,36500:0:0:0:0:soft-hitnormal2.ogg
329,192,36400,1,0,0:0:0:0:soft-hitnormal2.ogg
402,192,36400,1,0,0:0:0:0:soft-hitnormal2.ogg
182,192,36500,1,0,0:0:0:0:soft-hitnormal2.ogg
109,0,36600,128,0,36700:0:0:0:0:soft-hitnormal2.ogg
256,192,36600,1,0,0:0:0:0:soft-hitnormal2.ogg
329,192,36700,1,0,0:0:0:0:soft-hitnormal2.ogg
182,192,36800,1,0,0:0:0:0:soft-hitnormal2.ogg
256,192,36800,1,0,0:0:0:0:soft-hitnormal2.ogg
402,192,37000,1,0,0:0:0:0:soft-hitnormal2.ogg
475,0,37000,128,0,37100:0:0:0:0:soft-hitnormal2.ogg
329,192,37100,1,0,0:0:0:0:soft-hitnormal2.ogg
109,192,37200,1,0,0:0:0:0:soft-hitnormal2.ogg
182,192,37200,1,0,0:0:0:0:soft-hitnormal2.ogg
256,0,37200,128,0,37300:0:0:0:0:soft-hitnormal2.ogg
402,192,37200,1,0,0:0:0:0:soft-hitnormal2.ogg
329,192,37300,1,0,0:0:0:0:soft-hitnormal2.ogg
256,192,37400,1,0,0:0:0:0:soft-hitnormal2.ogg
402,0,37400,128,0,37500:0:0:0:0:soft-hitnormal2.ogg
182,192,37500,1,0,0:0:0:0:soft-hitnormal2.ogg
36,192,37600,1,0,0:0:0:0:soft-hitnormal2.ogg
402,192,37600,1,0,0:0:0:0:soft-hitnormal2.ogg
475,192,37600,1,0,0:0:0:0:soft-hitnormal2.ogg
182,0,37800,128,0,37900:0:0:0:0:soft-hitnormal2.ogg
329,192,37800,1,0,0:0:0:0:soft-hitnormal2.ogg
256,192,37900,1,0,0:0:0:0:soft-hitnormal2.ogg
36,192,38000,1,0,0:0:0:0:soft-hitnormal2.ogg
109,192,38000,1,0,0:0:0:0:soft-hitnormal2.ogg
182,192,38000,1,0,0:0:0:0:soft-hitnormal2.ogg
329,0,38000,128,0,38100:0:0:0:0:soft-hitnormal2.ogg
402,192,38100,1,0,0:0:0:0:soft-hitnormal2.ogg
109,192,38200,1,0,0:0:0:0:soft-hitnormal2.ogg
256,0,38200,128,0,38300:0:0:0:0:soft-hitnormal2.ogg
475,192,38300,1,0,0:0:0:0:soft-hitnormal2.ogg
36,0,38400,128,0,39200:0:0:0:0:soft-hitnormal2.ogg
329,192,38400,1,0,0:0:0:0:soft-hitnormal2.ogg
402,192,38400,1,0,0:0:0:0:soft-hitnormal2.ogg
182,192,38600,1,0,0:0:0:0:soft-hitnormal2.ogg
475,0,38600,128,0,38700:0:0:0:0:soft-hitnormal2.ogg
256,192,38700,1,0,0:0:0:0:soft-hitnormal2.ogg
109,192,38800,1,0,0:0:0:0:soft-hitnormal2.ogg
182,192,38800,1,0,0:0:0:0:soft-hitnormal2.ogg
329,0,38800,128,0,38900:0:0:0:0:soft-hitnormal2.ogg
402,192,38800,1,0,0:0:0:0:soft-hitnormal2.ogg
475,192,38900,1,0,0:0:0:0:soft-hitnormal2.ogg
256,192,39000,1,0,0:0:0:0:soft-hitnormal2.ogg
402,0,39000,128,0,39100:0:0:0:0:soft-hitnormal2.ogg
182,192,39100,1,0,0:0:0:0:soft-hitnormal2.ogg
109,192,39200,1,0,0:0:0:0:soft-hitnormal2.ogg
329,0,39200,128,0,39500:0:0:0:0:soft-hitnormal2.ogg
402,192,39200,1,0,0:0:0:0:soft-hitnormal2.ogg
475,192,39200,1,0,0:0:0:0:soft-hitnormal2.ogg
109,0,39400,128,0,39500:0:0:0:0:soft-hitnormal2.ogg
256,192,39400,1,0,0:0:0:0:soft-hitnormal2.ogg
182,192,39500,1,0,0:0:0:0:soft-hitnormal2.ogg
475,0,39500,128,0,40000:0:0:0:0:soft-hitnormal2.ogg
36,192,39600,1,0,0:0:0:0:soft-hitnormal2.ogg
109,192,39600,1,0,0:0:0:0:soft-hitnormal2.ogg
256,0,39600,128,0,39700:0:0:0:0:soft-hitnormal2.ogg
402,192,39600,1,0,0:0:0:0:soft-hitnormal2.ogg
329,192,39700,1,0,0:0:0:0:soft-hitnormal2.ogg
182,0,39800,128,0,39900:0:0:0:0:soft-hitnormal2.ogg
256,192,39800,1,0,0:0:0:0:soft-hitnormal2.ogg
36,0,39800,128,0,40000:0:0:0:0:soft-hitnormal2.ogg
329,192,39900,1,0,0:0:0:0:soft-hitnormal2.ogg
182,192,40000,1,0,0:0:0:0:soft-hitnormal2.ogg
256,192,40000,1,0,0:0:0:0:soft-hitnormal2.ogg
402,192,40000,1,0,0:0:0:0:soft-hitnormal2.ogg
109,192,40050,1,0,0:0:0:0:soft-hitnormal2.ogg
329,192,40100,1,0,0:0:0:0:soft-hitnormal2.ogg
475,192,40150,1,0,0:0:0:0:soft-hitnormal2.ogg
36,192,40200,1,0,0:0:0:0:soft-hitnormal2.ogg
182,192,40250,1,0,0:0:0:0:soft-hitnormal2.ogg
329,192,40300,1,0,0:0:0:0:soft-hitnormal2.ogg
475,192,40350,1,0,0:0:0:0:soft-hitnormal2.ogg
36,192,40400,1,0,0:0:0:0:soft-hitnormal2.ogg
109,192,40450,1,0,0:0:0:0:soft-hitnormal2.ogg
256,192,40500,1,0,0:0:0:0:soft-hitnormal2.ogg
402,192,40550,1,0,0:0:0:0:soft-hitnormal2.ogg
475,192,40600,1,0,0:0:0:0:soft-hitnormal2.ogg
109,192,40650,1,0,0:0:0:0:soft-hitnormal2.ogg
182,192,40700,1,0,0:0:0:0:soft-hitnormal2.ogg
329,192,40750,1,0,0:0:0:0:soft-hitnormal2.ogg
36,192,40800,1,0,0:0:0:0:soft-hitnormal2.ogg
402,192,40800,1,0,0:0:0:0:soft-hitnormal2.ogg
109,192,40850,1,0,0:0:0:0:soft-hitnormal2.ogg
475,192,40850,1,0,0:0:0:0:soft-hitnormal2.ogg
182,192,40900,1,0,0:0:0:0:soft-hitnormal2.ogg
402,192,40900,1,0,0:0:0:0:soft-hitnormal2.ogg
36,192,40950,1,0,0:0:0:0:soft-hitnormal2.ogg
329,192,40950,1,0,0:0:0:0:soft-hitnormal2.ogg
109,192,41000,1,0,0:0:0:0:soft-hitnormal2.ogg
256,192,41000,1,0,0:0:0:0:soft-hitnormal2.ogg
182,192,41050,1,0,0:0:0:0:soft-hitnormal2.ogg
329,192,41050,1,0,0:0:0:0:soft-hitnormal2.ogg
36,192,41100,1,0,0:0:0:0:soft-hitnormal2.ogg
402,192,41100,1,0,0:0:0:0:soft-hitnormal2.ogg
109,192,41150,1,0,0:0:0:0:soft-hitnormal2.ogg
475,192,41150,1,0,0:0:0:0:soft-hitnormal2.ogg
182,192,41200,1,0,0:0:0:0:soft-hitnormal2.ogg
402,192,41200,1,0,0:0:0:0:soft-hitnormal2.ogg
36,192,41250,1,0,0:0:0:0:soft-hitnormal2.ogg
329,192,41250,1,0,0:0:0:0:soft-hitnormal2.ogg
109,192,41300,1,0,0:0:0:0:soft-hitnormal2.ogg
256,192,41300,1,0,0:0:0:0:soft-hitnormal2.ogg
182,192,41350,1,0,0:0:0:0:soft-hitnormal2.ogg
329,192,41350,1,0,0:0:0:0:soft-hitnormal2.ogg
36,192,41400,1,0,0:0:0:0:soft-hitnormal2.ogg
402,192,41400,1,0,0:0:0:0:soft-hitnormal2.ogg
109,192,41450,1,0,0:0:0:0:soft-hitnormal2.ogg
475,192,41450,1,0,0:0:0:0:soft-hitnormal2.ogg
182,192,41500,1,0,0:0:0:0:soft-hitnormal2.ogg
402,192,41500,1,0,0:0:0:0:soft-hitnormal2.ogg
36,192,41550,1,0,0:0:0:0:soft-hitnormal2.ogg
329,192,41550,1,0,0:0:0:0:soft-hitnormal2.ogg
109,192,41600,1,0,0:0:0:0:soft-hitnormal2.ogg
182,192,41600,1,0,0:0:0:0:soft-hitnormal2.ogg
256,192,41600,1,0,0:0:0:0:soft-hitnormal2.ogg
402,0,41600,128,0,41900:0:0:0:0:soft-hitnormal2.ogg
475,0,41600,128,0,43100:0:0:0:0:soft-hitnormal2.ogg
36,0,41800,128,0,42100:0:0:0:0:soft-hitnormal2.ogg
256,192,41800,1,0,0:0:0:0:soft-hitnormal2.ogg
329,0,41800,128,0,41900:0:0:0:0:soft-hitnormal2.ogg
109,0,42000,128,0,42300:0:0:0:0:soft-hitnormal2.ogg
182,192,42000,1,0,0:0:0:0:soft-hitnormal2.ogg
256,192,42000,1,0,0:0:0:0:soft-hitnormal2.ogg
329,192,42000,1,0,0:0:0:0:soft-hitnormal2.ogg
402,0,42000,128,0,42100:0:0:0:0:soft-hitnormal2.ogg
36,0,42200,128,0,42300:0:0:0:0:soft-hitnormal2.ogg
256,192,42200,1,0,0:0:0:0:soft-hitnormal2.ogg
329,0,42200,128,0,42700:0:0:0:0:soft-hitnormal2.ogg
36,192,42400,1,0,0:0:0:0:soft-hitnormal2.ogg
109,192,42400,1,0,0:0:0:0:soft-hitnormal2.ogg
182,192,42400,1,0,0:0:0:0:soft-hitnormal2.ogg
256,192,42400,1,0,0:0:0:0:soft-hitnormal2.ogg
402,192,42400,1,0,0:0:0:0:soft-hitnormal2.ogg
182,192,42600,1,0,0:0:0:0:soft-hitnormal2.ogg
402,0,42600,128,0,42700:0:0:0:0:soft-hitnormal2.ogg
36,0,42600,128,0,43200:0:0:0:0:soft-hitnormal2.ogg
109,0,42800,128,0,43100:0:0:0:0:soft-hitnormal2.ogg
182,192,42800,1,0,0:0:0:0:soft-hitnormal2.ogg
256,192,42800,1,0,0:0:0:0:soft-hitnormal2.ogg
329,0,42800,128,0,42900:0:0:0:0:soft-hitnormal2.ogg
402,192,42800,1,0,0:0:0:0:soft-hitnormal2.ogg
329,192,43000,1,0,0:0:0:0:soft-hitnormal2.ogg
402,0,43000,128,0,43100:0:0:0:0:soft-hitnormal2.ogg
256,0,43000,128,0,44900:0:0:0:0:soft-hitnormal2.ogg
109,192,43200,1,0,0:0:0:0:soft-hitnormal2.ogg
182,192,43200,1,0,0:0:0:0:soft-hitnormal2.ogg
329,192,43200,1,0,0:0:0:0:soft-hitnormal2.ogg
402,0,43200,128,0,43500:0:0:0:0:soft-hitnormal2.ogg
475,192,43200,1,0,0:0:0:0:soft-hitnormal2.ogg
36,0,43400,128,0,43500:0:0:0:0:soft-hitnormal2.ogg
182,192,43400,1,0,0:0:0:0:soft-hitnormal2.ogg
329,0,43400,128,0,43700:0:0:0:0:soft-hitnormal2.ogg
36,0,43600,128,0,43900:0:0:0:0:soft-hitnormal2.ogg
109,192,43600,1,0,0:0:0:0:soft-hitnormal2.ogg
182,192,43600,1,0,0:0:0:0:soft-hitnormal2.ogg
402,0,43600,128,0,43700:0:0:0:0:soft-hitnormal2.ogg
475,192,43600,1,0,0:0:0:0:soft-hitnormal2.ogg
329,0,43800,128,0,43900:0:0:0:0:soft-hitnormal2.ogg
402,192,43800,1,0,0:0:0:0:soft-hitnormal2.ogg
475,0,43800,128,0,44800:0:0:0:0:soft-hitnormal2.ogg
36,192,44000,1,0,0:0:0:0:soft-hitnormal2.ogg
109,192,44000,1,0,0:0:0:0:soft-hitnormal2.ogg
329,192,44000,1,0,0:0:0:0:soft-hitnormal2.ogg
402,192,44000,1,0,0:0:0:0:soft-hitnormal2.ogg
182,192,44100,1,0,0:0:0:0:soft-hitnormal2.ogg
36,0,44200,128,0,44700:0:0:0:0:soft-hitnormal2.ogg
109,192,44200,1,0,0:0:0:0:soft-hitnormal2.ogg
402,0,44200,128,0,44300:0:0:0:0:soft-hitnormal2.ogg
109,0,44400,128,0,44500:0:0:0:0:soft-hitnormal2.ogg
329,192,44400,1,0,0:0:0:0:soft-hitnormal2.ogg
402,192,44400,1,0,0:0:0:0:soft-hitnormal2.ogg
182,192,44500,1,0,0:0:0:0:soft-hitnormal2.ogg
329,192,44600,1,0,0:0:0:0:soft-hitnormal2.ogg
402,0,44600,128,0,44700:0:0:0:0:soft-hitnormal2.ogg
36,192,44800,1,0,0:0:0:0:soft-hitnormal2.ogg
109,0,44800,128,0,45100:0:0:0:0:soft-hitnormal2.ogg
182,192,44800,1,0,0:0:0:0:soft-hitnormal2.ogg
329,192,44800,1,0,0:0:0:0:soft-hitnormal2.ogg
402,0,44800,128,0,46100:0:0:0:0:soft-hitnormal2.ogg
36,0,45000,128,0,45100:0:0:0:0:soft-hitnormal2.ogg
256,192,45000,1,0,0:0:0:0:soft-hitnormal2.ogg
475,0,45000,128,0,45300:0:0:0:0:soft-hitnormal2.ogg
36,0,45200,128,0,45500:0:0:0:0:soft-hitnormal2.ogg
109,0,45200,128,0,45300:0:0:0:0:soft-hitnormal2.ogg
182,192,45200,1,0,0:0:0:0:soft-hitnormal2.ogg
256,192,45200,1,0,0:0:0:0:soft-hitnormal2.ogg
329,192,45200,1,0,0:0:0:0:soft-hitnormal2.ogg
109,0,45400,128,0,45700:0:0:0:0:soft-hitnormal2.ogg
329,192,45400,1,0,0:0:0:0:soft-hitnormal2.ogg
475,0,45400,128,0,45500:0:0:0:0:soft-hitnormal2.ogg
36,192,45600,1,0,0:0:0:0:soft-hitnormal2.ogg
182,192,45600,1,0,0:0:0:0:soft-hitnormal2.ogg
256,192,45600,1,0,0:0:0:0:soft-hitnormal2.ogg
329,192,45600,1,0,0:0:0:0:soft-hitnormal2.ogg
475,192,45600,1,0,0:0:0:0:soft-hitnormal2.ogg
109,0,45800,128,0,45900:0:0:0:0:soft-hitnormal2.ogg
182,0,45800,128,0,46200:0:0:0:0:soft-hitnormal2.ogg
256,192,45800,1,0,0:0:0:0:soft-hitnormal2.ogg
36,0,46000,128,0,46100:0:0:0:0:soft-hitnormal2.ogg
109,192,46000,1,0,0:0:0:0:soft-hitnormal2.ogg
256,192,46000,1,0,0:0:0:0:soft-hitnormal2.ogg
329,192,46000,1,0,0:0:0:0:soft-hitnormal2.ogg
475,0,46000,128,0,46300:0:0:0:0:soft-hitnormal2.ogg
109,192,46200,1,0,0:0:0:0:soft-hitnormal2.ogg
402,0,46200,128,0,46300:0:0:0:0:soft-hitnormal2.ogg
36,0,46200,128,0,47900:0:0:0:0:soft-hitnormal2.ogg
109,192,46400,1,0,0:0:0:0:soft-hitnormal2.ogg
182,192,46400,1,0,0:0:0:0:soft-hitnormal2.ogg
256,192,46400,1,0,0:0:0:0:soft-hitnormal2.ogg
329,192,46400,1,0,0:0:0:0:soft-hitnormal2.ogg
402,0,46400,128,0,46700:0:0:0:0:soft-hitnormal2.ogg
475,192,46400,1,0,0:0:0:0:soft-hitnormal2.ogg
109,0,46600,128,0,46700:0:0:0:0:soft-hitnormal2.ogg
182,192,46600,1,0,0:0:0:0:soft-hitnormal2.ogg
475,0,46600,128,0,46900:0:0:0:0:soft-hitnormal2.ogg
109,192,46800,1,0,0:0:0:0:soft-hitnormal2.ogg
182,192,46800,1,0,0:0:0:0:soft-hitnormal2.ogg
256,192,46800,1,0,0:0:0:0:soft-hitnormal2.ogg
329,0,46800,128,0,47100:0:0:0:0:soft-hitnormal2.ogg
402,0,46800,128,0,46900:0:0:0:0:soft-hitnormal2.ogg
182,192,47000,1,0,0:0:0:0:soft-hitnormal2.ogg
256,0,47000,128,0,47100:0:0:0:0:soft-hitnormal2.ogg
402,0,47000,128,0,47300:0:0:0:0:soft-hitnormal2.ogg
109,0,47200,128,0,47500:0:0:0:0:soft-hitnormal2.ogg
182,192,47200,1,0,0:0:0:0:soft-hitnormal2.ogg
256,192,47200,1,0,0:0:0:0:soft-hitnormal2.ogg
329,192,47200,1,0,0:0:0:0:soft-hitnormal2.ogg
475,0,47200,128,0,48000:0:0:0:0:soft-hitnormal2.ogg
182,0,47400,128,0,47700:0:0:0:0:soft-hitnormal2.ogg
256,192,47400,1,0,0:0:0:0:soft-hitnormal2.ogg
402,0,47400,128,0,47500:0:0:0:0:soft-hitnormal2.ogg
109,0,47600,128,0,47700:0:0:0:0:soft-hitnormal2.ogg
256,192,47600,1,0,0:0:0:0:soft-hitnormal2.ogg
329,192,47600,1,0,0:0:0:0:soft-hitnormal2.ogg
402,0,47600,128,0,47900:0:0:0:0:soft-hitnormal2.ogg
109,192,47800,1,0,0:0:0:0:soft-hitnormal2.ogg
182,0,47800,128,0,47900:0:0:0:0:soft-hitnormal2.ogg
329,0,47800,128,0,48100:0:0:0:0:soft-hitnormal2.ogg
36,192,48000,1,0,0:0:0:0:soft-hitnormal2.ogg
109,0,48000,128,0,49300:0:0:0:0:soft-hitnormal2.ogg
182,0,48000,128,0,48300:0:0:0:0:soft-hitnormal2.ogg
256,192,48000,1,0,0:0:0:0:soft-hitnormal2.ogg
402,192,48000,1,0,0:0:0:0:soft-hitnormal2.ogg
329,0,48200,128,0,48300:0:0:0:0:soft-hitnormal2.ogg
402,0,48200,128,0,48500:0:0:0:0:soft-hitnormal2.ogg
475,192,48200,1,0,0:0:0:0:soft-hitnormal2.ogg
36,0,48400,128,0,48700:0:0:0:0:soft-hitnormal2.ogg
182,0,48400,128,0,48500:0:0:0:0:soft-hitnormal2.ogg
256,192,48400,1,0,0:0:0:0:soft-hitnormal2.ogg
329,192,48400,1,0,0:0:0:0:soft-hitnormal2.ogg
475,192,48400,1,0,0:0:0:0:soft-hitnormal2.ogg
182,192,48600,1,0,0:0:0:0:soft-hitnormal2.ogg
402,0,48600,128,0,48700:0:0:0:0:soft-hitnormal2.ogg
475,0,48600,128,0,48900:0:0:0:0:soft-hitnormal2.ogg
36,192,48800,1,0,0:0:0:0:soft-hitnormal2.ogg
182,192,48800,1,0,0:0:0:0:soft-hitnormal2.ogg
256,192,48800,1,0,0:0:0:0:soft-hitnormal2.ogg
329,192,48800,1,0,0:0:0:0:soft-hitnormal2.ogg
402,192,48800,1,0,0:0:0:0:soft-hitnormal2.ogg
182,0,49000,128,0,49200:0:0:0:0:soft-hitnormal2.ogg
329,192,49000,1,0,0:0:0:0:soft-hitnormal2.ogg
475,0,49000,128,0,49100:0:0:0:0:soft-hitnormal2.ogg
36,0,49200,128,0,49300:0:0:0:0:soft-hitnormal2.ogg
256,192,49200,1,0,0:0:0:0:soft-hitnormal2.ogg
329,0,49200,128,0,49500:0:0:0:0:soft-hitnormal2.ogg
402,192,49200,1,0,0:0:0:0:soft-hitnormal2.ogg
475,192,49200,1,0,0:0:0:0:soft-hitnormal2.ogg
109,0,49400,128,0,49500:0:0:0:0:soft-hitnormal2.ogg
182,192,49400,1,0,0:0:0:0:soft-hitnormal2.ogg
402,0,49400,128,0,51200:0:0:0:0:soft-hitnormal2.ogg
36,192,49600,1,0,0:0:0:0:soft-hitnormal2.ogg
109,192,49600,1,0,0:0:0:0:soft-hitnormal2.ogg
182,192,49600,1,0,0:0:0:0:soft-hitnormal2.ogg
256,192,49600,1,0,0:0:0:0:soft-hitnormal2.ogg
329,192,49600,1,0,0:0:0:0:soft-hitnormal2.ogg
475,0,49600,128,0,49900:0:0:0:0:soft-hitnormal2.ogg
36,0,49800,128,0,50100:0:0:0:0:soft-hitnormal2.ogg
256,192,49800,1,0,0:0:0:0:soft-hitnormal2.ogg
329,0,49800,128,0,49900:0:0:0:0:soft-hitnormal2.ogg
109,0,50000,128,0,50300:0:0:0:0:soft-hitnormal2.ogg
182,192,50000,1,0,0:0:0:0:soft-hitnormal2.ogg
256,192,50000,1,0,0:0:0:0:soft-hitnormal2.ogg
329,192,50000,1,0,0:0:0:0:soft-hitnormal2.ogg
475,0,50000,128,0,50100:0:0:0:0:soft-hitnormal2.ogg
36,0,50200,128,0,50300:0:0:0:0:soft-hitnormal2.ogg
329,0,50200,128,0,50500:0:0:0:0:soft-hitnormal2.ogg
475,192,50200,1,0,0:0:0:0:soft-hitnormal2.ogg
36,192,50400,1,0,0:0:0:0:soft-hitnormal2.ogg
109,192,50400,1,0,0:0:0:0:soft-hitnormal2.ogg
182,192,50400,1,0,0:0:0:0:soft-hitnormal2.ogg
256,192,50400,1,0,0:0:0:0:soft-hitnormal2.ogg
475,192,50400,1,0,0:0:0:0:soft-hitnormal2.ogg
182,0,50600,128,0,50900:0:0:0:0:soft-hitnormal2.ogg
256,192,50600,1,0,0:0:0:0:soft-hitnormal2.ogg
329,0,50600,128,0,50700:0:0:0:0:soft-hitnormal2.ogg
36,192,50800,1,0,0:0:0:0:soft-hitnormal2.ogg
109,192,50800,1,0,0:0:0:0:soft-hitnormal2.ogg
256,192,50800,1,0,0:0:0:0:soft-hitnormal2.ogg
329,192,50800,1,0,0:0:0:0:soft-hitnormal2.ogg
475,0,50800,128,0,50900:0:0:0:0:soft-hitnormal2.ogg
36,192,51000,1,0,0:0:0:0:soft-hitnormal2.ogg
182,0,51000,128,0,51100:0:0:0:0:soft-hitnormal2.ogg
109,0,51200,128,0,52500:0:0:0:0:soft-hitnormal2.ogg
182,192,51200,1,0,0:0:0:0:soft-hitnormal2.ogg
256,192,51200,1,0,0:0:0:0:soft-hitnormal2.ogg
329,0,51200,128,0,51500:0:0:0:0:soft-hitnormal2.ogg
475,192,51200,1,0,0:0:0:0:soft-hitnormal2.ogg
36,192,51300,1,0,0:0:0:0:soft-hitnormal2.ogg
182,0,51400,128,0,51700:0:0:0:0:soft-hitnormal2.ogg
256,192,51400,1,0,0:0:0:0:soft-hitnormal2.ogg
402,0,51400,128,0,51500:0:0:0:0:soft-hitnormal2.ogg
475,192,51400,1,0,0:0:0:0:soft-hitnormal2.ogg
36,192,51500,1,0,0:0:0:0:soft-hitnormal2.ogg
256,192,51600,1,0,0:0:0:0:soft-hitnormal2.ogg
329,0,51600,128,0,51700:0:0:0:0:soft-hitnormal2.ogg
402,0,51600,128,0,51900:0:0:0:0:soft-hitnormal2.ogg
475,192,51700,1,0,0:0:0:0:soft-hitnormal2.ogg
36,0,51800,128,0,52100:0:0:0:0:soft-hitnormal2.ogg
182,0,51800,128,0,51900:0:0:0:0:soft-hitnormal2.ogg
329,192,51800,1,0,0:0:0:0:soft-hitnormal2.ogg
256,192,51900,1,0,0:0:0:0:soft-hitnormal2.ogg
475,192,51900,1,0,0:0:0:0:soft-hitnormal2.ogg
182,192,52000,1,0,0:0:0:0:soft-hitnormal2.ogg
329,192,52000,1,0,0:0:0:0:soft-hitnormal2.ogg
402,192,52100,1,0,0:0:0:0:soft-hitnormal2.ogg
475,192,52100,1,0,0:0:0:0:soft-hitnormal2.ogg
36,0,52200,128,0,52300:0:0:0:0:soft-hitnormal2.ogg
182,192,52200,1,0,0:0:0:0:soft-hitnormal2.ogg
256,192,52200,1,0,0:0:0:0:soft-hitnormal2.ogg
475,0,52200,128,0,52400:0:0:0:0:soft-hitnormal2.ogg
329,192,52300,1,0,0:0:0:0:soft-hitnormal2.ogg
402,192,52300,1,0,0:0:0:0:soft-hitnormal2.ogg
36,192,52400,1,0,0:0:0:0:soft-hitnormal2.ogg
182,0,52400,128,0,52700:0:0:0:0:soft-hitnormal2.ogg
256,0,52400,128,0,52500:0:0:0:0:soft-hitnormal2.ogg
402,192,52500,1,0,0:0:0:0:soft-hitnormal2.ogg
475,192,52500,1,0,0:0:0:0:soft-hitnormal2.ogg
36,192,52600,1,0,0:0:0:0:soft-hitnormal2.ogg
109,0,52600,128,0,52700:0:0:0:0:soft-hitnormal2.ogg
256,192,52600,1,0,0:0:0:0:soft-hitnormal2.ogg
329,0,52600,128,0,52900:0:0:0:0:soft-hitnormal2.ogg
402,192,52700,1,0,0:0:0:0:soft-hitnormal2.ogg
475,192,52700,1,0,0:0:0:0:soft-hitnormal2.ogg
36,192,52800,1,0,0:0:0:0:soft-hitnormal2.ogg
109,192,52800,1,0,0:0:0:0:soft-hitnormal2.ogg
182,192,52800,1,0,0:0:0:0:soft-hitnormal2.ogg
256,0,52800,128,0,53100:0:0:0:0:soft-hitnormal2.ogg
402,192,52900,1,0,0:0:0:0:soft-hitnormal2.ogg
475,192,52900,1,0,0:0:0:0:soft-hitnormal2.ogg
109,192,53000,1,0,0:0:0:0:soft-hitnormal2.ogg
182,192,53000,1,0,0:0:0:0:soft-hitnormal2.ogg
329,192,53100,1,0,0:0:0:0:soft-hitnormal2.ogg
402,192,53100,1,0,0:0:0:0:soft-hitnormal2.ogg
36,192,53200,1,0,0:0:0:0:soft-hitnormal2.ogg
109,192,53200,1,0,0:0:0:0:soft-hitnormal2.ogg
182,192,53200,1,0,0:0:0:0:soft-hitnormal2.ogg
256,0,53200,128,0,53550:0:0:0:0:soft-hitnormal2.ogg
475,192,53200,1,0,0:0:0:0:soft-hitnormal2.ogg
329,192,53300,1,0,0:0:0:0:soft-hitnormal2.ogg
402,192,53300,1,0,0:0:0:0:soft-hitnormal2.ogg
109,192,53400,1,0,0:0:0:0:soft-hitnormal2.ogg
182,192,53400,1,0,0:0:0:0:soft-hitnormal2.ogg
329,192,53500,1,0,0:0:0:0:soft-hitnormal2.ogg
402,192,53500,1,0,0:0:0:0:soft-hitnormal2.ogg
36,192,53600,1,0,0:0:0:0:soft-hitnormal2.ogg
109,192,53600,1,0,0:0:0:0:soft-hitnormal2.ogg
182,192,53600,1,0,0:0:0:0:soft-hitnormal2.ogg
256,0,53600,128,0,53700:0:0:0:0:soft-hitnormal2.ogg
475,192,53600,1,0,0:0:0:0:soft-hitnormal2.ogg
329,192,53700,1,0,0:0:0:0:soft-hitnormal2.ogg
402,192,53700,1,0,0:0:0:0:soft-hitnormal2.ogg
36,192,53800,1,0,0:0:0:0:soft-hitnormal2.ogg
109,192,53800,1,0,0:0:0:0:soft-hitnormal2.ogg
182,192,53800,1,0,0:0:0:0:soft-hitnormal2.ogg
256,0,53800,128,0,54050:0:0:0:0:soft-hitnormal2.ogg
475,192,53800,1,0,0:0:0:0:soft-hitnormal2.ogg
329,192,53900,1,0,0:0:0:0:soft-hitnormal2.ogg
402,192,53900,1,0,0:0:0:0:soft-hitnormal2.ogg
109,192,54000,1,0,0:0:0:0:soft-hitnormal2.ogg
182,192,54000,1,0,0:0:0:0:soft-hitnormal2.ogg
36,192,54100,1,0,0:0:0:0:soft-hitnormal2.ogg
256,0,54100,128,0,54300:0:0:0:0:soft-hitnormal2.ogg
329,192,54100,1,0,0:0:0:0:soft-hitnormal2.ogg
402,192,54100,1,0,0:0:0:0:soft-hitnormal2.ogg
475,192,54100,1,0,0:0:0:0:soft-hitnormal2.ogg
109,192,54200,1,0,0:0:0:0:soft-hitnormal2.ogg
182,192,54200,1,0,0:0:0:0:soft-hitnormal2.ogg
329,192,54300,1,0,0:0:0:0:soft-hitnormal2.ogg
402,192,54300,1,0,0:0:0:0:soft-hitnormal2.ogg
256,0,54400,128,0,55900:0:0:0:0:soft-hitnormal2.ogg
36,192,56000,1,0,0:0:0:0:soft-hitnormal2.ogg
109,192,56000,1,0,0:0:0:0:soft-hitnormal2.ogg
256,192,56000,1,0,0:0:0:0:soft-hitnormal2.ogg
329,192,56000,1,0,0:0:0:0:soft-hitnormal2.ogg
475,0,56000,128,0,56500:0:0:0:0:soft-hitnormal2.ogg
182,192,56100,1,0,0:0:0:0:soft-hitnormal2.ogg
402,192,56100,1,0,0:0:0:0:soft-hitnormal2.ogg
109,192,56200,1,0,0:0:0:0:soft-hitnormal2.ogg
256,192,56200,1,0,0:0:0:0:soft-hitnormal2.ogg
329,192,56200,1,0,0:0:0:0:soft-hitnormal2.ogg
36,192,56300,1,0,0:0:0:0:soft-hitnormal2.ogg
182,192,56300,1,0,0:0:0:0:soft-hitnormal2.ogg
109,192,56400,1,0,0:0:0:0:soft-hitnormal2.ogg
256,192,56400,1,0,0:0:0:0:soft-hitnormal2.ogg
329,192,56400,1,0,0:0:0:0:soft-hitnormal2.ogg
402,0,56400,128,0,56700:0:0:0:0:soft-hitnormal2.ogg
36,192,56500,1,0,0:0:0:0:soft-hitnormal2.ogg
182,192,56500,1,0,0:0:0:0:soft-hitnormal2.ogg
109,0,56600,128,0,56900:0:0:0:0:soft-hitnormal2.ogg
329,192,56600,1,0,0:0:0:0:soft-hitnormal2.ogg
475,192,56600,1,0,0:0:0:0:soft-hitnormal2.ogg
182,192,56700,1,0,0:0:0:0:soft-hitnormal2.ogg
256,192,56700,1,0,0:0:0:0:soft-hitnormal2.ogg
36,0,56800,128,0,57300:0:0:0:0:soft-hitnormal2.ogg
329,192,56800,1,0,0:0:0:0:soft-hitnormal2.ogg
402,192,56800,1,0,0:0:0:0:soft-hitnormal2.ogg
475,192,56800,1,0,0:0:0:0:soft-hitnormal2.ogg
182,192,56900,1,0,0:0:0:0:soft-hitnormal2.ogg
256,192,56900,1,0,0:0:0:0:soft-hitnormal2.ogg
109,192,57000,1,0,0:0:0:0:soft-hitnormal2.ogg
329,192,57000,1,0,0:0:0:0:soft-hitnormal2.ogg
402,192,57000,1,0,0:0:0:0:soft-hitnormal2.ogg
256,192,57100,1,0,0:0:0:0:soft-hitnormal2.ogg
475,192,57100,1,0,0:0:0:0:soft-hitnormal2.ogg
109,192,57200,1,0,0:0:0:0:soft-hitnormal2.ogg
329,192,57200,1,0,0:0:0:0:soft-hitnormal2.ogg
402,192,57200,1,0,0:0:0:0:soft-hitnormal2.ogg
182,0,57200,128,0,57600:0:0:0:0:soft-hitnormal2.ogg
256,192,57300,1,0,0:0:0:0:soft-hitnormal2.ogg
475,192,57300,1,0,0:0:0:0:soft-hitnormal2.ogg
36,192,57400,1,0,0:0:0:0:soft-hitnormal2.ogg
109,192,57400,1,0,0:0:0:0:soft-hitnormal2.ogg
329,192,57400,1,0,0:0:0:0:soft-hitnormal2.ogg
256,0,57400,128,0,57600:0:0:0:0:soft-hitnormal2.ogg
402,192,57500,1,0,0:0:0:0:soft-hitnormal2.ogg
475,192,57500,1,0,0:0:0:0:soft-hitnormal2.ogg
36,192,57600,1,0,0:0:0:0:soft-hitnormal2.ogg
109,192,57600,1,0,0:0:0:0:soft-hitnormal2.ogg
329,0,57600,128,0,58100:0:0:0:0:soft-hitnormal2.ogg
256,192,57700,1,0,0:0:0:0:soft-hitnormal2.ogg
402,192,57700,1,0,0:0:0:0:soft-hitnormal2.ogg
109,192,57800,1,0,0:0:0:0:soft-hitnormal2.ogg
182,192,57800,1,0,0:0:0:0:soft-hitnormal2.ogg
475,192,57800,1,0,0:0:0:0:soft-hitnormal2.ogg
36,192,57900,1,0,0:0:0:0:soft-hitnormal2.ogg
256,192,57900,1,0,0:0:0:0:soft-hitnormal2.ogg
109,0,58000,128,0,58500:0:0:0:0:soft-hitnormal2.ogg
182,192,58000,1,0,0:0:0:0:soft-hitnormal2.ogg
402,192,58000,1,0,0:0:0:0:soft-hitnormal2.ogg
475,192,58000,1,0,0:0:0:0:soft-hitnormal2.ogg
36,192,58100,1,0,0:0:0:0:soft-hitnormal2.ogg
256,192,58100,1,0,0:0:0:0:soft-hitnormal2.ogg
182,192,58200,1,0,0:0:0:0:soft-hitnormal2.ogg
329,192,58200,1,0,0:0:0:0:soft-hitnormal2.ogg
402,192,58200,1,0,0:0:0:0:soft-hitnormal2.ogg
256,192,58300,1,0,0:0:0:0:soft-hitnormal2.ogg
475,192,58300,1,0,0:0:0:0:soft-hitnormal2.ogg
36,192,58400,1,0,0:0:0:0:soft-hitnormal2.ogg
182,192,58400,1,0,0:0:0:0:soft-hitnormal2.ogg
329,192,58400,1,0,0:0:0:0:soft-hitnormal2.ogg
402,0,58400,128,0,58900:0:0:0:0:soft-hitnormal2.ogg
256,192,58500,1,0,0:0:0:0:soft-hitnormal2.ogg
475,192,58500,1,0,0:0:0:0:soft-hitnormal2.ogg
36,192,58600,1,0,0:0:0:0:soft-hitnormal2.ogg
109,192,58600,1,0,0:0:0:0:soft-hitnormal2.ogg
182,192,58600,1,0,0:0:0:0:soft-hitnormal2.ogg
256,192,58700,1,0,0:0:0:0:soft-hitnormal2.ogg
329,192,58700,1,0,0:0:0:0:soft-hitnormal2.ogg
475,192,58700,1,0,0:0:0:0:soft-hitnormal2.ogg
109,192,58800,1,0,0:0:0:0:soft-hitnormal2.ogg
182,192,58800,1,0,0:0:0:0:soft-hitnormal2.ogg
36,0,58800,128,0,59300:0:0:0:0:soft-hitnormal2.ogg
256,192,58900,1,0,0:0:0:0:soft-hitnormal2.ogg
329,192,58900,1,0,0:0:0:0:soft-hitnormal2.ogg
475,192,58900,1,0,0:0:0:0:soft-hitnormal2.ogg
109,192,59000,1,0,0:0:0:0:soft-hitnormal2.ogg
182,192,59000,1,0,0:0:0:0:soft-hitnormal2.ogg
402,192,59000,1,0,0:0:0:0:soft-hitnormal2.ogg
256,192,59100,1,0,0:0:0:0:soft-hitnormal2.ogg
329,192,59100,1,0,0:0:0:0:soft-hitnormal2.ogg
109,192,59200,1,0,0:0:0:0:soft-hitnormal2.ogg
182,192,59200,1,0,0:0:0:0:soft-hitnormal2.ogg
402,192,59200,1,0,0:0:0:0:soft-hitnormal2.ogg
475,0,59200,128,0,60600:0:0:0:0:soft-hitnormal2.ogg
256,192,59300,1,0,0:0:0:0:soft-hitnormal2.ogg
329,192,59300,1,0,0:0:0:0:soft-hitnormal2.ogg
36,192,59400,1,0,0:0:0:0:soft-hitnormal2.ogg
109,192,59400,1,0,0:0:0:0:soft-hitnormal2.ogg
402,192,59400,1,0,0:0:0:0:soft-hitnormal2.ogg
182,192,59500,1,0,0:0:0:0:soft-hitnormal2.ogg
256,192,59500,1,0,0:0:0:0:soft-hitnormal2.ogg
36,192,59600,1,0,0:0:0:0:soft-hitnormal2.ogg
329,192,59600,1,0,0:0:0:0:soft-hitnormal2.ogg
402,192,59600,1,0,0:0:0:0:soft-hitnormal2.ogg
109,192,59700,1,0,0:0:0:0:soft-hitnormal2.ogg
182,192,59700,1,0,0:0:0:0:soft-hitnormal2.ogg
36,192,59800,1,0,0:0:0:0:soft-hitnormal2.ogg
256,192,59800,1,0,0:0:0:0:soft-hitnormal2.ogg
329,192,59800,1,0,0:0:0:0:soft-hitnormal2.ogg
182,192,59900,1,0,0:0:0:0:soft-hitnormal2.ogg
402,192,59900,1,0,0:0:0:0:soft-hitnormal2.ogg
36,192,60000,1,0,0:0:0:0:soft-hitnormal2.ogg
109,192,60000,1,0,0:0:0:0:soft-hitnormal2.ogg
256,192,60000,1,0,0:0:0:0:soft-hitnormal2.ogg
329,192,60000,1,0,0:0:0:0:soft-hitnormal2.ogg
182,192,60100,1,0,0:0:0:0:soft-hitnormal2.ogg
402,192,60100,1,0,0:0:0:0:soft-hitnormal2.ogg
109,192,60200,1,0,0:0:0:0:soft-hitnormal2.ogg
256,192,60200,1,0,0:0:0:0:soft-hitnormal2.ogg
329,192,60200,1,0,0:0:0:0:soft-hitnormal2.ogg
36,192,60300,1,0,0:0:0:0:soft-hitnormal2.ogg
182,192,60300,1,0,0:0:0:0:soft-hitnormal2.ogg
109,192,60400,1,0,0:0:0:0:soft-hitnormal2.ogg
256,192,60400,1,0,0:0:0:0:soft-hitnormal2.ogg
329,192,60400,1,0,0:0:0:0:soft-hitnormal2.ogg
402,192,60400,1,0,0:0:0:0:soft-hitnormal2.ogg
36,192,60500,1,0,0:0:0:0:soft-hitnormal2.ogg
182,192,60500,1,0,0:0:0:0:soft-hitnormal2.ogg
109,192,60600,1,0,0:0:0:0:soft-hitnormal2.ogg
256,192,60600,1,0,0:0:0:0:soft-hitnormal2.ogg
329,192,60600,1,0,0:0:0:0:soft-hitnormal2.ogg
402,0,60600,128,0,60800:0:0:0:0:soft-hitnormal2.ogg
182,192,60700,1,0,0:0:0:0:soft-hitnormal2.ogg
475,192,60700,1,0,0:0:0:0:soft-hitnormal2.ogg
36,0,60800,128,0,61000:0:0:0:0:soft-hitnormal2.ogg
109,192,60800,1,0,0:0:0:0:soft-hitnormal2.ogg
256,192,60800,1,0,0:0:0:0:soft-hitnormal2.ogg
329,192,60800,1,0,0:0:0:0:soft-hitnormal2.ogg
182,192,60900,1,0,0:0:0:0:soft-hitnormal2.ogg
402,192,60900,1,0,0:0:0:0:soft-hitnormal2.ogg
109,192,61000,1,0,0:0:0:0:soft-hitnormal2.ogg
256,192,61000,1,0,0:0:0:0:soft-hitnormal2.ogg
329,192,61000,1,0,0:0:0:0:soft-hitnormal2.ogg
475,0,61000,128,0,61200:0:0:0:0:soft-hitnormal2.ogg
36,192,61100,1,0,0:0:0:0:soft-hitnormal2.ogg
402,192,61100,1,0,0:0:0:0:soft-hitnormal2.ogg
109,192,61200,1,0,0:0:0:0:soft-hitnormal2.ogg
182,0,61200,128,0,61400:0:0:0:0:soft-hitnormal2.ogg
256,192,61200,1,0,0:0:0:0:soft-hitnormal2.ogg
329,192,61200,1,0,0:0:0:0:soft-hitnormal2.ogg
402,192,61300,1,0,0:0:0:0:soft-hitnormal2.ogg
475,192,61300,1,0,0:0:0:0:soft-hitnormal2.ogg
36,192,61400,1,0,0:0:0:0:soft-hitnormal2.ogg
109,192,61400,1,0,0:0:0:0:soft-hitnormal2.ogg
256,192,61400,1,0,0:0:0:0:soft-hitnormal2.ogg
329,0,61400,128,0,61600:0:0:0:0:soft-hitnormal2.ogg
182,192,61500,1,0,0:0:0:0:soft-hitnormal2.ogg
402,192,61500,1,0,0:0:0:0:soft-hitnormal2.ogg
36,192,61600,1,0,0:0:0:0:soft-hitnormal2.ogg
109,192,61600,1,0,0:0:0:0:soft-hitnormal2.ogg
475,192,61600,1,0,0:0:0:0:soft-hitnormal2.ogg
256,0,61600,128,0,62400:0:0:0:0:soft-hitnormal2.ogg
182,192,61700,1,0,0:0:0:0:soft-hitnormal2.ogg
329,192,61700,1,0,0:0:0:0:soft-hitnormal2.ogg
36,192,61800,1,0,0:0:0:0:soft-hitnormal2.ogg
109,192,61800,1,0,0:0:0:0:soft-hitnormal2.ogg
402,192,61800,1,0,0:0:0:0:soft-hitnormal2.ogg
329,192,61900,1,0,0:0:0:0:soft-hitnormal2.ogg
475,192,61900,1,0,0:0:0:0:soft-hitnormal2.ogg
36,192,62000,1,0,0:0:0:0:soft-hitnormal2.ogg
109,192,62000,1,0,0:0:0:0:soft-hitnormal2.ogg
182,192,62000,1,0,0:0:0:0:soft-hitnormal2.ogg
329,192,62100,1,0,0:0:0:0:soft-hitnormal2.ogg
402,192,62100,1,0,0:0:0:0:soft-hitnormal2.ogg
36,192,62200,1,0,0:0:0:0:soft-hitnormal2.ogg
182,192,62200,1,0,0:0:0:0:soft-hitnormal2.ogg
475,192,62200,1,0,0:0:0:0:soft-hitnormal2.ogg
109,192,62300,1,0,0:0:0:0:soft-hitnormal2.ogg
402,192,62300,1,0,0:0:0:0:soft-hitnormal2.ogg
36,0,62400,128,0,62900:0:0:0:0:soft-hitnormal2.ogg
182,192,62400,1,0,0:0:0:0:soft-hitnormal2.ogg
329,192,62400,1,0,0:0:0:0:soft-hitnormal2.ogg
475,192,62400,1,0,0:0:0:0:soft-hitnormal2.ogg
256,192,62500,1,0,0:0:0:0:soft-hitnormal2.ogg
402,192,62500,1,0,0:0:0:0:soft-hitnormal2.ogg
109,192,62600,1,0,0:0:0:0:soft-hitnormal2.ogg
182,192,62600,1,0,0:0:0:0:soft-hitnormal2.ogg
329,192,62600,1,0,0:0:0:0:soft-hitnormal2.ogg
256,192,62700,1,0,0:0:0:0:soft-hitnormal2.ogg
402,192,62700,1,0,0:0:0:0:soft-hitnormal2.ogg
109,0,62800,128,0,63100:0:0:0:0:soft-hitnormal2.ogg
182,192,62800,1,0,0:0:0:0:soft-hitnormal2.ogg
329,192,62800,1,0,0:0:0:0:soft-hitnormal2.ogg
475,192,62800,1,0,0:0:0:0:soft-hitnormal2.ogg
256,192,62900,1,0,0:0:0:0:soft-hitnormal2.ogg
402,192,62900,1,0,0:0:0:0:soft-hitnormal2.ogg
36,192,63000,1,0,0:0:0:0:soft-hitnormal2.ogg
182,192,63000,1,0,0:0:0:0:soft-hitnormal2.ogg
329,192,63000,1,0,0:0:0:0:soft-hitnormal2.ogg
402,0,63000,128,0,63300:0:0:0:0:soft-hitnormal2.ogg
256,192,63100,1,0,0:0:0:0:soft-hitnormal2.ogg
475,192,63100,1,0,0:0:0:0:soft-hitnormal2.ogg
36,192,63200,1,0,0:0:0:0:soft-hitnormal2.ogg
109,192,63200,1,0,0:0:0:0:soft-hitnormal2.ogg
182,192,63200,1,0,0:0:0:0:soft-hitnormal2.ogg
475,0,63200,128,0,63700:0:0:0:0:soft-hitnormal2.ogg
256,192,63300,1,0,0:0:0:0:soft-hitnormal2.ogg
329,192,63300,1,0,0:0:0:0:soft-hitnormal2.ogg
109,192,63400,1,0,0:0:0:0:soft-hitnormal2.ogg
182,192,63400,1,0,0:0:0:0:soft-hitnormal2.ogg
402,192,63400,1,0,0:0:0:0:soft-hitnormal2.ogg
36,192,63500,1,0,0:0:0:0:soft-hitnormal2.ogg
256,192,63500,1,0,0:0:0:0:soft-hitnormal2.ogg
109,192,63600,1,0,0:0:0:0:soft-hitnormal2.ogg
182,192,63600,1,0,0:0:0:0:soft-hitnormal2.ogg
329,0,63600,128,0,63800:0:0:0:0:soft-hitnormal2.ogg
402,192,63600,1,0,0:0:0:0:soft-hitnormal2.ogg
36,192,63700,1,0,0:0:0:0:soft-hitnormal2.ogg
256,192,63700,1,0,0:0:0:0:soft-hitnormal2.ogg
182,192,63800,1,0,0:0:0:0:soft-hitnormal2.ogg
402,192,63800,1,0,0:0:0:0:soft-hitnormal2.ogg
475,192,63800,1,0,0:0:0:0:soft-hitnormal2.ogg
256,0,63800,128,0,64000:0:0:0:0:soft-hitnormal2.ogg
109,192,63900,1,0,0:0:0:0:soft-hitnormal2.ogg
329,192,63900,1,0,0:0:0:0:soft-hitnormal2.ogg
36,192,64000,1,0,0:0:0:0:soft-hitnormal2.ogg
182,0,64000,128,0,64400:0:0:0:0:soft-hitnormal2.ogg
402,192,64000,1,0,0:0:0:0:soft-hitnormal2.ogg
475,192,64000,1,0,0:0:0:0:soft-hitnormal2.ogg
256,192,64100,1,0,0:0:0:0:soft-hitnormal2.ogg
329,192,64100,1,0,0:0:0:0:soft-hitnormal2.ogg
109,192,64200,1,0,0:0:0:0:soft-hitnormal2.ogg
402,192,64200,1,0,0:0:0:0:soft-hitnormal2.ogg
475,192,64200,1,0,0:0:0:0:soft-hitnormal2.ogg
36,192,64300,1,0,0:0:0:0:soft-hitnormal2.ogg
256,192,64300,1,0,0:0:0:0:soft-hitnormal2.ogg
109,192,64400,1,0,0:0:0:0:soft-hitnormal2.ogg
329,192,64400,1,0,0:0:0:0:soft-hitnormal2.ogg
402,0,64400,128,0,64800:0:0:0:0:soft-hitnormal2.ogg
475,192,64400,1,0,0:0:0:0:soft-hitnormal2.ogg
182,192,64500,1,0,0:0:0:0:soft-hitnormal2.ogg
256,192,64500,1,0,0:0:0:0:soft-hitnormal2.ogg
36,192,64600,1,0,0:0:0:0:soft-hitnormal2.ogg
109,192,64600,1,0,0:0:0:0:soft-hitnormal2.ogg
329,192,64600,1,0,0:0:0:0:soft-hitnormal2.ogg
256,192,64700,1,0,0:0:0:0:soft-hitnormal2.ogg
475,192,64700,1,0,0:0:0:0:soft-hitnormal2.ogg
36,192,64800,1,0,0:0:0:0:soft-hitnormal2.ogg
109,0,64800,128,0,65200:0:0:0:0:soft-hitnormal2.ogg
182,192,64800,1,0,0:0:0:0:soft-hitnormal2.ogg
329,192,64800,1,0,0:0:0:0:soft-hitnormal2.ogg
256,192,64900,1,0,0:0:0:0:soft-hitnormal2.ogg
402,192,64900,1,0,0:0:0:0:soft-hitnormal2.ogg
182,192,65000,1,0,0:0:0:0:soft-hitnormal2.ogg
329,192,65000,1,0,0:0:0:0:soft-hitnormal2.ogg
475,192,65000,1,0,0:0:0:0:soft-hitnormal2.ogg
36,192,65100,1,0,0:0:0:0:soft-hitnormal2.ogg
256,192,65100,1,0,0:0:0:0:soft-hitnormal2.ogg
182,192,65200,1,0,0:0:0:0:soft-hitnormal2.ogg
329,192,65200,1,0,0:0:0:0:soft-hitnormal2.ogg
402,192,65200,1,0,0:0:0:0:soft-hitnormal2.ogg
475,0,65200,128,0,65600:0:0:0:0:soft-hitnormal2.ogg
109,192,65300,1,0,0:0:0:0:soft-hitnormal2.ogg
256,192,65300,1,0,0:0:0:0:soft-hitnormal2.ogg
36,192,65400,1,0,0:0:0:0:soft-hitnormal2.ogg
182,192,65400,1,0,0:0:0:0:soft-hitnormal2.ogg
329,192,65400,1,0,0:0:0:0:soft-hitnormal2.ogg
109,192,65500,1,0,0:0:0:0:soft-hitnormal2.ogg
402,192,65500,1,0,0:0:0:0:soft-hitnormal2.ogg
36,192,65600,1,0,0:0:0:0:soft-hitnormal2.ogg
182,192,65600,1,0,0:0:0:0:soft-hitnormal2.ogg
256,0,65600,128,0,66350:0:0:0:0:soft-hitnormal2.ogg
329,192,65600,1,0,0:0:0:0:soft-hitnormal2.ogg
109,192,65700,1,0,0:0:0:0:soft-hitnormal2.ogg
402,192,65700,1,0,0:0:0:0:soft-hitnormal2.ogg
475,192,65700,1,0,0:0:0:0:soft-hitnormal2.ogg
36,192,65800,1,0,0:0:0:0:soft-hitnormal2.ogg
182,192,65800,1,0,0:0:0:0:soft-hitnormal2.ogg
329,192,65800,1,0,0:0:0:0:soft-hitnormal2.ogg
109,192,65900,1,0,0:0:0:0:soft-hitnormal2.ogg
402,192,65900,1,0,0:0:0:0:soft-hitnormal2.ogg
475,192,65900,1,0,0:0:0:0:soft-hitnormal2.ogg
36,192,66000,1,0,0:0:0:0:soft-hitnormal2.ogg
182,192,66000,1,0,0:0:0:0:soft-hitnormal2.ogg
329,192,66000,1,0,0:0:0:0:soft-hitnormal2.ogg
109,192,66100,1,0,0:0:0:0:soft-hitnormal2.ogg
402,192,66100,1,0,0:0:0:0:soft-hitnormal2.ogg
475,192,66100,1,0,0:0:0:0:soft-hitnormal2.ogg
36,192,66200,1,0,0:0:0:0:soft-hitnormal2.ogg
182,192,66200,1,0,0:0:0:0:soft-hitnormal2.ogg
329,192,66200,1,0,0:0:0:0:soft-hitnormal2.ogg
109,192,66300,1,0,0:0:0:0:soft-hitnormal2.ogg
402,192,66300,1,0,0:0:0:0:soft-hitnormal2.ogg
475,192,66300,1,0,0:0:0:0:soft-hitnormal2.ogg
36,192,66400,1,0,0:0:0:0:soft-hitnormal2.ogg
182,192,66400,1,0,0:0:0:0:soft-hitnormal2.ogg
329,192,66400,1,0,0:0:0:0:soft-hitnormal2.ogg
256,0,66400,128,0,67200:0:0:0:0:soft-hitnormal2.ogg
109,192,66500,1,0,0:0:0:0:soft-hitnormal2.ogg
402,192,66500,1,0,0:0:0:0:soft-hitnormal2.ogg
475,192,66500,1,0,0:0:0:0:soft-hitnormal2.ogg
36,192,66600,1,0,0:0:0:0:soft-hitnormal2.ogg
182,192,66600,1,0,0:0:0:0:soft-hitnormal2.ogg
329,192,66600,1,0,0:0:0:0:soft-hitnormal2.ogg
109,192,66700,1,0,0:0:0:0:soft-hitnormal2.ogg
402,192,66700,1,0,0:0:0:0:soft-hitnormal2.ogg
475,192,66700,1,0,0:0:0:0:soft-hitnormal2.ogg
36,192,66800,1,0,0:0:0:0:soft-hitnormal2.ogg
182,192,66800,1,0,0:0:0:0:soft-hitnormal2.ogg
329,192,66800,1,0,0:0:0:0:soft-hitnormal2.ogg
109,192,66900,1,0,0:0:0:0:soft-hitnormal2.ogg
402,192,66900,1,0,0:0:0:0:soft-hitnormal2.ogg
475,192,66900,1,0,0:0:0:0:soft-hitnormal2.ogg
36,192,67000,1,0,0:0:0:0:soft-hitnormal2.ogg
182,192,67000,1,0,0:0:0:0:soft-hitnormal2.ogg
329,192,67000,1,0,0:0:0:0:soft-hitnormal2.ogg
109,192,67100,1,0,0:0:0:0:soft-hitnormal2.ogg
402,192,67100,1,0,0:0:0:0:soft-hitnormal2.ogg
475,192,67100,1,0,0:0:0:0:soft-hitnormal2.ogg
36,0,67200,128,0,67550:0:0:0:0:soft-hitnormal2.ogg
182,192,67200,1,0,0:0:0:0:soft-hitnormal2.ogg
329,192,67200,1,0,0:0:0:0:soft-hitnormal2.ogg
402,192,67250,1,0,0:0:0:0:soft-hitnormal2.ogg
475,192,67300,1,0,0:0:0:0:soft-hitnormal2.ogg
182,192,67350,1,0,0:0:0:0:soft-hitnormal2.ogg
109,192,67400,1,0,0:0:0:0:soft-hitnormal2.ogg
256,192,67400,1,0,0:0:0:0:soft-hitnormal2.ogg
329,192,67450,1,0,0:0:0:0:soft-hitnormal2.ogg
402,192,67500,1,0,0:0:0:0:soft-hitnormal2.ogg
475,192,67550,1,0,0:0:0:0:soft-hitnormal2.ogg
109,192,67600,1,0,0:0:0:0:soft-hitnormal2.ogg
182,0,67600,128,0,67950:0:0:0:0:soft-hitnormal2.ogg
256,192,67650,1,0,0:0:0:0:soft-hitnormal2.ogg
329,192,67700,1,0,0:0:0:0:soft-hitnormal2.ogg
402,192,67700,1,0,0:0:0:0:soft-hitnormal2.ogg
36,192,67750,1,0,0:0:0:0:soft-hitnormal2.ogg
109,192,67800,1,0,0:0:0:0:soft-hitnormal2.ogg
475,192,67800,1,0,0:0:0:0:soft-hitnormal2.ogg
256,192,67850,1,0,0:0:0:0:soft-hitnormal2.ogg
402,192,67900,1,0,0:0:0:0:soft-hitnormal2.ogg
475,192,67950,1,0,0:0:0:0:soft-hitnormal2.ogg
36,192,68000,1,0,0:0:0:0:soft-hitnormal2.ogg
109,192,68000,1,0,0:0:0:0:soft-hitnormal2.ogg
329,0,68000,128,0,68350:0:0:0:0:soft-hitnormal2.ogg
182,192,68050,1,0,0:0:0:0:soft-hitnormal2.ogg
256,192,68100,1,0,0:0:0:0:soft-hitnormal2.ogg
475,192,68100,1,0,0:0:0:0:soft-hitnormal2.ogg
402,192,68150,1,0,0:0:0:0:soft-hitnormal2.ogg
36,192,68200,1,0,0:0:0:0:soft-hitnormal2.ogg
475,192,68200,1,0,0:0:0:0:soft-hitnormal2.ogg
109,192,68250,1,0,0:0:0:0:soft-hitnormal2.ogg
182,192,68300,1,0,0:0:0:0:soft-hitnormal2.ogg
256,192,68350,1,0,0:0:0:0:soft-hitnormal2.ogg
36,192,68400,1,0,0:0:0:0:soft-hitnormal2.ogg
402,192,68400,1,0,0:0:0:0:soft-hitnormal2.ogg
475,0,68400,128,0,68750:0:0:0:0:soft-hitnormal2.ogg
329,192,68450,1,0,0:0:0:0:soft-hitnormal2.ogg
182,192,68500,1,0,0:0:0:0:soft-hitnormal2.ogg
109,192,68550,1,0,0:0:0:0:soft-hitnormal2.ogg
36,192,68600,1,0,0:0:0:0:soft-hitnormal2.ogg
329,192,68600,1,0,0:0:0:0:soft-hitnormal2.ogg
256,192,68650,1,0,0:0:0:0:soft-hitnormal2.ogg
182,192,68700,1,0,0:0:0:0:soft-hitnormal2.ogg
109,192,68750,1,0,0:0:0:0:soft-hitnormal2.ogg
402,192,68750,1,0,0:0:0:0:soft-hitnormal2.ogg
36,192,68800,1,0,0:0:0:0:soft-hitnormal2.ogg
256,0,68800,128,0,69300:0:0:0:0:soft-hitnormal2.ogg
329,0,68800,128,0,68900:0:0:0:0:soft-hitnormal2.ogg
109,192,68850,1,0,0:0:0:0:soft-hitnormal2.ogg
182,192,68900,1,0,0:0:0:0:soft-hitnormal2.ogg
475,192,68950,1,0,0:0:0:0:soft-hitnormal2.ogg
36,192,69000,1,0,0:0:0:0:soft-hitnormal2.ogg
402,0,69000,128,0,69100:0:0:0:0:soft-hitnormal2.ogg
109,192,69050,1,0,0:0:0:0:soft-hitnormal2.ogg
182,192,69100,1,0,0:0:0:0:soft-hitnormal2.ogg
402,192,69150,1,0,0:0:0:0:soft-hitnormal2.ogg
36,192,69200,1,0,0:0:0:0:soft-hitnormal2.ogg
329,0,69200,128,0,69500:0:0:0:0:soft-hitnormal2.ogg
475,0,69200,128,0,69300:0:0:0:0:soft-hitnormal2.ogg
109,192,69250,1,0,0:0:0:0:soft-hitnormal2.ogg
182,192,69300,1,0,0:0:0:0:soft-hitnormal2.ogg
475,192,69350,1,0,0:0:0:0:soft-hitnormal2.ogg
36,0,69400,128,0,69500:0:0:0:0:soft-hitnormal2.ogg
109,192,69400,1,0,0:0:0:0:soft-hitnormal2.ogg
402,0,69400,128,0,69700:0:0:0:0:soft-hitnormal2.ogg
182,192,69450,1,0,0:0:0:0:soft-hitnormal2.ogg
256,192,69500,1,0,0:0:0:0:soft-hitnormal2.ogg
329,192,69550,1,0,0:0:0:0:soft-hitnormal2.ogg
36,192,69600,1,0,0:0:0:0:soft-hitnormal2.ogg
109,0,69600,128,0,69700:0:0:0:0:soft-hitnormal2.ogg
475,0,69600,128,0,70100:0:0:0:0:soft-hitnormal2.ogg
182,192,69650,1,0,0:0:0:0:soft-hitnormal2.ogg
256,192,69700,1,0,0:0:0:0:soft-hitnormal2.ogg
402,192,69750,1,0,0:0:0:0:soft-hitnormal2.ogg
109,192,69800,1,0,0:0:0:0:soft-hitnormal2.ogg
182,0,69800,128,0,69900:0:0:0:0:soft-hitnormal2.ogg
256,192,69850,1,0,0:0:0:0:soft-hitnormal2.ogg
329,192,69900,1,0,0:0:0:0:soft-hitnormal2.ogg
402,192,69950,1,0,0:0:0:0:soft-hitnormal2.ogg
36,0,70000,128,0,70300:0:0:0:0:soft-hitnormal2.ogg
109,192,70000,1,0,0:0:0:0:soft-hitnormal2.ogg
256,0,70000,128,0,70100:0:0:0:0:soft-hitnormal2.ogg
182,192,70050,1,0,0:0:0:0:soft-hitnormal2.ogg
329,192,70100,1,0,0:0:0:0:soft-hitnormal2.ogg
402,192,70150,1,0,0:0:0:0:soft-hitnormal2.ogg
182,192,70200,1,0,0:0:0:0:soft-hitnormal2.ogg
329,0,70200,128,0,70300:0:0:0:0:soft-hitnormal2.ogg
109,0,70200,128,0,70500:0:0:0:0:soft-hitnormal2.ogg
256,192,70250,1,0,0:0:0:0:soft-hitnormal2.ogg
475,192,70300,1,0,0:0:0:0:soft-hitnormal2.ogg
329,192,70350,1,0,0:0:0:0:soft-hitnormal2.ogg
182,0,70400,128,0,70900:0:0:0:0:soft-hitnormal2.ogg
256,192,70400,1,0,0:0:0:0:soft-hitnormal2.ogg
402,0,70400,128,0,70500:0:0:0:0:soft-hitnormal2.ogg
36,192,70450,1,0,0:0:0:0:soft-hitnormal2.ogg
475,192,70500,1,0,0:0:0:0:soft-hitnormal2.ogg
329,192,70550,1,0,0:0:0:0:soft-hitnormal2.ogg
256,192,70600,1,0,0:0:0:0:soft-hitnormal2.ogg
475,0,70600,128,0,70700:0:0:0:0:soft-hitnormal2.ogg
36,192,70650,1,0,0:0:0:0:soft-hitnormal2.ogg
402,192,70700,1,0,0:0:0:0:soft-hitnormal2.ogg
329,192,70750,1,0,0:0:0:0:soft-hitnormal2.ogg
36,0,70800,128,0,70900:0:0:0:0:soft-hitnormal2.ogg
256,192,70800,1,0,0:0:0:0:soft-hitnormal2.ogg
475,0,70800,128,0,71300:0:0:0:0:soft-hitnormal2.ogg
109,192,70850,1,0,0:0:0:0:soft-hitnormal2.ogg
402,192,70900,1,0,0:0:0:0:soft-hitnormal2.ogg
329,192,70950,1,0,0:0:0:0:soft-hitnormal2.ogg
109,0,71000,128,0,71100:0:0:0:0:soft-hitnormal2.ogg
256,192,71000,1,0,0:0:0:0:soft-hitnormal2.ogg
36,192,71050,1,0,0:0:0:0:soft-hitnormal2.ogg
329,192,71100,1,0,0:0:0:0:soft-hitnormal2.ogg
256,192,71150,1,0,0:0:0:0:soft-hitnormal2.ogg
109,192,71200,1,0,0:0:0:0:soft-hitnormal2.ogg
182,0,71200,128,0,71300:0:0:0:0:soft-hitnormal2.ogg
402,0,71200,128,0,71700:0:0:0:0:soft-hitnormal2.ogg
36,192,71250,1,0,0:0:0:0:soft-hitnormal2.ogg
329,192,71300,1,0,0:0:0:0:soft-hitnormal2.ogg
182,192,71350,1,0,0:0:0:0:soft-hitnormal2.ogg
109,192,71400,1,0,0:0:0:0:soft-hitnormal2.ogg
256,0,71400,128,0,71500:0:0:0:0:soft-hitnormal2.ogg
475,192,71450,1,0,0:0:0:0:soft-hitnormal2.ogg
182,192,71500,1,0,0:0:0:0:soft-hitnormal2.ogg
109,192,71550,1,0,0:0:0:0:soft-hitnormal2.ogg
36,192,71600,1,0,0:0:0:0:soft-hitnormal2.ogg
475,0,71600,128,0,71700:0:0:0:0:soft-hitnormal2.ogg
329,0,71600,128,0,72100:0:0:0:0:soft-hitnormal2.ogg
256,192,71650,1,0,0:0:0:0:soft-hitnormal2.ogg
182,192,71700,1,0,0:0:0:0:soft-hitnormal2.ogg
109,192,71750,1,0,0:0:0:0:soft-hitnormal2.ogg
36,0,71800,128,0,71900:0:0:0:0:soft-hitnormal2.ogg
475,192,71800,1,0,0:0:0:0:soft-hitnormal2.ogg
402,192,71850,1,0,0:0:0:0:soft-hitnormal2.ogg
256,192,71900,1,0,0:0:0:0:soft-hitnormal2.ogg
36,192,71950,1,0,0:0:0:0:soft-hitnormal2.ogg
109,0,72000,128,0,72100:0:0:0:0:soft-hitnormal2.ogg
182,0,72000,128,0,72900:0:0:0:0:soft-hitnormal2.ogg
402,192,72000,1,0,0:0:0:0:soft-hitnormal2.ogg
475,192,72050,1,0,0:0:0:0:soft-hitnormal2.ogg
36,192,72100,1,0,0:0:0:0:soft-hitnormal2.ogg
109,192,72150,1,0,0:0:0:0:soft-hitnormal2.ogg
256,0,72200,128,0,72300:0:0:0:0:soft-hitnormal2.ogg
329,192,72200,1,0,0:0:0:0:soft-hitnormal2.ogg
475,192,72250,1,0,0:0:0:0:soft-hitnormal2.ogg
109,192,72300,1,0,0:0:0:0:soft-hitnormal2.ogg
256,192,72350,1,0,0:0:0:0:soft-hitnormal2.ogg
329,0,72400,128,0,72500:0:0:0:0:soft-hitnormal2.ogg
402,192,72400,1,0,0:0:0:0:soft-hitnormal2.ogg
36,192,72450,1,0,0:0:0:0:soft-hitnormal2.ogg
109,192,72500,1,0,0:0:0:0:soft-hitnormal2.ogg
256,192,72550,1,0,0:0:0:0:soft-hitnormal2.ogg
402,0,72600,128,0,72700:0:0:0:0:soft-hitnormal2.ogg
475,192,72600,1,0,0:0:0:0:soft-hitnormal2.ogg
109,192,72650,1,0,0:0:0:0:soft-hitnormal2.ogg
256,192,72700,1,0,0:0:0:0:soft-hitnormal2.ogg
329,192,72750,1,0,0:0:0:0:soft-hitnormal2.ogg
402,192,72800,1,0,0:0:0:0:soft-hitnormal2.ogg
475,0,72800,128,0,72900:0:0:0:0:soft-hitnormal2.ogg
36,192,72850,1,0,0:0:0:0:soft-hitnormal2.ogg
109,192,72900,1,0,0:0:0:0:soft-hitnormal2.ogg
182,192,72950,1,0,0:0:0:0:soft-hitnormal2.ogg
36,0,73000,128,0,73100:0:0:0:0:soft-hitnormal2.ogg
475,192,73000,1,0,0:0:0:0:soft-hitnormal2.ogg
256,192,73050,1,0,0:0:0:0:soft-hitnormal2.ogg
329,192,73100,1,0,0:0:0:0:soft-hitnormal2.ogg
402,192,73150,1,0,0:0:0:0:soft-hitnormal2.ogg
36,192,73200,1,0,0:0:0:0:soft-hitnormal2.ogg
182,0,73200,128,0,73300:0:0:0:0:soft-hitnormal2.ogg
109,0,73200,128,0,73600:0:0:0:0:soft-hitnormal2.ogg
475,192,73250,1,0,0:0:0:0:soft-hitnormal2.ogg
329,192,73300,1,0,0:0:0:0:soft-hitnormal2.ogg
182,192,73350,1,0,0:0:0:0:soft-hitnormal2.ogg
256,0,73400,128,0,73500:0:0:0:0:soft-hitnormal2.ogg
475,192,73400,1,0,0:0:0:0:soft-hitnormal2.ogg
402,0,73400,128,0,73600:0:0:0:0:soft-hitnormal2.ogg
329,192,73450,1,0,0:0:0:0:soft-hitnormal2.ogg
182,192,73500,1,0,0:0:0:0:soft-hitnormal2.ogg
36,192,73550,1,0,0:0:0:0:soft-hitnormal2.ogg
182,0,73600,128,0,73800:0:0:0:0:soft-hitnormal2.ogg
256,192,73600,1,0,0:0:0:0:soft-hitnormal2.ogg
329,0,73600,128,0,73700:0:0:0:0:soft-hitnormal2.ogg
402,192,73650,1,0,0:0:0:0:soft-hitnormal2.ogg
475,192,73700,1,0,0:0:0:0:soft-hitnormal2.ogg
36,192,73750,1,0,0:0:0:0:soft-hitnormal2.ogg
109,192,73800,1,0,0:0:0:0:soft-hitnormal2.ogg
329,0,73800,128,0,74000:0:0:0:0:soft-hitnormal2.ogg
402,0,73800,128,0,73900:0:0:0:0:soft-hitnormal2.ogg
182,192,73850,1,0,0:0:0:0:soft-hitnormal2.ogg
256,192,73900,1,0,0:0:0:0:soft-hitnormal2.ogg
109,192,73950,1,0,0:0:0:0:soft-hitnormal2.ogg
36,192,74000,1,0,0:0:0:0:soft-hitnormal2.ogg
402,0,74000,128,0,74200:0:0:0:0:soft-hitnormal2.ogg
475,0,74000,128,0,74100:0:0:0:0:soft-hitnormal2.ogg
256,192,74050,1,0,0:0:0:0:soft-hitnormal2.ogg
329,192,74100,1,0,0:0:0:0:soft-hitnormal2.ogg
109,192,74150,1,0,0:0:0:0:soft-hitnormal2.ogg
36,0,74200,128,0,74300:0:0:0:0:soft-hitnormal2.ogg
182,192,74200,1,0,0:0:0:0:soft-hitnormal2.ogg
256,0,74200,128,0,75200:0:0:0:0:soft-hitnormal2.ogg
402,192,74250,1,0,0:0:0:0:soft-hitnormal2.ogg
475,192,74300,1,0,0:0:0:0:soft-hitnormal2.ogg
329,192,74350,1,0,0:0:0:0:soft-hitnormal2.ogg
109,0,74400,128,0,74500:0:0:0:0:soft-hitnormal2.ogg
182,192,74400,1,0,0:0:0:0:soft-hitnormal2.ogg
402,192,74450,1,0,0:0:0:0:soft-hitnormal2.ogg
475,192,74500,1,0,0:0:0:0:soft-hitnormal2.ogg
36,192,74550,1,0,0:0:0:0:soft-hitnormal2.ogg
182,0,74600,128,0,74700:0:0:0:0:soft-hitnormal2.ogg
329,192,74600,1,0,0:0:0:0:soft-hitnormal2.ogg
402,192,74650,1,0,0:0:0:0:soft-hitnormal2.ogg
109,192,74700,1,0,0:0:0:0:soft-hitnormal2.ogg
182,192,74750,1,0,0:0:0:0:soft-hitnormal2.ogg
329,0,74800,128,0,74900:0:0:0:0:soft-hitnormal2.ogg
475,192,74800,1,0,0:0:0:0:soft-hitnormal2.ogg
36,192,74850,1,0,0:0:0:0:soft-hitnormal2.ogg
109,192,74900,1,0,0:0:0:0:soft-hitnormal2.ogg
329,192,74950,1,0,0:0:0:0:soft-hitnormal2.ogg
182,192,75000,1,0,0:0:0:0:soft-hitnormal2.ogg
402,0,75000,128,0,75100:0:0:0:0:soft-hitnormal2.ogg
475,192,75050,1,0,0:0:0:0:soft-hitnormal2.ogg
329,192,75100,1,0,0:0:0:0:soft-hitnormal2.ogg
109,192,75150,1,0,0:0:0:0:soft-hitnormal2.ogg
36,192,75200,1,0,0:0:0:0:soft-hitnormal2.ogg
182,192,75200,1,0,0:0:0:0:soft-hitnormal2.ogg
329,192,75200,1,0,0:0:0:0:soft-hitnormal2.ogg
402,192,75200,1,0,0:0:0:0:soft-hitnormal2.ogg
475,0,75200,128,0,75300:0:0:0:0:soft-hitnormal2.ogg
109,192,75300,1,0,0:0:0:0:soft-hitnormal2.ogg
256,192,75300,1,0,0:0:0:0:soft-hitnormal2.ogg
182,192,75400,1,0,0:0:0:0:soft-hitnormal2.ogg
329,192,75400,1,0,0:0:0:0:soft-hitnormal2.ogg
402,192,75400,1,0,0:0:0:0:soft-hitnormal2.ogg
256,192,75500,1,0,0:0:0:0:soft-hitnormal2.ogg
475,192,75500,1,0,0:0:0:0:soft-hitnormal2.ogg
36,192,75600,1,0,0:0:0:0:soft-hitnormal2.ogg
109,0,75600,128,0,75700:0:0:0:0:soft-hitnormal2.ogg
182,192,75600,1,0,0:0:0:0:soft-hitnormal2.ogg
402,192,75600,1,0,0:0:0:0:soft-hitnormal2.ogg
256,192,75700,1,0,0:0:0:0:soft-hitnormal2.ogg
329,192,75700,1,0,0:0:0:0:soft-hitnormal2.ogg
109,192,75800,1,0,0:0:0:0:soft-hitnormal2.ogg
182,0,75800,128,0,75900:0:0:0:0:soft-hitnormal2.ogg
402,192,75800,1,0,0:0:0:0:soft-hitnormal2.ogg
475,192,75800,1,0,0:0:0:0:soft-hitnormal2.ogg
36,192,75900,1,0,0:0:0:0:soft-hitnormal2.ogg
256,192,75900,1,0,0:0:0:0:soft-hitnormal2.ogg
109,192,76000,1,0,0:0:0:0:soft-hitnormal2.ogg
329,0,76000,128,0,76100:0:0:0:0:soft-hitnormal2.ogg
402,192,76000,1,0,0:0:0:0:soft-hitnormal2.ogg
475,192,76000,1,0,0:0:0:0:soft-hitnormal2.ogg
182,192,76100,1,0,0:0:0:0:soft-hitnormal2.ogg
256,192,76100,1,0,0:0:0:0:soft-hitnormal2.ogg
36,192,76200,1,0,0:0:0:0:soft-hitnormal2.ogg
109,192,76200,1,0,0:0:0:0:soft-hitnormal2.ogg
402,192,76200,1,0,0:0:0:0:soft-hitnormal2.ogg
256,192,76300,1,0,0:0:0:0:soft-hitnormal2.ogg
329,192,76300,1,0,0:0:0:0:soft-hitnormal2.ogg
109,192,76400,1,0,0:0:0:0:soft-hitnormal2.ogg
182,192,76400,1,0,0:0:0:0:soft-hitnormal2.ogg
402,0,76400,128,0,76500:0:0:0:0:soft-hitnormal2.ogg
475,192,76400,1,0,0:0:0:0:soft-hitnormal2.ogg
36,192,76500,1,0,0:0:0:0:soft-hitnormal2.ogg
329,192,76500,1,0,0:0:0:0:soft-hitnormal2.ogg
109,192,76600,1,0,0:0:0:0:soft-hitnormal2.ogg
182,0,76600,128,0,76700:0:0:0:0:soft-hitnormal2.ogg
256,192,76600,1,0,0:0:0:0:soft-hitnormal2.ogg
402,192,76600,1,0,0:0:0:0:soft-hitnormal2.ogg
36,192,76700,1,0,0:0:0:0:soft-hitnormal2.ogg
329,192,76700,1,0,0:0:0:0:soft-hitnormal2.ogg
109,192,76800,1,0,0:0:0:0:soft-hitnormal2.ogg
256,192,76800,1,0,0:0:0:0:soft-hitnormal2.ogg
402,192,76800,1,0,0:0:0:0:soft-hitnormal2.ogg
475,0,76800,128,0,76900:0:0:0:0:soft-hitnormal2.ogg
182,192,76900,1,0,0:0:0:0:soft-hitnormal2.ogg
329,192,76900,1,0,0:0:0:0:soft-hitnormal2.ogg
36,192,77000,1,0,0:0:0:0:soft-hitnormal2.ogg
109,192,77000,1,0,0:0:0:0:soft-hitnormal2.ogg
475,192,77000,1,0,0:0:0:0:soft-hitnormal2.ogg
256,192,77100,1,0,0:0:0:0:soft-hitnormal2.ogg
402,192,77100,1,0,0:0:0:0:soft-hitnormal2.ogg
36,0,77200,128,0,77300:0:0:0:0:soft-hitnormal2.ogg
182,192,77200,1,0,0:0:0:0:soft-hitnormal2.ogg
329,192,77200,1,0,0:0:0:0:soft-hitnormal2.ogg
475,192,77200,1,0,0:0:0:0:soft-hitnormal2.ogg
109,192,77300,1,0,0:0:0:0:soft-hitnormal2.ogg
256,192,77300,1,0,0:0:0:0:soft-hitnormal2.ogg
182,192,77400,1,0,0:0:0:0:soft-hitnormal2.ogg
329,192,77400,1,0,0:0:0:0:soft-hitnormal2.ogg
402,192,77400,1,0,0:0:0:0:soft-hitnormal2.ogg
109,192,77500,1,0,0:0:0:0:soft-hitnormal2.ogg
256,192,77500,1,0,0:0:0:0:soft-hitnormal2.ogg
36,192,77600,1,0,0:0:0:0:soft-hitnormal2.ogg
182,192,77600,1,0,0:0:0:0:soft-hitnormal2.ogg
402,0,77600,128,0,77700:0:0:0:0:soft-hitnormal2.ogg
475,192,77600,1,0,0:0:0:0:soft-hitnormal2.ogg
256,192,77700,1,0,0:0:0:0:soft-hitnormal2.ogg
329,192,77700,1,0,0:0:0:0:soft-hitnormal2.ogg
109,192,77800,1,0,0:0:0:0:soft-hitnormal2.ogg
182,192,77800,1,0,0:0:0:0:soft-hitnormal2.ogg
402,192,77800,1,0,0:0:0:0:soft-hitnormal2.ogg
329,192,77900,1,0,0:0:0:0:soft-hitnormal2.ogg
475,192,77900,1,0,0:0:0:0:soft-hitnormal2.ogg
109,0,78000,128,0,78100:0:0:0:0:soft-hitnormal2.ogg
182,192,78000,1,0,0:0:0:0:soft-hitnormal2.ogg
256,192,78000,1,0,0:0:0:0:soft-hitnormal2.ogg
402,192,78000,1,0,0:0:0:0:soft-hitnormal2.ogg
36,192,78100,1,0,0:0:0:0:soft-hitnormal2.ogg
329,192,78100,1,0,0:0:0:0:soft-hitnormal2.ogg
109,192,78200,1,0,0:0:0:0:soft-hitnormal2.ogg
182,192,78200,1,0,0:0:0:0:soft-hitnormal2.ogg
475,192,78200,1,0,0:0:0:0:soft-hitnormal2.ogg
329,192,78300,1,0,0:0:0:0:soft-hitnormal2.ogg
402,192,78300,1,0,0:0:0:0:soft-hitnormal2.ogg
36,192,78400,1,0,0:0:0:0:soft-hitnormal2.ogg
109,192,78400,1,0,0:0:0:0:soft-hitnormal2.ogg
182,192,78400,1,0,0:0:0:0:soft-hitnormal2.ogg
256,0,78400,128,0,79100:0:0:0:0:soft-hitnormal2.ogg
329,192,78500,1,0,0:0:0:0:soft-hitnormal2.ogg
475,192,78500,1,0,0:0:0:0:soft-hitnormal2.ogg
36,192,78600,1,0,0:0:0:0:soft-hitnormal2.ogg
109,192,78600,1,0,0:0:0:0:soft-hitnormal2.ogg
182,192,78600,1,0,0:0:0:0:soft-hitnormal2.ogg
329,192,78700,1,0,0:0:0:0:soft-hitnormal2.ogg
475,192,78700,1,0,0:0:0:0:soft-hitnormal2.ogg
36,192,78800,1,0,0:0:0:0:soft-hitnormal2.ogg
109,192,78800,1,0,0:0:0:0:soft-hitnormal2.ogg
182,192,78800,1,0,0:0:0:0:soft-hitnormal2.ogg
329,192,78900,1,0,0:0:0:0:soft-hitnormal2.ogg
475,192,78900,1,0,0:0:0:0:soft-hitnormal2.ogg
36,192,79000,1,0,0:0:0:0:soft-hitnormal2.ogg
109,192,79000,1,0,0:0:0:0:soft-hitnormal2.ogg
182,192,79000,1,0,0:0:0:0:soft-hitnormal2.ogg
329,192,79100,1,0,0:0:0:0:soft-hitnormal2.ogg
475,192,79100,1,0,0:0:0:0:soft-hitnormal2.ogg
256,0,79200,128,0,79900:0:0:0:0:soft-hitnormal2.ogg
329,192,79200,1,0,0:0:0:0:soft-hitnormal2.ogg
402,192,79200,1,0,0:0:0:0:soft-hitnormal2.ogg
475,192,79200,1,0,0:0:0:0:soft-hitnormal2.ogg
36,192,79300,1,0,0:0:0:0:soft-hitnormal2.ogg
182,192,79300,1,0,0:0:0:0:soft-hitnormal2.ogg
329,192,79400,1,0,0:0:0:0:soft-hitnormal2.ogg
402,192,79400,1,0,0:0:0:0:soft-hitnormal2.ogg
475,192,79400,1,0,0:0:0:0:soft-hitnormal2.ogg
36,192,79500,1,0,0:0:0:0:soft-hitnormal2.ogg
182,192,79500,1,0,0:0:0:0:soft-hitnormal2.ogg
329,192,79600,1,0,0:0:0:0:soft-hitnormal2.ogg
402,192,79600,1,0,0:0:0:0:soft-hitnormal2.ogg
475,192,79600,1,0,0:0:0:0:soft-hitnormal2.ogg
36,192,79700,1,0,0:0:0:0:soft-hitnormal2.ogg
182,192,79700,1,0,0:0:0:0:soft-hitnormal2.ogg
329,192,79800,1,0,0:0:0:0:soft-hitnormal2.ogg
402,192,79800,1,0,0:0:0:0:soft-hitnormal2.ogg
475,192,79800,1,0,0:0:0:0:soft-hitnormal2.ogg
36,192,79900,1,0,0:0:0:0:soft-hitnormal2.ogg
182,192,79900,1,0,0:0:0:0:soft-hitnormal2.ogg
256,0,80000,128,0,80100:0:0:0:0:soft-hitnormal2.ogg
475,192,80000,1,0,0:0:0:0:soft-hitnormal2.ogg
182,0,80100,128,0,80300:0:0:0:0:soft-hitnormal2.ogg
402,192,80100,1,0,0:0:0:0:soft-hitnormal2.ogg
475,0,80100,128,0,80700:0:0:0:0:soft-hitnormal2.ogg
109,0,80200,128,0,80400:0:0:0:0:soft-hitnormal2.ogg
329,192,80200,1,0,0:0:0:0:soft-hitnormal2.ogg
402,0,80200,128,0,80700:0:0:0:0:soft-hitnormal2.ogg
36,0,80300,128,0,80500:0:0:0:0:soft-hitnormal2.ogg
256,192,80300,1,0,0:0:0:0:soft-hitnormal2.ogg
329,0,80300,128,0,80800:0:0:0:0:soft-hitnormal2.ogg
182,192,80400,1,0,0:0:0:0:soft-hitnormal2.ogg
256,0,80400,128,0,80800:0:0:0:0:soft-hitnormal2.ogg
109,192,80500,1,0,0:0:0:0:soft-hitnormal2.ogg
182,0,80500,128,0,80900:0:0:0:0:soft-hitnormal2.ogg
36,192,80600,1,0,0:0:0:0:soft-hitnormal2.ogg
109,0,80600,128,0,80900:0:0:0:0:soft-hitnormal2.ogg
36,0,80700,128,0,81300:0:0:0:0:soft-hitnormal2.ogg
402,192,80800,1,0,0:0:0:0:soft-hitnormal2.ogg
475,192,80800,1,0,0:0:0:0:soft-hitnormal2.ogg
256,192,80900,1,0,0:0:0:0:soft-hitnormal2.ogg
329,192,80900,1,0,0:0:0:0:soft-hitnormal2.ogg
402,0,80900,128,0,81000:0:0:0:0:soft-hitnormal2.ogg
475,0,80900,128,0,81600:0:0:0:0:soft-hitnormal2.ogg
109,192,81000,1,0,0:0:0:0:soft-hitnormal2.ogg
182,192,81000,1,0,0:0:0:0:soft-hitnormal2.ogg
256,0,81000,128,0,81100:0:0:0:0:soft-hitnormal2.ogg
329,0,81000,128,0,81100:0:0:0:0:soft-hitnormal2.ogg
109,0,81100,128,0,81200:0:0:0:0:soft-hitnormal2.ogg
182,0,81100,128,0,81200:0:0:0:0:soft-hitnormal2.ogg
329,192,81200,1,0,0:0:0:0:soft-hitnormal2.ogg
402,192,81200,1,0,0:0:0:0:soft-hitnormal2.ogg
182,192,81300,1,0,0:0:0:0:soft-hitnormal2.ogg
256,192,81300,1,0,0:0:0:0:soft-hitnormal2.ogg
329,0,81300,128,0,81400:0:0:0:0:soft-hitnormal2.ogg
402,0,81300,128,0,81400:0:0:0:0:soft-hitnormal2.ogg
36,192,81400,1,0,0:0:0:0:soft-hitnormal2.ogg
109,192,81400,1,0,0:0:0:0:soft-hitnormal2.ogg
182,0,81400,128,0,81500:0:0:0:0:soft-hitnormal2.ogg
256,0,81400,128,0,81500:0:0:0:0:soft-hitnormal2.ogg
329,192,81500,1,0,0:0:0:0:soft-hitnormal2.ogg
402,192,81500,1,0,0:0:0:0:soft-hitnormal2.ogg
36,0,81500,128,0,81600:0:0:0:0:soft-hitnormal2.ogg
109,0,81500,128,0,81600:0:0:0:0:soft-hitnormal2.ogg
182,0,81600,128,0,82100:0:0:0:0:soft-hitnormal2.ogg
256,192,81600,1,0,0:0:0:0:soft-hitnormal2.ogg
329,192,81600,1,0,0:0:0:0:soft-hitnormal2.ogg
402,192,81700,1,0,0:0:0:0:soft-hitnormal2.ogg
475,192,81700,1,0,0:0:0:0:soft-hitnormal2.ogg
36,192,81800,1,0,0:0:0:0:soft-hitnormal2.ogg
109,192,81800,1,0,0:0:0:0:soft-hitnormal2.ogg
256,192,81800,1,0,0:0:0:0:soft-hitnormal2.ogg
329,192,81900,1,0,0:0:0:0:soft-hitnormal2.ogg
402,192,81900,1,0,0:0:0:0:soft-hitnormal2.ogg
36,192,82000,1,0,0:0:0:0:soft-hitnormal2.ogg
109,192,82000,1,0,0:0:0:0:soft-hitnormal2.ogg
256,0,82000,128,0,82300:0:0:0:0:soft-hitnormal2.ogg
475,192,82000,1,0,0:0:0:0:soft-hitnormal2.ogg
329,192,82100,1,0,0:0:0:0:soft-hitnormal2.ogg
402,192,82100,1,0,0:0:0:0:soft-hitnormal2.ogg
109,192,82200,1,0,0:0:0:0:soft-hitnormal2.ogg
182,192,82200,1,0,0:0:0:0:soft-hitnormal2.ogg
329,0,82200,128,0,82500:0:0:0:0:soft-hitnormal2.ogg
475,192,82200,1,0,0:0:0:0:soft-hitnormal2.ogg
36,192,82300,1,0,0:0:0:0:soft-hitnormal2.ogg
402,192,82300,1,0,0:0:0:0:soft-hitnormal2.ogg
109,192,82400,1,0,0:0:0:0:soft-hitnormal2.ogg
182,192,82400,1,0,0:0:0:0:soft-hitnormal2.ogg
256,192,82400,1,0,0:0:0:0:soft-hitnormal2.ogg
402,0,82400,128,0,83100:0:0:0:0:soft-hitnormal2.ogg
36,192,82500,1,0,0:0:0:0:soft-hitnormal2.ogg
475,192,82500,1,0,0:0:0:0:soft-hitnormal2.ogg
182,192,82600,1,0,0:0:0:0:soft-hitnormal2.ogg
256,192,82600,1,0,0:0:0:0:soft-hitnormal2.ogg
329,192,82600,1,0,0:0:0:0:soft-hitnormal2.ogg
36,192,82700,1,0,0:0:0:0:soft-hitnormal2.ogg
109,192,82700,1,0,0:0:0:0:soft-hitnormal2.ogg
256,192,82800,1,0,0:0:0:0:soft-hitnormal2.ogg
329,192,82800,1,0,0:0:0:0:soft-hitnormal2.ogg
475,192,82800,1,0,0:0:0:0:soft-hitnormal2.ogg
109,192,82900,1,0,0:0:0:0:soft-hitnormal2.ogg
182,192,82900,1,0,0:0:0:0:soft-hitnormal2.ogg
36,192,83000,1,0,0:0:0:0:soft-hitnormal2.ogg
256,192,83000,1,0,0:0:0:0:soft-hitnormal2.ogg
329,192,83000,1,0,0:0:0:0:soft-hitnormal2.ogg
109,0,83000,128,0,83700:0:0:0:0:soft-hitnormal2.ogg
182,192,83100,1,0,0:0:0:0:soft-hitnormal2.ogg
475,192,83100,1,0,0:0:0:0:soft-hitnormal2.ogg
256,192,83200,1,0,0:0:0:0:soft-hitnormal2.ogg
329,192,83200,1,0,0:0:0:0:soft-hitnormal2.ogg
402,192,83200,1,0,0:0:0:0:soft-hitnormal2.ogg
36,192,83300,1,0,0:0:0:0:soft-hitnormal2.ogg
182,192,83300,1,0,0:0:0:0:soft-hitnormal2.ogg
329,192,83400,1,0,0:0:0:0:soft-hitnormal2.ogg
402,192,83400,1,0,0:0:0:0:soft-hitnormal2.ogg
475,192,83400,1,0,0:0:0:0:soft-hitnormal2.ogg
182,192,83500,1,0,0:0:0:0:soft-hitnormal2.ogg
256,192,83500,1,0,0:0:0:0:soft-hitnormal2.ogg
36,192,83600,1,0,0:0:0:0:soft-hitnormal2.ogg
182,0,83600,128,0,83900:0:0:0:0:soft-hitnormal2.ogg
402,192,83600,1,0,0:0:0:0:soft-hitnormal2.ogg
475,192,83600,1,0,0:0:0:0:soft-hitnormal2.ogg
256,192,83700,1,0,0:0:0:0:soft-hitnormal2.ogg
329,192,83700,1,0,0:0:0:0:soft-hitnormal2.ogg
36,192,83800,1,0,0:0:0:0:soft-hitnormal2.ogg
256,0,83800,128,0,84100:0:0:0:0:soft-hitnormal2.ogg
402,192,83800,1,0,0:0:0:0:soft-hitnormal2.ogg
475,192,83800,1,0,0:0:0:0:soft-hitnormal2.ogg
109,192,83900,1,0,0:0:0:0:soft-hitnormal2.ogg
329,192,83900,1,0,0:0:0:0:soft-hitnormal2.ogg
36,192,84000,1,0,0:0:0:0:soft-hitnormal2.ogg
182,192,84000,1,0,0:0:0:0:soft-hitnormal2.ogg
329,0,84000,128,0,84500:0:0:0:0:soft-hitnormal2.ogg
402,192,84000,1,0,0:0:0:0:soft-hitnormal2.ogg
109,192,84100,1,0,0:0:0:0:soft-hitnormal2.ogg
475,192,84100,1,0,0:0:0:0:soft-hitnormal2.ogg
182,192,84200,1,0,0:0:0:0:soft-hitnormal2.ogg
256,192,84200,1,0,0:0:0:0:soft-hitnormal2.ogg
402,192,84200,1,0,0:0:0:0:soft-hitnormal2.ogg
36,192,84300,1,0,0:0:0:0:soft-hitnormal2.ogg
109,192,84300,1,0,0:0:0:0:soft-hitnormal2.ogg
182,192,84400,1,0,0:0:0:0:soft-hitnormal2.ogg
256,192,84400,1,0,0:0:0:0:soft-hitnormal2.ogg
402,0,84400,128,0,84700:0:0:0:0:soft-hitnormal2.ogg
475,192,84400,1,0,0:0:0:0:soft-hitnormal2.ogg
36,192,84500,1,0,0:0:0:0:soft-hitnormal2.ogg
109,192,84500,1,0,0:0:0:0:soft-hitnormal2.ogg
182,192,84600,1,0,0:0:0:0:soft-hitnormal2.ogg
256,192,84600,1,0,0:0:0:0:soft-hitnormal2.ogg
329,192,84600,1,0,0:0:0:0:soft-hitnormal2.ogg
109,0,84600,128,0,85100:0:0:0:0:soft-hitnormal2.ogg
36,192,84700,1,0,0:0:0:0:soft-hitnormal2.ogg
475,192,84700,1,0,0:0:0:0:soft-hitnormal2.ogg
256,192,84800,1,0,0:0:0:0:soft-hitnormal2.ogg
329,192,84800,1,0,0:0:0:0:soft-hitnormal2.ogg
402,192,84800,1,0,0:0:0:0:soft-hitnormal2.ogg
36,192,84900,1,0,0:0:0:0:soft-hitnormal2.ogg
182,192,84900,1,0,0:0:0:0:soft-hitnormal2.ogg
256,192,85000,1,0,0:0:0:0:soft-hitnormal2.ogg
329,192,85000,1,0,0:0:0:0:soft-hitnormal2.ogg
402,192,85000,1,0,0:0:0:0:soft-hitnormal2.ogg
475,0,85000,128,0,85300:0:0:0:0:soft-hitnormal2.ogg
36,192,85100,1,0,0:0:0:0:soft-hitnormal2.ogg
182,192,85100,1,0,0:0:0:0:soft-hitnormal2.ogg
36,0,85200,128,0,85500:0:0:0:0:soft-hitnormal2.ogg
109,192,85200,1,0,0:0:0:0:soft-hitnormal2.ogg
256,192,85200,1,0,0:0:0:0:soft-hitnormal2.ogg
329,192,85200,1,0,0:0:0:0:soft-hitnormal2.ogg
182,192,85300,1,0,0:0:0:0:soft-hitnormal2.ogg
402,192,85300,1,0,0:0:0:0:soft-hitnormal2.ogg
109,192,85400,1,0,0:0:0:0:soft-hitnormal2.ogg
256,192,85400,1,0,0:0:0:0:soft-hitnormal2.ogg
329,192,85400,1,0,0:0:0:0:soft-hitnormal2.ogg
402,0,85400,128,0,85700:0:0:0:0:soft-hitnormal2.ogg
182,192,85500,1,0,0:0:0:0:soft-hitnormal2.ogg
475,192,85500,1,0,0:0:0:0:soft-hitnormal2.ogg
36,192,85600,1,0,0:0:0:0:soft-hitnormal2.ogg
182,0,85600,128,0,85900:0:0:0:0:soft-hitnormal2.ogg
256,192,85600,1,0,0:0:0:0:soft-hitnormal2.ogg
329,192,85600,1,0,0:0:0:0:soft-hitnormal2.ogg
109,192,85700,1,0,0:0:0:0:soft-hitnormal2.ogg
475,192,85700,1,0,0:0:0:0:soft-hitnormal2.ogg
36,192,85800,1,0,0:0:0:0:soft-hitnormal2.ogg
256,192,85800,1,0,0:0:0:0:soft-hitnormal2.ogg
329,0,85800,128,0,86100:0:0:0:0:soft-hitnormal2.ogg
402,192,85800,1,0,0:0:0:0:soft-hitnormal2.ogg
109,192,85900,1,0,0:0:0:0:soft-hitnormal2.ogg
475,192,85900,1,0,0:0:0:0:soft-hitnormal2.ogg
182,192,86000,1,0,0:0:0:0:soft-hitnormal2.ogg
256,192,86000,1,0,0:0:0:0:soft-hitnormal2.ogg
402,192,86000,1,0,0:0:0:0:soft-hitnormal2.ogg
109,0,86000,128,0,86400:0:0:0:0:soft-hitnormal2.ogg
36,192,86100,1,0,0:0:0:0:soft-hitnormal2.ogg
475,192,86100,1,0,0:0:0:0:soft-hitnormal2.ogg
182,192,86200,1,0,0:0:0:0:soft-hitnormal2.ogg
256,192,86200,1,0,0:0:0:0:soft-hitnormal2.ogg
329,192,86200,1,0,0:0:0:0:soft-hitnormal2.ogg
402,0,86200,128,0,86400:0:0:0:0:soft-hitnormal2.ogg
36,192,86300,1,0,0:0:0:0:soft-hitnormal2.ogg
475,192,86300,1,0,0:0:0:0:soft-hitnormal2.ogg
36,192,86400,1,0,0:0:0:0:soft-hitnormal2.ogg
182,192,86400,1,0,0:0:0:0:soft-hitnormal2.ogg
256,192,86400,1,0,0:0:0:0:soft-hitnormal2.ogg
329,0,86400,128,0,86700:0:0:0:0:soft-hitnormal2.ogg
475,192,86400,1,0,0:0:0:0:soft-hitnormal2.ogg
36,0,86700,128,0,87000:0:0:0:0:soft-hitnormal2.ogg
109,192,86700,1,0,0:0:0:0:soft-hitnormal2.ogg
182,192,86700,1,0,0:0:0:0:soft-hitnormal2.ogg
402,192,86700,1,0,0:0:0:0:soft-hitnormal2.ogg
475,192,86700,1,0,0:0:0:0:soft-hitnormal2.ogg
182,0,87000,128,0,87200:0:0:0:0:soft-hitnormal2.ogg
256,192,87000,1,0,0:0:0:0:soft-hitnormal2.ogg
402,192,87000,1,0,0:0:0:0:soft-hitnormal2.ogg
475,192,87000,1,0,0:0:0:0:soft-hitnormal2.ogg
36,192,87200,1,0,0:0:0:0:soft-hitnormal2.ogg
109,192,87200,1,0,0:0:0:0:soft-hitnormal2.ogg
256,0,87200,128,0,87900:0:0:0:0:soft-hitnormal2.ogg
329,192,87200,1,0,0:0:0:0:soft-hitnormal2.ogg
402,192,87200,1,0,0:0:0:0:soft-hitnormal2.ogg
109,192,87800,1,0,0:0:0:0:soft-hitnormal2.ogg
402,192,87900,1,0,0:0:0:0:soft-hitnormal2.ogg
36,0,88000,128,0,88300:0:0:0:0:soft-hitnormal2.ogg
109,0,88000,128,0,88100:0:0:0:0:soft-hitnormal2.ogg
182,192,88000,1,0,0:0:0:0:soft-hitnormal2.ogg
256,192,88000,1,0,0:0:0:0:soft-hitnormal2.ogg
329,192,88000,1,0,0:0:0:0:soft-hitnormal2.ogg
402,192,88000,1,0,0:0:0:0:soft-hitnormal2.ogg
475,0,88000,128,0,88700:0:0:0:0:soft-hitnormal2.ogg
182,0,88100,128,0,88200:0:0:0:0:soft-hitnormal2.ogg
109,192,88200,1,0,0:0:0:0:soft-hitnormal2.ogg
256,0,88200,128,0,88300:0:0:0:0:soft-hitnormal2.ogg
329,192,88200,1,0,0:0:0:0:soft-hitnormal2.ogg
402,192,88200,1,0,0:0:0:0:soft-hitnormal2.ogg
329,0,88300,128,0,88400:0:0:0:0:soft-hitnormal2.ogg
36,0,88400,128,0,88500:0:0:0:0:soft-hitnormal2.ogg
109,192,88400,1,0,0:0:0:0:soft-hitnormal2.ogg
182,192,88400,1,0,0:0:0:0:soft-hitnormal2.ogg
256,192,88400,1,0,0:0:0:0:soft-hitnormal2.ogg
402,0,88400,128,0,88500:0:0:0:0:soft-hitnormal2.ogg
329,0,88500,128,0,88600:0:0:0:0:soft-hitnormal2.ogg
109,192,88600,1,0,0:0:0:0:soft-hitnormal2.ogg
182,192,88600,1,0,0:0:0:0:soft-hitnormal2.ogg
256,0,88600,128,0,88700:0:0:0:0:soft-hitnormal2.ogg
402,192,88600,1,0,0:0:0:0:soft-hitnormal2.ogg
36,0,88600,128,0,89900:0:0:0:0:soft-hitnormal2.ogg
182,0,88700,128,0,88800:0:0:0:0:soft-hitnormal2.ogg
109,0,88800,128,0,88900:0:0:0:0:soft-hitnormal2.ogg
256,192,88800,1,0,0:0:0:0:soft-hitnormal2.ogg
329,192,88800,1,0,0:0:0:0:soft-hitnormal2.ogg
402,192,88800,1,0,0:0:0:0:soft-hitnormal2.ogg
475,0,88800,128,0,89100:0:0:0:0:soft-hitnormal2.ogg
182,0,88900,128,0,89000:0:0:0:0:soft-hitnormal2.ogg
109,192,89000,1,0,0:0:0:0:soft-hitnormal2.ogg
256,0,89000,128,0,89100:0:0:0:0:soft-hitnormal2.ogg
329,192,89000,1,0,0:0:0:0:soft-hitnormal2.ogg
402,192,89000,1,0,0:0:0:0:soft-hitnormal2.ogg
329,0,89100,128,0,89200:0:0:0:0:soft-hitnormal2.ogg
109,192,89200,1,0,0:0:0:0:soft-hitnormal2.ogg
182,192,89200,1,0,0:0:0:0:soft-hitnormal2.ogg
256,192,89200,1,0,0:0:0:0:soft-hitnormal2.ogg
402,0,89200,128,0,89300:0:0:0:0:soft-hitnormal2.ogg
475,0,89200,128,0,89300:0:0:0:0:soft-hitnormal2.ogg
329,0,89300,128,0,89400:0:0:0:0:soft-hitnormal2.ogg
109,192,89400,1,0,0:0:0:0:soft-hitnormal2.ogg
182,192,89400,1,0,0:0:0:0:soft-hitnormal2.ogg
256,0,89400,128,0,89500:0:0:0:0:soft-hitnormal2.ogg
402,192,89400,1,0,0:0:0:0:soft-hitnormal2.ogg
475,0,89400,128,0,89700:0:0:0:0:soft-hitnormal2.ogg
182,0,89500,128,0,89600:0:0:0:0:soft-hitnormal2.ogg
109,0,89600,128,0,89700:0:0:0:0:soft-hitnormal2.ogg
256,192,89600,1,0,0:0:0:0:soft-hitnormal2.ogg
329,192,89600,1,0,0:0:0:0:soft-hitnormal2.ogg
402,192,89600,1,0,0:0:0:0:soft-hitnormal2.ogg
182,0,89700,128,0,89800:0:0:0:0:soft-hitnormal2.ogg
109,192,89800,1,0,0:0:0:0:soft-hitnormal2.ogg
256,0,89800,128,0,89900:0:0:0:0:soft-hitnormal2.ogg
329,192,89800,1,0,0:0:0:0:soft-hitnormal2.ogg
402,192,89800,1,0,0:0:0:0:soft-hitnormal2.ogg
475,0,89800,128,0,90300:0:0:0:0:soft-hitnormal2.ogg
329,0,89900,128,0,90000:0:0:0:0:soft-hitnormal2.ogg
36,0,90000,128,0,90100:0:0:0:0:soft-hitnormal2.ogg
109,192,90000,1,0,0:0:0:0:soft-hitnormal2.ogg
182,192,90000,1,0,0:0:0:0:soft-hitnormal2.ogg
256,192,90000,1,0,0:0:0:0:soft-hitnormal2.ogg
402,0,90000,128,0,90100:0:0:0:0:soft-hitnormal2.ogg
329,0,90100,128,0,90200:0:0:0:0:soft-hitnormal2.ogg
36,0,90200,128,0,90900:0:0:0:0:soft-hitnormal2.ogg
109,192,90200,1,0,0:0:0:0:soft-hitnormal2.ogg
182,192,90200,1,0,0:0:0:0:soft-hitnormal2.ogg
256,0,90200,128,0,90300:0:0:0:0:soft-hitnormal2.ogg
402,192,90200,1,0,0:0:0:0:soft-hitnormal2.ogg
182,0,90300,128,0,90400:0:0:0:0:soft-hitnormal2.ogg
109,0,90400,128,0,90500:0:0:0:0:soft-hitnormal2.ogg
256,192,90400,1,0,0:0:0:0:soft-hitnormal2.ogg
329,192,90400,1,0,0:0:0:0:soft-hitnormal2.ogg
402,192,90400,1,0,0:0:0:0:soft-hitnormal2.ogg
475,0,90400,128,0,90700:0:0:0:0:soft-hitnormal2.ogg
182,0,90500,128,0,90600:0:0:0:0:soft-hitnormal2.ogg
109,192,90600,1,0,0:0:0:0:soft-hitnormal2.ogg
256,0,90600,128,0,90700:0:0:0:0:soft-hitnormal2.ogg
329,192,90600,1,0,0:0:0:0:soft-hitnormal2.ogg
402,192,90600,1,0,0:0:0:0:soft-hitnormal2.ogg
329,0,90700,128,0,90800:0:0:0:0:soft-hitnormal2.ogg
109,192,90800,1,0,0:0:0:0:soft-hitnormal2.ogg
182,192,90800,1,0,0:0:0:0:soft-hitnormal2.ogg
256,192,90800,1,0,0:0:0:0:soft-hitnormal2.ogg
402,0,90800,128,0,90900:0:0:0:0:soft-hitnormal2.ogg
475,0,90800,128,0,91200:0:0:0:0:soft-hitnormal2.ogg
329,0,90900,128,0,91000:0:0:0:0:soft-hitnormal2.ogg
109,192,91000,1,0,0:0:0:0:soft-hitnormal2.ogg
182,192,91000,1,0,0:0:0:0:soft-hitnormal2.ogg
256,0,91000,128,0,91100:0:0:0:0:soft-hitnormal2.ogg
402,192,91000,1,0,0:0:0:0:soft-hitnormal2.ogg
36,0,91000,128,0,91200:0:0:0:0:soft-hitnormal2.ogg
182,0,91100,128,0,91200:0:0:0:0:soft-hitnormal2.ogg
109,0,91200,128,0,91300:0:0:0:0:soft-hitnormal2.ogg
256,192,91200,1,0,0:0:0:0:soft-hitnormal2.ogg
329,0,91200,128,0,91300:0:0:0:0:soft-hitnormal2.ogg
402,0,91200,128,0,91300:0:0:0:0:soft-hitnormal2.ogg
36,0,91300,128,0,91500:0:0:0:0:soft-hitnormal2.ogg
256,0,91300,128,0,91400:0:0:0:0:soft-hitnormal2.ogg
109,0,91400,128,0,91600:0:0:0:0:soft-hitnormal2.ogg
329,0,91400,128,0,91700:0:0:0:0:soft-hitnormal2.ogg
475,0,91400,128,0,91500:0:0:0:0:soft-hitnormal2.ogg
182,0,91500,128,0,91600:0:0:0:0:soft-hitnormal2.ogg
402,0,91500,128,0,91600:0:0:0:0:soft-hitnormal2.ogg
256,192,91600,1,0,0:0:0:0:soft-hitnormal2.ogg
475,192,91600,1,0,0:0:0:0:soft-hitnormal2.ogg
36,192,91700,1,0,0:0:0:0:soft-hitnormal2.ogg
182,192,91700,1,0,0:0:0:0:soft-hitnormal2.ogg
402,192,91700,1,0,0:0:0:0:soft-hitnormal2.ogg
109,192,91800,1,0,0:0:0:0:soft-hitnormal2.ogg
329,192,91800,1,0,0:0:0:0:soft-hitnormal2.ogg
475,192,91800,1,0,0:0:0:0:soft-hitnormal2.ogg
36,192,91900,1,0,0:0:0:0:soft-hitnormal2.ogg
256,192,91900,1,0,0:0:0:0:soft-hitnormal2.ogg
402,192,91900,1,0,0:0:0:0:soft-hitnormal2.ogg
109,0,92000,128,0,92200:0:0:0:0:soft-hitnormal2.ogg
329,0,92000,128,0,92300:0:0:0:0:soft-hitnormal2.ogg
182,0,92100,128,0,92200:0:0:0:0:soft-hitnormal2.ogg
402,0,92100,128,0,92200:0:0:0:0:soft-hitnormal2.ogg
36,0,92200,128,0,92400:0:0:0:0:soft-hitnormal2.ogg
256,0,92200,128,0,92400:0:0:0:0:soft-hitnormal2.ogg
475,0,92200,128,0,92300:0:0:0:0:soft-hitnormal2.ogg
182,0,92300,128,0,92600:0:0:0:0:soft-hitnormal2.ogg
402,0,92300,128,0,92400:0:0:0:0:soft-hitnormal2.ogg
109,192,92400,1,0,0:0:0:0:soft-hitnormal2.ogg
329,192,92400,1,0,0:0:0:0:soft-hitnormal2.ogg
475,192,92400,1,0,0:0:0:0:soft-hitnormal2.ogg
36,192,92500,1,0,0:0:0:0:soft-hitnormal2.ogg
256,192,92500,1,0,0:0:0:0:soft-hitnormal2.ogg
402,192,92500,1,0,0:0:0:0:soft-hitnormal2.ogg
109,192,92600,1,0,0:0:0:0:soft-hitnormal2.ogg
329,192,92600,1,0,0:0:0:0:soft-hitnormal2.ogg
475,192,92600,1,0,0:0:0:0:soft-hitnormal2.ogg
36,192,92700,1,0,0:0:0:0:soft-hitnormal2.ogg
182,192,92700,1,0,0:0:0:0:soft-hitnormal2.ogg
402,192,92700,1,0,0:0:0:0:soft-hitnormal2.ogg
109,192,92800,1,0,0:0:0:0:soft-hitnormal2.ogg
256,192,92800,1,0,0:0:0:0:soft-hitnormal2.ogg
329,192,92800,1,0,0:0:0:0:soft-hitnormal2.ogg
475,192,92800,1,0,0:0:0:0:soft-hitnormal2.ogg
36,192,92900,1,0,0:0:0:0:soft-hitnormal2.ogg
475,0,92900,128,0,93600:0:0:0:0:soft-hitnormal2.ogg
36,0,93000,128,0,93800:0:0:0:0:soft-hitnormal2.ogg
402,192,93000,1,0,0:0:0:0:soft-hitnormal2.ogg
109,192,93100,1,0,0:0:0:0:soft-hitnormal2.ogg
402,0,93100,128,0,93400:0:0:0:0:soft-hitnormal2.ogg
109,0,93200,128,0,93500:0:0:0:0:soft-hitnormal2.ogg
329,192,93200,1,0,0:0:0:0:soft-hitnormal2.ogg
182,192,93300,1,0,0:0:0:0:soft-hitnormal2.ogg
329,0,93300,128,0,93400:0:0:0:0:soft-hitnormal2.ogg
182,0,93400,128,0,93500:0:0:0:0:soft-hitnormal2.ogg
256,192,93400,1,0,0:0:0:0:soft-hitnormal2.ogg
256,0,93500,128,0,93600:0:0:0:0:soft-hitnormal2.ogg
329,192,93500,1,0,0:0:0:0:soft-hitnormal2.ogg
402,192,93500,1,0,0:0:0:0:soft-hitnormal2.ogg
109,192,93600,1,0,0:0:0:0:soft-hitnormal2.ogg
182,192,93600,1,0,0:0:0:0:soft-hitnormal2.ogg
329,0,93600,128,0,93700:0:0:0:0:soft-hitnormal2.ogg
402,0,93600,128,0,93700:0:0:0:0:soft-hitnormal2.ogg
109,0,93700,128,0,93900:0:0:0:0:soft-hitnormal2.ogg
182,0,93700,128,0,93800:0:0:0:0:soft-hitnormal2.ogg
256,192,93700,1,0,0:0:0:0:soft-hitnormal2.ogg
475,192,93700,1,0,0:0:0:0:soft-hitnormal2.ogg
256,0,93800,128,0,93900:0:0:0:0:soft-hitnormal2.ogg
329,192,93800,1,0,0:0:0:0:soft-hitnormal2.ogg
402,192,93800,1,0,0:0:0:0:soft-hitnormal2.ogg
475,0,93800,128,0,94200:0:0:0:0:soft-hitnormal2.ogg
36,192,93900,1,0,0:0:0:0:soft-hitnormal2.ogg
182,192,93900,1,0,0:0:0:0:soft-hitnormal2.ogg
329,0,93900,128,0,94000:0:0:0:0:soft-hitnormal2.ogg
402,0,93900,128,0,94100:0:0:0:0:soft-hitnormal2.ogg
36,0,94000,128,0,94200:0:0:0:0:soft-hitnormal2.ogg
109,192,94000,1,0,0:0:0:0:soft-hitnormal2.ogg
256,192,94000,1,0,0:0:0:0:soft-hitnormal2.ogg
109,0,94100,128,0,94300:0:0:0:0:soft-hitnormal2.ogg
182,192,94100,1,0,0:0:0:0:soft-hitnormal2.ogg
329,192,94100,1,0,0:0:0:0:soft-hitnormal2.ogg
256,192,94200,1,0,0:0:0:0:soft-hitnormal2.ogg
402,192,94200,1,0,0:0:0:0:soft-hitnormal2.ogg
182,0,94200,128,0,94421:0:0:0:0:soft-hitnormal2.ogg
329,192,94300,1,0,0:0:0:0:soft-hitnormal2.ogg
475,192,94300,1,0,0:0:0:0:soft-hitnormal2.ogg
36,192,94421,1,0,0:0:0:0:soft-hitnormal2.ogg
109,192,94421,1,0,0:0:0:0:soft-hitnormal2.ogg
256,0,94421,128,0,94521:0:0:0:0:soft-hitnormal2.ogg
329,192,94421,1,0,0:0:0:0:soft-hitnormal2.ogg
402,192,94421,1,0,0:0:0:0:soft-hitnormal2.ogg
475,192,94421,1,0,0:0:0:0:soft-hitnormal2.ogg
329,0,94521,128,0,94621:0:0:0:0:soft-hitnormal2.ogg
402,0,94621,128,0,94721:0:0:0:0:soft-hitnormal2.ogg
329,0,94721,128,0,94821:0:0:0:0:soft-hitnormal2.ogg
256,192,94821,1,0,0:0:0:0:soft-hitnormal2.ogg
256,192,94921,1,0,0:0:0:0:soft-hitnormal2.ogg
182,192,95021,1,0,0:0:0:0:soft-hitnormal2.ogg
182,192,95121,1,0,0:0:0:0:soft-hitnormal2.ogg
109,0,95221,128,0,95321:0:0:0:0:soft-hitnormal2.ogg
36,0,95321,128,0,95421:0:0:0:0:soft-hitnormal2.ogg
109,0,95421,128,0,95521:0:0:0:0:soft-hitnormal2.ogg
182,0,95521,128,0,95621:0:0:0:0:soft-hitnormal2.ogg
256,192,95621,1,0,0:0:0:0:soft-hitnormal2.ogg
256,192,95721,1,0,0:0:0:0:soft-hitnormal2.ogg
329,192,95821,1,0,0:0:0:0:soft-hitnormal2.ogg
329,192,95921,1,0,0:0:0:0:soft-hitnormal2.ogg
402,0,96021,128,0,96121:0:0:0:0:soft-hitnormal2.ogg
475,0,96121,128,0,96221:0:0:0:0:soft-hitnormal2.ogg
402,0,96221,128,0,96321:0:0:0:0:soft-hitnormal2.ogg
329,0,96321,128,0,96421:0:0:0:0:soft-hitnormal2.ogg
256,192,96421,1,0,0:0:0:0:soft-hitnormal2.ogg
256,192,96521,1,0,0:0:0:0:soft-hitnormal2.ogg
182,192,96621,1,0,0:0:0:0:soft-hitnormal2.ogg
182,192,96721,1,0,0:0:0:0:soft-hitnormal2.ogg
402,0,96821,128,0,96921:0:0:0:0:soft-hitnormal2.ogg
475,0,96921,128,0,97021:0:0:0:0:soft-hitnormal2.ogg
329,0,97021,128,0,97121:0:0:0:0:soft-hitnormal2.ogg
402,0,97121,128,0,97221:0:0:0:0:soft-hitnormal2.ogg
256,192,97221,1,0,0:0:0:0:soft-hitnormal2.ogg
256,192,97321,1,0,0:0:0:0:soft-hitnormal2.ogg
329,192,97421,1,0,0:0:0:0:soft-hitnormal2.ogg
329,192,97521,1,0,0:0:0:0:soft-hitnormal2.ogg
182,0,97621,128,0,97721:0:0:0:0:soft-hitnormal2.ogg
256,0,97721,128,0,97821:0:0:0:0:soft-hitnormal2.ogg
329,0,97821,128,0,97921:0:0:0:0:soft-hitnormal2.ogg
402,0,97921,128,0,98021:0:0:0:0:soft-hitnormal2.ogg
475,192,98021,1,0,0:0:0:0:soft-hitnormal2.ogg
475,192,98121,1,0,0:0:0:0:soft-hitnormal2.ogg
402,192,98221,1,0,0:0:0:0:soft-hitnormal2.ogg
402,192,98321,1,0,0:0:0:0:soft-hitnormal2.ogg
329,0,98421,128,0,98521:0:0:0:0:soft-hitnormal2.ogg
256,0,98521,128,0,98621:0:0:0:0:soft-hitnormal2.ogg
182,0,98621,128,0,98721:0:0:0:0:soft-hitnormal2.ogg
109,0,98721,128,0,98821:0:0:0:0:soft-hitnormal2.ogg
36,192,98821,1,0,0:0:0:0:soft-hitnormal2.ogg
36,192,98921,1,0,0:0:0:0:soft-hitnormal2.ogg
182,192,99021,1,0,0:0:0:0:soft-hitnormal2.ogg
182,192,99121,1,0,0:0:0:0:soft-hitnormal2.ogg
109,0,99221,128,0,99321:0:0:0:0:soft-hitnormal2.ogg
182,0,99321,128,0,99421:0:0:0:0:soft-hitnormal2.ogg
256,0,99421,128,0,99521:0:0:0:0:soft-hitnormal2.ogg
329,0,99521,128,0,99621:0:0:0:0:soft-hitnormal2.ogg
402,192,99621,1,0,0:0:0:0:soft-hitnormal2.ogg
402,192,99721,1,0,0:0:0:0:soft-hitnormal2.ogg
475,192,99821,1,0,0:0:0:0:soft-hitnormal2.ogg
475,192,99921,1,0,0:0:0:0:soft-hitnormal2.ogg
182,192,100021,1,0,0:0:0:0:soft-hitnormal2.ogg
402,0,100021,128,0,100121:0:0:0:0:soft-hitnormal2.ogg
182,192,100121,1,0,0:0:0:0:soft-hitnormal2.ogg
329,0,100121,128,0,100221:0:0:0:0:soft-hitnormal2.ogg
36,192,100221,1,0,0:0:0:0:soft-hitnormal2.ogg
256,0,100221,128,0,100321:0:0:0:0:soft-hitnormal2.ogg
36,192,100321,1,0,0:0:0:0:soft-hitnormal2.ogg
182,0,100321,128,0,100421:0:0:0:0:soft-hitnormal2.ogg
109,192,100421,1,0,0:0:0:0:soft-hitnormal2.ogg
475,192,100421,1,0,0:0:0:0:soft-hitnormal2.ogg
109,192,100521,1,0,0:0:0:0:soft-hitnormal2.ogg
475,192,100521,1,0,0:0:0:0:soft-hitnormal2.ogg
36,192,100621,1,0,0:0:0:0:soft-hitnormal2.ogg
402,192,100621,1,0,0:0:0:0:soft-hitnormal2.ogg
36,192,100721,1,0,0:0:0:0:soft-hitnormal2.ogg
402,192,100721,1,0,0:0:0:0:soft-hitnormal2.ogg
182,0,100821,128,0,100921:0:0:0:0:soft-hitnormal2.ogg
329,0,100821,128,0,100921:0:0:0:0:soft-hitnormal2.ogg
475,0,100821,128,0,101221:0:0:0:0:soft-hitnormal2.ogg
109,0,100921,128,0,101021:0:0:0:0:soft-hitnormal2.ogg
256,0,100921,128,0,101021:0:0:0:0:soft-hitnormal2.ogg
36,0,101021,128,0,101121:0:0:0:0:soft-hitnormal2.ogg
182,0,101021,128,0,101121:0:0:0:0:soft-hitnormal2.ogg
109,0,101121,128,0,101221:0:0:0:0:soft-hitnormal2.ogg
256,0,101121,128,0,101221:0:0:0:0:soft-hitnormal2.ogg
182,192,101221,1,0,0:0:0:0:soft-hitnormal2.ogg
329,192,101221,1,0,0:0:0:0:soft-hitnormal2.ogg
402,0,101221,128,0,101621:0:0:0:0:soft-hitnormal2.ogg
256,192,101321,1,0,0:0:0:0:soft-hitnormal2.ogg
475,192,101321,1,0,0:0:0:0:soft-hitnormal2.ogg
36,0,101421,128,0,101621:0:0:0:0:soft-hitnormal2.ogg
182,192,101421,1,0,0:0:0:0:soft-hitnormal2.ogg
329,192,101421,1,0,0:0:0:0:soft-hitnormal2.ogg
475,0,101421,128,0,101521:0:0:0:0:soft-hitnormal2.ogg
109,192,101521,1,0,0:0:0:0:soft-hitnormal2.ogg
256,192,101521,1,0,0:0:0:0:soft-hitnormal2.ogg
182,0,101621,128,0,101721:0:0:0:0:soft-hitnormal2.ogg
329,0,101621,128,0,101721:0:0:0:0:soft-hitnormal2.ogg
475,0,101621,128,0,102021:0:0:0:0:soft-hitnormal2.ogg
256,0,101721,128,0,101821:0:0:0:0:soft-hitnormal2.ogg
402,0,101721,128,0,101821:0:0:0:0:soft-hitnormal2.ogg
182,0,101821,128,0,101921:0:0:0:0:soft-hitnormal2.ogg
329,0,101821,128,0,101921:0:0:0:0:soft-hitnormal2.ogg
109,0,101921,128,0,102021:0:0:0:0:soft-hitnormal2.ogg
256,0,101921,128,0,102021:0:0:0:0:soft-hitnormal2.ogg
182,192,102021,1,0,0:0:0:0:soft-hitnormal2.ogg
329,192,102021,1,0,0:0:0:0:soft-hitnormal2.ogg
36,0,102021,128,0,102421:0:0:0:0:soft-hitnormal2.ogg
109,0,102121,128,0,102221:0:0:0:0:soft-hitnormal2.ogg
256,192,102121,1,0,0:0:0:0:soft-hitnormal2.ogg
402,192,102121,1,0,0:0:0:0:soft-hitnormal2.ogg
182,192,102221,1,0,0:0:0:0:soft-hitnormal2.ogg
329,192,102221,1,0,0:0:0:0:soft-hitnormal2.ogg
402,0,102221,128,0,102421:0:0:0:0:soft-hitnormal2.ogg
475,0,102221,128,0,102421:0:0:0:0:soft-hitnormal2.ogg
109,192,102321,1,0,0:0:0:0:soft-hitnormal2.ogg
256,192,102321,1,0,0:0:0:0:soft-hitnormal2.ogg
109,0,102421,128,0,102821:0:0:0:0:soft-hitnormal2.ogg
182,0,102421,128,0,102521:0:0:0:0:soft-hitnormal2.ogg
329,0,102421,128,0,102521:0:0:0:0:soft-hitnormal2.ogg
256,0,102521,128,0,102621:0:0:0:0:soft-hitnormal2.ogg
402,0,102521,128,0,102621:0:0:0:0:soft-hitnormal2.ogg
329,0,102621,128,0,102721:0:0:0:0:soft-hitnormal2.ogg
475,0,102621,128,0,102721:0:0:0:0:soft-hitnormal2.ogg
256,0,102721,128,0,102821:0:0:0:0:soft-hitnormal2.ogg
402,0,102721,128,0,102821:0:0:0:0:soft-hitnormal2.ogg
182,192,102821,1,0,0:0:0:0:soft-hitnormal2.ogg
329,192,102821,1,0,0:0:0:0:soft-hitnormal2.ogg
475,0,102821,128,0,103221:0:0:0:0:soft-hitnormal2.ogg
36,0,102921,128,0,103121:0:0:0:0:soft-hitnormal2.ogg
109,192,102921,1,0,0:0:0:0:soft-hitnormal2.ogg
256,192,102921,1,0,0:0:0:0:soft-hitnormal2.ogg
182,192,103021,1,0,0:0:0:0:soft-hitnormal2.ogg
329,192,103021,1,0,0:0:0:0:soft-hitnormal2.ogg
402,0,103021,128,0,103121:0:0:0:0:soft-hitnormal2.ogg
109,192,103121,1,0,0:0:0:0:soft-hitnormal2.ogg
256,192,103121,1,0,0:0:0:0:soft-hitnormal2.ogg
329,0,103121,128,0,103221:0:0:0:0:soft-hitnormal2.ogg
36,0,103221,128,0,103321:0:0:0:0:soft-hitnormal2.ogg
182,0,103221,128,0,103321:0:0:0:0:soft-hitnormal2.ogg
402,0,103221,128,0,103621:0:0:0:0:soft-hitnormal2.ogg
109,0,103321,128,0,103421:0:0:0:0:soft-hitnormal2.ogg
256,0,103321,128,0,103421:0:0:0:0:soft-hitnormal2.ogg
182,0,103421,128,0,103521:0:0:0:0:soft-hitnormal2.ogg
329,0,103421,128,0,103521:0:0:0:0:soft-hitnormal2.ogg
109,0,103521,128,0,103621:0:0:0:0:soft-hitnormal2.ogg
256,0,103521,128,0,103621:0:0:0:0:soft-hitnormal2.ogg
329,192,103621,1,0,0:0:0:0:soft-hitnormal2.ogg
475,192,103621,1,0,0:0:0:0:soft-hitnormal2.ogg
36,0,103621,128,0,104021:0:0:0:0:soft-hitnormal2.ogg
109,192,103721,1,0,0:0:0:0:soft-hitnormal2.ogg
256,192,103721,1,0,0:0:0:0:soft-hitnormal2.ogg
475,0,103721,128,0,103821:0:0:0:0:soft-hitnormal2.ogg
182,192,103821,1,0,0:0:0:0:soft-hitnormal2.ogg
329,192,103821,1,0,0:0:0:0:soft-hitnormal2.ogg
402,0,103821,128,0,104021:0:0:0:0:soft-hitnormal2.ogg
256,192,103921,1,0,0:0:0:0:soft-hitnormal2.ogg
475,192,103921,1,0,0:0:0:0:soft-hitnormal2.ogg
109,0,103921,128,0,104021:0:0:0:0:soft-hitnormal2.ogg
182,0,104021,128,0,104121:0:0:0:0:soft-hitnormal2.ogg
329,0,104021,128,0,104121:0:0:0:0:soft-hitnormal2.ogg
475,0,104021,128,0,104321:0:0:0:0:soft-hitnormal2.ogg
109,0,104121,128,0,104221:0:0:0:0:soft-hitnormal2.ogg
256,0,104121,128,0,104221:0:0:0:0:soft-hitnormal2.ogg
36,0,104221,128,0,104321:0:0:0:0:soft-hitnormal2.ogg
182,0,104221,128,0,104321:0:0:0:0:soft-hitnormal2.ogg
109,0,104321,128,0,104421:0:0:0:0:soft-hitnormal2.ogg
256,0,104321,128,0,104421:0:0:0:0:soft-hitnormal2.ogg
329,192,104421,1,0,0:0:0:0:soft-hitnormal2.ogg
402,0,104421,128,0,104821:0:0:0:0:soft-hitnormal2.ogg
475,192,104421,1,0,0:0:0:0:soft-hitnormal2.ogg
36,192,104521,1,0,0:0:0:0:soft-hitnormal2.ogg
256,192,104521,1,0,0:0:0:0:soft-hitnormal2.ogg
475,0,104521,128,0,104721:0:0:0:0:soft-hitnormal2.ogg
109,192,104621,1,0,0:0:0:0:soft-hitnormal2.ogg
182,0,104621,128,0,104821:0:0:0:0:soft-hitnormal2.ogg
329,192,104621,1,0,0:0:0:0:soft-hitnormal2.ogg
36,192,104721,1,0,0:0:0:0:soft-hitnormal2.ogg
109,0,104721,128,0,104821:0:0:0:0:soft-hitnormal2.ogg
256,192,104721,1,0,0:0:0:0:soft-hitnormal2.ogg
36,0,104821,128,0,105121:0:0:0:0:soft-hitnormal2.ogg
329,0,104821,128,0,104921:0:0:0:0:soft-hitnormal2.ogg
475,0,104821,128,0,104921:0:0:0:0:soft-hitnormal2.ogg
256,0,104921,128,0,105021:0:0:0:0:soft-hitnormal2.ogg
402,0,104921,128,0,105021:0:0:0:0:soft-hitnormal2.ogg
182,0,105021,128,0,105121:0:0:0:0:soft-hitnormal2.ogg
329,0,105021,128,0,105121:0:0:0:0:soft-hitnormal2.ogg
109,0,105121,128,0,105221:0:0:0:0:soft-hitnormal2.ogg
256,0,105121,128,0,105221:0:0:0:0:soft-hitnormal2.ogg
36,192,105221,1,0,0:0:0:0:soft-hitnormal2.ogg
182,192,105221,1,0,0:0:0:0:soft-hitnormal2.ogg
329,0,105221,128,0,105421:0:0:0:0:soft-hitnormal2.ogg
475,0,105221,128,0,105621:0:0:0:0:soft-hitnormal2.ogg
256,192,105321,1,0,0:0:0:0:soft-hitnormal2.ogg
402,192,105321,1,0,0:0:0:0:soft-hitnormal2.ogg
109,192,105421,1,0,0:0:0:0:soft-hitnormal2.ogg
182,192,105421,1,0,0:0:0:0:soft-hitnormal2.ogg
402,0,105421,128,0,105521:0:0:0:0:soft-hitnormal2.ogg
36,0,105421,128,0,105621:0:0:0:0:soft-hitnormal2.ogg
256,192,105521,1,0,0:0:0:0:soft-hitnormal2.ogg
329,192,105521,1,0,0:0:0:0:soft-hitnormal2.ogg
109,0,105621,128,0,105971:0:0:0:0:soft-hitnormal2.ogg
182,192,105621,1,0,0:0:0:0:soft-hitnormal2.ogg
402,0,105621,128,0,105921:0:0:0:0:soft-hitnormal2.ogg
182,0,105721,128,0,105821:0:0:0:0:soft-hitnormal2.ogg
329,192,105721,1,0,0:0:0:0:soft-hitnormal2.ogg
36,192,105821,1,0,0:0:0:0:soft-hitnormal2.ogg
329,0,105821,128,0,105921:0:0:0:0:soft-hitnormal2.ogg
36,0,105921,128,0,106021:0:0:0:0:soft-hitnormal2.ogg
475,192,105921,1,0,0:0:0:0:soft-hitnormal2.ogg
109,0,106021,128,0,106321:0:0:0:0:soft-hitnormal2.ogg
182,192,106021,1,0,0:0:0:0:soft-hitnormal2.ogg
402,0,106021,128,0,106371:0:0:0:0:soft-hitnormal2.ogg
475,0,106021,128,0,106121:0:0:0:0:soft-hitnormal2.ogg
182,0,106121,128,0,106221:0:0:0:0:soft-hitnormal2.ogg
329,192,106121,1,0,0:0:0:0:soft-hitnormal2.ogg
36,192,106221,1,0,0:0:0:0:soft-hitnormal2.ogg
329,0,106221,128,0,106321:0:0:0:0:soft-hitnormal2.ogg
36,0,106321,128,0,106421:0:0:0:0:soft-hitnormal2.ogg
256,192,106321,1,0,0:0:0:0:soft-hitnormal2.ogg
109,0,106421,128,0,106671:0:0:0:0:soft-hitnormal2.ogg
256,0,106421,128,0,106521:0:0:0:0:soft-hitnormal2.ogg
402,0,106421,128,0,106621:0:0:0:0:soft-hitnormal2.ogg
475,192,106421,1,0,0:0:0:0:soft-hitnormal2.ogg
182,192,106521,1,0,0:0:0:0:soft-hitnormal2.ogg
475,0,106521,128,0,106621:0:0:0:0:soft-hitnormal2.ogg
182,0,106621,128,0,106721:0:0:0:0:soft-hitnormal2.ogg
329,192,106621,1,0,0:0:0:0:soft-hitnormal2.ogg
109,0,106721,128,0,106921:0:0:0:0:soft-hitnormal2.ogg
329,0,106721,128,0,106821:0:0:0:0:soft-hitnormal2.ogg
402,0,106721,128,0,106971:0:0:0:0:soft-hitnormal2.ogg
475,192,106721,1,0,0:0:0:0:soft-hitnormal2.ogg
36,192,106821,1,0,0:0:0:0:soft-hitnormal2.ogg
475,0,106821,128,0,106921:0:0:0:0:soft-hitnormal2.ogg
36,0,106921,128,0,107021:0:0:0:0:soft-hitnormal2.ogg
182,192,106921,1,0,0:0:0:0:soft-hitnormal2.ogg
182,0,107021,128,0,107121:0:0:0:0:soft-hitnormal2.ogg
329,192,107021,1,0,0:0:0:0:soft-hitnormal2.ogg
109,0,107021,128,0,107221:0:0:0:0:soft-hitnormal2.ogg
402,0,107021,128,0,107221:0:0:0:0:soft-hitnormal2.ogg
475,192,107121,1,0,0:0:0:0:soft-hitnormal2.ogg
329,0,107121,128,0,107221:0:0:0:0:soft-hitnormal2.ogg
36,0,107221,128,0,107521:0:0:0:0:soft-hitnormal2.ogg
182,0,107221,128,0,107246:0:0:0:0:soft-hitnormal2.ogg
256,0,107246,128,0,107271:0:0:0:0:soft-hitnormal2.ogg
182,0,107321,128,0,107346:0:0:0:0:soft-hitnormal2.ogg
475,0,107321,128,0,107621:0:0:0:0:soft-hitnormal2.ogg
256,0,107346,128,0,107371:0:0:0:0:soft-hitnormal2.ogg
329,0,107421,128,0,107446:0:0:0:0:soft-hitnormal2.ogg
402,0,107446,128,0,107471:0:0:0:0:soft-hitnormal2.ogg
109,0,107521,128,0,107621:0:0:0:0:soft-hitnormal2.ogg
329,0,107521,128,0,107546:0:0:0:0:soft-hitnormal2.ogg
402,0,107546,128,0,107571:0:0:0:0:soft-hitnormal2.ogg
36,0,107621,128,0,107921:0:0:0:0:soft-hitnormal2.ogg
182,0,107621,128,0,107821:0:0:0:0:soft-hitnormal2.ogg
256,0,107621,128,0,107721:0:0:0:0:soft-hitnormal2.ogg
109,0,107721,128,0,107921:0:0:0:0:soft-hitnormal2.ogg
329,0,107721,128,0,107821:0:0:0:0:soft-hitnormal2.ogg
256,0,107821,128,0,108321:0:0:0:0:soft-hitnormal2.ogg
402,0,107821,128,0,108121:0:0:0:0:soft-hitnormal2.ogg
475,0,107821,128,0,107921:0:0:0:0:soft-hitnormal2.ogg
182,0,107921,128,0,108421:0:0:0:0:soft-hitnormal2.ogg
329,0,107921,128,0,108121:0:0:0:0:soft-hitnormal2.ogg
36,0,108021,128,0,108046:0:0:0:0:soft-hitnormal2.ogg
475,0,108021,128,0,108121:0:0:0:0:soft-hitnormal2.ogg
109,0,108046,128,0,108071:0:0:0:0:soft-hitnormal2.ogg
36,0,108121,128,0,108146:0:0:0:0:soft-hitnormal2.ogg
109,0,108146,128,0,108171:0:0:0:0:soft-hitnormal2.ogg
329,0,108221,128,0,108246:0:0:0:0:soft-hitnormal2.ogg
402,0,108246,128,0,108271:0:0:0:0:soft-hitnormal2.ogg
329,0,108321,128,0,108346:0:0:0:0:soft-hitnormal2.ogg
402,0,108346,128,0,108371:0:0:0:0:soft-hitnormal2.ogg
36,0,108421,128,0,108521:0:0:0:0:soft-hitnormal2.ogg
109,0,108421,128,0,108621:0:0:0:0:soft-hitnormal2.ogg
256,0,108421,128,0,108521:0:0:0:0:soft-hitnormal2.ogg
475,0,108421,128,0,108721:0:0:0:0:soft-hitnormal2.ogg
182,0,108521,128,0,108721:0:0:0:0:soft-hitnormal2.ogg
329,0,108521,128,0,108621:0:0:0:0:soft-hitnormal2.ogg
402,0,108621,128,0,108721:0:0:0:0:soft-hitnormal2.ogg
36,0,108621,128,0,108921:0:0:0:0:soft-hitnormal2.ogg
256,0,108621,128,0,108821:0:0:0:0:soft-hitnormal2.ogg
109,0,108721,128,0,108821:0:0:0:0:soft-hitnormal2.ogg
329,0,108721,128,0,108921:0:0:0:0:soft-hitnormal2.ogg
182,0,108821,128,0,108921:0:0:0:0:soft-hitnormal2.ogg
402,0,108821,128,0,109021:0:0:0:0:soft-hitnormal2.ogg
475,0,108821,128,0,109021:0:0:0:0:soft-hitnormal2.ogg
109,0,108921,128,0,109221:0:0:0:0:soft-hitnormal2.ogg
256,0,108921,128,0,109121:0:0:0:0:soft-hitnormal2.ogg
36,0,109021,128,0,109121:0:0:0:0:soft-hitnormal2.ogg
182,0,109021,128,0,109221:0:0:0:0:soft-hitnormal2.ogg
329,0,109021,128,0,109121:0:0:0:0:soft-hitnormal2.ogg
402,0,109121,128,0,109321:0:0:0:0:soft-hitnormal2.ogg
475,0,109121,128,0,109321:0:0:0:0:soft-hitnormal2.ogg
36,0,109221,128,0,109521:0:0:0:0:soft-hitnormal2.ogg
256,0,109221,128,0,109321:0:0:0:0:soft-hitnormal2.ogg
329,0,109221,128,0,109621:0:0:0:0:soft-hitnormal2.ogg
109,0,109321,128,0,109421:0:0:0:0:soft-hitnormal2.ogg
182,0,109321,128,0,109421:0:0:0:0:soft-hitnormal2.ogg
256,0,109421,128,0,109521:0:0:0:0:soft-hitnormal2.ogg
402,0,109421,128,0,109521:0:0:0:0:soft-hitnormal2.ogg
475,0,109421,128,0,109721:0:0:0:0:soft-hitnormal2.ogg
109,0,109521,128,0,109921:0:0:0:0:soft-hitnormal2.ogg
182,0,109521,128,0,109621:0:0:0:0:soft-hitnormal2.ogg
36,0,109621,128,0,109921:0:0:0:0:soft-hitnormal2.ogg
256,0,109621,128,0,109721:0:0:0:0:soft-hitnormal2.ogg
402,0,109621,128,0,109721:0:0:0:0:soft-hitnormal2.ogg
182,0,109721,128,0,109821:0:0:0:0:soft-hitnormal2.ogg
329,0,109721,128,0,109821:0:0:0:0:soft-hitnormal2.ogg
256,0,109821,128,0,109921:0:0:0:0:soft-hitnormal2.ogg
402,0,109821,128,0,110121:0:0:0:0:soft-hitnormal2.ogg
475,0,109821,128,0,109921:0:0:0:0:soft-hitnormal2.ogg
182,0,109921,128,0,110021:0:0:0:0:soft-hitnormal2.ogg
329,0,109921,128,0,110021:0:0:0:0:soft-hitnormal2.ogg
36,0,110021,128,0,110321:0:0:0:0:soft-hitnormal2.ogg
109,0,110021,128,0,110121:0:0:0:0:soft-hitnormal2.ogg
256,0,110021,128,0,110121:0:0:0:0:soft-hitnormal2.ogg
475,0,110021,128,0,110221:0:0:0:0:soft-hitnormal2.ogg
182,0,110121,128,0,110221:0:0:0:0:soft-hitnormal2.ogg
329,0,110121,128,0,110221:0:0:0:0:soft-hitnormal2.ogg
256,0,110221,128,0,110321:0:0:0:0:soft-hitnormal2.ogg
109,0,110221,128,0,110821:0:0:0:0:soft-hitnormal2.ogg
402,0,110221,128,0,110521:0:0:0:0:soft-hitnormal2.ogg
329,0,110321,128,0,110421:0:0:0:0:soft-hitnormal2.ogg
475,0,110321,128,0,110721:0:0:0:0:soft-hitnormal2.ogg
36,0,110421,128,0,110921:0:0:0:0:soft-hitnormal2.ogg
182,0,110421,128,0,110446:0:0:0:0:soft-hitnormal2.ogg
256,0,110446,128,0,110471:0:0:0:0:soft-hitnormal2.ogg
182,0,110521,128,0,110546:0:0:0:0:soft-hitnormal2.ogg
256,0,110546,128,0,110571:0:0:0:0:soft-hitnormal2.ogg
329,0,110621,128,0,110646:0:0:0:0:soft-hitnormal2.ogg
402,0,110646,128,0,110671:0:0:0:0:soft-hitnormal2.ogg
329,0,110721,128,0,110746:0:0:0:0:soft-hitnormal2.ogg
402,0,110746,128,0,110771:0:0:0:0:soft-hitnormal2.ogg
182,0,110821,128,0,110921:0:0:0:0:soft-hitnormal2.ogg
256,0,110821,128,0,110921:0:0:0:0:soft-hitnormal2.ogg
475,0,110821,128,0,111621:0:0:0:0:soft-hitnormal2.ogg
109,0,110921,128,0,111021:0:0:0:0:soft-hitnormal2.ogg
329,0,110921,128,0,111121:0:0:0:0:soft-hitnormal2.ogg
36,0,111021,128,0,111521:0:0:0:0:soft-hitnormal2.ogg
182,0,111021,128,0,111321:0:0:0:0:soft-hitnormal2.ogg
256,0,111021,128,0,111121:0:0:0:0:soft-hitnormal2.ogg
109,0,111121,128,0,111321:0:0:0:0:soft-hitnormal2.ogg
402,0,111121,128,0,111621:0:0:0:0:soft-hitnormal2.ogg
256,0,111221,128,0,111246:0:0:0:0:soft-hitnormal2.ogg
329,0,111246,128,0,111271:0:0:0:0:soft-hitnormal2.ogg
256,0,111321,128,0,111346:0:0:0:0:soft-hitnormal2.ogg
329,0,111346,128,0,111371:0:0:0:0:soft-hitnormal2.ogg
109,0,111421,128,0,111446:0:0:0:0:soft-hitnormal2.ogg
182,0,111446,128,0,111471:0:0:0:0:soft-hitnormal2.ogg
109,0,111521,128,0,111546:0:0:0:0:soft-hitnormal2.ogg
182,0,111546,128,0,111571:0:0:0:0:soft-hitnormal2.ogg
36,0,111621,128,0,111821:0:0:0:0:soft-hitnormal2.ogg
256,0,111621,128,0,111721:0:0:0:0:soft-hitnormal2.ogg
329,0,111621,128,0,111821:0:0:0:0:soft-hitnormal2.ogg
402,0,111721,128,0,111921:0:0:0:0:soft-hitnormal2.ogg
475,0,111721,128,0,111921:0:0:0:0:soft-hitnormal2.ogg
109,0,111821,128,0,111921:0:0:0:0:soft-hitnormal2.ogg
256,0,111821,128,0,111921:0:0:0:0:soft-hitnormal2.ogg
182,0,111821,128,0,112021:0:0:0:0:soft-hitnormal2.ogg
36,0,111921,128,0,112121:0:0:0:0:soft-hitnormal2.ogg
329,0,111921,128,0,112021:0:0:0:0:soft-hitnormal2.ogg
109,0,112021,128,0,112121:0:0:0:0:soft-hitnormal2.ogg
256,0,112021,128,0,112121:0:0:0:0:soft-hitnormal2.ogg
402,0,112021,128,0,112321:0:0:0:0:soft-hitnormal2.ogg
475,0,112021,128,0,112321:0:0:0:0:soft-hitnormal2.ogg
182,0,112121,128,0,112221:0:0:0:0:soft-hitnormal2.ogg
329,0,112121,128,0,112221:0:0:0:0:soft-hitnormal2.ogg
36,0,112221,128,0,112721:0:0:0:0:soft-hitnormal2.ogg
109,0,112221,128,0,112321:0:0:0:0:soft-hitnormal2.ogg
256,0,112221,128,0,112321:0:0:0:0:soft-hitnormal2.ogg
182,0,112321,128,0,112421:0:0:0:0:soft-hitnormal2.ogg
329,0,112321,128,0,112421:0:0:0:0:soft-hitnormal2.ogg
109,0,112421,128,0,112721:0:0:0:0:soft-hitnormal2.ogg
256,0,112421,128,0,112521:0:0:0:0:soft-hitnormal2.ogg
402,0,112421,128,0,112521:0:0:0:0:soft-hitnormal2.ogg
475,0,112421,128,0,112521:0:0:0:0:soft-hitnormal2.ogg
182,0,112521,128,0,112621:0:0:0:0:soft-hitnormal2.ogg
329,0,112521,128,0,112621:0:0:0:0:soft-hitnormal2.ogg
256,0,112621,128,0,112721:0:0:0:0:soft-hitnormal2.ogg
402,0,112621,128,0,112921:0:0:0:0:soft-hitnormal2.ogg
475,0,112621,128,0,113021:0:0:0:0:soft-hitnormal2.ogg
182,0,112721,128,0,112821:0:0:0:0:soft-hitnormal2.ogg
329,0,112721,128,0,112821:0:0:0:0:soft-hitnormal2.ogg
36,0,112821,128,0,112921:0:0:0:0:soft-hitnormal2.ogg
109,0,112821,128,0,113121:0:0:0:0:soft-hitnormal2.ogg
256,0,112821,128,0,112921:0:0:0:0:soft-hitnormal2.ogg
182,0,112921,128,0,113121:0:0:0:0:soft-hitnormal2.ogg
329,0,112921,128,0,113021:0:0:0:0:soft-hitnormal2.ogg
36,0,113021,128,0,113321:0:0:0:0:soft-hitnormal2.ogg
256,0,113021,128,0,113221:0:0:0:0:soft-hitnormal2.ogg
402,0,113021,128,0,113121:0:0:0:0:soft-hitnormal2.ogg
329,0,113121,128,0,113321:0:0:0:0:soft-hitnormal2.ogg
475,0,113121,128,0,113221:0:0:0:0:soft-hitnormal2.ogg
109,0,113221,128,0,113321:0:0:0:0:soft-hitnormal2.ogg
182,0,113221,128,0,113321:0:0:0:0:soft-hitnormal2.ogg
402,0,113221,128,0,113321:0:0:0:0:soft-hitnormal2.ogg
256,0,113321,128,0,113421:0:0:0:0:soft-hitnormal2.ogg
475,0,113321,128,0,113421:0:0:0:0:soft-hitnormal2.ogg
36,0,113421,128,0,113521:0:0:0:0:soft-hitnormal2.ogg
329,0,113421,128,0,113521:0:0:0:0:soft-hitnormal2.ogg
402,0,113421,128,0,113521:0:0:0:0:soft-hitnormal2.ogg
182,0,113521,128,0,113621:0:0:0:0:soft-hitnormal2.ogg
256,0,113521,128,0,113621:0:0:0:0:soft-hitnormal2.ogg
36,192,113621,1,0,0:0:0:0:soft-hitnormal2.ogg
109,0,113621,128,0,113721:0:0:0:0:soft-hitnormal2.ogg
329,192,113621,1,0,0:0:0:0:soft-hitnormal2.ogg
402,192,113621,1,0,0:0:0:0:soft-hitnormal2.ogg
475,0,113621,128,0,114221:0:0:0:0:soft-hitnormal2.ogg
36,0,113721,128,0,113821:0:0:0:0:soft-hitnormal2.ogg
109,0,113821,128,0,113921:0:0:0:0:soft-hitnormal2.ogg
256,192,113821,1,0,0:0:0:0:soft-hitnormal2.ogg
329,192,113821,1,0,0:0:0:0:soft-hitnormal2.ogg
402,192,113821,1,0,0:0:0:0:soft-hitnormal2.ogg
182,0,113921,128,0,114021:0:0:0:0:soft-hitnormal2.ogg
36,192,114021,1,0,0:0:0:0:soft-hitnormal2.ogg
109,192,114021,1,0,0:0:0:0:soft-hitnormal2.ogg
256,0,114021,128,0,114121:0:0:0:0:soft-hitnormal2.ogg
329,192,114021,1,0,0:0:0:0:soft-hitnormal2.ogg
402,0,114021,128,0,114621:0:0:0:0:soft-hitnormal2.ogg
329,0,114121,128,0,114221:0:0:0:0:soft-hitnormal2.ogg
36,192,114221,1,0,0:0:0:0:soft-hitnormal2.ogg
109,192,114221,1,0,0:0:0:0:soft-hitnormal2.ogg
256,0,114221,128,0,114321:0:0:0:0:soft-hitnormal2.ogg
182,0,114321,128,0,114421:0:0:0:0:soft-hitnormal2.ogg
36,0,114421,128,0,115021:0:0:0:0:soft-hitnormal2.ogg
109,0,114421,128,0,114521:0:0:0:0:soft-hitnormal2.ogg
256,192,114421,1,0,0:0:0:0:soft-hitnormal2.ogg
329,192,114421,1,0,0:0:0:0:soft-hitnormal2.ogg
475,192,114421,1,0,0:0:0:0:soft-hitnormal2.ogg
182,0,114521,128,0,114621:0:0:0:0:soft-hitnormal2.ogg
109,192,114621,1,0,0:0:0:0:soft-hitnormal2.ogg
256,0,114621,128,0,114721:0:0:0:0:soft-hitnormal2.ogg
475,192,114621,1,0,0:0:0:0:soft-hitnormal2.ogg
329,0,114721,128,0,114821:0:0:0:0:soft-hitnormal2.ogg
182,192,114821,1,0,0:0:0:0:soft-hitnormal2.ogg
256,192,114821,1,0,0:0:0:0:soft-hitnormal2.ogg
402,0,114821,128,0,114921:0:0:0:0:soft-hitnormal2.ogg
475,192,114821,1,0,0:0:0:0:soft-hitnormal2.ogg
109,0,114821,128,0,115521:0:0:0:0:soft-hitnormal2.ogg
475,0,114921,128,0,115021:0:0:0:0:soft-hitnormal2.ogg
182,192,115021,1,0,0:0:0:0:soft-hitnormal2.ogg
256,192,115021,1,0,0:0:0:0:soft-hitnormal2.ogg
402,0,115021,128,0,115121:0:0:0:0:soft-hitnormal2.ogg
329,0,115121,128,0,115221:0:0:0:0:soft-hitnormal2.ogg
36,192,115221,1,0,0:0:0:0:soft-hitnormal2.ogg
182,192,115221,1,0,0:0:0:0:soft-hitnormal2.ogg
256,0,115221,128,0,115321:0:0:0:0:soft-hitnormal2.ogg
402,0,115221,128,0,115821:0:0:0:0:soft-hitnormal2.ogg
475,192,115221,1,0,0:0:0:0:soft-hitnormal2.ogg
182,0,115321,128,0,115421:0:0:0:0:soft-hitnormal2.ogg
256,0,115421,128,0,115521:0:0:0:0:soft-hitnormal2.ogg
329,192,115421,1,0,0:0:0:0:soft-hitnormal2.ogg
475,192,115421,1,0,0:0:0:0:soft-hitnormal2.ogg
36,0,115521,128,0,115621:0:0:0:0:soft-hitnormal2.ogg
109,192,115621,1,0,0:0:0:0:soft-hitnormal2.ogg
182,0,115621,128,0,115721:0:0:0:0:soft-hitnormal2.ogg
256,192,115621,1,0,0:0:0:0:soft-hitnormal2.ogg
329,0,115621,128,0,116221:0:0:0:0:soft-hitnormal2.ogg
475,192,115621,1,0,0:0:0:0:soft-hitnormal2.ogg
109,0,115721,128,0,115821:0:0:0:0:soft-hitnormal2.ogg
36,192,115821,1,0,0:0:0:0:soft-hitnormal2.ogg
182,192,115821,1,0,0:0:0:0:soft-hitnormal2.ogg
256,0,115821,128,0,115921:0:0:0:0:soft-hitnormal2.ogg
475,0,115921,128,0,116021:0:0:0:0:soft-hitnormal2.ogg
36,192,116021,1,0,0:0:0:0:soft-hitnormal2.ogg
109,192,116021,1,0,0:0:0:0:soft-hitnormal2.ogg
182,0,116021,128,0,116621:0:0:0:0:soft-hitnormal2.ogg
256,0,116021,128,0,116121:0:0:0:0:soft-hitnormal2.ogg
402,192,116021,1,0,0:0:0:0:soft-hitnormal2.ogg
109,0,116121,128,0,116221:0:0:0:0:soft-hitnormal2.ogg
36,0,116221,128,0,116321:0:0:0:0:soft-hitnormal2.ogg
256,192,116221,1,0,0:0:0:0:soft-hitnormal2.ogg
402,192,116221,1,0,0:0:0:0:soft-hitnormal2.ogg
475,192,116221,1,0,0:0:0:0:soft-hitnormal2.ogg
109,0,116321,128,0,116421:0:0:0:0:soft-hitnormal2.ogg
36,192,116421,1,0,0:0:0:0:soft-hitnormal2.ogg
329,0,116421,128,0,116521:0:0:0:0:soft-hitnormal2.ogg
402,192,116421,1,0,0:0:0:0:soft-hitnormal2.ogg
475,192,116421,1,0,0:0:0:0:soft-hitnormal2.ogg
256,0,116421,128,0,116821:0:0:0:0:soft-hitnormal2.ogg
402,0,116521,128,0,116621:0:0:0:0:soft-hitnormal2.ogg
36,192,116621,1,0,0:0:0:0:soft-hitnormal2.ogg
109,192,116621,1,0,0:0:0:0:soft-hitnormal2.ogg
329,192,116621,1,0,0:0:0:0:soft-hitnormal2.ogg
475,0,116621,128,0,116721:0:0:0:0:soft-hitnormal2.ogg
402,0,116721,128,0,116821:0:0:0:0:soft-hitnormal2.ogg
109,192,116821,1,0,0:0:0:0:soft-hitnormal2.ogg
182,192,116821,1,0,0:0:0:0:soft-hitnormal2.ogg
329,192,116821,1,0,0:0:0:0:soft-hitnormal2.ogg
109,0,116921,128,0,117021:0:0:0:0:soft-hitnormal2.ogg
182,0,116921,128,0,117021:0:0:0:0:soft-hitnormal2.ogg
256,192,116921,1,0,0:0:0:0:soft-hitnormal2.ogg
36,192,117021,1,0,0:0:0:0:soft-hitnormal2.ogg
329,192,117021,1,0,0:0:0:0:soft-hitnormal2.ogg
402,192,117021,1,0,0:0:0:0:soft-hitnormal2.ogg
109,192,117121,1,0,0:0:0:0:soft-hitnormal2.ogg
329,0,117121,128,0,117221:0:0:0:0:soft-hitnormal2.ogg
402,0,117121,128,0,117221:0:0:0:0:soft-hitnormal2.ogg
36,192,117221,1,0,0:0:0:0:soft-hitnormal2.ogg
182,192,117221,1,0,0:0:0:0:soft-hitnormal2.ogg
256,192,117221,1,0,0:0:0:0:soft-hitnormal2.ogg
182,0,117321,128,0,117421:0:0:0:0:soft-hitnormal2.ogg
256,0,117321,128,0,117421:0:0:0:0:soft-hitnormal2.ogg
329,192,117321,1,0,0:0:0:0:soft-hitnormal2.ogg
109,192,117421,1,0,0:0:0:0:soft-hitnormal2.ogg
402,192,117421,1,0,0:0:0:0:soft-hitnormal2.ogg
475,192,117421,1,0,0:0:0:0:soft-hitnormal2.ogg
182,192,117521,1,0,0:0:0:0:soft-hitnormal2.ogg
402,0,117521,128,0,117621:0:0:0:0:soft-hitnormal2.ogg
475,0,117521,128,0,117621:0:0:0:0:soft-hitnormal2.ogg
36,192,117621,1,0,0:0:0:0:soft-hitnormal2.ogg
109,192,117621,1,0,0:0:0:0:soft-hitnormal2.ogg
329,192,117621,1,0,0:0:0:0:soft-hitnormal2.ogg
36,0,117721,128,0,117821:0:0:0:0:soft-hitnormal2.ogg
109,0,117721,128,0,117821:0:0:0:0:soft-hitnormal2.ogg
402,192,117721,1,0,0:0:0:0:soft-hitnormal2.ogg
256,192,117821,1,0,0:0:0:0:soft-hitnormal2.ogg
329,192,117821,1,0,0:0:0:0:soft-hitnormal2.ogg
475,192,117821,1,0,0:0:0:0:soft-hitnormal2.ogg
36,192,117921,1,0,0:0:0:0:soft-hitnormal2.ogg
256,0,117921,128,0,118021:0:0:0:0:soft-hitnormal2.ogg
329,0,117921,128,0,118021:0:0:0:0:soft-hitnormal2.ogg
109,192,118021,1,0,0:0:0:0:soft-hitnormal2.ogg
182,192,118021,1,0,0:0:0:0:soft-hitnormal2.ogg
402,192,118021,1,0,0:0:0:0:soft-hitnormal2.ogg
109,0,118121,128,0,118221:0:0:0:0:soft-hitnormal2.ogg
182,0,118121,128,0,118221:0:0:0:0:soft-hitnormal2.ogg
475,192,118121,1,0,0:0:0:0:soft-hitnormal2.ogg
256,192,118221,1,0,0:0:0:0:soft-hitnormal2.ogg
329,192,118221,1,0,0:0:0:0:soft-hitnormal2.ogg
402,192,118221,1,0,0:0:0:0:soft-hitnormal2.ogg
109,192,118321,1,0,0:0:0:0:soft-hitnormal2.ogg
329,0,118321,128,0,118421:0:0:0:0:soft-hitnormal2.ogg
402,0,118321,128,0,118421:0:0:0:0:soft-hitnormal2.ogg
36,192,118421,1,0,0:0:0:0:soft-hitnormal2.ogg
182,192,118421,1,0,0:0:0:0:soft-hitnormal2.ogg
256,192,118421,1,0,0:0:0:0:soft-hitnormal2.ogg
475,192,118421,1,0,0:0:0:0:soft-hitnormal2.ogg
36,0,118521,128,0,118621:0:0:0:0:soft-hitnormal2.ogg
109,192,118521,1,0,0:0:0:0:soft-hitnormal2.ogg
182,0,118521,128,0,118621:0:0:0:0:soft-hitnormal2.ogg
256,192,118521,1,0,0:0:0:0:soft-hitnormal2.ogg
329,0,118521,128,0,118621:0:0:0:0:soft-hitnormal2.ogg
402,192,118521,1,0,0:0:0:0:soft-hitnormal2.ogg
475,0,118521,128,0,118621:0:0:0:0:soft-hitnormal2.ogg
109,0,118621,128,0,118721:0:0:0:0:soft-hitnormal2.ogg
256,0,118621,128,0,118721:0:0:0:0:soft-hitnormal2.ogg
402,0,118621,128,0,118721:0:0:0:0:soft-hitnormal2.ogg
36,192,118721,1,0,0:0:0:0:soft-hitnormal2.ogg
182,192,118721,1,0,0:0:0:0:soft-hitnormal2.ogg
329,192,118721,1,0,0:0:0:0:soft-hitnormal2.ogg
475,192,118721,1,0,0:0:0:0:soft-hitnormal2.ogg
36,0,118821,128,0,118921:0:0:0:0:soft-hitnormal2.ogg
109,192,118821,1,0,0:0:0:0:soft-hitnormal2.ogg
182,0,118821,128,0,118921:0:0:0:0:soft-hitnormal2.ogg
256,192,118821,1,0,0:0:0:0:soft-hitnormal2.ogg
329,0,118821,128,0,118921:0:0:0:0:soft-hitnormal2.ogg
402,192,118821,1,0,0:0:0:0:soft-hitnormal2.ogg
475,0,118821,128,0,118921:0:0:0:0:soft-hitnormal2.ogg
109,0,118921,128,0,119021:0:0:0:0:soft-hitnormal2.ogg
256,0,118921,128,0,119021:0:0:0:0:soft-hitnormal2.ogg
402,0,118921,128,0,119021:0:0:0:0:soft-hitnormal2.ogg
36,192,119021,1,0,0:0:0:0:soft-hitnormal2.ogg
182,192,119021,1,0,0:0:0:0:soft-hitnormal2.ogg
329,192,119021,1,0,0:0:0:0:soft-hitnormal2.ogg
475,192,119021,1,0,0:0:0:0:soft-hitnormal2.ogg
36,0,119121,128,0,119221:0:0:0:0:soft-hitnormal2.ogg
109,192,119121,1,0,0:0:0:0:soft-hitnormal2.ogg
182,0,119121,128,0,119221:0:0:0:0:soft-hitnormal2.ogg
256,192,119121,1,0,0:0:0:0:soft-hitnormal2.ogg
329,0,119121,128,0,119221:0:0:0:0:soft-hitnormal2.ogg
402,192,119121,1,0,0:0:0:0:soft-hitnormal2.ogg
475,0,119121,128,0,119221:0:0:0:0:soft-hitnormal2.ogg
109,192,119221,1,0,0:0:0:0:soft-hitnormal2.ogg
256,192,119221,1,0,0:0:0:0:soft-hitnormal2.ogg
402,192,119221,1,0,0:0:0:0:soft-hitnormal2.ogg
36,192,119521,1,0,0:0:0:0:soft-hitnormal2.ogg
109,192,119521,1,0,0:0:0:0:soft-hitnormal2.ogg
329,192,119521,1,0,0:0:0:0:soft-hitnormal2.ogg
402,192,119521,1,0,0:0:0:0:soft-hitnormal2.ogg
182,192,119821,1,0,0:0:0:0:soft-hitnormal2.ogg
329,192,119821,1,0,0:0:0:0:soft-hitnormal2.ogg
402,192,119821,1,0,0:0:0:0:soft-hitnormal2.ogg
36,192,120021,1,0,0:0:0:0:soft-hitnormal2.ogg
109,192,120021,1,0,0:0:0:0:soft-hitnormal2.ogg
256,0,120021,128,0,121021:0:0:0:0:soft-hitnormal2.ogg
329,192,120021,1,0,0:0:0:0:soft-hitnormal2.ogg
475,192,120021,1,0,0:0:0:0:soft-hitnormal2.ogg
182,192,120121,1,0,0:0:0:0:soft-hitnormal2.ogg
402,192,120221,1,0,0:0:0:0:soft-hitnormal2.ogg
109,192,120321,1,0,0:0:0:0:soft-hitnormal2.ogg
182,192,120421,1,0,0:0:0:0:soft-hitnormal2.ogg
475,192,120421,1,0,0:0:0:0:soft-hitnormal2.ogg
36,192,120521,1,0,0:0:0:0:soft-hitnormal2.ogg
402,192,120621,1,0,0:0:0:0:soft-hitnormal2.ogg
109,192,120721,1,0,0:0:0:0:soft-hitnormal2.ogg
329,192,120821,1,0,0:0:0:0:soft-hitnormal2.ogg
475,192,120821,1,0,0:0:0:0:soft-hitnormal2.ogg
36,192,120921,1,0,0:0:0:0:soft-hitnormal2.ogg
182,0,121021,128,0,121221:0:0:0:0:soft-hitnormal2.ogg
402,192,121021,1,0,0:0:0:0:soft-hitnormal2.ogg
256,192,121121,1,0,0:0:0:0:soft-hitnormal2.ogg
109,192,121221,1,0,0:0:0:0:soft-hitnormal2.ogg
329,0,121221,128,0,121421:0:0:0:0:soft-hitnormal2.ogg
475,192,121221,1,0,0:0:0:0:soft-hitnormal2.ogg
182,192,121321,1,0,0:0:0:0:soft-hitnormal2.ogg
36,0,121421,128,0,121621:0:0:0:0:soft-hitnormal2.ogg
402,192,121421,1,0,0:0:0:0:soft-hitnormal2.ogg
109,192,121521,1,0,0:0:0:0:soft-hitnormal2.ogg
329,192,121621,1,0,0:0:0:0:soft-hitnormal2.ogg
402,192,121621,1,0,0:0:0:0:soft-hitnormal2.ogg
475,0,121621,128,0,122421:0:0:0:0:soft-hitnormal2.ogg
182,192,121721,1,0,0:0:0:0:soft-hitnormal2.ogg
402,192,121821,1,0,0:0:0:0:soft-hitnormal2.ogg
109,192,121921,1,0,0:0:0:0:soft-hitnormal2.ogg
256,192,122021,1,0,0:0:0:0:soft-hitnormal2.ogg
329,192,122021,1,0,0:0:0:0:soft-hitnormal2.ogg
36,192,122121,1,0,0:0:0:0:soft-hitnormal2.ogg
182,192,122221,1,0,0:0:0:0:soft-hitnormal2.ogg
109,192,122321,1,0,0:0:0:0:soft-hitnormal2.ogg
182,192,122421,1,0,0:0:0:0:soft-hitnormal2.ogg
329,192,122421,1,0,0:0:0:0:soft-hitnormal2.ogg
402,0,122421,128,0,123221:0:0:0:0:soft-hitnormal2.ogg
36,192,122521,1,0,0:0:0:0:soft-hitnormal2.ogg
256,192,122521,1,0,0:0:0:0:soft-hitnormal2.ogg
109,192,122621,1,0,0:0:0:0:soft-hitnormal2.ogg
475,192,122621,1,0,0:0:0:0:soft-hitnormal2.ogg
182,192,122721,1,0,0:0:0:0:soft-hitnormal2.ogg
36,192,122821,1,0,0:0:0:0:soft-hitnormal2.ogg
329,192,122821,1,0,0:0:0:0:soft-hitnormal2.ogg
109,192,122921,1,0,0:0:0:0:soft-hitnormal2.ogg
256,192,123021,1,0,0:0:0:0:soft-hitnormal2.ogg
182,192,123121,1,0,0:0:0:0:soft-hitnormal2.ogg
36,192,123221,1,0,0:0:0:0:soft-hitnormal2.ogg
329,0,123221,128,0,123621:0:0:0:0:soft-hitnormal2.ogg
475,192,123221,1,0,0:0:0:0:soft-hitnormal2.ogg
256,192,123321,1,0,0:0:0:0:soft-hitnormal2.ogg
182,192,123421,1,0,0:0:0:0:soft-hitnormal2.ogg
475,192,123521,1,0,0:0:0:0:soft-hitnormal2.ogg
109,192,123621,1,0,0:0:0:0:soft-hitnormal2.ogg
182,0,123621,128,0,123821:0:0:0:0:soft-hitnormal2.ogg
256,192,123621,1,0,0:0:0:0:soft-hitnormal2.ogg
402,192,123721,1,0,0:0:0:0:soft-hitnormal2.ogg
36,192,123821,1,0,0:0:0:0:soft-hitnormal2.ogg
256,0,123821,128,0,124221:0:0:0:0:soft-hitnormal2.ogg
475,192,123921,1,0,0:0:0:0:soft-hitnormal2.ogg
109,192,124021,1,0,0:0:0:0:soft-hitnormal2.ogg
402,192,124021,1,0,0:0:0:0:soft-hitnormal2.ogg
329,192,124121,1,0,0:0:0:0:soft-hitnormal2.ogg
36,0,124221,128,0,124821:0:0:0:0:soft-hitnormal2.ogg
475,192,124221,1,0,0:0:0:0:soft-hitnormal2.ogg
256,192,124321,1,0,0:0:0:0:soft-hitnormal2.ogg
182,192,124421,1,0,0:0:0:0:soft-hitnormal2.ogg
402,192,124421,1,0,0:0:0:0:soft-hitnormal2.ogg
109,192,124521,1,0,0:0:0:0:soft-hitnormal2.ogg
256,192,124621,1,0,0:0:0:0:soft-hitnormal2.ogg
182,192,124721,1,0,0:0:0:0:soft-hitnormal2.ogg
329,192,124821,1,0,0:0:0:0:soft-hitnormal2.ogg
402,192,124821,1,0,0:0:0:0:soft-hitnormal2.ogg
475,0,124821,128,0,125621:0:0:0:0:soft-hitnormal2.ogg
256,192,124921,1,0,0:0:0:0:soft-hitnormal2.ogg
36,192,125021,1,0,0:0:0:0:soft-hitnormal2.ogg
182,192,125121,1,0,0:0:0:0:soft-hitnormal2.ogg
109,192,125221,1,0,0:0:0:0:soft-hitnormal2.ogg
402,192,125221,1,0,0:0:0:0:soft-hitnormal2.ogg
256,192,125321,1,0,0:0:0:0:soft-hitnormal2.ogg
329,192,125421,1,0,0:0:0:0:soft-hitnormal2.ogg
36,192,125521,1,0,0:0:0:0:soft-hitnormal2.ogg
109,192,125621,1,0,0:0:0:0:soft-hitnormal2.ogg
402,192,125621,1,0,0:0:0:0:soft-hitnormal2.ogg
182,0,125621,128,0,126421:0:0:0:0:soft-hitnormal2.ogg
329,192,125721,1,0,0:0:0:0:soft-hitnormal2.ogg
36,192,125821,1,0,0:0:0:0:soft-hitnormal2.ogg
256,192,125921,1,0,0:0:0:0:soft-hitnormal2.ogg
109,192,126021,1,0,0:0:0:0:soft-hitnormal2.ogg
475,192,126021,1,0,0:0:0:0:soft-hitnormal2.ogg
329,0,126021,128,0,126421:0:0:0:0:soft-hitnormal2.ogg
402,192,126121,1,0,0:0:0:0:soft-hitnormal2.ogg
256,192,126221,1,0,0:0:0:0:soft-hitnormal2.ogg
109,192,126321,1,0,0:0:0:0:soft-hitnormal2.ogg
36,192,126421,1,0,0:0:0:0:soft-hitnormal2.ogg
109,192,126421,1,0,0:0:0:0:soft-hitnormal2.ogg
256,0,126421,128,0,126521:0:0:0:0:soft-hitnormal2.ogg
402,0,126421,128,0,126521:0:0:0:0:soft-hitnormal2.ogg
475,0,126421,128,0,126721:0:0:0:0:soft-hitnormal2.ogg
36,192,126621,1,0,0:0:0:0:soft-hitnormal2.ogg
109,0,126621,128,0,126721:0:0:0:0:soft-hitnormal2.ogg
182,0,126621,128,0,126721:0:0:0:0:soft-hitnormal2.ogg
256,192,126621,1,0,0:0:0:0:soft-hitnormal2.ogg
329,192,126621,1,0,0:0:0:0:soft-hitnormal2.ogg
402,0,126621,128,0,126921:0:0:0:0:soft-hitnormal2.ogg
36,0,126821,128,0,126921:0:0:0:0:soft-hitnormal2.ogg
109,0,126821,128,0,126921:0:0:0:0:soft-hitnormal2.ogg
182,192,126821,1,0,0:0:0:0:soft-hitnormal2.ogg
256,192,126821,1,0,0:0:0:0:soft-hitnormal2.ogg
329,0,126821,128,0,127121:0:0:0:0:soft-hitnormal2.ogg
475,192,126821,1,0,0:0:0:0:soft-hitnormal2.ogg
36,192,127021,1,0,0:0:0:0:soft-hitnormal2.ogg
109,0,127021,128,0,127121:0:0:0:0:soft-hitnormal2.ogg
182,192,127021,1,0,0:0:0:0:soft-hitnormal2.ogg
256,0,127021,128,0,127321:0:0:0:0:soft-hitnormal2.ogg
402,0,127021,128,0,127121:0:0:0:0:soft-hitnormal2.ogg
475,192,127021,1,0,0:0:0:0:soft-hitnormal2.ogg
36,0,127221,128,0,127321:0:0:0:0:soft-hitnormal2.ogg
109,192,127221,1,0,0:0:0:0:soft-hitnormal2.ogg
182,0,127221,128,0,127521:0:0:0:0:soft-hitnormal2.ogg
329,192,127221,1,0,0:0:0:0:soft-hitnormal2.ogg
402,192,127221,1,0,0:0:0:0:soft-hitnormal2.ogg
475,0,127221,128,0,127321:0:0:0:0:soft-hitnormal2.ogg
36,192,127421,1,0,0:0:0:0:soft-hitnormal2.ogg
109,0,127421,128,0,127721:0:0:0:0:soft-hitnormal2.ogg
256,0,127421,128,0,127521:0:0:0:0:soft-hitnormal2.ogg
329,0,127421,128,0,127521:0:0:0:0:soft-hitnormal2.ogg
402,192,127421,1,0,0:0:0:0:soft-hitnormal2.ogg
475,192,127421,1,0,0:0:0:0:soft-hitnormal2.ogg
36,0,127621,128,0,127921:0:0:0:0:soft-hitnormal2.ogg
182,192,127621,1,0,0:0:0:0:soft-hitnormal2.ogg
256,192,127621,1,0,0:0:0:0:soft-hitnormal2.ogg
329,0,127621,128,0,127721:0:0:0:0:soft-hitnormal2.ogg
402,0,127621,128,0,127721:0:0:0:0:soft-hitnormal2.ogg
475,192,127621,1,0,0:0:0:0:soft-hitnormal2.ogg
182,192,127821,1,0,0:0:0:0:soft-hitnormal2.ogg
256,0,127821,128,0,127921:0:0:0:0:soft-hitnormal2.ogg
329,0,127821,128,0,127921:0:0:0:0:soft-hitnormal2.ogg
402,192,127821,1,0,0:0:0:0:soft-hitnormal2.ogg
475,192,127821,1,0,0:0:0:0:soft-hitnormal2.ogg
109,0,127821,128,0,128121:0:0:0:0:soft-hitnormal2.ogg
36,192,128021,1,0,0:0:0:0:soft-hitnormal2.ogg
182,0,128021,128,0,128321:0:0:0:0:soft-hitnormal2.ogg
256,192,128021,1,0,0:0:0:0:soft-hitnormal2.ogg
329,192,128021,1,0,0:0:0:0:soft-hitnormal2.ogg
402,0,128021,128,0,128121:0:0:0:0:soft-hitnormal2.ogg
475,0,128021,128,0,128121:0:0:0:0:soft-hitnormal2.ogg
36,192,128221,1,0,0:0:0:0:soft-hitnormal2.ogg
109,0,128221,128,0,128321:0:0:0:0:soft-hitnormal2.ogg
256,0,128221,128,0,128521:0:0:0:0:soft-hitnormal2.ogg
329,0,128221,128,0,128321:0:0:0:0:soft-hitnormal2.ogg
402,192,128221,1,0,0:0:0:0:soft-hitnormal2.ogg
475,192,128221,1,0,0:0:0:0:soft-hitnormal2.ogg
36,192,128421,1,0,0:0:0:0:soft-hitnormal2.ogg
109,192,128421,1,0,0:0:0:0:soft-hitnormal2.ogg
182,0,128421,128,0,128521:0:0:0:0:soft-hitnormal2.ogg
329,0,128421,128,0,128721:0:0:0:0:soft-hitnormal2.ogg
402,0,128421,128,0,128521:0:0:0:0:soft-hitnormal2.ogg
475,192,128421,1,0,0:0:0:0:soft-hitnormal2.ogg
36,192,128621,1,0,0:0:0:0:soft-hitnormal2.ogg
109,192,128621,1,0,0:0:0:0:soft-hitnormal2.ogg
182,192,128621,1,0,0:0:0:0:soft-hitnormal2.ogg
256,0,128621,128,0,128721:0:0:0:0:soft-hitnormal2.ogg
402,0,128621,128,0,128921:0:0:0:0:soft-hitnormal2.ogg
475,192,128621,1,0,0:0:0:0:soft-hitnormal2.ogg
36,192,128821,1,0,0:0:0:0:soft-hitnormal2.ogg
109,0,128821,128,0,128921:0:0:0:0:soft-hitnormal2.ogg
182,0,128821,128,0,128921:0:0:0:0:soft-hitnormal2.ogg
256,192,128821,1,0,0:0:0:0:soft-hitnormal2.ogg
329,192,128821,1,0,0:0:0:0:soft-hitnormal2.ogg
475,0,128821,128,0,129121:0:0:0:0:soft-hitnormal2.ogg
36,192,129021,1,0,0:0:0:0:soft-hitnormal2.ogg
109,192,129021,1,0,0:0:0:0:soft-hitnormal2.ogg
182,0,129021,128,0,129121:0:0:0:0:soft-hitnormal2.ogg
256,0,129021,128,0,129121:0:0:0:0:soft-hitnormal2.ogg
329,192,129021,1,0,0:0:0:0:soft-hitnormal2.ogg
402,0,129021,128,0,129321:0:0:0:0:soft-hitnormal2.ogg
36,192,129221,1,0,0:0:0:0:soft-hitnormal2.ogg
109,192,129221,1,0,0:0:0:0:soft-hitnormal2.ogg
182,192,129221,1,0,0:0:0:0:soft-hitnormal2.ogg
256,0,129221,128,0,129321:0:0:0:0:soft-hitnormal2.ogg
329,0,129221,128,0,129521:0:0:0:0:soft-hitnormal2.ogg
475,0,129221,128,0,129321:0:0:0:0:soft-hitnormal2.ogg
36,0,129421,128,0,129521:0:0:0:0:soft-hitnormal2.ogg
109,0,129421,128,0,129521:0:0:0:0:soft-hitnormal2.ogg
182,192,129421,1,0,0:0:0:0:soft-hitnormal2.ogg
402,192,129421,1,0,0:0:0:0:soft-hitnormal2.ogg
475,192,129421,1,0,0:0:0:0:soft-hitnormal2.ogg
256,0,129421,128,0,129721:0:0:0:0:soft-hitnormal2.ogg
182,0,129621,128,0,130021:0:0:0:0:soft-hitnormal2.ogg
402,192,129621,1,0,0:0:0:0:soft-hitnormal2.ogg
475,192,129621,1,0,0:0:0:0:soft-hitnormal2.ogg
402,0,129721,128,0,129921:0:0:0:0:soft-hitnormal2.ogg
475,0,129721,128,0,130421:0:0:0:0:soft-hitnormal2.ogg
36,192,129821,1,0,0:0:0:0:soft-hitnormal2.ogg
109,192,129821,1,0,0:0:0:0:soft-hitnormal2.ogg
256,0,129821,128,0,130021:0:0:0:0:soft-hitnormal2.ogg
36,0,129921,128,0,130321:0:0:0:0:soft-hitnormal2.ogg
109,0,129921,128,0,130321:0:0:0:0:soft-hitnormal2.ogg
329,192,130021,1,0,0:0:0:0:soft-hitnormal2.ogg
402,192,130021,1,0,0:0:0:0:soft-hitnormal2.ogg
329,0,130121,128,0,130521:0:0:0:0:soft-hitnormal2.ogg
402,0,130121,128,0,130421:0:0:0:0:soft-hitnormal2.ogg
182,192,130221,1,0,0:0:0:0:soft-hitnormal2.ogg
256,192,130221,1,0,0:0:0:0:soft-hitnormal2.ogg
182,0,130321,128,0,130621:0:0:0:0:soft-hitnormal2.ogg
256,0,130321,128,0,130521:0:0:0:0:soft-hitnormal2.ogg
36,192,130421,1,0,0:0:0:0:soft-hitnormal2.ogg
109,192,130421,1,0,0:0:0:0:soft-hitnormal2.ogg
36,0,130521,128,0,130721:0:0:0:0:soft-hitnormal2.ogg
109,0,130521,128,0,130621:0:0:0:0:soft-hitnormal2.ogg
402,192,130521,1,0,0:0:0:0:soft-hitnormal2.ogg
475,192,130521,1,0,0:0:0:0:soft-hitnormal2.ogg
256,192,130621,1,0,0:0:0:0:soft-hitnormal2.ogg
329,192,130621,1,0,0:0:0:0:soft-hitnormal2.ogg
402,0,130621,128,0,130721:0:0:0:0:soft-hitnormal2.ogg
475,0,130621,128,0,130721:0:0:0:0:soft-hitnormal2.ogg
109,192,130721,1,0,0:0:0:0:soft-hitnormal2.ogg
182,192,130721,1,0,0:0:0:0:soft-hitnormal2.ogg
256,0,130721,128,0,130821:0:0:0:0:soft-hitnormal2.ogg
329,0,130721,128,0,130821:0:0:0:0:soft-hitnormal2.ogg
36,192,130821,1,0,0:0:0:0:soft-hitnormal2.ogg
109,0,130821,128,0,130921:0:0:0:0:soft-hitnormal2.ogg
182,0,130821,128,0,130921:0:0:0:0:soft-hitnormal2.ogg
402,192,130821,1,0,0:0:0:0:soft-hitnormal2.ogg
475,192,130821,1,0,0:0:0:0:soft-hitnormal2.ogg
256,192,130921,1,0,0:0:0:0:soft-hitnormal2.ogg
329,192,130921,1,0,0:0:0:0:soft-hitnormal2.ogg
402,0,130921,128,0,131021:0:0:0:0:soft-hitnormal2.ogg
475,0,130921,128,0,131021:0:0:0:0:soft-hitnormal2.ogg
36,192,131021,1,0,0:0:0:0:soft-hitnormal2.ogg
109,192,131021,1,0,0:0:0:0:soft-hitnormal2.ogg
182,192,131021,1,0,0:0:0:0:soft-hitnormal2.ogg
256,0,131021,128,0,131121:0:0:0:0:soft-hitnormal2.ogg
329,0,131021,128,0,131121:0:0:0:0:soft-hitnormal2.ogg
402,192,131121,1,0,0:0:0:0:soft-hitnormal2.ogg
475,192,131121,1,0,0:0:0:0:soft-hitnormal2.ogg
36,0,131121,128,0,131221:0:0:0:0:soft-hitnormal2.ogg
109,0,131121,128,0,131221:0:0:0:0:soft-hitnormal2.ogg
182,0,131121,128,0,131221:0:0:0:0:soft-hitnormal2.ogg
256,0,131221,128,0,132721:0:0:0:0:soft-hitnormal2.ogg
329,192,131221,1,0,0:0:0:0:soft-hitnormal2.ogg
36,0,132821,128,0,132871:0:0:0:0:soft-hitnormal2.ogg
109,0,132821,128,0,132921:0:0:0:0:soft-hitnormal2.ogg
256,192,132821,1,0,0:0:0:0:soft-hitnormal2.ogg
329,192,132821,1,0,0:0:0:0:soft-hitnormal2.ogg
402,0,132821,128,0,132888:0:0:0:0:soft-hitnormal2.ogg
475,0,132821,128,0,133321:0:0:0:0:soft-hitnormal2.ogg
182,0,132921,128,0,133021:0:0:0:0:soft-hitnormal2.ogg
109,192,133021,1,0,0:0:0:0:soft-hitnormal2.ogg
256,0,133021,128,0,133121:0:0:0:0:soft-hitnormal2.ogg
329,0,133021,128,0,133071:0:0:0:0:soft-hitnormal2.ogg
402,192,133021,1,0,0:0:0:0:soft-hitnormal2.ogg
36,0,133088,128,0,133155:0:0:0:0:soft-hitnormal2.ogg
182,0,133121,128,0,133221:0:0:0:0:soft-hitnormal2.ogg
109,0,133221,128,0,133321:0:0:0:0:soft-hitnormal2.ogg
256,0,133221,128,0,133271:0:0:0:0:soft-hitnormal2.ogg
329,192,133221,1,0,0:0:0:0:soft-hitnormal2.ogg
402,0,133221,128,0,133521:0:0:0:0:soft-hitnormal2.ogg
182,0,133321,128,0,133421:0:0:0:0:soft-hitnormal2.ogg
329,0,133355,128,0,133421:0:0:0:0:soft-hitnormal2.ogg
36,192,133421,1,0,0:0:0:0:soft-hitnormal2.ogg
109,0,133421,128,0,133721:0:0:0:0:soft-hitnormal2.ogg
256,0,133421,128,0,133521:0:0:0:0:soft-hitnormal2.ogg
475,0,133421,128,0,133471:0:0:0:0:soft-hitnormal2.ogg
329,0,133521,128,0,133621:0:0:0:0:soft-hitnormal2.ogg
36,0,133621,128,0,134121:0:0:0:0:soft-hitnormal2.ogg
182,0,133621,128,0,133671:0:0:0:0:soft-hitnormal2.ogg
256,0,133621,128,0,133721:0:0:0:0:soft-hitnormal2.ogg
475,0,133621,128,0,133688:0:0:0:0:soft-hitnormal2.ogg
402,0,133721,128,0,133821:0:0:0:0:soft-hitnormal2.ogg
109,0,133821,128,0,133871:0:0:0:0:soft-hitnormal2.ogg
182,192,133821,1,0,0:0:0:0:soft-hitnormal2.ogg
329,0,133821,128,0,133921:0:0:0:0:soft-hitnormal2.ogg
475,192,133821,1,0,0:0:0:0:soft-hitnormal2.ogg
402,0,133888,128,0,133955:0:0:0:0:soft-hitnormal2.ogg
256,0,133921,128,0,134021:0:0:0:0:soft-hitnormal2.ogg
109,0,134021,128,0,134121:0:0:0:0:soft-hitnormal2.ogg
182,0,134021,128,0,134371:0:0:0:0:soft-hitnormal2.ogg
329,0,134021,128,0,134071:0:0:0:0:soft-hitnormal2.ogg
475,192,134021,1,0,0:0:0:0:soft-hitnormal2.ogg
402,0,134121,128,0,134221:0:0:0:0:soft-hitnormal2.ogg
475,0,134155,128,0,134221:0:0:0:0:soft-hitnormal2.ogg
109,0,134221,128,0,134271:0:0:0:0:soft-hitnormal2.ogg
329,0,134221,128,0,134321:0:0:0:0:soft-hitnormal2.ogg
256,0,134221,128,0,134421:0:0:0:0:soft-hitnormal2.ogg
36,0,134321,128,0,134421:0:0:0:0:soft-hitnormal2.ogg
182,0,134421,128,0,134471:0:0:0:0:soft-hitnormal2.ogg
329,0,134421,128,0,134921:0:0:0:0:soft-hitnormal2.ogg
402,0,134421,128,0,134488:0:0:0:0:soft-hitnormal2.ogg
475,0,134421,128,0,134521:0:0:0:0:soft-hitnormal2.ogg
36,192,134521,1,0,0:0:0:0:soft-hitnormal2.ogg
109,0,134521,128,0,134621:0:0:0:0:soft-hitnormal2.ogg
182,0,134621,128,0,134721:0:0:0:0:soft-hitnormal2.ogg
256,0,134621,128,0,134671:0:0:0:0:soft-hitnormal2.ogg
475,192,134621,1,0,0:0:0:0:soft-hitnormal2.ogg
36,0,134688,128,0,134755:0:0:0:0:soft-hitnormal2.ogg
402,0,134721,128,0,134821:0:0:0:0:soft-hitnormal2.ogg
36,192,134821,1,0,0:0:0:0:soft-hitnormal2.ogg
109,0,134821,128,0,135321:0:0:0:0:soft-hitnormal2.ogg
256,0,134821,128,0,134921:0:0:0:0:soft-hitnormal2.ogg
475,0,134821,128,0,134871:0:0:0:0:soft-hitnormal2.ogg
182,0,134921,128,0,135021:0:0:0:0:soft-hitnormal2.ogg
402,0,134955,128,0,135021:0:0:0:0:soft-hitnormal2.ogg
36,0,135021,128,0,135071:0:0:0:0:soft-hitnormal2.ogg
256,0,135021,128,0,135121:0:0:0:0:soft-hitnormal2.ogg
475,192,135021,1,0,0:0:0:0:soft-hitnormal2.ogg
329,0,135121,128,0,135221:0:0:0:0:soft-hitnormal2.ogg
36,192,135221,1,0,0:0:0:0:soft-hitnormal2.ogg
182,0,135221,128,0,135321:0:0:0:0:soft-hitnormal2.ogg
402,0,135221,128,0,135721:0:0:0:0:soft-hitnormal2.ogg
475,0,135221,128,0,135288:0:0:0:0:soft-hitnormal2.ogg
256,0,135321,128,0,135421:0:0:0:0:soft-hitnormal2.ogg
329,192,135321,1,0,0:0:0:0:soft-hitnormal2.ogg
36,0,135421,128,0,135471:0:0:0:0:soft-hitnormal2.ogg
109,0,135421,128,0,135521:0:0:0:0:soft-hitnormal2.ogg
182,192,135421,1,0,0:0:0:0:soft-hitnormal2.ogg
256,0,135488,128,0,135555:0:0:0:0:soft-hitnormal2.ogg
329,0,135521,128,0,135621:0:0:0:0:soft-hitnormal2.ogg
475,192,135521,1,0,0:0:0:0:soft-hitnormal2.ogg
109,0,135621,128,0,135671:0:0:0:0:soft-hitnormal2.ogg
182,0,135621,128,0,135721:0:0:0:0:soft-hitnormal2.ogg
256,192,135621,1,0,0:0:0:0:soft-hitnormal2.ogg
36,0,135621,128,0,136121:0:0:0:0:soft-hitnormal2.ogg
329,192,135721,1,0,0:0:0:0:soft-hitnormal2.ogg
475,0,135721,128,0,135821:0:0:0:0:soft-hitnormal2.ogg
256,0,135755,128,0,135821:0:0:0:0:soft-hitnormal2.ogg
109,192,135821,1,0,0:0:0:0:soft-hitnormal2.ogg
182,0,135821,128,0,135871:0:0:0:0:soft-hitnormal2.ogg
402,0,135821,128,0,135921:0:0:0:0:soft-hitnormal2.ogg
256,192,135921,1,0,0:0:0:0:soft-hitnormal2.ogg
329,0,135921,128,0,136021:0:0:0:0:soft-hitnormal2.ogg
109,0,136021,128,0,136071:0:0:0:0:soft-hitnormal2.ogg
182,0,136021,128,0,136121:0:0:0:0:soft-hitnormal2.ogg
402,0,136021,128,0,136088:0:0:0:0:soft-hitnormal2.ogg
475,0,136021,128,0,137421:0:0:0:0:soft-hitnormal2.ogg
256,0,136121,128,0,136221:0:0:0:0:soft-hitnormal2.ogg
329,192,136121,1,0,0:0:0:0:soft-hitnormal2.ogg
36,192,136221,1,0,0:0:0:0:soft-hitnormal2.ogg
109,0,136221,128,0,136321:0:0:0:0:soft-hitnormal2.ogg
402,0,136221,128,0,136271:0:0:0:0:soft-hitnormal2.ogg
182,0,136288,128,0,136355:0:0:0:0:soft-hitnormal2.ogg
256,192,136321,1,0,0:0:0:0:soft-hitnormal2.ogg
329,0,136321,128,0,136421:0:0:0:0:soft-hitnormal2.ogg
36,0,136421,128,0,136471:0:0:0:0:soft-hitnormal2.ogg
109,192,136421,1,0,0:0:0:0:soft-hitnormal2.ogg
402,0,136421,128,0,136521:0:0:0:0:soft-hitnormal2.ogg
182,0,136521,128,0,136621:0:0:0:0:soft-hitnormal2.ogg
329,0,136555,128,0,136621:0:0:0:0:soft-hitnormal2.ogg
109,0,136621,128,0,136671:0:0:0:0:soft-hitnormal2.ogg
256,0,136621,128,0,136721:0:0:0:0:soft-hitnormal2.ogg
402,192,136621,1,0,0:0:0:0:soft-hitnormal2.ogg
36,0,136721,128,0,136821:0:0:0:0:soft-hitnormal2.ogg
182,192,136721,1,0,0:0:0:0:soft-hitnormal2.ogg
109,0,136821,128,0,136921:0:0:0:0:soft-hitnormal2.ogg
256,0,136821,128,0,136888:0:0:0:0:soft-hitnormal2.ogg
329,192,136821,1,0,0:0:0:0:soft-hitnormal2.ogg
402,0,136821,128,0,136871:0:0:0:0:soft-hitnormal2.ogg
182,0,136921,128,0,137021:0:0:0:0:soft-hitnormal2.ogg
36,0,137021,128,0,137071:0:0:0:0:soft-hitnormal2.ogg
109,0,137021,128,0,137121:0:0:0:0:soft-hitnormal2.ogg
256,192,137021,1,0,0:0:0:0:soft-hitnormal2.ogg
402,0,137088,128,0,137155:0:0:0:0:soft-hitnormal2.ogg
329,0,137121,128,0,137221:0:0:0:0:soft-hitnormal2.ogg
36,192,137221,1,0,0:0:0:0:soft-hitnormal2.ogg
182,0,137221,128,0,137271:0:0:0:0:soft-hitnormal2.ogg
256,0,137221,128,0,137321:0:0:0:0:soft-hitnormal2.ogg
109,0,137321,128,0,137421:0:0:0:0:soft-hitnormal2.ogg
329,0,137355,128,0,137421:0:0:0:0:soft-hitnormal2.ogg
36,0,137421,128,0,137471:0:0:0:0:soft-hitnormal2.ogg
182,0,137421,128,0,137521:0:0:0:0:soft-hitnormal2.ogg
402,0,137421,128,0,137621:0:0:0:0:soft-hitnormal2.ogg
256,0,137521,128,0,137621:0:0:0:0:soft-hitnormal2.ogg
36,0,137621,128,0,137821:0:0:0:0:soft-hitnormal2.ogg
109,0,137621,128,0,137671:0:0:0:0:soft-hitnormal2.ogg
329,0,137621,128,0,137721:0:0:0:0:soft-hitnormal2.ogg
475,0,137621,128,0,137688:0:0:0:0:soft-hitnormal2.ogg
182,0,137721,128,0,137821:0:0:0:0:soft-hitnormal2.ogg
256,192,137721,1,0,0:0:0:0:soft-hitnormal2.ogg
329,0,137821,128,0,137871:0:0:0:0:soft-hitnormal2.ogg
402,0,137821,128,0,137921:0:0:0:0:soft-hitnormal2.ogg
475,0,137821,128,0,138021:0:0:0:0:soft-hitnormal2.ogg
36,0,137888,128,0,137955:0:0:0:0:soft-hitnormal2.ogg
109,192,137921,1,0,0:0:0:0:soft-hitnormal2.ogg
256,0,137921,128,0,138021:0:0:0:0:soft-hitnormal2.ogg
182,0,138021,128,0,138221:0:0:0:0:soft-hitnormal2.ogg
329,0,138021,128,0,138121:0:0:0:0:soft-hitnormal2.ogg
402,0,138021,128,0,138071:0:0:0:0:soft-hitnormal2.ogg
109,0,138121,128,0,138221:0:0:0:0:soft-hitnormal2.ogg
256,0,138155,128,0,138221:0:0:0:0:soft-hitnormal2.ogg
36,0,138221,128,0,138321:0:0:0:0:soft-hitnormal2.ogg
329,0,138221,128,0,138421:0:0:0:0:soft-hitnormal2.ogg
402,192,138221,1,0,0:0:0:0:soft-hitnormal2.ogg
475,0,138221,128,0,138271:0:0:0:0:soft-hitnormal2.ogg
182,0,138321,128,0,138421:0:0:0:0:soft-hitnormal2.ogg
36,0,138421,128,0,138488:0:0:0:0:soft-hitnormal2.ogg
109,0,138421,128,0,138521:0:0:0:0:soft-hitnormal2.ogg
475,0,138421,128,0,138471:0:0:0:0:soft-hitnormal2.ogg
256,0,138421,128,0,139221:0:0:0:0:soft-hitnormal2.ogg
182,192,138521,1,0,0:0:0:0:soft-hitnormal2.ogg
402,0,138521,128,0,138621:0:0:0:0:soft-hitnormal2.ogg
36,0,138621,128,0,138671:0:0:0:0:soft-hitnormal2.ogg
329,0,138621,128,0,138721:0:0:0:0:soft-hitnormal2.ogg
475,192,138621,1,0,0:0:0:0:soft-hitnormal2.ogg
109,0,138688,128,0,138755:0:0:0:0:soft-hitnormal2.ogg
182,0,138721,128,0,138821:0:0:0:0:soft-hitnormal2.ogg
402,192,138721,1,0,0:0:0:0:soft-hitnormal2.ogg
36,192,138821,1,0,0:0:0:0:soft-hitnormal2.ogg
329,0,138821,128,0,138871:0:0:0:0:soft-hitnormal2.ogg
475,0,138821,128,0,138921:0:0:0:0:soft-hitnormal2.ogg
109,0,138921,128,0,139021:0:0:0:0:soft-hitnormal2.ogg
36,0,138955,128,0,139021:0:0:0:0:soft-hitnormal2.ogg
182,0,139021,128,0,139121:0:0:0:0:soft-hitnormal2.ogg
402,0,139021,128,0,139071:0:0:0:0:soft-hitnormal2.ogg
475,192,139021,1,0,0:0:0:0:soft-hitnormal2.ogg
329,0,139121,128,0,139221:0:0:0:0:soft-hitnormal2.ogg
36,0,139221,128,0,139721:0:0:0:0:soft-hitnormal2.ogg
109,0,139221,128,0,139288:0:0:0:0:soft-hitnormal2.ogg
182,192,139221,1,0,0:0:0:0:soft-hitnormal2.ogg
402,0,139221,128,0,139321:0:0:0:0:soft-hitnormal2.ogg
475,0,139221,128,0,139271:0:0:0:0:soft-hitnormal2.ogg
256,0,139321,128,0,139421:0:0:0:0:soft-hitnormal2.ogg
109,192,139421,1,0,0:0:0:0:soft-hitnormal2.ogg
182,0,139421,128,0,139521:0:0:0:0:soft-hitnormal2.ogg
402,0,139421,128,0,139471:0:0:0:0:soft-hitnormal2.ogg
256,0,139488,128,0,139555:0:0:0:0:soft-hitnormal2.ogg
329,0,139521,128,0,139621:0:0:0:0:soft-hitnormal2.ogg
109,0,139621,128,0,139921:0:0:0:0:soft-hitnormal2.ogg
256,0,139621,128,0,139721:0:0:0:0:soft-hitnormal2.ogg
402,192,139621,1,0,0:0:0:0:soft-hitnormal2.ogg
475,0,139621,128,0,139671:0:0:0:0:soft-hitnormal2.ogg
182,0,139721,128,0,139821:0:0:0:0:soft-hitnormal2.ogg
329,0,139755,128,0,139821:0:0:0:0:soft-hitnormal2.ogg
36,0,139821,128,0,139871:0:0:0:0:soft-hitnormal2.ogg
256,0,139821,128,0,139921:0:0:0:0:soft-hitnormal2.ogg
402,0,139821,128,0,140121:0:0:0:0:soft-hitnormal2.ogg
475,192,139821,1,0,0:0:0:0:soft-hitnormal2.ogg
182,192,139921,1,0,0:0:0:0:soft-hitnormal2.ogg
329,0,139921,128,0,140021:0:0:0:0:soft-hitnormal2.ogg
36,0,140021,128,0,140121:0:0:0:0:soft-hitnormal2.ogg
109,0,140021,128,0,140088:0:0:0:0:soft-hitnormal2.ogg
256,0,140021,128,0,140071:0:0:0:0:soft-hitnormal2.ogg
475,0,140021,128,0,140521:0:0:0:0:soft-hitnormal2.ogg
182,0,140121,128,0,140221:0:0:0:0:soft-hitnormal2.ogg
329,192,140121,1,0,0:0:0:0:soft-hitnormal2.ogg
36,192,140221,1,0,0:0:0:0:soft-hitnormal2.ogg
109,0,140221,128,0,140321:0:0:0:0:soft-hitnormal2.ogg
402,0,140221,128,0,140271:0:0:0:0:soft-hitnormal2.ogg
329,0,140288,128,0,140355:0:0:0:0:soft-hitnormal2.ogg
256,0,140321,128,0,140421:0:0:0:0:soft-hitnormal2.ogg
109,0,140421,128,0,140471:0:0:0:0:soft-hitnormal2.ogg
182,0,140421,128,0,140521:0:0:0:0:soft-hitnormal2.ogg
329,0,140421,128,0,140621:0:0:0:0:soft-hitnormal2.ogg
402,192,140421,1,0,0:0:0:0:soft-hitnormal2.ogg
36,0,140521,128,0,140621:0:0:0:0:soft-hitnormal2.ogg
475,0,140555,128,0,140621:0:0:0:0:soft-hitnormal2.ogg
109,0,140621,128,0,140721:0:0:0:0:soft-hitnormal2.ogg
182,0,140621,128,0,140671:0:0:0:0:soft-hitnormal2.ogg
256,0,140621,128,0,140821:0:0:0:0:soft-hitnormal2.ogg
402,0,140721,128,0,140821:0:0:0:0:soft-hitnormal2.ogg
36,0,140821,128,0,140888:0:0:0:0:soft-hitnormal2.ogg
182,0,140821,128,0,141221:0:0:0:0:soft-hitnormal2.ogg
329,0,140821,128,0,140921:0:0:0:0:soft-hitnormal2.ogg
475,0,140821,128,0,140871:0:0:0:0:soft-hitnormal2.ogg
109,0,140921,128,0,141021:0:0:0:0:soft-hitnormal2.ogg
256,0,141021,128,0,141121:0:0:0:0:soft-hitnormal2.ogg
329,192,141021,1,0,0:0:0:0:soft-hitnormal2.ogg
402,0,141021,128,0,141071:0:0:0:0:soft-hitnormal2.ogg
109,0,141088,128,0,141155:0:0:0:0:soft-hitnormal2.ogg
36,0,141121,128,0,141221:0:0:0:0:soft-hitnormal2.ogg
475,192,141121,1,0,0:0:0:0:soft-hitnormal2.ogg
109,192,141221,1,0,0:0:0:0:soft-hitnormal2.ogg
256,0,141221,128,0,141271:0:0:0:0:soft-hitnormal2.ogg
329,0,141221,128,0,141321:0:0:0:0:soft-hitnormal2.ogg
402,0,141221,128,0,141621:0:0:0:0:soft-hitnormal2.ogg
182,0,141321,128,0,141421:0:0:0:0:soft-hitnormal2.ogg
475,192,141321,1,0,0:0:0:0:soft-hitnormal2.ogg
36,0,141355,128,0,141421:0:0:0:0:soft-hitnormal2.ogg
109,0,141421,128,0,141471:0:0:0:0:soft-hitnormal2.ogg
256,0,141421,128,0,141521:0:0:0:0:soft-hitnormal2.ogg
329,192,141421,1,0,0:0:0:0:soft-hitnormal2.ogg
36,0,141521,128,0,141621:0:0:0:0:soft-hitnormal2.ogg
182,192,141521,1,0,0:0:0:0:soft-hitnormal2.ogg
109,0,141621,128,0,142021:0:0:0:0:soft-hitnormal2.ogg
182,0,141621,128,0,141688:0:0:0:0:soft-hitnormal2.ogg
329,0,141621,128,0,141721:0:0:0:0:soft-hitnormal2.ogg
475,0,141621,128,0,141671:0:0:0:0:soft-hitnormal2.ogg
256,0,141721,128,0,141821:0:0:0:0:soft-hitnormal2.ogg
402,192,141721,1,0,0:0:0:0:soft-hitnormal2.ogg
36,192,141821,1,0,0:0:0:0:soft-hitnormal2.ogg
182,0,141821,128,0,141921:0:0:0:0:soft-hitnormal2.ogg
329,0,141821,128,0,141871:0:0:0:0:soft-hitnormal2.ogg
475,192,141821,1,0,0:0:0:0:soft-hitnormal2.ogg
402,0,141888,128,0,141955:0:0:0:0:soft-hitnormal2.ogg
256,0,141921,128,0,142021:0:0:0:0:soft-hitnormal2.ogg
36,0,142021,128,0,142071:0:0:0:0:soft-hitnormal2.ogg
329,0,142021,128,0,142121:0:0:0:0:soft-hitnormal2.ogg
402,192,142021,1,0,0:0:0:0:soft-hitnormal2.ogg
475,0,142021,128,0,142421:0:0:0:0:soft-hitnormal2.ogg
109,192,142121,1,0,0:0:0:0:soft-hitnormal2.ogg
182,0,142121,128,0,142221:0:0:0:0:soft-hitnormal2.ogg
256,0,142155,128,0,142221:0:0:0:0:soft-hitnormal2.ogg
36,192,142221,1,0,0:0:0:0:soft-hitnormal2.ogg
329,0,142221,128,0,142271:0:0:0:0:soft-hitnormal2.ogg
402,0,142221,128,0,142321:0:0:0:0:soft-hitnormal2.ogg
182,192,142321,1,0,0:0:0:0:soft-hitnormal2.ogg
109,0,142321,128,0,142421:0:0:0:0:soft-hitnormal2.ogg
36,0,142421,128,0,142521:0:0:0:0:soft-hitnormal2.ogg
256,0,142421,128,0,143171:0:0:0:0:soft-hitnormal2.ogg
329,192,142421,1,0,0:0:0:0:soft-hitnormal2.ogg
402,0,142421,128,0,142471:0:0:0:0:soft-hitnormal2.ogg
109,0,142521,128,0,142621:0:0:0:0:soft-hitnormal2.ogg
475,192,142521,1,0,0:0:0:0:soft-hitnormal2.ogg
36,192,142621,1,0,0:0:0:0:soft-hitnormal2.ogg
182,0,142621,128,0,142721:0:0:0:0:soft-hitnormal2.ogg
329,192,142621,1,0,0:0:0:0:soft-hitnormal2.ogg
109,192,142721,1,0,0:0:0:0:soft-hitnormal2.ogg
402,0,142721,128,0,142821:0:0:0:0:soft-hitnormal2.ogg
475,192,142721,1,0,0:0:0:0:soft-hitnormal2.ogg
36,192,142821,1,0,0:0:0:0:soft-hitnormal2.ogg
182,192,142821,1,0,0:0:0:0:soft-hitnormal2.ogg
329,0,142821,128,0,142921:0:0:0:0:soft-hitnormal2.ogg
109,0,142921,128,0,143021:0:0:0:0:soft-hitnormal2.ogg
402,192,142921,1,0,0:0:0:0:soft-hitnormal2.ogg
475,192,142921,1,0,0:0:0:0:soft-hitnormal2.ogg
36,192,143021,1,0,0:0:0:0:soft-hitnormal2.ogg
182,0,143021,128,0,143121:0:0:0:0:soft-hitnormal2.ogg
329,192,143021,1,0,0:0:0:0:soft-hitnormal2.ogg
109,192,143121,1,0,0:0:0:0:soft-hitnormal2.ogg
402,192,143121,1,0,0:0:0:0:soft-hitnormal2.ogg
475,0,143121,128,0,143221:0:0:0:0:soft-hitnormal2.ogg
36,0,143221,128,0,143321:0:0:0:0:soft-hitnormal2.ogg
182,192,143221,1,0,0:0:0:0:soft-hitnormal2.ogg
329,192,143221,1,0,0:0:0:0:soft-hitnormal2.ogg
256,0,143221,128,0,144021:0:0:0:0:soft-hitnormal2.ogg
109,192,143321,1,0,0:0:0:0:soft-hitnormal2.ogg
402,0,143321,128,0,143421:0:0:0:0:soft-hitnormal2.ogg
475,192,143321,1,0,0:0:0:0:soft-hitnormal2.ogg
36,192,143421,1,0,0:0:0:0:soft-hitnormal2.ogg
182,0,143421,128,0,143521:0:0:0:0:soft-hitnormal2.ogg
329,192,143421,1,0,0:0:0:0:soft-hitnormal2.ogg
109,0,143521,128,0,143621:0:0:0:0:soft-hitnormal2.ogg
402,192,143521,1,0,0:0:0:0:soft-hitnormal2.ogg
475,192,143521,1,0,0:0:0:0:soft-hitnormal2.ogg
36,192,143621,1,0,0:0:0:0:soft-hitnormal2.ogg
182,192,143621,1,0,0:0:0:0:soft-hitnormal2.ogg
329,0,143621,128,0,143721:0:0:0:0:soft-hitnormal2.ogg
109,192,143721,1,0,0:0:0:0:soft-hitnormal2.ogg
402,0,143721,128,0,143821:0:0:0:0:soft-hitnormal2.ogg
475,192,143721,1,0,0:0:0:0:soft-hitnormal2.ogg
36,192,143821,1,0,0:0:0:0:soft-hitnormal2.ogg
182,0,143821,128,0,143921:0:0:0:0:soft-hitnormal2.ogg
329,192,143821,1,0,0:0:0:0:soft-hitnormal2.ogg
109,192,143921,1,0,0:0:0:0:soft-hitnormal2.ogg
475,192,143921,1,0,0:0:0:0:soft-hitnormal2.ogg
402,0,143921,128,0,144021:0:0:0:0:soft-hitnormal2.ogg
36,0,144021,128,0,144321:0:0:0:0:soft-hitnormal2.ogg
182,0,144021,128,0,144121:0:0:0:0:soft-hitnormal2.ogg
109,0,144121,128,0,144421:0:0:0:0:soft-hitnormal2.ogg
256,0,144121,128,0,144221:0:0:0:0:soft-hitnormal2.ogg
182,0,144221,128,0,144321:0:0:0:0:soft-hitnormal2.ogg
329,0,144221,128,0,144521:0:0:0:0:soft-hitnormal2.ogg
256,0,144321,128,0,144421:0:0:0:0:soft-hitnormal2.ogg
402,0,144321,128,0,144621:0:0:0:0:soft-hitnormal2.ogg
36,192,144421,1,0,0:0:0:0:soft-hitnormal2.ogg
182,192,144421,1,0,0:0:0:0:soft-hitnormal2.ogg
475,0,144421,128,0,144721:0:0:0:0:soft-hitnormal2.ogg
109,192,144471,1,0,0:0:0:0:soft-hitnormal2.ogg
256,192,144521,1,0,0:0:0:0:soft-hitnormal2.ogg
182,192,144571,1,0,0:0:0:0:soft-hitnormal2.ogg
36,0,144621,128,0,145121:0:0:0:0:soft-hitnormal2.ogg
329,192,144621,1,0,0:0:0:0:soft-hitnormal2.ogg
256,192,144671,1,0,0:0:0:0:soft-hitnormal2.ogg
109,0,144721,128,0,145021:0:0:0:0:soft-hitnormal2.ogg
402,192,144721,1,0,0:0:0:0:soft-hitnormal2.ogg
329,192,144771,1,0,0:0:0:0:soft-hitnormal2.ogg
182,0,144821,128,0,144921:0:0:0:0:soft-hitnormal2.ogg
475,192,144821,1,0,0:0:0:0:soft-hitnormal2.ogg
256,192,144871,1,0,0:0:0:0:soft-hitnormal2.ogg
402,192,144921,1,0,0:0:0:0:soft-hitnormal2.ogg
475,0,144921,128,0,145121:0:0:0:0:soft-hitnormal2.ogg
182,192,144971,1,0,0:0:0:0:soft-hitnormal2.ogg
329,192,145021,1,0,0:0:0:0:soft-hitnormal2.ogg
402,0,145021,128,0,145221:0:0:0:0:soft-hitnormal2.ogg
109,192,145071,1,0,0:0:0:0:soft-hitnormal2.ogg
256,192,145121,1,0,0:0:0:0:soft-hitnormal2.ogg
329,0,145121,128,0,145321:0:0:0:0:soft-hitnormal2.ogg
36,192,145171,1,0,0:0:0:0:soft-hitnormal2.ogg
182,192,145221,1,0,0:0:0:0:soft-hitnormal2.ogg
256,0,145221,128,0,145421:0:0:0:0:soft-hitnormal2.ogg
475,192,145221,1,0,0:0:0:0:soft-hitnormal2.ogg
402,192,145271,1,0,0:0:0:0:soft-hitnormal2.ogg
109,192,145321,1,0,0:0:0:0:soft-hitnormal2.ogg
182,0,145321,128,0,145521:0:0:0:0:soft-hitnormal2.ogg
329,192,145371,1,0,0:0:0:0:soft-hitnormal2.ogg
36,192,145421,1,0,0:0:0:0:soft-hitnormal2.ogg
109,0,145421,128,0,145621:0:0:0:0:soft-hitnormal2.ogg
402,192,145471,1,0,0:0:0:0:soft-hitnormal2.ogg
475,192,145521,1,0,0:0:0:0:soft-hitnormal2.ogg
36,0,145521,128,0,145721:0:0:0:0:soft-hitnormal2.ogg
329,192,145571,1,0,0:0:0:0:soft-hitnormal2.ogg
182,0,145621,128,0,145721:0:0:0:0:soft-hitnormal2.ogg
256,0,145621,128,0,146121:0:0:0:0:soft-hitnormal2.ogg
402,0,145621,128,0,145721:0:0:0:0:soft-hitnormal2.ogg
475,0,145621,128,0,145721:0:0:0:0:soft-hitnormal2.ogg
109,0,145721,128,0,145821:0:0:0:0:soft-hitnormal2.ogg
329,0,145721,128,0,145821:0:0:0:0:soft-hitnormal2.ogg
36,0,145821,128,0,145921:0:0:0:0:soft-hitnormal2.ogg
182,0,145821,128,0,145921:0:0:0:0:soft-hitnormal2.ogg
402,0,145821,128,0,145921:0:0:0:0:soft-hitnormal2.ogg
109,0,145921,128,0,146021:0:0:0:0:soft-hitnormal2.ogg
329,192,145921,1,0,0:0:0:0:soft-hitnormal2.ogg
475,0,145921,128,0,146021:0:0:0:0:soft-hitnormal2.ogg
36,0,146021,128,0,146121:0:0:0:0:soft-hitnormal2.ogg
182,0,146021,128,0,146121:0:0:0:0:soft-hitnormal2.ogg
329,0,146021,128,0,146321:0:0:0:0:soft-hitnormal2.ogg
109,0,146121,128,0,146221:0:0:0:0:soft-hitnormal2.ogg
402,192,146121,1,0,0:0:0:0:soft-hitnormal2.ogg
475,0,146121,128,0,146221:0:0:0:0:soft-hitnormal2.ogg
36,0,146221,128,0,146321:0:0:0:0:soft-hitnormal2.ogg
182,0,146221,128,0,146321:0:0:0:0:soft-hitnormal2.ogg
256,0,146221,128,0,146321:0:0:0:0:soft-hitnormal2.ogg
402,0,146221,128,0,146521:0:0:0:0:soft-hitnormal2.ogg
109,0,146321,128,0,146421:0:0:0:0:soft-hitnormal2.ogg
475,192,146321,1,0,0:0:0:0:soft-hitnormal2.ogg
36,0,146421,128,0,146521:0:0:0:0:soft-hitnormal2.ogg
256,0,146421,128,0,146521:0:0:0:0:soft-hitnormal2.ogg
329,0,146421,128,0,146521:0:0:0:0:soft-hitnormal2.ogg
475,0,146421,128,0,146921:0:0:0:0:soft-hitnormal2.ogg
109,0,146521,128,0,146621:0:0:0:0:soft-hitnormal2.ogg
182,0,146521,128,0,146621:0:0:0:0:soft-hitnormal2.ogg
256,0,146621,128,0,146721:0:0:0:0:soft-hitnormal2.ogg
329,0,146621,128,0,146721:0:0:0:0:soft-hitnormal2.ogg
402,0,146621,128,0,146721:0:0:0:0:soft-hitnormal2.ogg
36,192,146721,1,0,0:0:0:0:soft-hitnormal2.ogg
109,0,146721,128,0,146821:0:0:0:0:soft-hitnormal2.ogg
182,0,146721,128,0,146821:0:0:0:0:soft-hitnormal2.ogg
36,0,146821,128,0,147121:0:0:0:0:soft-hitnormal2.ogg
256,0,146821,128,0,146921:0:0:0:0:soft-hitnormal2.ogg
329,0,146821,128,0,146921:0:0:0:0:soft-hitnormal2.ogg
402,0,146821,128,0,146921:0:0:0:0:soft-hitnormal2.ogg
109,192,146921,1,0,0:0:0:0:soft-hitnormal2.ogg
182,0,146921,128,0,147021:0:0:0:0:soft-hitnormal2.ogg
256,0,147021,128,0,147121:0:0:0:0:soft-hitnormal2.ogg
329,0,147021,128,0,147121:0:0:0:0:soft-hitnormal2.ogg
402,0,147021,128,0,147121:0:0:0:0:soft-hitnormal2.ogg
109,0,147021,128,0,147321:0:0:0:0:soft-hitnormal2.ogg
182,192,147121,1,0,0:0:0:0:soft-hitnormal2.ogg
475,0,147121,128,0,147221:0:0:0:0:soft-hitnormal2.ogg
182,0,147221,128,0,147721:0:0:0:0:soft-hitnormal2.ogg
256,0,147221,128,0,147321:0:0:0:0:soft-hitnormal2.ogg
329,0,147221,128,0,147321:0:0:0:0:soft-hitnormal2.ogg
402,0,147221,128,0,147321:0:0:0:0:soft-hitnormal2.ogg
36,0,147321,128,0,147421:0:0:0:0:soft-hitnormal2.ogg
475,0,147321,128,0,147421:0:0:0:0:soft-hitnormal2.ogg
109,0,147421,128,0,147521:0:0:0:0:soft-hitnormal2.ogg
256,0,147421,128,0,147521:0:0:0:0:soft-hitnormal2.ogg
329,0,147421,128,0,147521:0:0:0:0:soft-hitnormal2.ogg
36,0,147521,128,0,147621:0:0:0:0:soft-hitnormal2.ogg
402,0,147521,128,0,147621:0:0:0:0:soft-hitnormal2.ogg
475,192,147521,1,0,0:0:0:0:soft-hitnormal2.ogg
109,0,147621,128,0,147721:0:0:0:0:soft-hitnormal2.ogg
256,0,147621,128,0,147721:0:0:0:0:soft-hitnormal2.ogg
329,0,147621,128,0,147721:0:0:0:0:soft-hitnormal2.ogg
475,0,147621,128,0,148121:0:0:0:0:soft-hitnormal2.ogg
36,0,147721,128,0,147821:0:0:0:0:soft-hitnormal2.ogg
402,0,147721,128,0,147821:0:0:0:0:soft-hitnormal2.ogg
109,0,147821,128,0,147921:0:0:0:0:soft-hitnormal2.ogg
182,0,147821,128,0,147921:0:0:0:0:soft-hitnormal2.ogg
329,0,147821,128,0,147921:0:0:0:0:soft-hitnormal2.ogg
36,0,147921,128,0,148021:0:0:0:0:soft-hitnormal2.ogg
256,0,147921,128,0,148021:0:0:0:0:soft-hitnormal2.ogg
402,192,147921,1,0,0:0:0:0:soft-hitnormal2.ogg
109,0,148021,128,0,148121:0:0:0:0:soft-hitnormal2.ogg
182,0,148021,128,0,148121:0:0:0:0:soft-hitnormal2.ogg
329,0,148021,128,0,148121:0:0:0:0:soft-hitnormal2.ogg
402,0,148021,128,0,148521:0:0:0:0:soft-hitnormal2.ogg
36,0,148121,128,0,148221:0:0:0:0:soft-hitnormal2.ogg
256,0,148121,128,0,148221:0:0:0:0:soft-hitnormal2.ogg
109,0,148221,128,0,148321:0:0:0:0:soft-hitnormal2.ogg
182,0,148221,128,0,148321:0:0:0:0:soft-hitnormal2.ogg
475,0,148221,128,0,148321:0:0:0:0:soft-hitnormal2.ogg
36,0,148321,128,0,148421:0:0:0:0:soft-hitnormal2.ogg
256,0,148321,128,0,148421:0:0:0:0:soft-hitnormal2.ogg
329,192,148321,1,0,0:0:0:0:soft-hitnormal2.ogg
109,0,148421,128,0,148521:0:0:0:0:soft-hitnormal2.ogg
182,0,148421,128,0,148521:0:0:0:0:soft-hitnormal2.ogg
475,0,148421,128,0,148521:0:0:0:0:soft-hitnormal2.ogg
329,0,148421,128,0,148921:0:0:0:0:soft-hitnormal2.ogg
36,0,148521,128,0,148621:0:0:0:0:soft-hitnormal2.ogg
256,0,148521,128,0,148621:0:0:0:0:soft-hitnormal2.ogg
109,0,148621,128,0,148721:0:0:0:0:soft-hitnormal2.ogg
402,0,148621,128,0,148721:0:0:0:0:soft-hitnormal2.ogg
475,0,148621,128,0,148721:0:0:0:0:soft-hitnormal2.ogg
182,192,148721,1,0,0:0:0:0:soft-hitnormal2.ogg
36,0,148721,128,0,148821:0:0:0:0:soft-hitnormal2.ogg
256,0,148721,128,0,148821:0:0:0:0:soft-hitnormal2.ogg
109,0,148821,128,0,148921:0:0:0:0:soft-hitnormal2.ogg
182,0,148821,128,0,149721:0:0:0:0:soft-hitnormal2.ogg
402,0,148821,128,0,148921:0:0:0:0:soft-hitnormal2.ogg
475,0,148821,128,0,148921:0:0:0:0:soft-hitnormal2.ogg
36,0,148921,128,0,149021:0:0:0:0:soft-hitnormal2.ogg
256,0,148921,128,0,149021:0:0:0:0:soft-hitnormal2.ogg
109,0,149021,128,0,149121:0:0:0:0:soft-hitnormal2.ogg
402,0,149021,128,0,149121:0:0:0:0:soft-hitnormal2.ogg
475,0,149021,128,0,149121:0:0:0:0:soft-hitnormal2.ogg
256,0,149121,128,0,149221:0:0:0:0:soft-hitnormal2.ogg
329,0,149121,128,0,149221:0:0:0:0:soft-hitnormal2.ogg
36,0,149221,128,0,149321:0:0:0:0:soft-hitnormal2.ogg
109,0,149221,128,0,149321:0:0:0:0:soft-hitnormal2.ogg
475,0,149221,128,0,149321:0:0:0:0:soft-hitnormal2.ogg
329,0,149321,128,0,149421:0:0:0:0:soft-hitnormal2.ogg
402,0,149321,128,0,149421:0:0:0:0:soft-hitnormal2.ogg
109,0,149421,128,0,149521:0:0:0:0:soft-hitnormal2.ogg
256,0,149421,128,0,149521:0:0:0:0:soft-hitnormal2.ogg
475,0,149421,128,0,149521:0:0:0:0:soft-hitnormal2.ogg
36,0,149521,128,0,149621:0:0:0:0:soft-hitnormal2.ogg
329,0,149521,128,0,149621:0:0:0:0:soft-hitnormal2.ogg
109,0,149621,128,0,149721:0:0:0:0:soft-hitnormal2.ogg
256,0,149621,128,0,149721:0:0:0:0:soft-hitnormal2.ogg
402,0,149621,128,0,149721:0:0:0:0:soft-hitnormal2.ogg
329,0,149721,128,0,149821:0:0:0:0:soft-hitnormal2.ogg
475,0,149721,128,0,149821:0:0:0:0:soft-hitnormal2.ogg
36,0,149821,128,0,149921:0:0:0:0:soft-hitnormal2.ogg
182,0,149821,128,0,149921:0:0:0:0:soft-hitnormal2.ogg
256,0,149821,128,0,149921:0:0:0:0:soft-hitnormal2.ogg
109,192,149921,1,0,0:0:0:0:soft-hitnormal2.ogg
329,0,149921,128,0,150021:0:0:0:0:soft-hitnormal2.ogg
402,0,149921,128,0,150021:0:0:0:0:soft-hitnormal2.ogg
182,0,150021,128,0,150121:0:0:0:0:soft-hitnormal2.ogg
256,0,150021,128,0,150121:0:0:0:0:soft-hitnormal2.ogg
475,0,150021,128,0,150121:0:0:0:0:soft-hitnormal2.ogg
109,0,150021,128,0,150421:0:0:0:0:soft-hitnormal2.ogg
36,0,150121,128,0,150221:0:0:0:0:soft-hitnormal2.ogg
329,0,150121,128,0,150221:0:0:0:0:soft-hitnormal2.ogg
402,192,150121,1,0,0:0:0:0:soft-hitnormal2.ogg
256,0,150221,128,0,150321:0:0:0:0:soft-hitnormal2.ogg
475,0,150221,128,0,150321:0:0:0:0:soft-hitnormal2.ogg
402,0,150221,128,0,150421:0:0:0:0:soft-hitnormal2.ogg
182,192,150321,1,0,0:0:0:0:soft-hitnormal2.ogg
36,0,150321,128,0,150421:0:0:0:0:soft-hitnormal2.ogg
329,0,150321,128,0,150421:0:0:0:0:soft-hitnormal2.ogg
182,0,150421,128,0,150621:0:0:0:0:soft-hitnormal2.ogg
256,0,150421,128,0,150521:0:0:0:0:soft-hitnormal2.ogg
475,0,150421,128,0,150521:0:0:0:0:soft-hitnormal2.ogg
109,0,150521,128,0,150621:0:0:0:0:soft-hitnormal2.ogg
329,192,150521,1,0,0:0:0:0:soft-hitnormal2.ogg
402,0,150521,128,0,150621:0:0:0:0:soft-hitnormal2.ogg
36,0,150621,128,0,150721:0:0:0:0:soft-hitnormal2.ogg
256,0,150621,128,0,150721:0:0:0:0:soft-hitnormal2.ogg
329,0,150621,128,0,150821:0:0:0:0:soft-hitnormal2.ogg
475,0,150621,128,0,150721:0:0:0:0:soft-hitnormal2.ogg
109,0,150721,128,0,150821:0:0:0:0:soft-hitnormal2.ogg
182,0,150721,128,0,150821:0:0:0:0:soft-hitnormal2.ogg
402,192,150721,1,0,0:0:0:0:soft-hitnormal2.ogg
36,0,150821,128,0,150921:0:0:0:0:soft-hitnormal2.ogg
402,0,150821,128,0,151021:0:0:0:0:soft-hitnormal2.ogg
475,0,150821,128,0,150921:0:0:0:0:soft-hitnormal2.ogg
182,0,150921,128,0,151021:0:0:0:0:soft-hitnormal2.ogg
256,192,150921,1,0,0:0:0:0:soft-hitnormal2.ogg
329,0,150921,128,0,151021:0:0:0:0:soft-hitnormal2.ogg
36,0,151021,128,0,151121:0:0:0:0:soft-hitnormal2.ogg
109,0,151021,128,0,151121:0:0:0:0:soft-hitnormal2.ogg
256,0,151021,128,0,151221:0:0:0:0:soft-hitnormal2.ogg
475,0,151021,128,0,151121:0:0:0:0:soft-hitnormal2.ogg
182,0,151121,128,0,151221:0:0:0:0:soft-hitnormal2.ogg
329,0,151121,128,0,151221:0:0:0:0:soft-hitnormal2.ogg
109,0,151221,128,0,151321:0:0:0:0:soft-hitnormal2.ogg
402,0,151221,128,0,151321:0:0:0:0:soft-hitnormal2.ogg
475,0,151221,128,0,151621:0:0:0:0:soft-hitnormal2.ogg
256,0,151321,128,0,151421:0:0:0:0:soft-hitnormal2.ogg
329,0,151321,128,0,151421:0:0:0:0:soft-hitnormal2.ogg
109,0,151421,128,0,151521:0:0:0:0:soft-hitnormal2.ogg
182,0,151421,128,0,151521:0:0:0:0:soft-hitnormal2.ogg
402,0,151421,128,0,151521:0:0:0:0:soft-hitnormal2.ogg
36,0,151521,128,0,151621:0:0:0:0:soft-hitnormal2.ogg
256,0,151521,128,0,151621:0:0:0:0:soft-hitnormal2.ogg
182,0,151621,128,0,151721:0:0:0:0:soft-hitnormal2.ogg
329,0,151621,128,0,151721:0:0:0:0:soft-hitnormal2.ogg
402,0,151621,128,0,151721:0:0:0:0:soft-hitnormal2.ogg
109,0,151721,128,0,151821:0:0:0:0:soft-hitnormal2.ogg
256,0,151721,128,0,151821:0:0:0:0:soft-hitnormal2.ogg
182,0,151821,128,0,151921:0:0:0:0:soft-hitnormal2.ogg
329,0,151821,128,0,151921:0:0:0:0:soft-hitnormal2.ogg
475,0,151821,128,0,151921:0:0:0:0:soft-hitnormal2.ogg
109,0,151921,128,0,152021:0:0:0:0:soft-hitnormal2.ogg
256,0,151921,128,0,152021:0:0:0:0:soft-hitnormal2.ogg
36,192,152021,1,0,0:0:0:0:soft-hitnormal2.ogg
182,0,152021,128,0,152121:0:0:0:0:soft-hitnormal2.ogg
329,192,152021,1,0,0:0:0:0:soft-hitnormal2.ogg
402,192,152021,1,0,0:0:0:0:soft-hitnormal2.ogg
475,0,152021,128,0,152171:0:0:0:0:soft-hitnormal2.ogg
256,0,152121,128,0,152221:0:0:0:0:soft-hitnormal2.ogg
109,192,152155,1,0,0:0:0:0:soft-hitnormal2.ogg
36,192,152221,1,0,0:0:0:0:soft-hitnormal2.ogg
329,0,152221,128,0,152321:0:0:0:0:soft-hitnormal2.ogg
182,192,152288,1,0,0:0:0:0:soft-hitnormal2.ogg
256,0,152321,128,0,152421:0:0:0:0:soft-hitnormal2.ogg
402,192,152321,1,0,0:0:0:0:soft-hitnormal2.ogg
475,192,152321,1,0,0:0:0:0:soft-hitnormal2.ogg
36,192,152421,1,0,0:0:0:0:soft-hitnormal2.ogg
109,0,152421,128,0,152571:0:0:0:0:soft-hitnormal2.ogg
182,192,152421,1,0,0:0:0:0:soft-hitnormal2.ogg
329,0,152421,128,0,152521:0:0:0:0:soft-hitnormal2.ogg
402,0,152521,128,0,152621:0:0:0:0:soft-hitnormal2.ogg
256,192,152555,1,0,0:0:0:0:soft-hitnormal2.ogg
109,192,152621,1,0,0:0:0:0:soft-hitnormal2.ogg
182,0,152621,128,0,152771:0:0:0:0:soft-hitnormal2.ogg
475,0,152621,128,0,152721:0:0:0:0:soft-hitnormal2.ogg
329,192,152688,1,0,0:0:0:0:soft-hitnormal2.ogg
36,0,152721,128,0,152821:0:0:0:0:soft-hitnormal2.ogg
256,192,152721,1,0,0:0:0:0:soft-hitnormal2.ogg
402,192,152721,1,0,0:0:0:0:soft-hitnormal2.ogg
109,0,152821,128,0,152921:0:0:0:0:soft-hitnormal2.ogg
329,0,152821,128,0,152971:0:0:0:0:soft-hitnormal2.ogg
475,192,152821,1,0,0:0:0:0:soft-hitnormal2.ogg
182,0,152921,128,0,153021:0:0:0:0:soft-hitnormal2.ogg
402,192,152921,1,0,0:0:0:0:soft-hitnormal2.ogg
256,192,152955,1,0,0:0:0:0:soft-hitnormal2.ogg
36,192,153021,1,0,0:0:0:0:soft-hitnormal2.ogg
109,0,153021,128,0,153121:0:0:0:0:soft-hitnormal2.ogg
475,192,153088,1,0,0:0:0:0:soft-hitnormal2.ogg
182,0,153121,128,0,153221:0:0:0:0:soft-hitnormal2.ogg
329,192,153121,1,0,0:0:0:0:soft-hitnormal2.ogg
36,192,153221,1,0,0:0:0:0:soft-hitnormal2.ogg
109,192,153221,1,0,0:0:0:0:soft-hitnormal2.ogg
256,0,153221,128,0,153321:0:0:0:0:soft-hitnormal2.ogg
402,0,153221,128,0,153371:0:0:0:0:soft-hitnormal2.ogg
329,0,153321,128,0,153421:0:0:0:0:soft-hitnormal2.ogg
475,192,153355,1,0,0:0:0:0:soft-hitnormal2.ogg
109,192,153421,1,0,0:0:0:0:soft-hitnormal2.ogg
182,0,153421,128,0,153571:0:0:0:0:soft-hitnormal2.ogg
256,0,153421,128,0,153521:0:0:0:0:soft-hitnormal2.ogg
402,192,153421,1,0,0:0:0:0:soft-hitnormal2.ogg
36,192,153488,1,0,0:0:0:0:soft-hitnormal2.ogg
329,0,153521,128,0,153621:0:0:0:0:soft-hitnormal2.ogg
109,192,153621,1,0,0:0:0:0:soft-hitnormal2.ogg
256,192,153621,1,0,0:0:0:0:soft-hitnormal2.ogg
402,0,153621,128,0,153721:0:0:0:0:soft-hitnormal2.ogg
475,0,153621,128,0,153771:0:0:0:0:soft-hitnormal2.ogg
36,192,153721,1,0,0:0:0:0:soft-hitnormal2.ogg
329,0,153721,128,0,153821:0:0:0:0:soft-hitnormal2.ogg
182,192,153755,1,0,0:0:0:0:soft-hitnormal2.ogg
109,192,153821,1,0,0:0:0:0:soft-hitnormal2.ogg
256,192,153821,1,0,0:0:0:0:soft-hitnormal2.ogg
402,0,153821,128,0,153921:0:0:0:0:soft-hitnormal2.ogg
475,192,153888,1,0,0:0:0:0:soft-hitnormal2.ogg
182,192,153921,1,0,0:0:0:0:soft-hitnormal2.ogg
329,0,153921,128,0,154021:0:0:0:0:soft-hitnormal2.ogg
36,0,154021,128,0,154171:0:0:0:0:soft-hitnormal2.ogg
109,192,154021,1,0,0:0:0:0:soft-hitnormal2.ogg
256,0,154021,128,0,154121:0:0:0:0:soft-hitnormal2.ogg
402,192,154021,1,0,0:0:0:0:soft-hitnormal2.ogg
329,0,154121,128,0,154221:0:0:0:0:soft-hitnormal2.ogg
475,192,154121,1,0,0:0:0:0:soft-hitnormal2.ogg
182,192,154155,1,0,0:0:0:0:soft-hitnormal2.ogg
109,192,154221,1,0,0:0:0:0:soft-hitnormal2.ogg
256,0,154221,128,0,154321:0:0:0:0:soft-hitnormal2.ogg
402,192,154221,1,0,0:0:0:0:soft-hitnormal2.ogg
329,192,154288,1,0,0:0:0:0:soft-hitnormal2.ogg
36,192,154321,1,0,0:0:0:0:soft-hitnormal2.ogg
182,0,154321,128,0,154421:0:0:0:0:soft-hitnormal2.ogg
109,0,154421,128,0,154521:0:0:0:0:soft-hitnormal2.ogg
256,192,154421,1,0,0:0:0:0:soft-hitnormal2.ogg
402,0,154421,128,0,154571:0:0:0:0:soft-hitnormal2.ogg
475,192,154421,1,0,0:0:0:0:soft-hitnormal2.ogg
36,192,154521,1,0,0:0:0:0:soft-hitnormal2.ogg
182,0,154521,128,0,154621:0:0:0:0:soft-hitnormal2.ogg
329,192,154555,1,0,0:0:0:0:soft-hitnormal2.ogg
256,0,154621,128,0,154721:0:0:0:0:soft-hitnormal2.ogg
402,192,154621,1,0,0:0:0:0:soft-hitnormal2.ogg
109,192,154688,1,0,0:0:0:0:soft-hitnormal2.ogg
182,0,154721,128,0,154821:0:0:0:0:soft-hitnormal2.ogg
329,192,154721,1,0,0:0:0:0:soft-hitnormal2.ogg
475,192,154721,1,0,0:0:0:0:soft-hitnormal2.ogg
36,192,154821,1,0,0:0:0:0:soft-hitnormal2.ogg
109,0,154821,128,0,154971:0:0:0:0:soft-hitnormal2.ogg
256,0,154821,128,0,154921:0:0:0:0:soft-hitnormal2.ogg
402,192,154821,1,0,0:0:0:0:soft-hitnormal2.ogg
329,0,154921,128,0,155021:0:0:0:0:soft-hitnormal2.ogg
475,192,154921,1,0,0:0:0:0:soft-hitnormal2.ogg
182,192,154955,1,0,0:0:0:0:soft-hitnormal2.ogg
109,192,155021,1,0,0:0:0:0:soft-hitnormal2.ogg
256,192,155021,1,0,0:0:0:0:soft-hitnormal2.ogg
402,0,155021,128,0,155121:0:0:0:0:soft-hitnormal2.ogg
475,192,155088,1,0,0:0:0:0:soft-hitnormal2.ogg
329,0,155121,128,0,155221:0:0:0:0:soft-hitnormal2.ogg
36,192,155221,1,0,0:0:0:0:soft-hitnormal2.ogg
109,192,155221,1,0,0:0:0:0:soft-hitnormal2.ogg
182,192,155221,1,0,0:0:0:0:soft-hitnormal2.ogg
256,0,155221,128,0,155921:0:0:0:0:soft-hitnormal2.ogg
329,192,155321,1,0,0:0:0:0:soft-hitnormal2.ogg
475,192,155321,1,0,0:0:0:0:soft-hitnormal2.ogg
36,192,155421,1,0,0:0:0:0:soft-hitnormal2.ogg
109,192,155421,1,0,0:0:0:0:soft-hitnormal2.ogg
182,192,155421,1,0,0:0:0:0:soft-hitnormal2.ogg
329,192,155521,1,0,0:0:0:0:soft-hitnormal2.ogg
475,192,155521,1,0,0:0:0:0:soft-hitnormal2.ogg
36,192,155621,1,0,0:0:0:0:soft-hitnormal2.ogg
109,192,155621,1,0,0:0:0:0:soft-hitnormal2.ogg
182,192,155621,1,0,0:0:0:0:soft-hitnormal2.ogg
329,192,155721,1,0,0:0:0:0:soft-hitnormal2.ogg
475,192,155721,1,0,0:0:0:0:soft-hitnormal2.ogg
36,192,155821,1,0,0:0:0:0:soft-hitnormal2.ogg
109,192,155821,1,0,0:0:0:0:soft-hitnormal2.ogg
182,192,155821,1,0,0:0:0:0:soft-hitnormal2.ogg
329,192,155921,1,0,0:0:0:0:soft-hitnormal2.ogg
475,192,155921,1,0,0:0:0:0:soft-hitnormal2.ogg
256,0,156021,128,0,156721:0:0:0:0:soft-hitnormal2.ogg
329,192,156021,1,0,0:0:0:0:soft-hitnormal2.ogg
402,192,156021,1,0,0:0:0:0:soft-hitnormal2.ogg
475,192,156021,1,0,0:0:0:0:soft-hitnormal2.ogg
36,192,156121,1,0,0:0:0:0:soft-hitnormal2.ogg
182,192,156121,1,0,0:0:0:0:soft-hitnormal2.ogg
329,192,156221,1,0,0:0:0:0:soft-hitnormal2.ogg
402,192,156221,1,0,0:0:0:0:soft-hitnormal2.ogg
475,192,156221,1,0,0:0:0:0:soft-hitnormal2.ogg
36,192,156321,1,0,0:0:0:0:soft-hitnormal2.ogg
182,192,156321,1,0,0:0:0:0:soft-hitnormal2.ogg
329,192,156421,1,0,0:0:0:0:soft-hitnormal2.ogg
402,192,156421,1,0,0:0:0:0:soft-hitnormal2.ogg
475,192,156421,1,0,0:0:0:0:soft-hitnormal2.ogg
36,192,156521,1,0,0:0:0:0:soft-hitnormal2.ogg
182,192,156521,1,0,0:0:0:0:soft-hitnormal2.ogg
329,192,156621,1,0,0:0:0:0:soft-hitnormal2.ogg
402,192,156621,1,0,0:0:0:0:soft-hitnormal2.ogg
475,192,156621,1,0,0:0:0:0:soft-hitnormal2.ogg
36,192,156721,1,0,0:0:0:0:soft-hitnormal2.ogg
182,192,156721,1,0,0:0:0:0:soft-hitnormal2.ogg
256,0,156821,128,0,156921:0:0:0:0:soft-hitnormal2.ogg
475,192,156821,1,0,0:0:0:0:soft-hitnormal2.ogg
182,0,156921,128,0,157121:0:0:0:0:soft-hitnormal2.ogg
402,192,156921,1,0,0:0:0:0:soft-hitnormal2.ogg
475,0,156921,128,0,157521:0:0:0:0:soft-hitnormal2.ogg
109,0,157021,128,0,157221:0:0:0:0:soft-hitnormal2.ogg
329,192,157021,1,0,0:0:0:0:soft-hitnormal2.ogg
402,0,157021,128,0,157521:0:0:0:0:soft-hitnormal2.ogg
36,0,157121,128,0,157321:0:0:0:0:soft-hitnormal2.ogg
256,192,157121,1,0,0:0:0:0:soft-hitnormal2.ogg
329,0,157121,128,0,157621:0:0:0:0:soft-hitnormal2.ogg
182,192,157221,1,0,0:0:0:0:soft-hitnormal2.ogg
256,0,157221,128,0,157621:0:0:0:0:soft-hitnormal2.ogg
109,192,157321,1,0,0:0:0:0:soft-hitnormal2.ogg
182,0,157321,128,0,157721:0:0:0:0:soft-hitnormal2.ogg
36,192,157421,1,0,0:0:0:0:soft-hitnormal2.ogg
109,0,157421,128,0,157721:0:0:0:0:soft-hitnormal2.ogg
36,0,157521,128,0,158121:0:0:0:0:soft-hitnormal2.ogg
402,192,157621,1,0,0:0:0:0:soft-hitnormal2.ogg
475,192,157621,1,0,0:0:0:0:soft-hitnormal2.ogg
256,192,157721,1,0,0:0:0:0:soft-hitnormal2.ogg
329,192,157721,1,0,0:0:0:0:soft-hitnormal2.ogg
402,0,157721,128,0,157821:0:0:0:0:soft-hitnormal2.ogg
475,0,157721,128,0,158421:0:0:0:0:soft-hitnormal2.ogg
109,192,157821,1,0,0:0:0:0:soft-hitnormal2.ogg
182,192,157821,1,0,0:0:0:0:soft-hitnormal2.ogg
256,0,157821,128,0,157921:0:0:0:0:soft-hitnormal2.ogg
329,0,157821,128,0,157921:0:0:0:0:soft-hitnormal2.ogg
109,0,157921,128,0,158021:0:0:0:0:soft-hitnormal2.ogg
182,0,157921,128,0,158021:0:0:0:0:soft-hitnormal2.ogg
329,192,158021,1,0,0:0:0:0:soft-hitnormal2.ogg
402,192,158021,1,0,0:0:0:0:soft-hitnormal2.ogg
182,192,158121,1,0,0:0:0:0:soft-hitnormal2.ogg
256,192,158121,1,0,0:0:0:0:soft-hitnormal2.ogg
329,0,158121,128,0,158221:0:0:0:0:soft-hitnormal2.ogg
402,0,158121,128,0,158221:0:0:0:0:soft-hitnormal2.ogg
36,192,158221,1,0,0:0:0:0:soft-hitnormal2.ogg
109,192,158221,1,0,0:0:0:0:soft-hitnormal2.ogg
182,0,158221,128,0,158321:0:0:0:0:soft-hitnormal2.ogg
256,0,158221,128,0,158321:0:0:0:0:soft-hitnormal2.ogg
329,192,158321,1,0,0:0:0:0:soft-hitnormal2.ogg
402,192,158321,1,0,0:0:0:0:soft-hitnormal2.ogg
36,0,158321,128,0,158421:0:0:0:0:soft-hitnormal2.ogg
109,0,158321,128,0,158421:0:0:0:0:soft-hitnormal2.ogg
182,0,158421,128,0,158921:0:0:0:0:soft-hitnormal2.ogg
256,0,158421,128,0,158471:0:0:0:0:soft-hitnormal2.ogg
329,0,158421,128,0,158471:0:0:0:0:soft-hitnormal2.ogg
402,0,158521,128,0,158571:0:0:0:0:soft-hitnormal2.ogg
475,0,158521,128,0,158571:0:0:0:0:soft-hitnormal2.ogg
36,0,158621,128,0,158671:0:0:0:0:soft-hitnormal2.ogg
109,0,158621,128,0,158671:0:0:0:0:soft-hitnormal2.ogg
256,0,158621,128,0,158671:0:0:0:0:soft-hitnormal2.ogg
329,0,158721,128,0,158771:0:0:0:0:soft-hitnormal2.ogg
402,0,158721,128,0,158771:0:0:0:0:soft-hitnormal2.ogg
36,0,158821,128,0,158871:0:0:0:0:soft-hitnormal2.ogg
109,0,158821,128,0,158871:0:0:0:0:soft-hitnormal2.ogg
256,0,158821,128,0,159121:0:0:0:0:soft-hitnormal2.ogg
475,0,158821,128,0,158871:0:0:0:0:soft-hitnormal2.ogg
329,0,158921,128,0,158971:0:0:0:0:soft-hitnormal2.ogg
402,0,158921,128,0,158971:0:0:0:0:soft-hitnormal2.ogg
109,0,159021,128,0,159071:0:0:0:0:soft-hitnormal2.ogg
182,0,159021,128,0,159071:0:0:0:0:soft-hitnormal2.ogg
329,0,159021,128,0,159321:0:0:0:0:soft-hitnormal2.ogg
475,0,159021,128,0,159071:0:0:0:0:soft-hitnormal2.ogg
36,0,159121,128,0,159171:0:0:0:0:soft-hitnormal2.ogg
402,0,159121,128,0,159171:0:0:0:0:soft-hitnormal2.ogg
109,192,159221,1,0,0:0:0:0:soft-hitnormal2.ogg
182,192,159221,1,0,0:0:0:0:soft-hitnormal2.ogg
256,192,159221,1,0,0:0:0:0:soft-hitnormal2.ogg
402,0,159221,128,0,159921:0:0:0:0:soft-hitnormal2.ogg
36,192,159321,1,0,0:0:0:0:soft-hitnormal2.ogg
475,192,159321,1,0,0:0:0:0:soft-hitnormal2.ogg
182,192,159421,1,0,0:0:0:0:soft-hitnormal2.ogg
256,192,159421,1,0,0:0:0:0:soft-hitnormal2.ogg
329,192,159421,1,0,0:0:0:0:soft-hitnormal2.ogg
36,192,159521,1,0,0:0:0:0:soft-hitnormal2.ogg
109,192,159521,1,0,0:0:0:0:soft-hitnormal2.ogg
256,192,159621,1,0,0:0:0:0:soft-hitnormal2.ogg
329,192,159621,1,0,0:0:0:0:soft-hitnormal2.ogg
475,192,159621,1,0,0:0:0:0:soft-hitnormal2.ogg
109,192,159721,1,0,0:0:0:0:soft-hitnormal2.ogg
182,192,159721,1,0,0:0:0:0:soft-hitnormal2.ogg
36,192,159821,1,0,0:0:0:0:soft-hitnormal2.ogg
256,192,159821,1,0,0:0:0:0:soft-hitnormal2.ogg
329,192,159821,1,0,0:0:0:0:soft-hitnormal2.ogg
109,0,159821,128,0,160521:0:0:0:0:soft-hitnormal2.ogg
182,192,159921,1,0,0:0:0:0:soft-hitnormal2.ogg
475,192,159921,1,0,0:0:0:0:soft-hitnormal2.ogg
256,0,160021,128,0,160071:0:0:0:0:soft-hitnormal2.ogg
329,0,160021,128,0,160071:0:0:0:0:soft-hitnormal2.ogg
402,0,160021,128,0,160071:0:0:0:0:soft-hitnormal2.ogg
36,0,160121,128,0,160171:0:0:0:0:soft-hitnormal2.ogg
182,0,160121,128,0,160171:0:0:0:0:soft-hitnormal2.ogg
329,0,160221,128,0,160271:0:0:0:0:soft-hitnormal2.ogg
402,0,160221,128,0,160271:0:0:0:0:soft-hitnormal2.ogg
475,0,160221,128,0,160271:0:0:0:0:soft-hitnormal2.ogg
182,0,160321,128,0,160371:0:0:0:0:soft-hitnormal2.ogg
256,0,160321,128,0,160371:0:0:0:0:soft-hitnormal2.ogg
36,0,160421,128,0,160471:0:0:0:0:soft-hitnormal2.ogg
182,0,160421,128,0,160721:0:0:0:0:soft-hitnormal2.ogg
402,0,160421,128,0,160471:0:0:0:0:soft-hitnormal2.ogg
475,0,160421,128,0,160471:0:0:0:0:soft-hitnormal2.ogg
256,0,160521,128,0,160571:0:0:0:0:soft-hitnormal2.ogg
329,0,160521,128,0,160571:0:0:0:0:soft-hitnormal2.ogg
36,0,160621,128,0,160671:0:0:0:0:soft-hitnormal2.ogg
256,0,160621,128,0,160921:0:0:0:0:soft-hitnormal2.ogg
402,0,160621,128,0,160671:0:0:0:0:soft-hitnormal2.ogg
475,0,160621,128,0,160671:0:0:0:0:soft-hitnormal2.ogg
109,0,160721,128,0,160771:0:0:0:0:soft-hitnormal2.ogg
329,0,160721,128,0,160771:0:0:0:0:soft-hitnormal2.ogg
36,192,160821,1,0,0:0:0:0:soft-hitnormal2.ogg
182,192,160821,1,0,0:0:0:0:soft-hitnormal2.ogg
329,0,160821,128,0,161321:0:0:0:0:soft-hitnormal2.ogg
402,192,160821,1,0,0:0:0:0:soft-hitnormal2.ogg
109,192,160921,1,0,0:0:0:0:soft-hitnormal2.ogg
475,192,160921,1,0,0:0:0:0:soft-hitnormal2.ogg
182,192,161021,1,0,0:0:0:0:soft-hitnormal2.ogg
256,192,161021,1,0,0:0:0:0:soft-hitnormal2.ogg
402,192,161021,1,0,0:0:0:0:soft-hitnormal2.ogg
36,192,161121,1,0,0:0:0:0:soft-hitnormal2.ogg
109,192,161121,1,0,0:0:0:0:soft-hitnormal2.ogg
182,192,161221,1,0,0:0:0:0:soft-hitnormal2.ogg
256,192,161221,1,0,0:0:0:0:soft-hitnormal2.ogg
402,0,161221,128,0,161521:0:0:0:0:soft-hitnormal2.ogg
475,192,161221,1,0,0:0:0:0:soft-hitnormal2.ogg
36,192,161321,1,0,0:0:0:0:soft-hitnormal2.ogg
109,192,161321,1,0,0:0:0:0:soft-hitnormal2.ogg
182,192,161421,1,0,0:0:0:0:soft-hitnormal2.ogg
256,192,161421,1,0,0:0:0:0:soft-hitnormal2.ogg
329,192,161421,1,0,0:0:0:0:soft-hitnormal2.ogg
109,0,161421,128,0,161921:0:0:0:0:soft-hitnormal2.ogg
36,192,161521,1,0,0:0:0:0:soft-hitnormal2.ogg
475,192,161521,1,0,0:0:0:0:soft-hitnormal2.ogg
256,0,161621,128,0,161671:0:0:0:0:soft-hitnormal2.ogg
329,0,161621,128,0,161671:0:0:0:0:soft-hitnormal2.ogg
402,0,161621,128,0,161671:0:0:0:0:soft-hitnormal2.ogg
36,0,161721,128,0,161771:0:0:0:0:soft-hitnormal2.ogg
182,0,161721,128,0,161771:0:0:0:0:soft-hitnormal2.ogg
256,0,161821,128,0,161871:0:0:0:0:soft-hitnormal2.ogg
329,0,161821,128,0,161871:0:0:0:0:soft-hitnormal2.ogg
402,0,161821,128,0,161871:0:0:0:0:soft-hitnormal2.ogg
475,0,161821,128,0,162121:0:0:0:0:soft-hitnormal2.ogg
36,0,161921,128,0,161971:0:0:0:0:soft-hitnormal2.ogg
182,0,161921,128,0,161971:0:0:0:0:soft-hitnormal2.ogg
36,0,162021,128,0,162321:0:0:0:0:soft-hitnormal2.ogg
109,0,162021,128,0,162071:0:0:0:0:soft-hitnormal2.ogg
256,0,162021,128,0,162071:0:0:0:0:soft-hitnormal2.ogg
329,0,162021,128,0,162071:0:0:0:0:soft-hitnormal2.ogg
182,0,162121,128,0,162171:0:0:0:0:soft-hitnormal2.ogg
402,0,162121,128,0,162171:0:0:0:0:soft-hitnormal2.ogg
109,0,162221,128,0,162271:0:0:0:0:soft-hitnormal2.ogg
256,0,162221,128,0,162271:0:0:0:0:soft-hitnormal2.ogg
329,0,162221,128,0,162271:0:0:0:0:soft-hitnormal2.ogg
402,0,162221,128,0,162521:0:0:0:0:soft-hitnormal2.ogg
182,0,162321,128,0,162371:0:0:0:0:soft-hitnormal2.ogg
475,0,162321,128,0,162371:0:0:0:0:soft-hitnormal2.ogg
36,0,162421,128,0,162471:0:0:0:0:soft-hitnormal2.ogg
182,0,162421,128,0,162721:0:0:0:0:soft-hitnormal2.ogg
256,0,162421,128,0,162471:0:0:0:0:soft-hitnormal2.ogg
329,0,162421,128,0,162471:0:0:0:0:soft-hitnormal2.ogg
109,0,162521,128,0,162571:0:0:0:0:soft-hitnormal2.ogg
475,0,162521,128,0,162571:0:0:0:0:soft-hitnormal2.ogg
36,0,162621,128,0,162671:0:0:0:0:soft-hitnormal2.ogg
256,0,162621,128,0,162671:0:0:0:0:soft-hitnormal2.ogg
329,0,162621,128,0,162921:0:0:0:0:soft-hitnormal2.ogg
402,0,162621,128,0,162671:0:0:0:0:soft-hitnormal2.ogg
109,0,162721,128,0,162771:0:0:0:0:soft-hitnormal2.ogg
475,0,162721,128,0,162771:0:0:0:0:soft-hitnormal2.ogg
182,0,162821,128,0,162871:0:0:0:0:soft-hitnormal2.ogg
256,0,162821,128,0,162871:0:0:0:0:soft-hitnormal2.ogg
402,0,162821,128,0,162871:0:0:0:0:soft-hitnormal2.ogg
109,0,162821,128,0,163221:0:0:0:0:soft-hitnormal2.ogg
36,0,162921,128,0,162971:0:0:0:0:soft-hitnormal2.ogg
475,0,162921,128,0,162971:0:0:0:0:soft-hitnormal2.ogg
182,0,163021,128,0,163071:0:0:0:0:soft-hitnormal2.ogg
256,0,163021,128,0,163071:0:0:0:0:soft-hitnormal2.ogg
329,0,163021,128,0,163071:0:0:0:0:soft-hitnormal2.ogg
402,0,163021,128,0,163221:0:0:0:0:soft-hitnormal2.ogg
36,0,163121,128,0,163171:0:0:0:0:soft-hitnormal2.ogg
475,0,163121,128,0,163171:0:0:0:0:soft-hitnormal2.ogg
36,192,163221,1,0,0:0:0:0:soft-hitnormal2.ogg
182,192,163221,1,0,0:0:0:0:soft-hitnormal2.ogg
256,192,163221,1,0,0:0:0:0:soft-hitnormal2.ogg
329,0,163221,128,0,163521:0:0:0:0:soft-hitnormal2.ogg
475,192,163221,1,0,0:0:0:0:soft-hitnormal2.ogg
36,0,163521,128,0,163821:0:0:0:0:soft-hitnormal2.ogg
109,192,163521,1,0,0:0:0:0:soft-hitnormal2.ogg
182,192,163521,1,0,0:0:0:0:soft-hitnormal2.ogg
402,192,163521,1,0,0:0:0:0:soft-hitnormal2.ogg
475,192,163521,1,0,0:0:0:0:soft-hitnormal2.ogg
182,0,163821,128,0,164021:0:0:0:0:soft-hitnormal2.ogg
256,192,163821,1,0,0:0:0:0:soft-hitnormal2.ogg
402,192,163821,1,0,0:0:0:0:soft-hitnormal2.ogg
475,192,163821,1,0,0:0:0:0:soft-hitnormal2.ogg
36,192,164021,1,0,0:0:0:0:soft-hitnormal2.ogg
109,192,164021,1,0,0:0:0:0:soft-hitnormal2.ogg
256,0,164021,128,0,164721:0:0:0:0:soft-hitnormal2.ogg
329,192,164021,1,0,0:0:0:0:soft-hitnormal2.ogg
402,192,164021,1,0,0:0:0:0:soft-hitnormal2.ogg
109,192,164621,1,0,0:0:0:0:soft-hitnormal2.ogg
402,192,164721,1,0,0:0:0:0:soft-hitnormal2.ogg
36,0,164821,128,0,165171:0:0:0:0:soft-hitnormal2.ogg
109,0,164821,128,0,164921:0:0:0:0:soft-hitnormal2.ogg
182,192,164821,1,0,0:0:0:0:soft-hitnormal2.ogg
256,192,164821,1,0,0:0:0:0:soft-hitnormal2.ogg
329,192,164821,1,0,0:0:0:0:soft-hitnormal2.ogg
402,192,164821,1,0,0:0:0:0:soft-hitnormal2.ogg
475,0,164821,128,0,165571:0:0:0:0:soft-hitnormal2.ogg
182,0,164921,128,0,165021:0:0:0:0:soft-hitnormal2.ogg
109,192,165021,1,0,0:0:0:0:soft-hitnormal2.ogg
256,0,165021,128,0,165121:0:0:0:0:soft-hitnormal2.ogg
329,192,165021,1,0,0:0:0:0:soft-hitnormal2.ogg
402,192,165021,1,0,0:0:0:0:soft-hitnormal2.ogg
329,0,165121,128,0,165221:0:0:0:0:soft-hitnormal2.ogg
36,0,165221,128,0,165371:0:0:0:0:soft-hitnormal2.ogg
109,192,165221,1,0,0:0:0:0:soft-hitnormal2.ogg
182,192,165221,1,0,0:0:0:0:soft-hitnormal2.ogg
256,192,165221,1,0,0:0:0:0:soft-hitnormal2.ogg
402,0,165221,128,0,165321:0:0:0:0:soft-hitnormal2.ogg
329,0,165321,128,0,165421:0:0:0:0:soft-hitnormal2.ogg
109,192,165421,1,0,0:0:0:0:soft-hitnormal2.ogg
182,192,165421,1,0,0:0:0:0:soft-hitnormal2.ogg
256,0,165421,128,0,165521:0:0:0:0:soft-hitnormal2.ogg
402,192,165421,1,0,0:0:0:0:soft-hitnormal2.ogg
36,0,165421,128,0,166771:0:0:0:0:soft-hitnormal2.ogg
182,0,165521,128,0,165621:0:0:0:0:soft-hitnormal2.ogg
109,0,165621,128,0,165721:0:0:0:0:soft-hitnormal2.ogg
256,192,165621,1,0,0:0:0:0:soft-hitnormal2.ogg
329,192,165621,1,0,0:0:0:0:soft-hitnormal2.ogg
402,192,165621,1,0,0:0:0:0:soft-hitnormal2.ogg
475,0,165621,128,0,165971:0:0:0:0:soft-hitnormal2.ogg
182,0,165721,128,0,165821:0:0:0:0:soft-hitnormal2.ogg
109,192,165821,1,0,0:0:0:0:soft-hitnormal2.ogg
256,0,165821,128,0,165921:0:0:0:0:soft-hitnormal2.ogg
329,192,165821,1,0,0:0:0:0:soft-hitnormal2.ogg
402,192,165821,1,0,0:0:0:0:soft-hitnormal2.ogg
329,0,165921,128,0,166021:0:0:0:0:soft-hitnormal2.ogg
109,192,166021,1,0,0:0:0:0:soft-hitnormal2.ogg
182,192,166021,1,0,0:0:0:0:soft-hitnormal2.ogg
256,192,166021,1,0,0:0:0:0:soft-hitnormal2.ogg
402,0,166021,128,0,166121:0:0:0:0:soft-hitnormal2.ogg
475,0,166021,128,0,166171:0:0:0:0:soft-hitnormal2.ogg
329,0,166121,128,0,166221:0:0:0:0:soft-hitnormal2.ogg
109,192,166221,1,0,0:0:0:0:soft-hitnormal2.ogg
182,192,166221,1,0,0:0:0:0:soft-hitnormal2.ogg
256,0,166221,128,0,166321:0:0:0:0:soft-hitnormal2.ogg
402,192,166221,1,0,0:0:0:0:soft-hitnormal2.ogg
475,0,166221,128,0,166571:0:0:0:0:soft-hitnormal2.ogg
182,0,166321,128,0,166421:0:0:0:0:soft-hitnormal2.ogg
109,0,166421,128,0,166521:0:0:0:0:soft-hitnormal2.ogg
256,192,166421,1,0,0:0:0:0:soft-hitnormal2.ogg
329,192,166421,1,0,0:0:0:0:soft-hitnormal2.ogg
402,192,166421,1,0,0:0:0:0:soft-hitnormal2.ogg
182,0,166521,128,0,166621:0:0:0:0:soft-hitnormal2.ogg
109,192,166621,1,0,0:0:0:0:soft-hitnormal2.ogg
256,0,166621,128,0,166721:0:0:0:0:soft-hitnormal2.ogg
329,192,166621,1,0,0:0:0:0:soft-hitnormal2.ogg
402,192,166621,1,0,0:0:0:0:soft-hitnormal2.ogg
475,0,166621,128,0,167171:0:0:0:0:soft-hitnormal2.ogg
329,0,166721,128,0,166821:0:0:0:0:soft-hitnormal2.ogg
36,0,166821,128,0,166971:0:0:0:0:soft-hitnormal2.ogg
109,192,166821,1,0,0:0:0:0:soft-hitnormal2.ogg
182,192,166821,1,0,0:0:0:0:soft-hitnormal2.ogg
256,192,166821,1,0,0:0:0:0:soft-hitnormal2.ogg
402,0,166821,128,0,166921:0:0:0:0:soft-hitnormal2.ogg
329,0,166921,128,0,167021:0:0:0:0:soft-hitnormal2.ogg
36,0,167021,128,0,167771:0:0:0:0:soft-hitnormal2.ogg
109,192,167021,1,0,0:0:0:0:soft-hitnormal2.ogg
182,192,167021,1,0,0:0:0:0:soft-hitnormal2.ogg
256,0,167021,128,0,167121:0:0:0:0:soft-hitnormal2.ogg
402,192,167021,1,0,0:0:0:0:soft-hitnormal2.ogg
182,0,167121,128,0,167221:0:0:0:0:soft-hitnormal2.ogg
109,0,167221,128,0,167321:0:0:0:0:soft-hitnormal2.ogg
256,192,167221,1,0,0:0:0:0:soft-hitnormal2.ogg
329,192,167221,1,0,0:0:0:0:soft-hitnormal2.ogg
402,192,167221,1,0,0:0:0:0:soft-hitnormal2.ogg
475,0,167221,128,0,167571:0:0:0:0:soft-hitnormal2.ogg
182,0,167321,128,0,167421:0:0:0:0:soft-hitnormal2.ogg
109,192,167421,1,0,0:0:0:0:soft-hitnormal2.ogg
256,0,167421,128,0,167521:0:0:0:0:soft-hitnormal2.ogg
329,192,167421,1,0,0:0:0:0:soft-hitnormal2.ogg
402,192,167421,1,0,0:0:0:0:soft-hitnormal2.ogg
329,0,167521,128,0,167621:0:0:0:0:soft-hitnormal2.ogg
109,192,167621,1,0,0:0:0:0:soft-hitnormal2.ogg
182,192,167621,1,0,0:0:0:0:soft-hitnormal2.ogg
256,192,167621,1,0,0:0:0:0:soft-hitnormal2.ogg
402,0,167621,128,0,167721:0:0:0:0:soft-hitnormal2.ogg
475,0,167621,128,0,168021:0:0:0:0:soft-hitnormal2.ogg
329,0,167721,128,0,167821:0:0:0:0:soft-hitnormal2.ogg
109,192,167821,1,0,0:0:0:0:soft-hitnormal2.ogg
182,192,167821,1,0,0:0:0:0:soft-hitnormal2.ogg
256,0,167821,128,0,167921:0:0:0:0:soft-hitnormal2.ogg
402,192,167821,1,0,0:0:0:0:soft-hitnormal2.ogg
36,0,167821,128,0,168021:0:0:0:0:soft-hitnormal2.ogg
182,0,167921,128,0,168021:0:0:0:0:soft-hitnormal2.ogg
109,0,168021,128,0,168121:0:0:0:0:soft-hitnormal2.ogg
256,192,168021,1,0,0:0:0:0:soft-hitnormal2.ogg
329,0,168021,128,0,168121:0:0:0:0:soft-hitnormal2.ogg
402,0,168021,128,0,168121:0:0:0:0:soft-hitnormal2.ogg
36,0,168121,128,0,168321:0:0:0:0:soft-hitnormal2.ogg
256,0,168121,128,0,168221:0:0:0:0:soft-hitnormal2.ogg
475,192,168121,1,0,0:0:0:0:soft-hitnormal2.ogg
109,0,168221,128,0,168421:0:0:0:0:soft-hitnormal2.ogg
182,192,168221,1,0,0:0:0:0:soft-hitnormal2.ogg
329,0,168221,128,0,168521:0:0:0:0:soft-hitnormal2.ogg
402,192,168221,1,0,0:0:0:0:soft-hitnormal2.ogg
475,0,168221,128,0,168321:0:0:0:0:soft-hitnormal2.ogg
182,0,168321,128,0,168421:0:0:0:0:soft-hitnormal2.ogg
402,0,168321,128,0,168421:0:0:0:0:soft-hitnormal2.ogg
256,192,168421,1,0,0:0:0:0:soft-hitnormal2.ogg
475,192,168421,1,0,0:0:0:0:soft-hitnormal2.ogg
36,192,168521,1,0,0:0:0:0:soft-hitnormal2.ogg
182,192,168521,1,0,0:0:0:0:soft-hitnormal2.ogg
402,192,168521,1,0,0:0:0:0:soft-hitnormal2.ogg
109,192,168621,1,0,0:0:0:0:soft-hitnormal2.ogg
329,192,168621,1,0,0:0:0:0:soft-hitnormal2.ogg
475,192,168621,1,0,0:0:0:0:soft-hitnormal2.ogg
36,192,168721,1,0,0:0:0:0:soft-hitnormal2.ogg
256,192,168721,1,0,0:0:0:0:soft-hitnormal2.ogg
402,192,168721,1,0,0:0:0:0:soft-hitnormal2.ogg
109,0,168821,128,0,169021:0:0:0:0:soft-hitnormal2.ogg
182,192,168821,1,0,0:0:0:0:soft-hitnormal2.ogg
329,0,168821,128,0,169121:0:0:0:0:soft-hitnormal2.ogg
402,192,168821,1,0,0:0:0:0:soft-hitnormal2.ogg
36,192,168921,1,0,0:0:0:0:soft-hitnormal2.ogg
182,0,168921,128,0,169021:0:0:0:0:soft-hitnormal2.ogg
256,192,168921,1,0,0:0:0:0:soft-hitnormal2.ogg
402,0,168921,128,0,169021:0:0:0:0:soft-hitnormal2.ogg
475,192,168921,1,0,0:0:0:0:soft-hitnormal2.ogg
36,0,169021,128,0,169221:0:0:0:0:soft-hitnormal2.ogg
256,0,169021,128,0,169221:0:0:0:0:soft-hitnormal2.ogg
475,0,169021,128,0,169121:0:0:0:0:soft-hitnormal2.ogg
182,0,169121,128,0,169421:0:0:0:0:soft-hitnormal2.ogg
402,0,169121,128,0,169221:0:0:0:0:soft-hitnormal2.ogg
109,192,169221,1,0,0:0:0:0:soft-hitnormal2.ogg
329,192,169221,1,0,0:0:0:0:soft-hitnormal2.ogg
475,192,169221,1,0,0:0:0:0:soft-hitnormal2.ogg
36,192,169321,1,0,0:0:0:0:soft-hitnormal2.ogg
256,192,169321,1,0,0:0:0:0:soft-hitnormal2.ogg
402,192,169321,1,0,0:0:0:0:soft-hitnormal2.ogg
109,192,169421,1,0,0:0:0:0:soft-hitnormal2.ogg
329,192,169421,1,0,0:0:0:0:soft-hitnormal2.ogg
475,192,169421,1,0,0:0:0:0:soft-hitnormal2.ogg
36,192,169521,1,0,0:0:0:0:soft-hitnormal2.ogg
182,192,169521,1,0,0:0:0:0:soft-hitnormal2.ogg
402,192,169521,1,0,0:0:0:0:soft-hitnormal2.ogg
109,192,169621,1,0,0:0:0:0:soft-hitnormal2.ogg
256,192,169621,1,0,0:0:0:0:soft-hitnormal2.ogg
329,192,169621,1,0,0:0:0:0:soft-hitnormal2.ogg
475,192,169621,1,0,0:0:0:0:soft-hitnormal2.ogg
36,192,169721,1,0,0:0:0:0:soft-hitnormal2.ogg
182,192,169721,1,0,0:0:0:0:soft-hitnormal2.ogg
475,0,169721,128,0,170421:0:0:0:0:soft-hitnormal2.ogg
36,0,169821,128,0,170621:0:0:0:0:soft-hitnormal2.ogg
256,192,169821,1,0,0:0:0:0:soft-hitnormal2.ogg
329,192,169821,1,0,0:0:0:0:soft-hitnormal2.ogg
402,192,169821,1,0,0:0:0:0:soft-hitnormal2.ogg
109,192,169921,1,0,0:0:0:0:soft-hitnormal2.ogg
182,192,169921,1,0,0:0:0:0:soft-hitnormal2.ogg
402,0,169921,128,0,170221:0:0:0:0:soft-hitnormal2.ogg
109,0,170021,128,0,170321:0:0:0:0:soft-hitnormal2.ogg
256,192,170021,1,0,0:0:0:0:soft-hitnormal2.ogg
329,192,170021,1,0,0:0:0:0:soft-hitnormal2.ogg
182,192,170121,1,0,0:0:0:0:soft-hitnormal2.ogg
329,0,170121,128,0,170221:0:0:0:0:soft-hitnormal2.ogg
182,0,170221,128,0,170321:0:0:0:0:soft-hitnormal2.ogg
256,192,170221,1,0,0:0:0:0:soft-hitnormal2.ogg
256,0,170321,128,0,170421:0:0:0:0:soft-hitnormal2.ogg
329,192,170321,1,0,0:0:0:0:soft-hitnormal2.ogg
402,192,170321,1,0,0:0:0:0:soft-hitnormal2.ogg
109,192,170421,1,0,0:0:0:0:soft-hitnormal2.ogg
182,192,170421,1,0,0:0:0:0:soft-hitnormal2.ogg
329,0,170421,128,0,170521:0:0:0:0:soft-hitnormal2.ogg
402,0,170421,128,0,170521:0:0:0:0:soft-hitnormal2.ogg
109,0,170521,128,0,170721:0:0:0:0:soft-hitnormal2.ogg
182,0,170521,128,0,170621:0:0:0:0:soft-hitnormal2.ogg
256,192,170521,1,0,0:0:0:0:soft-hitnormal2.ogg
475,192,170521,1,0,0:0:0:0:soft-hitnormal2.ogg
256,0,170621,128,0,170721:0:0:0:0:soft-hitnormal2.ogg
329,192,170621,1,0,0:0:0:0:soft-hitnormal2.ogg
402,192,170621,1,0,0:0:0:0:soft-hitnormal2.ogg
475,0,170621,128,0,171021:0:0:0:0:soft-hitnormal2.ogg
36,192,170721,1,0,0:0:0:0:soft-hitnormal2.ogg
182,192,170721,1,0,0:0:0:0:soft-hitnormal2.ogg
329,0,170721,128,0,170821:0:0:0:0:soft-hitnormal2.ogg
402,0,170721,128,0,170921:0:0:0:0:soft-hitnormal2.ogg
256,192,170771,1,0,0:0:0:0:soft-hitnormal2.ogg
36,0,170821,128,0,171021:0:0:0:0:soft-hitnormal2.ogg
182,192,170821,1,0,0:0:0:0:soft-hitnormal2.ogg
109,192,170871,1,0,0:0:0:0:soft-hitnormal2.ogg
329,192,170871,1,0,0:0:0:0:soft-hitnormal2.ogg
109,0,170921,128,0,171121:0:0:0:0:soft-hitnormal2.ogg
256,192,170921,1,0,0:0:0:0:soft-hitnormal2.ogg
182,192,170971,1,0,0:0:0:0:soft-hitnormal2.ogg
402,192,170971,1,0,0:0:0:0:soft-hitnormal2.ogg
329,192,171021,1,0,0:0:0:0:soft-hitnormal2.ogg
182,0,171021,128,0,171221:0:0:0:0:soft-hitnormal2.ogg
36,192,171071,1,0,0:0:0:0:soft-hitnormal2.ogg
256,192,171071,1,0,0:0:0:0:soft-hitnormal2.ogg
475,192,171071,1,0,0:0:0:0:soft-hitnormal2.ogg
402,192,171121,1,0,0:0:0:0:soft-hitnormal2.ogg
109,192,171171,1,0,0:0:0:0:soft-hitnormal2.ogg
329,192,171171,1,0,0:0:0:0:soft-hitnormal2.ogg
475,192,171221,1,0,0:0:0:0:soft-hitnormal2.ogg
109,192,172021,1,0,0:0:0:0:soft-hitnormal2.ogg
402,192,172221,1,0,0:0:0:0:soft-hitnormal2.ogg
182,192,172421,1,0,0:0:0:0:soft-hitnormal2.ogg
329,192,172621,1,0,0:0:0:0:soft-hitnormal2.ogg
329,192,172821,1,0,0:0:0:0:soft-hitnormal2.ogg
256,192,173621,1,0,0:0:0:0:soft-hitnormal2.ogg
36,0,174421,128,0,175388:0:0:0:0:soft-hitnormal2.ogg
182,0,174421,128,0,175388:0:0:0:0:soft-hitnormal2.ogg
329,0,174621,128,0,175588:0:0:0:0:soft-hitnormal2.ogg
475,0,174621,128,0,175588:0:0:0:0:soft-hitnormal2.ogg
109,0,174821,128,0,175788:0:0:0:0:soft-hitnormal2.ogg
256,0,175021,128,0,175788:0:0:0:0:soft-hitnormal2.ogg
402,0,175021,128,0,175988:0:0:0:0:soft-hitnormal2.ogg
36,0,175421,128,0,175988:0:0:0:0:soft-hitnormal2.ogg
182,0,175421,128,0,175988:0:0:0:0:soft-hitnormal2.ogg
329,0,175621,128,0,175988:0:0:0:0:soft-hitnormal2.ogg
475,0,175621,128,0,175988:0:0:0:0:soft-hitnormal2.ogg
109,0,175821,128,0,175988:0:0:0:0:soft-hitnormal2.ogg
256,0,175821,128,0,175988:0:0:0:0:soft-hitnormal2.ogg
36,0,176021,128,0,183021:0:0:0:0:soft-hitnormal2.ogg
109,0,176021,128,0,182821:0:0:0:0:soft-hitnormal2.ogg
182,0,176021,128,0,182921:0:0:0:0:soft-hitnormal2.ogg
256,0,176021,128,0,182821:0:0:0:0:soft-hitnormal2.ogg
329,0,176021,128,0,182921:0:0:0:0:soft-hitnormal2.ogg
402,0,176021,128,0,182821:0:0:0:0:soft-hitnormal2.ogg
475,0,176021,128,0,182921:0:0:0:0:soft-hitnormal2.ogg
