osu file format v14

[General]
AudioFilename: senya - Kasoku Suru Koi wa Dare mo Tomerarenai.mp3
AudioLeadIn: 0
PreviewTime: 12809
Countdown: 1
SampleSet: Normal
StackLeniency: 0.7
Mode: 3
LetterboxInBreaks: 0
SpecialStyle: 0
WidescreenStoryboard: 0

[Editor]
DistanceSpacing: 0.8
BeatDivisor: 4
GridSize: 8
TimelineZoom: 2.4

[Metadata]
Title:[Trash-]'s Training Pack
TitleUnicode:[Trash-]'s Training Pack
Artist:Senya
ArtistUnicode:Senya
Creator:[Trash-]
Version:Kasoku Suru Koi wa Dare mo Tomerarenai
Source:
Tags:
BeatmapID:901604
BeatmapSetID:404166

[Difficulty]
HPDrainRate:7
CircleSize:4
OverallDifficulty:7
ApproachRate:5
SliderMultiplier:1.4
SliderTickRate:1

[Events]
//Background and Video events
0,0,"Satori.jpg",0,0
//Break Periods
//Storyboard Layer 0 (Background)
//Storyboard Layer 1 (Fail)
//Storyboard Layer 2 (Pass)
//Storyboard Layer 3 (Foreground)
//Storyboard Sound Samples

[TimingPoints]
1381,357.142857142857,4,1,1,36,1,0

[HitObjects]
448,192,1381,128,0,1559:0:0:0:0:
320,192,1738,1,0,0:0:0:0:
64,192,1738,1,0,0:0:0:0:
320,192,2095,128,0,2273:0:0:0:0:
192,192,2452,1,0,0:0:0:0:
448,192,2452,1,0,0:0:0:0:
192,192,2809,128,0,2988:0:0:0:0:
192,192,3166,1,0,0:0:0:0:
448,192,3166,1,0,0:0:0:0:
64,192,3523,128,0,3702:0:0:0:0:
64,192,3880,1,0,0:0:0:0:
448,192,3880,1,0,0:0:0:0:
320,192,4238,128,0,4416:0:0:0:0:
448,192,4595,1,0,0:0:0:0:
64,192,4595,1,0,0:0:0:0:
320,192,4952,128,0,5666:0:0:0:0:
192,192,5309,1,0,0:0:0:0:
448,192,5309,1,0,0:0:0:0:
448,192,5666,1,0,0:0:0:0:
192,192,5666,128,0,6023:0:0:0:0:
448,192,6023,1,0,0:0:0:0:
320,192,6023,1,0,0:0:0:0:
320,192,6380,128,0,6559:0:0:0:0:
192,192,6738,1,0,0:0:0:0:
320,192,6738,1,0,0:0:0:0:
192,192,7095,128,0,7273:0:0:0:0:
64,192,7452,1,0,0:0:0:0:
320,192,7452,1,0,0:0:0:0:
448,192,7452,1,0,0:0:0:0:
192,192,7809,128,0,7988:0:0:0:0:
192,192,8166,1,0,0:0:0:0:
320,192,8166,1,0,0:0:0:0:
448,192,8166,1,0,0:0:0:0:
320,192,8523,128,0,8702:0:0:0:0:
192,192,8880,1,0,0:0:0:0:
320,192,8880,1,0,0:0:0:0:
64,192,8880,1,0,0:0:0:0:
448,192,9238,128,0,9416:0:0:0:0:
64,192,9595,1,0,0:0:0:0:
320,192,9595,1,0,0:0:0:0:
448,192,9595,1,0,0:0:0:0:
448,192,9952,128,0,10309:0:0:0:0:
192,192,9952,1,0,0:0:0:0:
320,192,10309,128,0,10666:0:0:0:0:
192,192,10309,1,0,0:0:0:0:
64,192,10309,1,0,0:0:0:0:
192,192,10666,128,0,11023:0:0:0:0:
448,192,10666,1,0,0:0:0:0:
64,192,10666,1,0,0:0:0:0:
64,192,11023,128,0,11380:0:0:0:0:
448,192,11023,1,0,0:0:0:0:
320,192,11023,1,0,0:0:0:0:
320,192,11380,1,0,0:0:0:0:
448,192,11380,1,0,0:0:0:0:
192,192,11470,1,0,0:0:0:0:
64,192,11470,1,0,0:0:0:0:
320,192,11559,1,0,0:0:0:0:
448,192,11559,1,0,0:0:0:0:
192,192,11648,1,0,0:0:0:0:
64,192,11648,1,0,0:0:0:0:
320,192,11738,1,0,0:0:0:0:
448,192,11738,1,0,0:0:0:0:
64,192,11827,1,0,0:0:0:0:
192,192,11827,1,0,0:0:0:0:
320,192,11916,1,0,0:0:0:0:
448,192,11916,1,0,0:0:0:0:
64,192,12005,1,0,0:0:0:0:
192,192,12005,1,0,0:0:0:0:
320,192,12095,1,0,0:0:0:0:
448,192,12095,1,0,0:0:0:0:
64,192,12184,1,0,0:0:0:0:
192,192,12184,1,0,0:0:0:0:
320,192,12273,1,0,0:0:0:0:
448,192,12273,1,0,0:0:0:0:
64,192,12363,1,0,0:0:0:0:
192,192,12363,1,0,0:0:0:0:
320,192,12452,1,0,0:0:0:0:
448,192,12452,1,0,0:0:0:0:
64,192,12541,1,0,0:0:0:0:
192,192,12541,1,0,0:0:0:0:
320,192,12630,1,0,0:0:0:0:
448,192,12630,1,0,0:0:0:0:
64,192,12720,1,0,0:0:0:0:
192,192,12720,1,0,0:0:0:0:
320,192,12809,1,0,0:0:0:0:
448,192,12809,1,0,0:0:0:0:
192,192,12898,1,0,0:0:0:0:
64,192,12988,1,0,0:0:0:0:
448,192,13077,1,0,0:0:0:0:
320,192,13166,1,0,0:0:0:0:
64,192,13166,1,0,0:0:0:0:
192,192,13255,1,0,0:0:0:0:
64,192,13345,1,0,0:0:0:0:
320,192,13434,1,0,0:0:0:0:
192,192,13523,1,0,0:0:0:0:
64,192,13613,1,0,0:0:0:0:
192,192,13702,1,0,0:0:0:0:
320,192,13791,1,0,0:0:0:0:
448,192,13880,1,0,0:0:0:0:
192,192,13880,1,0,0:0:0:0:
64,192,13880,1,0,0:0:0:0:
320,192,13970,1,0,0:0:0:0:
192,192,14059,1,0,0:0:0:0:
320,192,14148,1,0,0:0:0:0:
448,192,14238,1,0,0:0:0:0:
64,192,14327,1,0,0:0:0:0:
192,192,14416,1,0,0:0:0:0:
320,192,14505,1,0,0:0:0:0:
448,192,14595,1,0,0:0:0:0:
192,192,14595,1,0,0:0:0:0:
64,192,14595,1,0,0:0:0:0:
320,192,14684,1,0,0:0:0:0:
64,192,14773,1,0,0:0:0:0:
192,192,14863,1,0,0:0:0:0:
64,192,14952,1,0,0:0:0:0:
320,192,15041,1,0,0:0:0:0:
192,192,15130,1,0,0:0:0:0:
448,192,15220,1,0,0:0:0:0:
64,192,15309,1,0,0:0:0:0:
320,192,15309,1,0,0:0:0:0:
448,192,15398,1,0,0:0:0:0:
320,192,15488,1,0,0:0:0:0:
192,192,15577,1,0,0:0:0:0:
64,192,15666,1,0,0:0:0:0:
320,192,15755,1,0,0:0:0:0:
448,192,15845,1,0,0:0:0:0:
64,192,15934,1,0,0:0:0:0:
192,192,16023,1,0,0:0:0:0:
448,192,16023,1,0,0:0:0:0:
320,192,16113,1,0,0:0:0:0:
448,192,16202,1,0,0:0:0:0:
64,192,16291,1,0,0:0:0:0:
192,192,16380,1,0,0:0:0:0:
320,192,16470,1,0,0:0:0:0:
192,192,16559,1,0,0:0:0:0:
448,192,16648,1,0,0:0:0:0:
320,192,16738,1,0,0:0:0:0:
64,192,16738,1,0,0:0:0:0:
192,192,16827,1,0,0:0:0:0:
64,192,16916,1,0,0:0:0:0:
320,192,17005,1,0,0:0:0:0:
64,192,17095,1,0,0:0:0:0:
192,192,17184,1,0,0:0:0:0:
320,192,17273,1,0,0:0:0:0:
448,192,17363,1,0,0:0:0:0:
320,192,17452,1,0,0:0:0:0:
64,192,17452,1,0,0:0:0:0:
192,192,17541,1,0,0:0:0:0:
64,192,17630,1,0,0:0:0:0:
448,192,17720,1,0,0:0:0:0:
320,192,17809,1,0,0:0:0:0:
192,192,17898,1,0,0:0:0:0:
64,192,17988,1,0,0:0:0:0:
320,192,18077,1,0,0:0:0:0:
192,192,18166,1,0,0:0:0:0:
64,192,18255,1,0,0:0:0:0:
320,192,18345,1,0,0:0:0:0:
448,192,18434,1,0,0:0:0:0:
64,192,18523,1,0,0:0:0:0:
192,192,18523,1,0,0:0:0:0:
320,192,18523,1,0,0:0:0:0:
448,192,18523,1,0,0:0:0:0:
192,192,18613,1,0,0:0:0:0:
64,192,18702,1,0,0:0:0:0:
320,192,18791,1,0,0:0:0:0:
192,192,18880,1,0,0:0:0:0:
448,192,18880,1,0,0:0:0:0:
64,192,18970,1,0,0:0:0:0:
320,192,19059,1,0,0:0:0:0:
448,192,19148,1,0,0:0:0:0:
192,192,19238,1,0,0:0:0:0:
320,192,19327,1,0,0:0:0:0:
448,192,19416,1,0,0:0:0:0:
320,192,19505,1,0,0:0:0:0:
192,192,19595,1,0,0:0:0:0:
448,192,19595,1,0,0:0:0:0:
64,192,19684,1,0,0:0:0:0:
192,192,19773,1,0,0:0:0:0:
320,192,19863,1,0,0:0:0:0:
192,192,19952,1,0,0:0:0:0:
64,192,20041,1,0,0:0:0:0:
192,192,20130,1,0,0:0:0:0:
320,192,20220,1,0,0:0:0:0:
448,192,20309,1,0,0:0:0:0:
192,192,20309,1,0,0:0:0:0:
64,192,20309,1,0,0:0:0:0:
320,192,20398,1,0,0:0:0:0:
64,192,20488,1,0,0:0:0:0:
192,192,20577,1,0,0:0:0:0:
320,192,20666,1,0,0:0:0:0:
448,192,20755,1,0,0:0:0:0:
192,192,20845,1,0,0:0:0:0:
320,192,20934,1,0,0:0:0:0:
448,192,21023,1,0,0:0:0:0:
64,192,21023,1,0,0:0:0:0:
192,192,21113,1,0,0:0:0:0:
320,192,21202,1,0,0:0:0:0:
448,192,21291,1,0,0:0:0:0:
192,192,21380,1,0,0:0:0:0:
64,192,21470,1,0,0:0:0:0:
320,192,21559,1,0,0:0:0:0:
192,192,21648,1,0,0:0:0:0:
64,192,21738,1,0,0:0:0:0:
448,192,21738,1,0,0:0:0:0:
320,192,21827,1,0,0:0:0:0:
192,192,21916,1,0,0:0:0:0:
320,192,22005,1,0,0:0:0:0:
448,192,22095,1,0,0:0:0:0:
192,192,22184,1,0,0:0:0:0:
64,192,22273,1,0,0:0:0:0:
320,192,22363,1,0,0:0:0:0:
448,192,22452,1,0,0:0:0:0:
192,192,22452,1,0,0:0:0:0:
64,192,22452,1,0,0:0:0:0:
64,192,22541,1,0,0:0:0:0:
192,192,22630,1,0,0:0:0:0:
320,192,22720,1,0,0:0:0:0:
448,192,22809,1,0,0:0:0:0:
192,192,22898,1,0,0:0:0:0:
64,192,22988,1,0,0:0:0:0:
320,192,23077,1,0,0:0:0:0:
192,192,23166,1,0,0:0:0:0:
448,192,23166,1,0,0:0:0:0:
64,192,23255,1,0,0:0:0:0:
320,192,23345,1,0,0:0:0:0:
448,192,23434,1,0,0:0:0:0:
64,192,23523,1,0,0:0:0:0:
320,192,23613,1,0,0:0:0:0:
448,192,23702,1,0,0:0:0:0:
192,192,23791,1,0,0:0:0:0:
64,192,23880,1,0,0:0:0:0:
320,192,23970,1,0,0:0:0:0:
448,192,24059,1,0,0:0:0:0:
320,192,24148,1,0,0:0:0:0:
64,192,24238,1,0,0:0:0:0:
192,192,24238,1,0,0:0:0:0:
448,192,24238,1,0,0:0:0:0:
192,192,24416,1,0,0:0:0:0:
320,192,24416,1,0,0:0:0:0:
192,192,24595,1,0,0:0:0:0:
64,192,24773,1,0,0:0:0:0:
320,192,24773,1,0,0:0:0:0:
320,192,24952,1,0,0:0:0:0:
448,192,24952,1,0,0:0:0:0:
64,192,25130,1,0,0:0:0:0:
192,192,25309,1,0,0:0:0:0:
448,192,25309,1,0,0:0:0:0:
64,192,25488,1,0,0:0:0:0:
192,192,25666,1,0,0:0:0:0:
64,192,25666,1,0,0:0:0:0:
320,192,25845,1,0,0:0:0:0:
448,192,25845,1,0,0:0:0:0:
192,192,26023,1,0,0:0:0:0:
192,192,26202,1,0,0:0:0:0:
320,192,26202,1,0,0:0:0:0:
64,192,26380,1,0,0:0:0:0:
320,192,26380,1,0,0:0:0:0:
192,192,26559,1,0,0:0:0:0:
192,192,26738,1,0,0:0:0:0:
448,192,26738,1,0,0:0:0:0:
320,192,26916,1,0,0:0:0:0:
192,192,27095,1,0,0:0:0:0:
64,192,27095,1,0,0:0:0:0:
448,192,27273,1,0,0:0:0:0:
320,192,27452,1,0,0:0:0:0:
64,192,27452,1,0,0:0:0:0:
192,192,27630,1,0,0:0:0:0:
320,192,27630,1,0,0:0:0:0:
64,192,27809,1,0,0:0:0:0:
320,192,27809,1,0,0:0:0:0:
192,192,27988,1,0,0:0:0:0:
320,192,28166,1,0,0:0:0:0:
448,192,28166,1,0,0:0:0:0:
320,192,28345,1,0,0:0:0:0:
192,192,28523,1,0,0:0:0:0:
64,192,28523,1,0,0:0:0:0:
64,192,28702,1,0,0:0:0:0:
192,192,28880,1,0,0:0:0:0:
448,192,28880,1,0,0:0:0:0:
192,192,29059,1,0,0:0:0:0:
448,192,29059,1,0,0:0:0:0:
320,192,29238,1,0,0:0:0:0:
192,192,29238,1,0,0:0:0:0:
64,192,29416,1,0,0:0:0:0:
448,192,29416,1,0,0:0:0:0:
64,192,29595,1,0,0:0:0:0:
192,192,29595,1,0,0:0:0:0:
448,192,29595,1,0,0:0:0:0:
64,192,29773,1,0,0:0:0:0:
448,192,29773,1,0,0:0:0:0:
320,192,29773,1,0,0:0:0:0:
64,192,29952,1,0,0:0:0:0:
192,192,29952,1,0,0:0:0:0:
448,192,29952,1,0,0:0:0:0:
320,192,29952,1,0,0:0:0:0:
192,192,30130,1,0,0:0:0:0:
192,192,30309,1,0,0:0:0:0:
64,192,30309,1,0,0:0:0:0:
448,192,30309,1,0,0:0:0:0:
192,192,30488,1,0,0:0:0:0:
320,192,30666,1,0,0:0:0:0:
64,192,30666,1,0,0:0:0:0:
192,192,30845,1,0,0:0:0:0:
64,192,31023,1,0,0:0:0:0:
320,192,31023,1,0,0:0:0:0:
448,192,31023,1,0,0:0:0:0:
448,192,31202,1,0,0:0:0:0:
320,192,31380,1,0,0:0:0:0:
64,192,31380,1,0,0:0:0:0:
192,192,31559,1,0,0:0:0:0:
320,192,31738,1,0,0:0:0:0:
192,192,31738,1,0,0:0:0:0:
64,192,31738,1,0,0:0:0:0:
320,192,31916,1,0,0:0:0:0:
192,192,32095,1,0,0:0:0:0:
64,192,32095,1,0,0:0:0:0:
320,192,32273,1,0,0:0:0:0:
192,192,32452,1,0,0:0:0:0:
320,192,32452,1,0,0:0:0:0:
448,192,32452,1,0,0:0:0:0:
320,192,32630,1,0,0:0:0:0:
192,192,32809,1,0,0:0:0:0:
64,192,32809,1,0,0:0:0:0:
320,192,32988,1,0,0:0:0:0:
192,192,33166,1,0,0:0:0:0:
320,192,33166,1,0,0:0:0:0:
448,192,33166,1,0,0:0:0:0:
448,192,33345,1,0,0:0:0:0:
320,192,33523,1,0,0:0:0:0:
64,192,33523,1,0,0:0:0:0:
192,192,33702,1,0,0:0:0:0:
320,192,33702,1,0,0:0:0:0:
64,192,33880,1,0,0:0:0:0:
320,192,33880,1,0,0:0:0:0:
448,192,33880,1,0,0:0:0:0:
192,192,34059,1,0,0:0:0:0:
320,192,34059,1,0,0:0:0:0:
64,192,34238,1,0,0:0:0:0:
448,192,34238,1,0,0:0:0:0:
192,192,34416,1,0,0:0:0:0:
64,192,34416,1,0,0:0:0:0:
192,192,34595,1,0,0:0:0:0:
64,192,34595,1,0,0:0:0:0:
448,192,34595,1,0,0:0:0:0:
320,192,34773,1,0,0:0:0:0:
192,192,34952,1,0,0:0:0:0:
320,192,34952,1,0,0:0:0:0:
448,192,34952,1,0,0:0:0:0:
192,192,35130,1,0,0:0:0:0:
320,192,35130,1,0,0:0:0:0:
64,192,35309,1,0,0:0:0:0:
448,192,35309,1,0,0:0:0:0:
192,192,35488,1,0,0:0:0:0:
320,192,35488,1,0,0:0:0:0:
64,192,35666,1,0,0:0:0:0:
448,192,35666,1,0,0:0:0:0:
192,192,35666,1,0,0:0:0:0:
320,192,35755,1,0,0:0:0:0:
192,192,35845,1,0,0:0:0:0:
64,192,35934,1,0,0:0:0:0:
192,192,36023,1,0,0:0:0:0:
320,192,36023,1,0,0:0:0:0:
448,192,36023,1,0,0:0:0:0:
64,192,36113,1,0,0:0:0:0:
192,192,36202,1,0,0:0:0:0:
320,192,36291,1,0,0:0:0:0:
448,192,36380,1,0,0:0:0:0:
192,192,36380,1,0,0:0:0:0:
64,192,36380,1,0,0:0:0:0:
320,192,36470,1,0,0:0:0:0:
192,192,36559,1,0,0:0:0:0:
64,192,36648,1,0,0:0:0:0:
320,192,36738,1,0,0:0:0:0:
192,192,36738,1,0,0:0:0:0:
448,192,36738,1,0,0:0:0:0:
192,192,36827,1,0,0:0:0:0:
64,192,36916,1,0,0:0:0:0:
320,192,37005,1,0,0:0:0:0:
448,192,37095,1,0,0:0:0:0:
320,192,37184,1,0,0:0:0:0:
192,192,37273,1,0,0:0:0:0:
64,192,37363,1,0,0:0:0:0:
448,192,37452,1,0,0:0:0:0:
192,192,37452,1,0,0:0:0:0:
320,192,37452,1,0,0:0:0:0:
320,192,37541,1,0,0:0:0:0:
448,192,37630,1,0,0:0:0:0:
320,192,37720,1,0,0:0:0:0:
192,192,37809,1,0,0:0:0:0:
448,192,37898,1,0,0:0:0:0:
320,192,37988,1,0,0:0:0:0:
64,192,38077,1,0,0:0:0:0:
320,192,38166,1,0,0:0:0:0:
448,192,38166,1,0,0:0:0:0:
192,192,38166,1,0,0:0:0:0:
192,192,38255,1,0,0:0:0:0:
64,192,38345,1,0,0:0:0:0:
192,192,38434,1,0,0:0:0:0:
320,192,38523,1,0,0:0:0:0:
64,192,38613,1,0,0:0:0:0:
320,192,38702,1,0,0:0:0:0:
64,192,38791,1,0,0:0:0:0:
320,192,38880,1,0,0:0:0:0:
192,192,38880,1,0,0:0:0:0:
448,192,38880,1,0,0:0:0:0:
64,192,38970,1,0,0:0:0:0:
320,192,39059,1,0,0:0:0:0:
64,192,39148,1,0,0:0:0:0:
192,192,39238,1,0,0:0:0:0:
320,192,39327,1,0,0:0:0:0:
192,192,39416,1,0,0:0:0:0:
320,192,39505,1,0,0:0:0:0:
192,192,39595,1,0,0:0:0:0:
64,192,39595,1,0,0:0:0:0:
448,192,39595,1,0,0:0:0:0:
320,192,39684,1,0,0:0:0:0:
192,192,39773,1,0,0:0:0:0:
320,192,39863,1,0,0:0:0:0:
448,192,39952,1,0,0:0:0:0:
192,192,40041,1,0,0:0:0:0:
448,192,40130,1,0,0:0:0:0:
320,192,40220,1,0,0:0:0:0:
448,192,40309,1,0,0:0:0:0:
64,192,40309,1,0,0:0:0:0:
192,192,40398,1,0,0:0:0:0:
448,192,40488,1,0,0:0:0:0:
64,192,40577,1,0,0:0:0:0:
320,192,40666,1,0,0:0:0:0:
64,192,40755,1,0,0:0:0:0:
192,192,40845,1,0,0:0:0:0:
64,192,40934,1,0,0:0:0:0:
192,192,41023,1,0,0:0:0:0:
320,192,41023,1,0,0:0:0:0:
448,192,41023,1,0,0:0:0:0:
64,192,41113,1,0,0:0:0:0:
192,192,41202,1,0,0:0:0:0:
64,192,41291,1,0,0:0:0:0:
64,192,41380,1,0,0:0:0:0:
192,192,41380,1,0,0:0:0:0:
320,192,41380,1,0,0:0:0:0:
448,192,41380,1,0,0:0:0:0:
448,192,41470,1,0,0:0:0:0:
64,192,41559,1,0,0:0:0:0:
448,192,41648,1,0,0:0:0:0:
64,192,41738,1,0,0:0:0:0:
192,192,41738,1,0,0:0:0:0:
320,192,41738,1,0,0:0:0:0:
448,192,41827,1,0,0:0:0:0:
64,192,41916,1,0,0:0:0:0:
448,192,42005,1,0,0:0:0:0:
64,192,42095,1,0,0:0:0:0:
320,192,42095,1,0,0:0:0:0:
448,192,42184,1,0,0:0:0:0:
64,192,42273,1,0,0:0:0:0:
448,192,42363,1,0,0:0:0:0:
64,192,42452,1,0,0:0:0:0:
192,192,42452,1,0,0:0:0:0:
320,192,42452,1,0,0:0:0:0:
448,192,42541,1,0,0:0:0:0:
64,192,42630,1,0,0:0:0:0:
448,192,42720,1,0,0:0:0:0:
64,192,42809,1,0,0:0:0:0:
192,192,42898,1,0,0:0:0:0:
320,192,42988,1,0,0:0:0:0:
192,192,43077,1,0,0:0:0:0:
320,192,43166,1,0,0:0:0:0:
64,192,43166,1,0,0:0:0:0:
448,192,43166,1,0,0:0:0:0:
448,192,43255,1,0,0:0:0:0:
320,192,43345,1,0,0:0:0:0:
192,192,43434,1,0,0:0:0:0:
64,192,43523,1,0,0:0:0:0:
320,192,43613,1,0,0:0:0:0:
192,192,43702,1,0,0:0:0:0:
64,192,43791,1,0,0:0:0:0:
320,192,43880,1,0,0:0:0:0:
192,192,43880,1,0,0:0:0:0:
448,192,43970,1,0,0:0:0:0:
192,192,44059,1,0,0:0:0:0:
320,192,44148,1,0,0:0:0:0:
448,192,44238,1,0,0:0:0:0:
64,192,44238,1,0,0:0:0:0:
192,192,44327,1,0,0:0:0:0:
64,192,44416,1,0,0:0:0:0:
192,192,44505,1,0,0:0:0:0:
64,192,44595,1,0,0:0:0:0:
320,192,44595,1,0,0:0:0:0:
448,192,44595,1,0,0:0:0:0:
192,192,44684,1,0,0:0:0:0:
64,192,44773,1,0,0:0:0:0:
192,192,44863,1,0,0:0:0:0:
64,192,44952,1,0,0:0:0:0:
448,192,44952,1,0,0:0:0:0:
320,192,45041,1,0,0:0:0:0:
448,192,45130,1,0,0:0:0:0:
64,192,45220,1,0,0:0:0:0:
448,192,45309,1,0,0:0:0:0:
320,192,45309,1,0,0:0:0:0:
192,192,45398,1,0,0:0:0:0:
448,192,45488,1,0,0:0:0:0:
320,192,45577,1,0,0:0:0:0:
448,192,45666,1,0,0:0:0:0:
192,192,45666,1,0,0:0:0:0:
64,192,45755,1,0,0:0:0:0:
320,192,45845,1,0,0:0:0:0:
448,192,45934,1,0,0:0:0:0:
320,192,46023,1,0,0:0:0:0:
64,192,46023,1,0,0:0:0:0:
192,192,46113,1,0,0:0:0:0:
64,192,46202,1,0,0:0:0:0:
320,192,46291,1,0,0:0:0:0:
192,192,46380,1,0,0:0:0:0:
64,192,46470,1,0,0:0:0:0:
192,192,46559,1,0,0:0:0:0:
64,192,46648,1,0,0:0:0:0:
320,192,46738,1,0,0:0:0:0:
192,192,46738,1,0,0:0:0:0:
448,192,46738,1,0,0:0:0:0:
448,192,46827,1,0,0:0:0:0:
64,192,46916,1,0,0:0:0:0:
320,192,47005,1,0,0:0:0:0:
448,192,47095,128,0,48523:0:0:0:0:
192,192,47095,1,0,0:0:0:0:
192,192,47273,1,0,0:0:0:0:
192,192,47541,1,0,0:0:0:0:
192,192,47809,1,0,0:0:0:0:
192,192,47988,1,0,0:0:0:0:
192,192,48077,1,0,0:0:0:0:
192,192,48255,1,0,0:0:0:0:
192,192,48434,1,0,0:0:0:0:
64,192,48523,128,0,49952:0:0:0:0:
320,192,48523,1,0,0:0:0:0:
448,192,48702,1,0,0:0:0:0:
192,192,48791,1,0,0:0:0:0:
320,192,48880,1,0,0:0:0:0:
192,192,48970,1,0,0:0:0:0:
448,192,49059,1,0,0:0:0:0:
192,192,49148,1,0,0:0:0:0:
320,192,49238,1,0,0:0:0:0:
448,192,49327,1,0,0:0:0:0:
320,192,49416,1,0,0:0:0:0:
192,192,49505,1,0,0:0:0:0:
448,192,49595,1,0,0:0:0:0:
320,192,49684,1,0,0:0:0:0:
192,192,49773,1,0,0:0:0:0:
320,192,49863,1,0,0:0:0:0:
192,192,49952,1,0,0:0:0:0:
320,192,49952,1,0,0:0:0:0:
448,192,49952,128,0,50130:0:0:0:0:
64,192,50130,128,0,50309:0:0:0:0:
192,192,50130,1,0,0:0:0:0:
320,192,50309,128,0,50488:0:0:0:0:
192,192,50309,1,0,0:0:0:0:
448,192,50309,1,0,0:0:0:0:
192,192,50488,128,0,50666:0:0:0:0:
64,192,50488,1,0,0:0:0:0:
448,192,50666,128,0,50845:0:0:0:0:
320,192,50666,1,0,0:0:0:0:
64,192,50845,128,0,51023:0:0:0:0:
192,192,50845,1,0,0:0:0:0:
320,192,51023,128,0,51202:0:0:0:0:
192,192,51023,1,0,0:0:0:0:
448,192,51023,1,0,0:0:0:0:
192,192,51202,128,0,51380:0:0:0:0:
448,192,51202,1,0,0:0:0:0:
448,192,51380,128,0,51559:0:0:0:0:
320,192,51380,1,0,0:0:0:0:
64,192,51559,128,0,51738:0:0:0:0:
192,192,51559,1,0,0:0:0:0:
192,192,51738,128,0,51916:0:0:0:0:
320,192,51738,1,0,0:0:0:0:
448,192,51738,1,0,0:0:0:0:
320,192,51916,128,0,52095:0:0:0:0:
64,192,51916,1,0,0:0:0:0:
448,192,52095,128,0,52273:0:0:0:0:
192,192,52095,1,0,0:0:0:0:
192,192,52273,128,0,52452:0:0:0:0:
320,192,52273,1,0,0:0:0:0:
320,192,52452,128,0,52630:0:0:0:0:
64,192,52452,1,0,0:0:0:0:
448,192,52452,1,0,0:0:0:0:
448,192,52630,128,0,52809:0:0:0:0:
192,192,52630,1,0,0:0:0:0:
192,192,52809,128,0,52988:0:0:0:0:
64,192,52809,1,0,0:0:0:0:
448,192,52988,128,0,53166:0:0:0:0:
320,192,52988,1,0,0:0:0:0:
64,192,53166,128,0,53345:0:0:0:0:
192,192,53166,1,0,0:0:0:0:
320,192,53166,1,0,0:0:0:0:
320,192,53345,128,0,53523:0:0:0:0:
448,192,53345,1,0,0:0:0:0:
448,192,53523,128,0,53702:0:0:0:0:
192,192,53523,1,0,0:0:0:0:
320,192,53702,128,0,53880:0:0:0:0:
64,192,53702,1,0,0:0:0:0:
64,192,53880,128,0,54059:0:0:0:0:
192,192,53880,1,0,0:0:0:0:
448,192,53880,1,0,0:0:0:0:
192,192,54059,128,0,54238:0:0:0:0:
448,192,54238,128,0,54416:0:0:0:0:
320,192,54238,1,0,0:0:0:0:
64,192,54416,1,0,0:0:0:0:
448,192,54595,128,0,54773:0:0:0:0:
192,192,54595,1,0,0:0:0:0:
64,192,54773,1,0,0:0:0:0:
448,192,54952,128,0,55130:0:0:0:0:
192,192,54952,1,0,0:0:0:0:
320,192,55130,128,0,55309:0:0:0:0:
64,192,55130,1,0,0:0:0:0:
64,192,55309,128,0,55488:0:0:0:0:
192,192,55309,1,0,0:0:0:0:
448,192,55309,1,0,0:0:0:0:
448,192,55488,1,0,0:0:0:0:
64,192,55666,1,0,0:0:0:0:
448,192,55666,1,0,0:0:0:0:
320,192,55666,128,0,55845:0:0:0:0:
192,192,55666,1,0,0:0:0:0:
448,192,55845,128,0,56023:0:0:0:0:
192,192,55845,1,0,0:0:0:0:
192,192,56023,128,0,56202:0:0:0:0:
64,192,56023,1,0,0:0:0:0:
320,192,56023,1,0,0:0:0:0:
64,192,56202,128,0,56380:0:0:0:0:
320,192,56202,1,0,0:0:0:0:
448,192,56380,128,0,56559:0:0:0:0:
192,192,56380,1,0,0:0:0:0:
192,192,56559,128,0,56738:0:0:0:0:
320,192,56559,1,0,0:0:0:0:
64,192,56738,128,0,56916:0:0:0:0:
448,192,56738,1,0,0:0:0:0:
320,192,56738,1,0,0:0:0:0:
192,192,56916,128,0,57095:0:0:0:0:
448,192,56916,1,0,0:0:0:0:
320,192,57095,128,0,57273:0:0:0:0:
64,192,57095,1,0,0:0:0:0:
64,192,57273,128,0,57452:0:0:0:0:
448,192,57273,1,0,0:0:0:0:
192,192,57452,128,0,57630:0:0:0:0:
320,192,57452,1,0,0:0:0:0:
448,192,57452,1,0,0:0:0:0:
64,192,57630,128,0,57809:0:0:0:0:
320,192,57630,1,0,0:0:0:0:
320,192,57809,128,0,57988:0:0:0:0:
192,192,57809,1,0,0:0:0:0:
64,192,57988,128,0,58166:0:0:0:0:
448,192,57988,1,0,0:0:0:0:
192,192,58166,128,0,58345:0:0:0:0:
320,192,58166,1,0,0:0:0:0:
448,192,58166,1,0,0:0:0:0:
320,192,58345,128,0,58523:0:0:0:0:
64,192,58345,1,0,0:0:0:0:
192,192,58523,128,0,58702:0:0:0:0:
448,192,58523,1,0,0:0:0:0:
448,192,58702,128,0,58880:0:0:0:0:
64,192,58702,1,0,0:0:0:0:
320,192,58880,128,0,59059:0:0:0:0:
192,192,58880,1,0,0:0:0:0:
64,192,58880,1,0,0:0:0:0:
448,192,59059,128,0,59238:0:0:0:0:
64,192,59059,1,0,0:0:0:0:
64,192,59238,128,0,59416:0:0:0:0:
320,192,59238,1,0,0:0:0:0:
192,192,59416,128,0,59595:0:0:0:0:
320,192,59416,1,0,0:0:0:0:
448,192,59595,128,0,59773:0:0:0:0:
64,192,59595,1,0,0:0:0:0:
320,192,59595,1,0,0:0:0:0:
192,192,59773,128,0,59952:0:0:0:0:
64,192,59773,1,0,0:0:0:0:
64,192,59952,128,0,60130:0:0:0:0:
448,192,59952,1,0,0:0:0:0:
192,192,60130,128,0,60309:0:0:0:0:
320,192,60130,1,0,0:0:0:0:
320,192,60309,128,0,60488:0:0:0:0:
64,192,60309,1,0,0:0:0:0:
448,192,60309,1,0,0:0:0:0:
448,192,60488,128,0,60666:0:0:0:0:
192,192,60488,1,0,0:0:0:0:
192,192,60666,128,0,60845:0:0:0:0:
64,192,60666,1,0,0:0:0:0:
64,192,60845,128,0,61023:0:0:0:0:
448,192,60845,1,0,0:0:0:0:
320,192,61023,128,0,61202:0:0:0:0:
192,192,61023,1,0,0:0:0:0:
448,192,61023,1,0,0:0:0:0:
448,192,61202,128,0,61380:0:0:0:0:
64,192,61202,1,0,0:0:0:0:
320,192,61380,1,0,0:0:0:0:
192,192,61380,1,0,0:0:0:0:
64,192,61380,128,0,61559:0:0:0:0:
448,192,61559,128,0,61738:0:0:0:0:
320,192,61559,1,0,0:0:0:0:
192,192,61738,128,0,61916:0:0:0:0:
320,192,61738,1,0,0:0:0:0:
64,192,61738,1,0,0:0:0:0:
320,192,61916,128,0,62095:0:0:0:0:
448,192,61916,1,0,0:0:0:0:
64,192,62095,128,0,62273:0:0:0:0:
192,192,62095,1,0,0:0:0:0:
448,192,62273,128,0,62452:0:0:0:0:
320,192,62273,1,0,0:0:0:0:
192,192,62452,128,0,62630:0:0:0:0:
320,192,62452,1,0,0:0:0:0:
64,192,62452,1,0,0:0:0:0:
320,192,62630,128,0,62809:0:0:0:0:
64,192,62630,1,0,0:0:0:0:
64,192,62809,128,0,62988:0:0:0:0:
192,192,62809,1,0,0:0:0:0:
448,192,62988,128,0,63166:0:0:0:0:
320,192,62988,1,0,0:0:0:0:
320,192,63166,128,0,63345:0:0:0:0:
192,192,63166,1,0,0:0:0:0:
64,192,63166,1,0,0:0:0:0:
192,192,63345,128,0,63523:0:0:0:0:
448,192,63345,1,0,0:0:0:0:
64,192,63523,128,0,63702:0:0:0:0:
320,192,63523,1,0,0:0:0:0:
320,192,63702,128,0,63880:0:0:0:0:
192,192,63702,1,0,0:0:0:0:
192,192,63880,128,0,64059:0:0:0:0:
448,192,63880,1,0,0:0:0:0:
64,192,63880,1,0,0:0:0:0:
64,192,64059,128,0,64238:0:0:0:0:
320,192,64059,1,0,0:0:0:0:
320,192,64238,128,0,64416:0:0:0:0:
448,192,64238,1,0,0:0:0:0:
64,192,64416,128,0,64595:0:0:0:0:
192,192,64416,1,0,0:0:0:0:
448,192,64595,128,0,64773:0:0:0:0:
320,192,64595,1,0,0:0:0:0:
192,192,64595,1,0,0:0:0:0:
192,192,64773,128,0,64952:0:0:0:0:
64,192,64773,1,0,0:0:0:0:
64,192,64952,128,0,65130:0:0:0:0:
320,192,64952,1,0,0:0:0:0:
192,192,65130,128,0,65309:0:0:0:0:
448,192,65130,1,0,0:0:0:0:
448,192,65309,128,0,65488:0:0:0:0:
320,192,65309,1,0,0:0:0:0:
64,192,65309,1,0,0:0:0:0:
320,192,65488,128,0,65666:0:0:0:0:
64,192,65666,128,0,65845:0:0:0:0:
192,192,65666,1,0,0:0:0:0:
448,192,65845,1,0,0:0:0:0:
64,192,66023,128,0,66202:0:0:0:0:
320,192,66023,1,0,0:0:0:0:
448,192,66202,1,0,0:0:0:0:
64,192,66380,128,0,66559:0:0:0:0:
320,192,66380,1,0,0:0:0:0:
192,192,66559,128,0,66738:0:0:0:0:
448,192,66559,1,0,0:0:0:0:
448,192,66738,128,0,66916:0:0:0:0:
320,192,66738,1,0,0:0:0:0:
64,192,66738,1,0,0:0:0:0:
64,192,66916,1,0,0:0:0:0:
448,192,67095,1,0,0:0:0:0:
64,192,67095,1,0,0:0:0:0:
192,192,67095,128,0,67273:0:0:0:0:
320,192,67095,1,0,0:0:0:0:
64,192,67273,128,0,67452:0:0:0:0:
320,192,67273,1,0,0:0:0:0:
320,192,67452,128,0,67630:0:0:0:0:
448,192,67452,1,0,0:0:0:0:
192,192,67452,1,0,0:0:0:0:
448,192,67630,128,0,67809:0:0:0:0:
192,192,67630,1,0,0:0:0:0:
64,192,67809,128,0,67988:0:0:0:0:
320,192,67809,1,0,0:0:0:0:
320,192,67988,128,0,68166:0:0:0:0:
192,192,67988,1,0,0:0:0:0:
448,192,68166,128,0,68345:0:0:0:0:
64,192,68166,1,0,0:0:0:0:
192,192,68166,1,0,0:0:0:0:
320,192,68345,128,0,68523:0:0:0:0:
64,192,68345,1,0,0:0:0:0:
192,192,68523,128,0,68702:0:0:0:0:
448,192,68523,1,0,0:0:0:0:
448,192,68702,128,0,68880:0:0:0:0:
64,192,68702,1,0,0:0:0:0:
320,192,68880,128,0,69059:0:0:0:0:
192,192,68880,1,0,0:0:0:0:
64,192,68880,1,0,0:0:0:0:
448,192,69059,128,0,69238:0:0:0:0:
192,192,69059,1,0,0:0:0:0:
192,192,69238,128,0,69416:0:0:0:0:
320,192,69238,1,0,0:0:0:0:
448,192,69416,128,0,69595:0:0:0:0:
64,192,69416,1,0,0:0:0:0:
320,192,69595,128,0,69773:0:0:0:0:
192,192,69595,1,0,0:0:0:0:
64,192,69595,1,0,0:0:0:0:
192,192,69773,128,0,69952:0:0:0:0:
448,192,69773,1,0,0:0:0:0:
320,192,69952,128,0,70130:0:0:0:0:
64,192,69952,1,0,0:0:0:0:
64,192,70130,128,0,70309:0:0:0:0:
448,192,70130,1,0,0:0:0:0:
192,192,70309,128,0,70488:0:0:0:0:
320,192,70309,1,0,0:0:0:0:
448,192,70309,1,0,0:0:0:0:
64,192,70488,128,0,70666:0:0:0:0:
448,192,70488,1,0,0:0:0:0:
448,192,70666,128,0,70845:0:0:0:0:
192,192,70666,1,0,0:0:0:0:
320,192,70845,128,0,71023:0:0:0:0:
192,192,70845,1,0,0:0:0:0:
64,192,71023,128,0,71202:0:0:0:0:
448,192,71023,1,0,0:0:0:0:
192,192,71023,1,0,0:0:0:0:
320,192,71202,128,0,71380:0:0:0:0:
448,192,71202,1,0,0:0:0:0:
448,192,71380,128,0,71559:0:0:0:0:
64,192,71380,1,0,0:0:0:0:
320,192,71559,128,0,71738:0:0:0:0:
192,192,71559,1,0,0:0:0:0:
192,192,71738,128,0,71916:0:0:0:0:
448,192,71738,1,0,0:0:0:0:
64,192,71738,1,0,0:0:0:0:
64,192,71916,128,0,72095:0:0:0:0:
320,192,71916,1,0,0:0:0:0:
320,192,72095,128,0,72273:0:0:0:0:
448,192,72095,1,0,0:0:0:0:
448,192,72273,128,0,72452:0:0:0:0:
64,192,72273,1,0,0:0:0:0:
192,192,72452,128,0,72630:0:0:0:0:
320,192,72452,1,0,0:0:0:0:
64,192,72452,1,0,0:0:0:0:
64,192,72630,128,0,72809:0:0:0:0:
448,192,72630,1,0,0:0:0:0:
320,192,72809,1,0,0:0:0:0:
448,192,72809,1,0,0:0:0:0:
64,192,72898,1,0,0:0:0:0:
192,192,72898,1,0,0:0:0:0:
320,192,72988,1,0,0:0:0:0:
448,192,72988,1,0,0:0:0:0:
64,192,73077,1,0,0:0:0:0:
192,192,73077,1,0,0:0:0:0:
320,192,73166,1,0,0:0:0:0:
448,192,73166,1,0,0:0:0:0:
64,192,73255,1,0,0:0:0:0:
192,192,73255,1,0,0:0:0:0:
320,192,73345,1,0,0:0:0:0:
448,192,73345,1,0,0:0:0:0:
64,192,73434,1,0,0:0:0:0:
192,192,73434,1,0,0:0:0:0:
320,192,73523,1,0,0:0:0:0:
448,192,73523,1,0,0:0:0:0:
64,192,73613,1,0,0:0:0:0:
192,192,73613,1,0,0:0:0:0:
320,192,73702,1,0,0:0:0:0:
448,192,73702,1,0,0:0:0:0:
64,192,73791,1,0,0:0:0:0:
192,192,73791,1,0,0:0:0:0:
320,192,73880,1,0,0:0:0:0:
448,192,73880,1,0,0:0:0:0:
64,192,73970,1,0,0:0:0:0:
192,192,73970,1,0,0:0:0:0:
320,192,74059,1,0,0:0:0:0:
448,192,74059,1,0,0:0:0:0:
64,192,74148,1,0,0:0:0:0:
192,192,74148,1,0,0:0:0:0:
320,192,74238,128,0,74416:0:0:0:0:
448,192,74238,128,0,74416:0:0:0:0:
64,192,74595,1,0,0:0:0:0:
320,192,74595,1,0,0:0:0:0:
448,192,74595,1,0,0:0:0:0:
192,192,74952,128,0,75130:0:0:0:0:
320,192,74952,128,0,75130:0:0:0:0:
448,192,74952,1,0,0:0:0:0:
64,192,75309,1,0,0:0:0:0:
448,192,75309,1,0,0:0:0:0:
192,192,75309,1,0,0:0:0:0:
64,192,75666,128,0,75845:0:0:0:0:
320,192,75666,128,0,75845:0:0:0:0:
192,192,75666,1,0,0:0:0:0:
192,192,76023,1,0,0:0:0:0:
320,192,76023,1,0,0:0:0:0:
448,192,76023,1,0,0:0:0:0:
192,192,76380,128,0,76559:0:0:0:0:
320,192,76380,128,0,76559:0:0:0:0:
64,192,76380,1,0,0:0:0:0:
64,192,76738,1,0,0:0:0:0:
192,192,76738,1,0,0:0:0:0:
320,192,76738,1,0,0:0:0:0:
448,192,77095,128,0,77809:0:0:0:0:
192,192,77095,128,0,77273:0:0:0:0:
320,192,77095,1,0,0:0:0:0:
64,192,77452,1,0,0:0:0:0:
320,192,77452,1,0,0:0:0:0:
320,192,77809,128,0,77988:0:0:0:0:
64,192,77809,1,0,0:0:0:0:
192,192,77809,128,0,77988:0:0:0:0:
64,192,78166,1,0,0:0:0:0:
192,192,78166,1,0,0:0:0:0:
448,192,78166,1,0,0:0:0:0:
320,192,78523,128,0,78702:0:0:0:0:
448,192,78523,128,0,78702:0:0:0:0:
64,192,78523,1,0,0:0:0:0:
192,192,78880,1,0,0:0:0:0:
320,192,78880,1,0,0:0:0:0:
64,192,78880,1,0,0:0:0:0:
64,192,79238,128,0,79416:0:0:0:0:
448,192,79238,128,0,79416:0:0:0:0:
192,192,79238,1,0,0:0:0:0:
320,192,79238,1,0,0:0:0:0:
64,192,79595,1,0,0:0:0:0:
320,192,79595,1,0,0:0:0:0:
320,192,79952,1,0,0:0:0:0:
192,192,79952,128,0,80130:0:0:0:0:
448,192,79952,128,0,80130:0:0:0:0:
64,192,79952,128,0,80130:0:0:0:0:
64,192,80309,1,0,0:0:0:0:
192,192,80309,1,0,0:0:0:0:
320,192,80309,1,0,0:0:0:0:
448,192,80309,1,0,0:0:0:0:
192,192,80666,128,0,80845:0:0:0:0:
320,192,80666,128,0,80845:0:0:0:0:
448,192,80666,128,0,80845:0:0:0:0:
64,192,80666,1,0,0:0:0:0:
64,192,81023,1,0,0:0:0:0:
192,192,81023,1,0,0:0:0:0:
320,192,81023,1,0,0:0:0:0:
448,192,81023,1,0,0:0:0:0:
64,192,81380,128,0,81559:0:0:0:0:
320,192,81380,128,0,81559:0:0:0:0:
448,192,81380,128,0,81559:0:0:0:0:
192,192,81380,1,0,0:0:0:0:
64,192,81738,1,0,0:0:0:0:
192,192,81738,1,0,0:0:0:0:
320,192,81738,1,0,0:0:0:0:
448,192,81738,1,0,0:0:0:0:
192,192,82095,128,0,82273:0:0:0:0:
320,192,82095,128,0,82273:0:0:0:0:
448,192,82095,128,0,82273:0:0:0:0:
64,192,82095,1,0,0:0:0:0:
64,192,82452,1,0,0:0:0:0:
192,192,82452,1,0,0:0:0:0:
320,192,82452,1,0,0:0:0:0:
448,192,82452,1,0,0:0:0:0:
64,192,82809,128,0,83166:0:0:0:0:
192,192,82809,128,0,82988:0:0:0:0:
448,192,82809,128,0,82988:0:0:0:0:
320,192,82809,1,0,0:0:0:0:
320,192,83166,128,0,83523:0:0:0:0:
192,192,83166,1,0,0:0:0:0:
448,192,83166,1,0,0:0:0:0:
192,192,83523,128,0,83880:0:0:0:0:
64,192,83523,128,0,83702:0:0:0:0:
448,192,83523,128,0,83702:0:0:0:0:
320,192,83880,128,0,84238:0:0:0:0:
64,192,83880,1,0,0:0:0:0:
448,192,83880,1,0,0:0:0:0:
448,192,84238,128,0,85577:0:0:0:0:
64,192,84238,1,0,0:0:0:0:
192,192,84327,1,0,0:0:0:0:
320,192,84327,1,0,0:0:0:0:
64,192,84416,1,0,0:0:0:0:
192,192,84505,1,0,0:0:0:0:
320,192,84505,1,0,0:0:0:0:
64,192,84595,1,0,0:0:0:0:
192,192,84684,1,0,0:0:0:0:
320,192,84684,1,0,0:0:0:0:
64,192,84773,1,0,0:0:0:0:
192,192,84863,1,0,0:0:0:0:
320,192,84863,1,0,0:0:0:0:
64,192,84952,1,0,0:0:0:0:
192,192,85041,1,0,0:0:0:0:
320,192,85041,1,0,0:0:0:0:
64,192,85130,1,0,0:0:0:0:
192,192,85220,1,0,0:0:0:0:
320,192,85220,1,0,0:0:0:0:
64,192,85309,1,0,0:0:0:0:
192,192,85398,1,0,0:0:0:0:
320,192,85398,1,0,0:0:0:0:
64,192,85488,1,0,0:0:0:0:
192,192,85577,1,0,0:0:0:0:
320,192,85577,1,0,0:0:0:0:
64,192,85666,1,0,0:0:0:0:
192,192,85755,1,0,0:0:0:0:
320,192,85845,1,0,0:0:0:0:
448,192,85934,1,0,0:0:0:0:
320,192,86023,1,0,0:0:0:0:
64,192,86023,1,0,0:0:0:0:
192,192,86113,1,0,0:0:0:0:
448,192,86202,1,0,0:0:0:0:
320,192,86291,1,0,0:0:0:0:
192,192,86380,1,0,0:0:0:0:
64,192,86470,1,0,0:0:0:0:
192,192,86559,1,0,0:0:0:0:
320,192,86648,1,0,0:0:0:0:
448,192,86738,1,0,0:0:0:0:
192,192,86738,1,0,0:0:0:0:
64,192,86738,1,0,0:0:0:0:
320,192,86827,1,0,0:0:0:0:
64,192,86916,1,0,0:0:0:0:
192,192,87005,1,0,0:0:0:0:
320,192,87095,1,0,0:0:0:0:
64,192,87184,1,0,0:0:0:0:
320,192,87273,1,0,0:0:0:0:
192,192,87363,1,0,0:0:0:0:
448,192,87452,1,0,0:0:0:0:
320,192,87452,1,0,0:0:0:0:
64,192,87452,1,0,0:0:0:0:
192,192,87541,1,0,0:0:0:0:
320,192,87630,1,0,0:0:0:0:
192,192,87720,1,0,0:0:0:0:
64,192,87809,1,0,0:0:0:0:
320,192,87898,1,0,0:0:0:0:
192,192,87988,1,0,0:0:0:0:
64,192,88077,1,0,0:0:0:0:
192,192,88166,1,0,0:0:0:0:
320,192,88166,1,0,0:0:0:0:
448,192,88255,1,0,0:0:0:0:
320,192,88345,1,0,0:0:0:0:
192,192,88434,1,0,0:0:0:0:
64,192,88523,1,0,0:0:0:0:
192,192,88613,1,0,0:0:0:0:
320,192,88702,1,0,0:0:0:0:
448,192,88791,1,0,0:0:0:0:
192,192,88880,1,0,0:0:0:0:
64,192,88880,1,0,0:0:0:0:
320,192,88970,1,0,0:0:0:0:
192,192,89059,1,0,0:0:0:0:
64,192,89148,1,0,0:0:0:0:
448,192,89238,1,0,0:0:0:0:
320,192,89327,1,0,0:0:0:0:
192,192,89416,1,0,0:0:0:0:
448,192,89505,1,0,0:0:0:0:
320,192,89595,1,0,0:0:0:0:
64,192,89595,1,0,0:0:0:0:
192,192,89684,1,0,0:0:0:0:
448,192,89773,1,0,0:0:0:0:
192,192,89863,1,0,0:0:0:0:
320,192,89952,1,0,0:0:0:0:
448,192,90041,1,0,0:0:0:0:
64,192,90130,1,0,0:0:0:0:
192,192,90220,1,0,0:0:0:0:
448,192,90309,1,0,0:0:0:0:
64,192,90309,1,0,0:0:0:0:
320,192,90398,1,0,0:0:0:0:
64,192,90488,1,0,0:0:0:0:
448,192,90577,1,0,0:0:0:0:
320,192,90666,1,0,0:0:0:0:
192,192,90755,1,0,0:0:0:0:
64,192,90845,1,0,0:0:0:0:
320,192,90934,1,0,0:0:0:0:
448,192,91023,1,0,0:0:0:0:
64,192,91113,1,0,0:0:0:0:
320,192,91202,1,0,0:0:0:0:
192,192,91291,1,0,0:0:0:0:
64,192,91380,1,0,0:0:0:0:
192,192,91380,1,0,0:0:0:0:
320,192,91380,1,0,0:0:0:0:
448,192,91380,1,0,0:0:0:0:
192,192,91470,1,0,0:0:0:0:
64,192,91559,1,0,0:0:0:0:
320,192,91648,1,0,0:0:0:0:
192,192,91738,1,0,0:0:0:0:
448,192,91738,1,0,0:0:0:0:
320,192,91827,1,0,0:0:0:0:
448,192,91916,1,0,0:0:0:0:
64,192,92005,1,0,0:0:0:0:
320,192,92095,1,0,0:0:0:0:
192,192,92184,1,0,0:0:0:0:
64,192,92273,1,0,0:0:0:0:
320,192,92363,1,0,0:0:0:0:
192,192,92452,1,0,0:0:0:0:
64,192,92452,1,0,0:0:0:0:
448,192,92541,1,0,0:0:0:0:
320,192,92630,1,0,0:0:0:0:
192,192,92720,1,0,0:0:0:0:
320,192,92809,1,0,0:0:0:0:
448,192,92898,1,0,0:0:0:0:
320,192,92988,1,0,0:0:0:0:
192,192,93077,1,0,0:0:0:0:
64,192,93166,1,0,0:0:0:0:
320,192,93166,1,0,0:0:0:0:
448,192,93166,1,0,0:0:0:0:
320,192,93255,1,0,0:0:0:0:
64,192,93345,1,0,0:0:0:0:
192,192,93434,1,0,0:0:0:0:
320,192,93523,1,0,0:0:0:0:
448,192,93613,1,0,0:0:0:0:
192,192,93702,1,0,0:0:0:0:
64,192,93791,1,0,0:0:0:0:
448,192,93880,1,0,0:0:0:0:
320,192,93880,1,0,0:0:0:0:
192,192,93970,1,0,0:0:0:0:
320,192,94059,1,0,0:0:0:0:
448,192,94148,1,0,0:0:0:0:
192,192,94238,1,0,0:0:0:0:
64,192,94327,1,0,0:0:0:0:
320,192,94416,1,0,0:0:0:0:
448,192,94505,1,0,0:0:0:0:
64,192,94595,1,0,0:0:0:0:
192,192,94595,1,0,0:0:0:0:
448,192,94684,1,0,0:0:0:0:
64,192,94773,1,0,0:0:0:0:
192,192,94863,1,0,0:0:0:0:
320,192,94952,1,0,0:0:0:0:
448,192,95041,1,0,0:0:0:0:
192,192,95130,1,0,0:0:0:0:
448,192,95220,1,0,0:0:0:0:
320,192,95309,1,0,0:0:0:0:
192,192,95309,1,0,0:0:0:0:
64,192,95309,1,0,0:0:0:0:
448,192,95398,1,0,0:0:0:0:
192,192,95488,1,0,0:0:0:0:
320,192,95577,1,0,0:0:0:0:
64,192,95666,1,0,0:0:0:0:
448,192,95755,1,0,0:0:0:0:
64,192,95845,1,0,0:0:0:0:
320,192,95934,1,0,0:0:0:0:
192,192,96023,1,0,0:0:0:0:
448,192,96023,1,0,0:0:0:0:
64,192,96113,1,0,0:0:0:0:
320,192,96202,1,0,0:0:0:0:
448,192,96291,1,0,0:0:0:0:
64,192,96380,1,0,0:0:0:0:
192,192,96470,1,0,0:0:0:0:
64,192,96559,1,0,0:0:0:0:
320,192,96648,1,0,0:0:0:0:
192,192,96738,1,0,0:0:0:0:
448,192,96827,1,0,0:0:0:0:
192,192,96916,1,0,0:0:0:0:
320,192,97005,1,0,0:0:0:0:
448,192,97095,1,0,0:0:0:0:
64,192,97095,1,0,0:0:0:0:
192,192,97095,1,0,0:0:0:0:
320,192,97095,1,0,0:0:0:0:
448,192,97184,1,0,0:0:0:0:
192,192,97273,1,0,0:0:0:0:
320,192,97273,1,0,0:0:0:0:
64,192,97363,1,0,0:0:0:0:
192,192,97452,1,0,0:0:0:0:
448,192,97452,1,0,0:0:0:0:
320,192,97541,1,0,0:0:0:0:
64,192,97630,1,0,0:0:0:0:
448,192,97630,1,0,0:0:0:0:
192,192,97720,1,0,0:0:0:0:
320,192,97809,1,0,0:0:0:0:
64,192,97809,1,0,0:0:0:0:
448,192,97898,1,0,0:0:0:0:
320,192,97988,1,0,0:0:0:0:
64,192,97988,1,0,0:0:0:0:
192,192,98077,1,0,0:0:0:0:
64,192,98166,1,0,0:0:0:0:
320,192,98166,1,0,0:0:0:0:
448,192,98166,1,0,0:0:0:0:
192,192,98255,1,0,0:0:0:0:
448,192,98345,1,0,0:0:0:0:
64,192,98345,1,0,0:0:0:0:
320,192,98434,1,0,0:0:0:0:
192,192,98523,1,0,0:0:0:0:
448,192,98523,1,0,0:0:0:0:
320,192,98613,1,0,0:0:0:0:
64,192,98702,1,0,0:0:0:0:
320,192,98791,1,0,0:0:0:0:
64,192,98880,1,0,0:0:0:0:
192,192,98880,1,0,0:0:0:0:
448,192,98880,1,0,0:0:0:0:
320,192,98970,1,0,0:0:0:0:
64,192,99059,1,0,0:0:0:0:
192,192,99059,1,0,0:0:0:0:
320,192,99148,1,0,0:0:0:0:
448,192,99238,1,0,0:0:0:0:
64,192,99238,1,0,0:0:0:0:
192,192,99327,1,0,0:0:0:0:
320,192,99416,1,0,0:0:0:0:
448,192,99416,1,0,0:0:0:0:
64,192,99505,1,0,0:0:0:0:
320,192,99595,1,0,0:0:0:0:
192,192,99595,1,0,0:0:0:0:
448,192,99595,1,0,0:0:0:0:
64,192,99684,1,0,0:0:0:0:
320,192,99773,1,0,0:0:0:0:
192,192,99863,1,0,0:0:0:0:
448,192,99952,1,0,0:0:0:0:
320,192,99952,1,0,0:0:0:0:
64,192,100041,1,0,0:0:0:0:
192,192,100130,1,0,0:0:0:0:
448,192,100130,1,0,0:0:0:0:
320,192,100220,1,0,0:0:0:0:
448,192,100309,1,0,0:0:0:0:
64,192,100309,1,0,0:0:0:0:
192,192,100309,1,0,0:0:0:0:
192,192,100398,1,0,0:0:0:0:
320,192,100488,1,0,0:0:0:0:
448,192,100577,1,0,0:0:0:0:
64,192,100666,1,0,0:0:0:0:
320,192,100666,1,0,0:0:0:0:
192,192,100755,1,0,0:0:0:0:
320,192,100845,1,0,0:0:0:0:
448,192,100845,1,0,0:0:0:0:
64,192,100934,1,0,0:0:0:0:
192,192,101023,1,0,0:0:0:0:
448,192,101023,1,0,0:0:0:0:
320,192,101023,1,0,0:0:0:0:
320,192,101113,1,0,0:0:0:0:
64,192,101202,1,0,0:0:0:0:
448,192,101202,1,0,0:0:0:0:
320,192,101291,1,0,0:0:0:0:
192,192,101380,1,0,0:0:0:0:
448,192,101380,1,0,0:0:0:0:
64,192,101470,1,0,0:0:0:0:
448,192,101559,1,0,0:0:0:0:
192,192,101559,1,0,0:0:0:0:
320,192,101648,1,0,0:0:0:0:
64,192,101738,1,0,0:0:0:0:
448,192,101738,1,0,0:0:0:0:
192,192,101827,1,0,0:0:0:0:
448,192,101916,1,0,0:0:0:0:
320,192,101916,1,0,0:0:0:0:
64,192,102005,1,0,0:0:0:0:
192,192,102095,1,0,0:0:0:0:
448,192,102095,1,0,0:0:0:0:
320,192,102184,1,0,0:0:0:0:
448,192,102273,1,0,0:0:0:0:
192,192,102363,1,0,0:0:0:0:
64,192,102452,1,0,0:0:0:0:
448,192,102541,1,0,0:0:0:0:
192,192,102630,1,0,0:0:0:0:
448,192,102720,1,0,0:0:0:0:
448,192,102809,1,0,0:0:0:0:
192,192,102809,1,0,0:0:0:0:
64,192,102809,1,0,0:0:0:0:
320,192,102809,1,0,0:0:0:0:
64,192,102898,1,0,0:0:0:0:
448,192,102988,1,0,0:0:0:0:
320,192,102988,1,0,0:0:0:0:
192,192,103077,1,0,0:0:0:0:
320,192,103166,1,0,0:0:0:0:
64,192,103166,1,0,0:0:0:0:
192,192,103255,1,0,0:0:0:0:
64,192,103345,1,0,0:0:0:0:
448,192,103345,1,0,0:0:0:0:
320,192,103434,1,0,0:0:0:0:
192,192,103523,1,0,0:0:0:0:
320,192,103613,1,0,0:0:0:0:
448,192,103702,1,0,0:0:0:0:
64,192,103702,1,0,0:0:0:0:
192,192,103791,1,0,0:0:0:0:
320,192,103880,1,0,0:0:0:0:
448,192,103880,1,0,0:0:0:0:
64,192,103970,1,0,0:0:0:0:
192,192,104059,1,0,0:0:0:0:
448,192,104059,1,0,0:0:0:0:
320,192,104148,1,0,0:0:0:0:
192,192,104238,1,0,0:0:0:0:
64,192,104327,1,0,0:0:0:0:
192,192,104416,1,0,0:0:0:0:
448,192,104416,1,0,0:0:0:0:
320,192,104505,1,0,0:0:0:0:
448,192,104595,1,0,0:0:0:0:
192,192,104595,1,0,0:0:0:0:
64,192,104595,1,0,0:0:0:0:
192,192,104684,1,0,0:0:0:0:
448,192,104773,1,0,0:0:0:0:
64,192,104773,1,0,0:0:0:0:
320,192,104863,1,0,0:0:0:0:
192,192,104952,1,0,0:0:0:0:
448,192,104952,1,0,0:0:0:0:
64,192,105041,1,0,0:0:0:0:
320,192,105130,1,0,0:0:0:0:
448,192,105220,1,0,0:0:0:0:
64,192,105309,1,0,0:0:0:0:
192,192,105309,1,0,0:0:0:0:
448,192,105309,1,0,0:0:0:0:
320,192,105398,1,0,0:0:0:0:
192,192,105488,1,0,0:0:0:0:
448,192,105488,1,0,0:0:0:0:
64,192,105577,1,0,0:0:0:0:
320,192,105666,1,0,0:0:0:0:
192,192,105666,1,0,0:0:0:0:
448,192,105755,1,0,0:0:0:0:
192,192,105845,1,0,0:0:0:0:
320,192,105845,1,0,0:0:0:0:
64,192,105934,1,0,0:0:0:0:
448,192,106023,1,0,0:0:0:0:
320,192,106023,1,0,0:0:0:0:
64,192,106113,1,0,0:0:0:0:
448,192,106202,1,0,0:0:0:0:
192,192,106202,1,0,0:0:0:0:
320,192,106291,1,0,0:0:0:0:
192,192,106380,1,0,0:0:0:0:
64,192,106470,1,0,0:0:0:0:
320,192,106559,1,0,0:0:0:0:
192,192,106559,1,0,0:0:0:0:
64,192,106648,1,0,0:0:0:0:
192,192,106738,1,0,0:0:0:0:
448,192,106738,1,0,0:0:0:0:
320,192,106827,1,0,0:0:0:0:
192,192,106916,1,0,0:0:0:0:
64,192,107005,1,0,0:0:0:0:
448,192,107095,1,0,0:0:0:0:
192,192,107095,1,0,0:0:0:0:
320,192,107095,1,0,0:0:0:0:
64,192,107184,1,0,0:0:0:0:
448,192,107273,1,0,0:0:0:0:
320,192,107273,1,0,0:0:0:0:
192,192,107363,1,0,0:0:0:0:
320,192,107452,1,0,0:0:0:0:
64,192,107452,1,0,0:0:0:0:
448,192,107541,1,0,0:0:0:0:
192,192,107630,1,0,0:0:0:0:
64,192,107720,1,0,0:0:0:0:
448,192,107809,1,0,0:0:0:0:
320,192,107898,1,0,0:0:0:0:
64,192,107898,1,0,0:0:0:0:
448,192,107988,1,0,0:0:0:0:
192,192,107988,1,0,0:0:0:0:
64,192,108077,1,0,0:0:0:0:
320,192,108166,1,0,0:0:0:0:
64,192,108255,1,0,0:0:0:0:
320,192,108345,1,0,0:0:0:0:
192,192,108434,1,0,0:0:0:0:
320,192,108523,1,0,0:0:0:0:
64,192,108523,1,0,0:0:0:0:
448,192,108523,128,0,108613:0:0:0:0:
192,192,108702,1,0,0:0:0:0:
320,192,108702,1,0,0:0:0:0:
64,192,108880,1,0,0:0:0:0:
320,192,108880,1,0,0:0:0:0:
448,192,108880,1,0,0:0:0:0:
192,192,109059,1,0,0:0:0:0:
320,192,109059,1,0,0:0:0:0:
192,192,109238,128,0,109327:0:0:0:0:
320,192,109238,1,0,0:0:0:0:
64,192,109238,1,0,0:0:0:0:
320,192,109416,1,0,0:0:0:0:
448,192,109416,1,0,0:0:0:0:
64,192,109595,1,0,0:0:0:0:
192,192,109595,1,0,0:0:0:0:
448,192,109595,1,0,0:0:0:0:
320,192,109773,1,0,0:0:0:0:
64,192,109773,1,0,0:0:0:0:
320,192,109952,128,0,110041:0:0:0:0:
192,192,109952,1,0,0:0:0:0:
64,192,110130,1,0,0:0:0:0:
448,192,110130,1,0,0:0:0:0:
192,192,110309,1,0,0:0:0:0:
448,192,110309,1,0,0:0:0:0:
320,192,110309,1,0,0:0:0:0:
64,192,110488,1,0,0:0:0:0:
64,192,110666,128,0,110755:0:0:0:0:
192,192,110666,1,0,0:0:0:0:
320,192,110666,1,0,0:0:0:0:
320,192,110845,1,0,0:0:0:0:
192,192,111023,1,0,0:0:0:0:
64,192,111023,1,0,0:0:0:0:
448,192,111023,1,0,0:0:0:0:
192,192,111202,1,0,0:0:0:0:
320,192,111202,1,0,0:0:0:0:
192,192,111380,128,0,112095:0:0:0:0:
448,192,111380,128,0,111470:0:0:0:0:
320,192,111380,1,0,0:0:0:0:
64,192,111380,1,0,0:0:0:0:
320,192,111559,1,0,0:0:0:0:
320,192,111738,1,0,0:0:0:0:
448,192,111738,1,0,0:0:0:0:
64,192,111738,1,0,0:0:0:0:
320,192,111916,1,0,0:0:0:0:
448,192,112095,128,0,112184:0:0:0:0:
64,192,112095,1,0,0:0:0:0:
320,192,112273,1,0,0:0:0:0:
192,192,112452,1,0,0:0:0:0:
64,192,112452,1,0,0:0:0:0:
448,192,112452,1,0,0:0:0:0:
64,192,112630,1,0,0:0:0:0:
192,192,112630,1,0,0:0:0:0:
320,192,112809,128,0,112898:0:0:0:0:
192,192,112809,1,0,0:0:0:0:
448,192,112809,1,0,0:0:0:0:
320,192,112988,1,0,0:0:0:0:
448,192,112988,1,0,0:0:0:0:
320,192,113166,1,0,0:0:0:0:
192,192,113166,1,0,0:0:0:0:
64,192,113166,1,0,0:0:0:0:
192,192,113345,1,0,0:0:0:0:
448,192,113523,128,0,113613:0:0:0:0:
192,192,113523,1,0,0:0:0:0:
192,192,113702,1,0,0:0:0:0:
320,192,113702,1,0,0:0:0:0:
64,192,113880,1,0,0:0:0:0:
448,192,113880,1,0,0:0:0:0:
192,192,114059,1,0,0:0:0:0:
320,192,114059,1,0,0:0:0:0:
64,192,114238,128,0,114327:0:0:0:0:
192,192,114238,1,0,0:0:0:0:
320,192,114238,1,0,0:0:0:0:
448,192,114238,128,0,114327:0:0:0:0:
192,192,114416,1,0,0:0:0:0:
448,192,114416,1,0,0:0:0:0:
320,192,114595,1,0,0:0:0:0:
192,192,114595,1,0,0:0:0:0:
64,192,114773,1,0,0:0:0:0:
192,192,114773,1,0,0:0:0:0:
448,192,114952,128,0,115041:0:0:0:0:
192,192,114952,128,0,115041:0:0:0:0:
320,192,114952,1,0,0:0:0:0:
64,192,115130,1,0,0:0:0:0:
320,192,115130,1,0,0:0:0:0:
192,192,115309,1,0,0:0:0:0:
448,192,115309,1,0,0:0:0:0:
320,192,115488,1,0,0:0:0:0:
192,192,115666,128,0,115755:0:0:0:0:
64,192,115666,128,0,115755:0:0:0:0:
448,192,115666,1,0,0:0:0:0:
320,192,115845,1,0,0:0:0:0:
192,192,115845,1,0,0:0:0:0:
448,192,116023,1,0,0:0:0:0:
192,192,116023,1,0,0:0:0:0:
64,192,116023,1,0,0:0:0:0:
320,192,116202,1,0,0:0:0:0:
448,192,116202,1,0,0:0:0:0:
192,192,116380,128,0,116470:0:0:0:0:
448,192,116380,128,0,116470:0:0:0:0:
64,192,116380,1,0,0:0:0:0:
320,192,116559,1,0,0:0:0:0:
64,192,116738,1,0,0:0:0:0:
192,192,116738,1,0,0:0:0:0:
448,192,116738,1,0,0:0:0:0:
192,192,116916,1,0,0:0:0:0:
320,192,116916,1,0,0:0:0:0:
320,192,117095,128,0,117452:0:0:0:0:
64,192,117095,128,0,117184:0:0:0:0:
192,192,117095,128,0,117184:0:0:0:0:
448,192,117095,1,0,0:0:0:0:
192,192,117273,1,0,0:0:0:0:
448,192,117273,1,0,0:0:0:0:
64,192,117452,128,0,117809:0:0:0:0:
192,192,117452,1,0,0:0:0:0:
448,192,117452,1,0,0:0:0:0:
320,192,117630,1,0,0:0:0:0:
320,192,117809,128,0,118166:0:0:0:0:
192,192,117809,128,0,117898:0:0:0:0:
448,192,117809,128,0,117898:0:0:0:0:
64,192,117988,1,0,0:0:0:0:
448,192,118166,128,0,118523:0:0:0:0:
192,192,118166,1,0,0:0:0:0:
64,192,118166,1,0,0:0:0:0:
192,192,118345,1,0,0:0:0:0:
64,192,118345,1,0,0:0:0:0:
64,192,118523,128,0,119952:0:0:0:0:
192,192,118523,128,0,118613:0:0:0:0:
320,192,118523,128,0,118613:0:0:0:0:
320,192,118702,1,0,0:0:0:0:
448,192,118702,1,0,0:0:0:0:
192,192,118880,1,0,0:0:0:0:
448,192,118880,1,0,0:0:0:0:
320,192,119059,1,0,0:0:0:0:
448,192,119238,128,0,119327:0:0:0:0:
192,192,119238,1,0,0:0:0:0:
320,192,119416,1,0,0:0:0:0:
192,192,119416,1,0,0:0:0:0:
192,192,119595,1,0,0:0:0:0:
320,192,119595,1,0,0:0:0:0:
448,192,119595,1,0,0:0:0:0:
192,192,119773,1,0,0:0:0:0:
448,192,119773,1,0,0:0:0:0:
192,192,119952,1,0,0:0:0:0:
320,192,119952,1,0,0:0:0:0:
448,192,119952,128,0,120041:0:0:0:0:
320,192,120041,1,0,0:0:0:0:
192,192,120130,1,0,0:0:0:0:
64,192,120220,1,0,0:0:0:0:
192,192,120309,1,0,0:0:0:0:
448,192,120309,1,0,0:0:0:0:
320,192,120309,128,0,120398:0:0:0:0:
64,192,120398,1,0,0:0:0:0:
192,192,120488,1,0,0:0:0:0:
320,192,120577,1,0,0:0:0:0:
192,192,120666,1,0,0:0:0:0:
64,192,120666,1,0,0:0:0:0:
448,192,120666,128,0,120755:0:0:0:0:
320,192,120755,1,0,0:0:0:0:
192,192,120845,1,0,0:0:0:0:
64,192,120934,1,0,0:0:0:0:
192,192,121023,1,0,0:0:0:0:
448,192,121023,1,0,0:0:0:0:
320,192,121023,128,0,121113:0:0:0:0:
64,192,121113,1,0,0:0:0:0:
192,192,121202,1,0,0:0:0:0:
320,192,121291,1,0,0:0:0:0:
448,192,121380,1,0,0:0:0:0:
64,192,121380,128,0,121470:0:0:0:0:
320,192,121470,1,0,0:0:0:0:
192,192,121559,1,0,0:0:0:0:
64,192,121648,1,0,0:0:0:0:
448,192,121738,1,0,0:0:0:0:
320,192,121738,1,0,0:0:0:0:
192,192,121738,128,0,121827:0:0:0:0:
64,192,121827,1,0,0:0:0:0:
448,192,121916,1,0,0:0:0:0:
320,192,122005,1,0,0:0:0:0:
192,192,122095,1,0,0:0:0:0:
64,192,122095,128,0,122184:0:0:0:0:
448,192,122184,1,0,0:0:0:0:
320,192,122273,1,0,0:0:0:0:
64,192,122363,1,0,0:0:0:0:
448,192,122452,1,0,0:0:0:0:
192,192,122452,1,0,0:0:0:0:
320,192,122452,128,0,122541:0:0:0:0:
64,192,122541,1,0,0:0:0:0:
448,192,122630,1,0,0:0:0:0:
64,192,122720,1,0,0:0:0:0:
320,192,122809,1,0,0:0:0:0:
192,192,122809,128,0,122898:0:0:0:0:
64,192,122898,1,0,0:0:0:0:
320,192,122988,1,0,0:0:0:0:
64,192,123077,1,0,0:0:0:0:
192,192,123166,1,0,0:0:0:0:
448,192,123166,1,0,0:0:0:0:
320,192,123166,128,0,123255:0:0:0:0:
64,192,123255,1,0,0:0:0:0:
320,192,123345,1,0,0:0:0:0:
64,192,123434,1,0,0:0:0:0:
192,192,123523,128,0,123613:0:0:0:0:
320,192,123613,1,0,0:0:0:0:
192,192,123702,1,0,0:0:0:0:
320,192,123791,1,0,0:0:0:0:
192,192,123880,1,0,0:0:0:0:
448,192,123880,1,0,0:0:0:0:
64,192,123880,128,0,123970:0:0:0:0:
320,192,123970,1,0,0:0:0:0:
192,192,124059,1,0,0:0:0:0:
320,192,124148,1,0,0:0:0:0:
448,192,124238,1,0,0:0:0:0:
64,192,124238,128,0,124327:0:0:0:0:
192,192,124327,1,0,0:0:0:0:
448,192,124416,1,0,0:0:0:0:
320,192,124505,1,0,0:0:0:0:
64,192,124595,1,0,0:0:0:0:
448,192,124595,128,0,124684:0:0:0:0:
192,192,124684,1,0,0:0:0:0:
448,192,124773,1,0,0:0:0:0:
64,192,124863,1,0,0:0:0:0:
320,192,124952,128,0,125041:0:0:0:0:
64,192,125041,1,0,0:0:0:0:
192,192,125130,1,0,0:0:0:0:
64,192,125220,1,0,0:0:0:0:
192,192,125309,1,0,0:0:0:0:
448,192,125309,1,0,0:0:0:0:
320,192,125309,128,0,125398:0:0:0:0:
64,192,125398,1,0,0:0:0:0:
192,192,125488,1,0,0:0:0:0:
64,192,125577,1,0,0:0:0:0:
64,192,125666,1,0,0:0:0:0:
448,192,125666,1,0,0:0:0:0:
192,192,125666,128,0,125755:0:0:0:0:
320,192,125666,128,0,125755:0:0:0:0:
64,192,125845,1,0,0:0:0:0:
448,192,125934,1,0,0:0:0:0:
64,192,126023,1,0,0:0:0:0:
192,192,126023,1,0,0:0:0:0:
320,192,126023,128,0,126113:0:0:0:0:
448,192,126113,1,0,0:0:0:0:
64,192,126202,1,0,0:0:0:0:
448,192,126291,1,0,0:0:0:0:
64,192,126380,1,0,0:0:0:0:
192,192,126380,128,0,126470:0:0:0:0:
448,192,126470,1,0,0:0:0:0:
64,192,126559,1,0,0:0:0:0:
448,192,126648,1,0,0:0:0:0:
64,192,126738,1,0,0:0:0:0:
192,192,126738,1,0,0:0:0:0:
320,192,126738,128,0,126827:0:0:0:0:
448,192,126827,1,0,0:0:0:0:
64,192,126916,1,0,0:0:0:0:
448,192,127005,1,0,0:0:0:0:
64,192,127095,128,0,127184:0:0:0:0:
192,192,127184,1,0,0:0:0:0:
320,192,127273,1,0,0:0:0:0:
192,192,127363,1,0,0:0:0:0:
320,192,127452,1,0,0:0:0:0:
448,192,127452,1,0,0:0:0:0:
64,192,127452,128,0,127541:0:0:0:0:
448,192,127541,1,0,0:0:0:0:
320,192,127630,1,0,0:0:0:0:
192,192,127720,1,0,0:0:0:0:
64,192,127809,1,0,0:0:0:0:
448,192,127809,128,0,127898:0:0:0:0:
320,192,127898,1,0,0:0:0:0:
192,192,127988,1,0,0:0:0:0:
64,192,128077,1,0,0:0:0:0:
192,192,128166,1,0,0:0:0:0:
320,192,128166,128,0,128255:0:0:0:0:
448,192,128255,1,0,0:0:0:0:
192,192,128345,1,0,0:0:0:0:
320,192,128434,1,0,0:0:0:0:
64,192,128523,1,0,0:0:0:0:
448,192,128523,128,0,128613:0:0:0:0:
192,192,128613,1,0,0:0:0:0:
320,192,128702,1,0,0:0:0:0:
192,192,128791,1,0,0:0:0:0:
64,192,128880,1,0,0:0:0:0:
448,192,128880,1,0,0:0:0:0:
320,192,128880,128,0,128970:0:0:0:0:
192,192,128970,1,0,0:0:0:0:
64,192,129059,1,0,0:0:0:0:
192,192,129148,1,0,0:0:0:0:
448,192,129238,1,0,0:0:0:0:
64,192,129238,128,0,129327:0:0:0:0:
320,192,129327,1,0,0:0:0:0:
448,192,129416,1,0,0:0:0:0:
64,192,129505,1,0,0:0:0:0:
448,192,129595,1,0,0:0:0:0:
320,192,129595,128,0,129684:0:0:0:0:
192,192,129684,1,0,0:0:0:0:
448,192,129773,1,0,0:0:0:0:
320,192,129863,1,0,0:0:0:0:
448,192,129952,1,0,0:0:0:0:
192,192,129952,128,0,130041:0:0:0:0:
64,192,130041,1,0,0:0:0:0:
320,192,130130,1,0,0:0:0:0:
448,192,130220,1,0,0:0:0:0:
320,192,130309,1,0,0:0:0:0:
64,192,130309,128,0,130398:0:0:0:0:
192,192,130398,1,0,0:0:0:0:
64,192,130488,1,0,0:0:0:0:
320,192,130577,1,0,0:0:0:0:
192,192,130666,1,0,0:0:0:0:
448,192,130666,128,0,130755:0:0:0:0:
64,192,130755,1,0,0:0:0:0:
192,192,130845,1,0,0:0:0:0:
64,192,130934,1,0,0:0:0:0:
320,192,131023,1,0,0:0:0:0:
448,192,131023,1,0,0:0:0:0:
192,192,131023,128,0,131113:0:0:0:0:
448,192,131113,1,0,0:0:0:0:
64,192,131202,1,0,0:0:0:0:
320,192,131291,1,0,0:0:0:0:
448,192,131380,1,0,0:0:0:0:
64,192,131559,1,0,0:0:0:0:
320,192,131827,1,0,0:0:0:0:
320,192,132095,1,0,0:0:0:0:
192,192,132273,1,0,0:0:0:0:
320,192,132363,1,0,0:0:0:0:
192,192,132541,1,0,0:0:0:0:
192,192,132720,1,0,0:0:0:0:
448,192,132809,1,0,0:0:0:0:
64,192,132809,1,0,0:0:0:0:
320,192,132898,1,0,0:0:0:0:
64,192,132988,1,0,0:0:0:0:
448,192,133077,1,0,0:0:0:0:
192,192,133166,1,0,0:0:0:0:
320,192,133255,1,0,0:0:0:0:
64,192,133345,1,0,0:0:0:0:
448,192,133434,1,0,0:0:0:0:
192,192,133523,1,0,0:0:0:0:
320,192,133613,1,0,0:0:0:0:
64,192,133702,1,0,0:0:0:0:
448,192,133791,1,0,0:0:0:0:
192,192,133880,1,0,0:0:0:0:
320,192,133970,1,0,0:0:0:0:
64,192,134059,1,0,0:0:0:0:
192,192,134148,1,0,0:0:0:0:
448,192,134238,128,0,134416:0:0:0:0:
320,192,134416,1,0,0:0:0:0:
64,192,134416,128,0,134595:0:0:0:0:
320,192,134595,1,0,0:0:0:0:
448,192,134595,1,0,0:0:0:0:
192,192,134595,128,0,134773:0:0:0:0:
320,192,134773,128,0,134952:0:0:0:0:
64,192,134773,1,0,0:0:0:0:
448,192,134952,128,0,135130:0:0:0:0:
192,192,134952,1,0,0:0:0:0:
320,192,135130,1,0,0:0:0:0:
64,192,135130,128,0,135309:0:0:0:0:
320,192,135309,1,0,0:0:0:0:
448,192,135309,1,0,0:0:0:0:
192,192,135309,128,0,135488:0:0:0:0:
320,192,135488,128,0,135666:0:0:0:0:
448,192,135488,1,0,0:0:0:0:
448,192,135666,128,0,135845:0:0:0:0:
192,192,135666,1,0,0:0:0:0:
320,192,135845,1,0,0:0:0:0:
64,192,135845,128,0,136023:0:0:0:0:
320,192,136023,128,0,136202:0:0:0:0:
448,192,136023,1,0,0:0:0:0:
192,192,136023,1,0,0:0:0:0:
192,192,136202,128,0,136380:0:0:0:0:
64,192,136202,1,0,0:0:0:0:
448,192,136380,128,0,136559:0:0:0:0:
320,192,136380,1,0,0:0:0:0:
320,192,136559,128,0,136738:0:0:0:0:
192,192,136559,1,0,0:0:0:0:
448,192,136738,1,0,0:0:0:0:
192,192,136738,128,0,136916:0:0:0:0:
64,192,136738,1,0,0:0:0:0:
448,192,136916,128,0,137095:0:0:0:0:
320,192,136916,1,0,0:0:0:0:
320,192,137095,128,0,137273:0:0:0:0:
64,192,137095,1,0,0:0:0:0:
448,192,137273,128,0,137452:0:0:0:0:
192,192,137273,1,0,0:0:0:0:
320,192,137452,1,0,0:0:0:0:
64,192,137452,128,0,137630:0:0:0:0:
192,192,137452,1,0,0:0:0:0:
448,192,137630,1,0,0:0:0:0:
192,192,137630,128,0,137809:0:0:0:0:
448,192,137809,128,0,137988:0:0:0:0:
320,192,137809,1,0,0:0:0:0:
192,192,137988,128,0,138166:0:0:0:0:
64,192,137988,1,0,0:0:0:0:
320,192,138166,1,0,0:0:0:0:
448,192,138166,1,0,0:0:0:0:
64,192,138166,128,0,138345:0:0:0:0:
320,192,138345,128,0,138523:0:0:0:0:
448,192,138523,128,0,138702:0:0:0:0:
192,192,138523,1,0,0:0:0:0:
64,192,138702,1,0,0:0:0:0:
448,192,138880,128,0,139059:0:0:0:0:
320,192,138880,1,0,0:0:0:0:
64,192,139059,1,0,0:0:0:0:
448,192,139238,128,0,139416:0:0:0:0:
320,192,139238,1,0,0:0:0:0:
192,192,139416,128,0,139595:0:0:0:0:
64,192,139416,1,0,0:0:0:0:
320,192,139595,1,0,0:0:0:0:
448,192,139595,1,0,0:0:0:0:
64,192,139595,128,0,139773:0:0:0:0:
448,192,139773,1,0,0:0:0:0:
448,192,139952,1,0,0:0:0:0:
320,192,139952,1,0,0:0:0:0:
192,192,139952,128,0,140130:0:0:0:0:
64,192,139952,1,0,0:0:0:0:
448,192,140130,128,0,140309:0:0:0:0:
320,192,140130,1,0,0:0:0:0:
320,192,140309,128,0,140488:0:0:0:0:
64,192,140309,1,0,0:0:0:0:
192,192,140309,1,0,0:0:0:0:
64,192,140488,128,0,140666:0:0:0:0:
192,192,140488,1,0,0:0:0:0:
448,192,140666,128,0,140845:0:0:0:0:
320,192,140666,1,0,0:0:0:0:
320,192,140845,128,0,141023:0:0:0:0:
192,192,140845,1,0,0:0:0:0:
448,192,141023,1,0,0:0:0:0:
64,192,141023,128,0,141202:0:0:0:0:
192,192,141023,1,0,0:0:0:0:
320,192,141202,128,0,141380:0:0:0:0:
448,192,141202,1,0,0:0:0:0:
192,192,141380,128,0,141559:0:0:0:0:
64,192,141380,1,0,0:0:0:0:
448,192,141559,1,0,0:0:0:0:
64,192,141559,128,0,141738:0:0:0:0:
320,192,141738,128,0,141916:0:0:0:0:
448,192,141738,1,0,0:0:0:0:
192,192,141738,1,0,0:0:0:0:
64,192,141916,128,0,142095:0:0:0:0:
192,192,141916,1,0,0:0:0:0:
320,192,142095,1,0,0:0:0:0:
192,192,142095,128,0,142273:0:0:0:0:
448,192,142273,1,0,0:0:0:0:
64,192,142273,128,0,142452:0:0:0:0:
320,192,142452,128,0,142630:0:0:0:0:
448,192,142452,1,0,0:0:0:0:
192,192,142452,1,0,0:0:0:0:
192,192,142630,128,0,142809:0:0:0:0:
64,192,142630,1,0,0:0:0:0:
320,192,142809,128,0,142988:0:0:0:0:
448,192,142809,1,0,0:0:0:0:
448,192,142988,128,0,143166:0:0:0:0:
64,192,142988,1,0,0:0:0:0:
320,192,143166,1,0,0:0:0:0:
192,192,143166,128,0,143345:0:0:0:0:
64,192,143166,1,0,0:0:0:0:
448,192,143345,128,0,143523:0:0:0:0:
64,192,143345,1,0,0:0:0:0:
64,192,143523,128,0,143702:0:0:0:0:
192,192,143523,1,0,0:0:0:0:
320,192,143702,128,0,143880:0:0:0:0:
192,192,143702,1,0,0:0:0:0:
448,192,143880,128,0,144059:0:0:0:0:
64,192,143880,1,0,0:0:0:0:
192,192,143880,1,0,0:0:0:0:
320,192,144059,128,0,144238:0:0:0:0:
64,192,144059,1,0,0:0:0:0:
448,192,144238,1,0,0:0:0:0:
64,192,144238,128,0,144416:0:0:0:0:
320,192,144416,128,0,144595:0:0:0:0:
192,192,144416,1,0,0:0:0:0:
448,192,144595,1,0,0:0:0:0:
192,192,144595,128,0,144773:0:0:0:0:
64,192,144595,1,0,0:0:0:0:
448,192,144773,128,0,144952:0:0:0:0:
320,192,144773,1,0,0:0:0:0:
320,192,144952,128,0,145130:0:0:0:0:
64,192,144952,1,0,0:0:0:0:
448,192,145130,1,0,0:0:0:0:
64,192,145130,128,0,145309:0:0:0:0:
320,192,145309,1,0,0:0:0:0:
448,192,145309,1,0,0:0:0:0:
192,192,145309,128,0,145488:0:0:0:0:
448,192,145488,128,0,145666:0:0:0:0:
64,192,145488,1,0,0:0:0:0:
320,192,145666,1,0,0:0:0:0:
64,192,145666,128,0,145845:0:0:0:0:
192,192,145666,1,0,0:0:0:0:
192,192,145845,1,0,0:0:0:0:
448,192,145845,128,0,146023:0:0:0:0:
192,192,146023,1,0,0:0:0:0:
64,192,146023,1,0,0:0:0:0:
320,192,146023,128,0,146202:0:0:0:0:
192,192,146202,128,0,146380:0:0:0:0:
448,192,146202,1,0,0:0:0:0:
64,192,146380,128,0,146559:0:0:0:0:
320,192,146380,1,0,0:0:0:0:
192,192,146559,1,0,0:0:0:0:
448,192,146559,128,0,146738:0:0:0:0:
192,192,146738,1,0,0:0:0:0:
64,192,146738,1,0,0:0:0:0:
320,192,146738,128,0,146916:0:0:0:0:
192,192,146916,128,0,147095:0:0:0:0:
64,192,146916,1,0,0:0:0:0:
64,192,147095,128,0,147273:0:0:0:0:
320,192,147095,1,0,0:0:0:0:
192,192,147273,1,0,0:0:0:0:
448,192,147273,128,0,147452:0:0:0:0:
192,192,147452,128,0,147630:0:0:0:0:
64,192,147452,1,0,0:0:0:0:
320,192,147452,1,0,0:0:0:0:
320,192,147630,128,0,147809:0:0:0:0:
448,192,147630,1,0,0:0:0:0:
64,192,147809,128,0,147988:0:0:0:0:
192,192,147809,1,0,0:0:0:0:
192,192,147988,128,0,148166:0:0:0:0:
320,192,147988,1,0,0:0:0:0:
64,192,148166,1,0,0:0:0:0:
320,192,148166,128,0,148345:0:0:0:0:
448,192,148166,1,0,0:0:0:0:
64,192,148345,128,0,148523:0:0:0:0:
192,192,148345,1,0,0:0:0:0:
192,192,148523,128,0,148702:0:0:0:0:
448,192,148523,1,0,0:0:0:0:
64,192,148702,128,0,148880:0:0:0:0:
320,192,148702,1,0,0:0:0:0:
192,192,148880,1,0,0:0:0:0:
448,192,148880,128,0,149059:0:0:0:0:
320,192,148880,1,0,0:0:0:0:
64,192,149059,1,0,0:0:0:0:
320,192,149059,128,0,149238:0:0:0:0:
64,192,149238,128,0,149416:0:0:0:0:
192,192,149238,1,0,0:0:0:0:
320,192,149416,128,0,149595:0:0:0:0:
448,192,149416,1,0,0:0:0:0:
192,192,149595,1,0,0:0:0:0:
64,192,149595,1,0,0:0:0:0:
448,192,149595,128,0,149773:0:0:0:0:
192,192,149773,128,0,149952:0:0:0:0:
64,192,149952,128,0,150130:0:0:0:0:
320,192,149952,1,0,0:0:0:0:
448,192,150130,1,0,0:0:0:0:
64,192,150309,128,0,150488:0:0:0:0:
192,192,150309,1,0,0:0:0:0:
448,192,150488,1,0,0:0:0:0:
64,192,150666,128,0,150845:0:0:0:0:
192,192,150666,1,0,0:0:0:0:
320,192,150845,128,0,151023:0:0:0:0:
448,192,150845,1,0,0:0:0:0:
192,192,151023,1,0,0:0:0:0:
64,192,151023,1,0,0:0:0:0:
448,192,151023,128,0,151202:0:0:0:0:
64,192,151202,1,0,0:0:0:0:
64,192,151380,1,0,0:0:0:0:
192,192,151380,1,0,0:0:0:0:
448,192,151380,1,0,0:0:0:0:
320,192,151380,128,0,151559:0:0:0:0:
64,192,151559,128,0,151738:0:0:0:0:
192,192,151559,1,0,0:0:0:0:
192,192,151738,128,0,151916:0:0:0:0:
448,192,151738,1,0,0:0:0:0:
320,192,151738,1,0,0:0:0:0:
448,192,151916,128,0,152095:0:0:0:0:
320,192,151916,1,0,0:0:0:0:
64,192,152095,128,0,152273:0:0:0:0:
192,192,152095,1,0,0:0:0:0:
192,192,152273,128,0,152452:0:0:0:0:
320,192,152273,1,0,0:0:0:0:
64,192,152452,1,0,0:0:0:0:
448,192,152452,128,0,152630:0:0:0:0:
320,192,152452,1,0,0:0:0:0:
192,192,152630,128,0,152809:0:0:0:0:
64,192,152630,1,0,0:0:0:0:
320,192,152809,128,0,152988:0:0:0:0:
448,192,152809,1,0,0:0:0:0:
64,192,152988,1,0,0:0:0:0:
448,192,152988,128,0,153166:0:0:0:0:
192,192,153166,128,0,153345:0:0:0:0:
64,192,153166,1,0,0:0:0:0:
320,192,153166,1,0,0:0:0:0:
448,192,153345,128,0,153523:0:0:0:0:
320,192,153345,1,0,0:0:0:0:
192,192,153523,1,0,0:0:0:0:
320,192,153523,128,0,153702:0:0:0:0:
64,192,153702,1,0,0:0:0:0:
448,192,153702,128,0,153880:0:0:0:0:
192,192,153880,128,0,154059:0:0:0:0:
64,192,153880,1,0,0:0:0:0:
320,192,153880,1,0,0:0:0:0:
320,192,154059,128,0,154238:0:0:0:0:
448,192,154059,1,0,0:0:0:0:
192,192,154238,128,0,154416:0:0:0:0:
64,192,154238,1,0,0:0:0:0:
64,192,154416,128,0,154595:0:0:0:0:
448,192,154416,1,0,0:0:0:0:
192,192,154595,1,0,0:0:0:0:
320,192,154595,128,0,154773:0:0:0:0:
448,192,154595,1,0,0:0:0:0:
64,192,154773,128,0,154952:0:0:0:0:
448,192,154773,1,0,0:0:0:0:
448,192,154952,128,0,155130:0:0:0:0:
320,192,154952,1,0,0:0:0:0:
192,192,155130,128,0,155309:0:0:0:0:
320,192,155130,1,0,0:0:0:0:
64,192,155309,128,0,155488:0:0:0:0:
448,192,155309,1,0,0:0:0:0:
320,192,155309,1,0,0:0:0:0:
192,192,155488,128,0,155666:0:0:0:0:
448,192,155488,1,0,0:0:0:0:
64,192,155666,1,0,0:0:0:0:
448,192,155666,128,0,155845:0:0:0:0:
192,192,155845,128,0,156023:0:0:0:0:
320,192,155845,1,0,0:0:0:0:
64,192,156023,1,0,0:0:0:0:
320,192,156023,128,0,156202:0:0:0:0:
448,192,156023,1,0,0:0:0:0:
64,192,156202,128,0,156380:0:0:0:0:
192,192,156202,1,0,0:0:0:0:
192,192,156380,128,0,156559:0:0:0:0:
448,192,156380,1,0,0:0:0:0:
64,192,156559,1,0,0:0:0:0:
448,192,156559,128,0,156738:0:0:0:0:
192,192,156738,1,0,0:0:0:0:
64,192,156738,1,0,0:0:0:0:
320,192,156738,128,0,156916:0:0:0:0:
64,192,156916,128,0,157095:0:0:0:0:
448,192,156916,1,0,0:0:0:0:
192,192,157095,1,0,0:0:0:0:
320,192,157095,1,0,0:0:0:0:
448,192,157095,1,0,0:0:0:0:
448,192,159952,1,0,0:0:0:0:
64,192,159952,1,0,0:0:0:0:
64,192,160309,1,0,0:0:0:0:
192,192,160309,1,0,0:0:0:0:
320,192,160309,1,0,0:0:0:0:
448,192,160309,1,0,0:0:0:0:
192,192,160488,1,0,0:0:0:0:
320,192,160577,1,0,0:0:0:0:
448,192,160666,1,0,0:0:0:0:
64,192,160845,1,0,0:0:0:0:
192,192,161023,1,0,0:0:0:0:
64,192,161023,1,0,0:0:0:0:
320,192,161023,1,0,0:0:0:0:
448,192,161023,1,0,0:0:0:0:
320,192,161202,1,0,0:0:0:0:
448,192,161380,1,0,0:0:0:0:
192,192,161559,1,0,0:0:0:0:
320,192,161738,1,0,0:0:0:0:
64,192,161738,1,0,0:0:0:0:
192,192,161738,1,0,0:0:0:0:
448,192,161738,1,0,0:0:0:0:
448,192,161916,1,0,0:0:0:0:
320,192,162095,1,0,0:0:0:0:
64,192,162452,1,0,0:0:0:0:
192,192,162452,1,0,0:0:0:0:
320,192,162452,1,0,0:0:0:0:
448,192,162452,1,0,0:0:0:0:
448,192,162630,1,0,0:0:0:0:
320,192,162809,1,0,0:0:0:0:
64,192,162988,1,0,0:0:0:0:
448,192,163166,1,0,0:0:0:0:
320,192,163166,1,0,0:0:0:0:
192,192,163166,1,0,0:0:0:0:
64,192,163166,1,0,0:0:0:0:
320,192,163345,1,0,0:0:0:0:
192,192,163523,128,0,163791:0:0:0:0:
320,192,163791,128,0,164238:0:0:0:0:
64,192,163880,1,0,0:0:0:0:
448,192,163880,1,0,0:0:0:0:
448,192,164238,128,0,164773:0:0:0:0:
64,192,164595,1,0,0:0:0:0:
192,192,164595,1,0,0:0:0:0:
320,192,164595,1,0,0:0:0:0:
192,192,164773,1,0,0:0:0:0:
320,192,164863,1,0,0:0:0:0:
448,192,164952,1,0,0:0:0:0:
192,192,165130,1,0,0:0:0:0:
320,192,165220,1,0,0:0:0:0:
192,192,165309,1,0,0:0:0:0:
64,192,165309,1,0,0:0:0:0:
320,192,165309,1,0,0:0:0:0:
448,192,165309,1,0,0:0:0:0:
192,192,165666,1,0,0:0:0:0:
320,192,165666,1,0,0:0:0:0:
64,192,166023,1,0,0:0:0:0:
192,192,166023,1,0,0:0:0:0:
320,192,166023,1,0,0:0:0:0:
448,192,166023,1,0,0:0:0:0:
320,192,166202,1,0,0:0:0:0:
192,192,166291,1,0,0:0:0:0:
64,192,166380,1,0,0:0:0:0:
448,192,166559,1,0,0:0:0:0:
64,192,166738,1,0,0:0:0:0:
192,192,166738,1,0,0:0:0:0:
320,192,166738,1,0,0:0:0:0:
448,192,166738,1,0,0:0:0:0:
192,192,166916,1,0,0:0:0:0:
320,192,167095,1,0,0:0:0:0:
64,192,167273,1,0,0:0:0:0:
64,192,167452,1,0,0:0:0:0:
192,192,167452,1,0,0:0:0:0:
320,192,167452,1,0,0:0:0:0:
448,192,167452,1,0,0:0:0:0:
320,192,167630,1,0,0:0:0:0:
192,192,167809,1,0,0:0:0:0:
64,192,168166,1,0,0:0:0:0:
320,192,168166,1,0,0:0:0:0:
192,192,168166,1,0,0:0:0:0:
448,192,168166,1,0,0:0:0:0:
320,192,168345,1,0,0:0:0:0:
192,192,168523,1,0,0:0:0:0:
64,192,168702,1,0,0:0:0:0:
64,192,168880,1,0,0:0:0:0:
192,192,168880,1,0,0:0:0:0:
320,192,168880,1,0,0:0:0:0:
448,192,168880,1,0,0:0:0:0:
64,192,169059,1,0,0:0:0:0:
320,192,169238,1,0,0:0:0:0:
64,192,169595,1,0,0:0:0:0:
192,192,169595,1,0,0:0:0:0:
320,192,169595,1,0,0:0:0:0:
448,192,169595,1,0,0:0:0:0:
192,192,169952,1,0,0:0:0:0:
320,192,169952,1,0,0:0:0:0:
64,192,170309,1,0,0:0:0:0:
192,192,170309,1,0,0:0:0:0:
448,192,170309,1,0,0:0:0:0:
320,192,170309,1,0,0:0:0:0:
448,192,170488,1,0,0:0:0:0:
320,192,170577,1,0,0:0:0:0:
448,192,170666,1,0,0:0:0:0:
320,192,170845,1,0,0:0:0:0:
192,192,170845,1,0,0:0:0:0:
64,192,171023,1,0,0:0:0:0:
192,192,171023,1,0,0:0:0:0:
320,192,171023,1,0,0:0:0:0:
448,192,171023,1,0,0:0:0:0:
192,192,171202,1,0,0:0:0:0:
64,192,171202,1,0,0:0:0:0:
192,192,171380,1,0,0:0:0:0:
320,192,171380,1,0,0:0:0:0:
64,192,171738,1,0,0:0:0:0:
192,192,171738,1,0,0:0:0:0:
320,192,171738,1,0,0:0:0:0:
448,192,171738,1,0,0:0:0:0:
192,192,171916,1,0,0:0:0:0:
64,192,171916,1,0,0:0:0:0:
192,192,172005,1,0,0:0:0:0:
320,192,172005,1,0,0:0:0:0:
320,192,172095,1,0,0:0:0:0:
448,192,172095,1,0,0:0:0:0:
192,192,172273,1,0,0:0:0:0:
64,192,172452,1,0,0:0:0:0:
192,192,172452,1,0,0:0:0:0:
448,192,172452,1,0,0:0:0:0:
320,192,172452,1,0,0:0:0:0:
192,192,172630,1,0,0:0:0:0:
448,192,172809,1,0,0:0:0:0:
64,192,172988,1,0,0:0:0:0:
192,192,172988,1,0,0:0:0:0:
64,192,173166,1,0,0:0:0:0:
192,192,173166,1,0,0:0:0:0:
320,192,173166,1,0,0:0:0:0:
448,192,173166,1,0,0:0:0:0:
448,192,173345,1,0,0:0:0:0:
320,192,173523,1,0,0:0:0:0:
192,192,173523,1,0,0:0:0:0:
64,192,173880,1,0,0:0:0:0:
192,192,173880,1,0,0:0:0:0:
320,192,173880,1,0,0:0:0:0:
448,192,173880,1,0,0:0:0:0:
448,192,174059,1,0,0:0:0:0:
192,192,174238,1,0,0:0:0:0:
448,192,174238,1,0,0:0:0:0:
64,192,174416,1,0,0:0:0:0:
192,192,174416,1,0,0:0:0:0:
64,192,174595,1,0,0:0:0:0:
192,192,174595,1,0,0:0:0:0:
448,192,174595,1,0,0:0:0:0:
320,192,174595,1,0,0:0:0:0:
192,192,174773,1,0,0:0:0:0:
320,192,174773,1,0,0:0:0:0:
448,192,174952,1,0,0:0:0:0:
64,192,174952,1,0,0:0:0:0:
64,192,175220,1,0,0:0:0:0:
320,192,175220,1,0,0:0:0:0:
64,192,175309,1,0,0:0:0:0:
192,192,175309,1,0,0:0:0:0:
448,192,175309,1,0,0:0:0:0:
320,192,175309,1,0,0:0:0:0:
192,192,175488,1,0,0:0:0:0:
64,192,175666,1,0,0:0:0:0:
192,192,175666,1,0,0:0:0:0:
64,192,176023,1,0,0:0:0:0:
192,192,176023,1,0,0:0:0:0:
320,192,176023,1,0,0:0:0:0:
448,192,176023,1,0,0:0:0:0:
320,192,176202,1,0,0:0:0:0:
448,192,176202,1,0,0:0:0:0:
64,192,176291,1,0,0:0:0:0:
192,192,176291,1,0,0:0:0:0:
320,192,176380,1,0,0:0:0:0:
448,192,176380,1,0,0:0:0:0:
64,192,176559,1,0,0:0:0:0:
192,192,176559,1,0,0:0:0:0:
320,192,176648,1,0,0:0:0:0:
448,192,176648,1,0,0:0:0:0:
64,192,176738,1,0,0:0:0:0:
192,192,176738,1,0,0:0:0:0:
320,192,176738,1,0,0:0:0:0:
448,192,176738,1,0,0:0:0:0:
192,192,177095,1,0,0:0:0:0:
320,192,177095,1,0,0:0:0:0:
64,192,177452,1,0,0:0:0:0:
192,192,177452,1,0,0:0:0:0:
320,192,177452,1,0,0:0:0:0:
448,192,177452,1,0,0:0:0:0:
320,192,177630,1,0,0:0:0:0:
448,192,177630,1,0,0:0:0:0:
192,192,177720,1,0,0:0:0:0:
320,192,177720,1,0,0:0:0:0:
64,192,177809,1,0,0:0:0:0:
192,192,177809,1,0,0:0:0:0:
192,192,177988,1,0,0:0:0:0:
64,192,178166,1,0,0:0:0:0:
192,192,178166,1,0,0:0:0:0:
320,192,178166,1,0,0:0:0:0:
448,192,178166,1,0,0:0:0:0:
320,192,178345,1,0,0:0:0:0:
448,192,178523,1,0,0:0:0:0:
192,192,178523,1,0,0:0:0:0:
192,192,178702,1,0,0:0:0:0:
64,192,178702,1,0,0:0:0:0:
64,192,178880,1,0,0:0:0:0:
192,192,178880,1,0,0:0:0:0:
320,192,178880,1,0,0:0:0:0:
448,192,178880,1,0,0:0:0:0:
448,192,179059,1,0,0:0:0:0:
64,192,179059,1,0,0:0:0:0:
320,192,179238,1,0,0:0:0:0:
448,192,179238,1,0,0:0:0:0:
64,192,179595,1,0,0:0:0:0:
192,192,179595,1,0,0:0:0:0:
320,192,179595,1,0,0:0:0:0:
448,192,179595,1,0,0:0:0:0:
192,192,179773,1,0,0:0:0:0:
64,192,179952,1,0,0:0:0:0:
192,192,179952,1,0,0:0:0:0:
320,192,180130,1,0,0:0:0:0:
64,192,180309,1,0,0:0:0:0:
192,192,180309,1,0,0:0:0:0:
320,192,180309,1,0,0:0:0:0:
448,192,180309,1,0,0:0:0:0:
64,192,180488,1,0,0:0:0:0:
192,192,180488,1,0,0:0:0:0:
320,192,180666,1,0,0:0:0:0:
448,192,180666,1,0,0:0:0:0:
64,192,181023,1,0,0:0:0:0:
192,192,181023,1,0,0:0:0:0:
320,192,181023,1,0,0:0:0:0:
448,192,181023,1,0,0:0:0:0:
64,192,181380,1,0,0:0:0:0:
192,192,181380,1,0,0:0:0:0:
320,192,181380,1,0,0:0:0:0:
448,192,181380,1,0,0:0:0:0:
320,192,181470,1,0,0:0:0:0:
448,192,181470,1,0,0:0:0:0:
64,192,181559,1,0,0:0:0:0:
192,192,181559,1,0,0:0:0:0:
320,192,181648,1,0,0:0:0:0:
448,192,181648,1,0,0:0:0:0:
192,192,181738,1,0,0:0:0:0:
64,192,181738,1,0,0:0:0:0:
320,192,181827,1,0,0:0:0:0:
448,192,181827,1,0,0:0:0:0:
64,192,181916,1,0,0:0:0:0:
192,192,181916,1,0,0:0:0:0:
320,192,182005,1,0,0:0:0:0:
448,192,182005,1,0,0:0:0:0:
64,192,182095,1,0,0:0:0:0:
192,192,182139,1,0,0:0:0:0:
320,192,182184,1,0,0:0:0:0:
448,192,182229,1,0,0:0:0:0:
64,192,182273,1,0,0:0:0:0:
192,192,182318,1,0,0:0:0:0:
320,192,182363,1,0,0:0:0:0:
448,192,182407,1,0,0:0:0:0:
64,192,182452,1,0,0:0:0:0:
192,192,182497,1,0,0:0:0:0:
320,192,182541,1,0,0:0:0:0:
448,192,182586,1,0,0:0:0:0:
64,192,182630,1,0,0:0:0:0:
192,192,182675,1,0,0:0:0:0:
320,192,182720,1,0,0:0:0:0:
448,192,182764,1,0,0:0:0:0:
64,192,182809,1,0,0:0:0:0:
192,192,182809,1,0,0:0:0:0:
192,192,182898,1,0,0:0:0:0:
320,192,182988,1,0,0:0:0:0:
448,192,182988,1,0,0:0:0:0:
64,192,183077,1,0,0:0:0:0:
320,192,183166,1,0,0:0:0:0:
192,192,183166,1,0,0:0:0:0:
448,192,183166,1,0,0:0:0:0:
64,192,183255,1,0,0:0:0:0:
192,192,183345,1,0,0:0:0:0:
448,192,183345,1,0,0:0:0:0:
320,192,183434,1,0,0:0:0:0:
448,192,183523,1,0,0:0:0:0:
192,192,183523,1,0,0:0:0:0:
64,192,183613,1,0,0:0:0:0:
320,192,183702,1,0,0:0:0:0:
448,192,183702,1,0,0:0:0:0:
64,192,183791,1,0,0:0:0:0:
192,192,183880,1,0,0:0:0:0:
448,192,183880,1,0,0:0:0:0:
320,192,183970,1,0,0:0:0:0:
64,192,184059,1,0,0:0:0:0:
448,192,184059,1,0,0:0:0:0:
192,192,184059,1,0,0:0:0:0:
192,192,184148,1,0,0:0:0:0:
448,192,184238,1,0,0:0:0:0:
64,192,184238,1,0,0:0:0:0:
192,192,184327,1,0,0:0:0:0:
320,192,184416,1,0,0:0:0:0:
448,192,184416,1,0,0:0:0:0:
64,192,184505,1,0,0:0:0:0:
448,192,184595,1,0,0:0:0:0:
320,192,184595,1,0,0:0:0:0:
192,192,184595,1,0,0:0:0:0:
64,192,184684,1,0,0:0:0:0:
448,192,184773,1,0,0:0:0:0:
320,192,184773,1,0,0:0:0:0:
192,192,184863,1,0,0:0:0:0:
320,192,184952,1,0,0:0:0:0:
64,192,184952,1,0,0:0:0:0:
448,192,185041,1,0,0:0:0:0:
192,192,185130,1,0,0:0:0:0:
320,192,185130,1,0,0:0:0:0:
64,192,185220,1,0,0:0:0:0:
192,192,185309,1,0,0:0:0:0:
448,192,185309,1,0,0:0:0:0:
320,192,185398,1,0,0:0:0:0:
64,192,185488,1,0,0:0:0:0:
448,192,185488,1,0,0:0:0:0:
192,192,185488,1,0,0:0:0:0:
320,192,185577,1,0,0:0:0:0:
192,192,185666,1,0,0:0:0:0:
448,192,185666,1,0,0:0:0:0:
64,192,185755,1,0,0:0:0:0:
192,192,185845,1,0,0:0:0:0:
320,192,185845,1,0,0:0:0:0:
64,192,185934,1,0,0:0:0:0:
192,192,186023,1,0,0:0:0:0:
448,192,186023,1,0,0:0:0:0:
64,192,186113,1,0,0:0:0:0:
192,192,186202,1,0,0:0:0:0:
448,192,186202,1,0,0:0:0:0:
64,192,186291,1,0,0:0:0:0:
320,192,186380,1,0,0:0:0:0:
448,192,186380,1,0,0:0:0:0:
192,192,186470,1,0,0:0:0:0:
320,192,186559,1,0,0:0:0:0:
64,192,186559,1,0,0:0:0:0:
192,192,186648,1,0,0:0:0:0:
320,192,186738,1,0,0:0:0:0:
64,192,186738,1,0,0:0:0:0:
448,192,186738,1,0,0:0:0:0:
192,192,186827,1,0,0:0:0:0:
320,192,186916,1,0,0:0:0:0:
192,192,187005,1,0,0:0:0:0:
448,192,187095,1,0,0:0:0:0:
64,192,187095,1,0,0:0:0:0:
320,192,187184,1,0,0:0:0:0:
448,192,187273,1,0,0:0:0:0:
64,192,187273,1,0,0:0:0:0:
192,192,187273,1,0,0:0:0:0:
192,192,187363,1,0,0:0:0:0:
448,192,187452,1,0,0:0:0:0:
64,192,187452,1,0,0:0:0:0:
320,192,187541,1,0,0:0:0:0:
448,192,187630,1,0,0:0:0:0:
192,192,187630,1,0,0:0:0:0:
64,192,187630,1,0,0:0:0:0:
64,192,187720,1,0,0:0:0:0:
192,192,187809,1,0,0:0:0:0:
448,192,187809,1,0,0:0:0:0:
64,192,187898,1,0,0:0:0:0:
320,192,187988,1,0,0:0:0:0:
192,192,187988,1,0,0:0:0:0:
64,192,188077,1,0,0:0:0:0:
320,192,188166,1,0,0:0:0:0:
192,192,188166,1,0,0:0:0:0:
448,192,188166,1,0,0:0:0:0:
64,192,188255,1,0,0:0:0:0:
320,192,188345,1,0,0:0:0:0:
192,192,188434,1,0,0:0:0:0:
64,192,188523,1,0,0:0:0:0:
320,192,188523,1,0,0:0:0:0:
192,192,188523,1,0,0:0:0:0:
448,192,188523,1,0,0:0:0:0:
320,192,188613,1,0,0:0:0:0:
192,192,188702,1,0,0:0:0:0:
64,192,188702,1,0,0:0:0:0:
320,192,188791,1,0,0:0:0:0:
192,192,188880,1,0,0:0:0:0:
448,192,188880,1,0,0:0:0:0:
320,192,188970,1,0,0:0:0:0:
192,192,189059,1,0,0:0:0:0:
64,192,189059,1,0,0:0:0:0:
320,192,189148,1,0,0:0:0:0:
192,192,189238,1,0,0:0:0:0:
448,192,189238,1,0,0:0:0:0:
320,192,189327,1,0,0:0:0:0:
192,192,189416,1,0,0:0:0:0:
64,192,189416,1,0,0:0:0:0:
320,192,189505,1,0,0:0:0:0:
192,192,189595,1,0,0:0:0:0:
448,192,189595,1,0,0:0:0:0:
320,192,189684,1,0,0:0:0:0:
192,192,189773,1,0,0:0:0:0:
64,192,189773,1,0,0:0:0:0:
320,192,189863,1,0,0:0:0:0:
448,192,189952,1,0,0:0:0:0:
192,192,189952,1,0,0:0:0:0:
64,192,189952,1,0,0:0:0:0:
320,192,190041,1,0,0:0:0:0:
64,192,190130,1,0,0:0:0:0:
192,192,190130,1,0,0:0:0:0:
320,192,190220,1,0,0:0:0:0:
192,192,190309,1,0,0:0:0:0:
448,192,190309,1,0,0:0:0:0:
64,192,190398,1,0,0:0:0:0:
192,192,190488,1,0,0:0:0:0:
448,192,190488,1,0,0:0:0:0:
320,192,190577,1,0,0:0:0:0:
64,192,190666,1,0,0:0:0:0:
448,192,190666,1,0,0:0:0:0:
192,192,190755,1,0,0:0:0:0:
320,192,190845,1,0,0:0:0:0:
64,192,190845,1,0,0:0:0:0:
448,192,190845,1,0,0:0:0:0:
64,192,190934,1,0,0:0:0:0:
192,192,191023,1,0,0:0:0:0:
320,192,191023,1,0,0:0:0:0:
448,192,191113,1,0,0:0:0:0:
320,192,191202,1,0,0:0:0:0:
64,192,191202,1,0,0:0:0:0:
192,192,191291,1,0,0:0:0:0:
448,192,191380,1,0,0:0:0:0:
64,192,191380,1,0,0:0:0:0:
320,192,191380,1,0,0:0:0:0:
192,192,191470,1,0,0:0:0:0:
64,192,191559,1,0,0:0:0:0:
448,192,191559,1,0,0:0:0:0:
320,192,191559,1,0,0:0:0:0:
320,192,191648,1,0,0:0:0:0:
64,192,191738,1,0,0:0:0:0:
192,192,191738,1,0,0:0:0:0:
448,192,191738,1,0,0:0:0:0:
320,192,191827,1,0,0:0:0:0:
64,192,191916,1,0,0:0:0:0:
448,192,191916,1,0,0:0:0:0:
192,192,192005,1,0,0:0:0:0:
64,192,192095,1,0,0:0:0:0:
448,192,192095,1,0,0:0:0:0:
320,192,192095,1,0,0:0:0:0:
192,192,192184,1,0,0:0:0:0:
448,192,192273,1,0,0:0:0:0:
320,192,192273,1,0,0:0:0:0:
64,192,192363,1,0,0:0:0:0:
448,192,192452,1,0,0:0:0:0:
192,192,192452,1,0,0:0:0:0:
320,192,192541,1,0,0:0:0:0:
64,192,192630,1,0,0:0:0:0:
192,192,192630,1,0,0:0:0:0:
320,192,192720,1,0,0:0:0:0:
192,192,192809,1,0,0:0:0:0:
448,192,192809,1,0,0:0:0:0:
64,192,192898,1,0,0:0:0:0:
192,192,192988,1,0,0:0:0:0:
320,192,192988,1,0,0:0:0:0:
448,192,193077,1,0,0:0:0:0:
192,192,193166,1,0,0:0:0:0:
64,192,193166,1,0,0:0:0:0:
320,192,193255,1,0,0:0:0:0:
64,192,193345,1,0,0:0:0:0:
448,192,193345,1,0,0:0:0:0:
192,192,193434,1,0,0:0:0:0:
320,192,193523,1,0,0:0:0:0:
448,192,193523,1,0,0:0:0:0:
64,192,193613,1,0,0:0:0:0:
320,192,193702,1,0,0:0:0:0:
192,192,193702,1,0,0:0:0:0:
64,192,193791,1,0,0:0:0:0:
192,192,193880,1,0,0:0:0:0:
320,192,193880,1,0,0:0:0:0:
448,192,193880,1,0,0:0:0:0:
448,192,193970,1,0,0:0:0:0:
64,192,194059,1,0,0:0:0:0:
320,192,194059,1,0,0:0:0:0:
192,192,194148,1,0,0:0:0:0:
64,192,194238,1,0,0:0:0:0:
448,192,194238,1,0,0:0:0:0:
192,192,194327,1,0,0:0:0:0:
64,192,194416,1,0,0:0:0:0:
320,192,194416,1,0,0:0:0:0:
448,192,194505,1,0,0:0:0:0:
64,192,194595,1,0,0:0:0:0:
192,192,194595,1,0,0:0:0:0:
320,192,194595,1,0,0:0:0:0:
448,192,194684,1,0,0:0:0:0:
64,192,194773,1,0,0:0:0:0:
192,192,194773,1,0,0:0:0:0:
320,192,194863,1,0,0:0:0:0:
192,192,194952,1,0,0:0:0:0:
64,192,194952,1,0,0:0:0:0:
448,192,195041,1,0,0:0:0:0:
64,192,195130,1,0,0:0:0:0:
320,192,195130,1,0,0:0:0:0:
192,192,195130,1,0,0:0:0:0:
448,192,195220,1,0,0:0:0:0:
64,192,195309,1,0,0:0:0:0:
320,192,195309,1,0,0:0:0:0:
448,192,195398,1,0,0:0:0:0:
64,192,195488,1,0,0:0:0:0:
320,192,195488,1,0,0:0:0:0:
192,192,195577,1,0,0:0:0:0:
448,192,195666,1,0,0:0:0:0:
64,192,195666,1,0,0:0:0:0:
192,192,195755,1,0,0:0:0:0:
64,192,195845,1,0,0:0:0:0:
320,192,195845,1,0,0:0:0:0:
448,192,195934,1,0,0:0:0:0:
192,192,196023,1,0,0:0:0:0:
320,192,196023,1,0,0:0:0:0:
64,192,196023,1,0,0:0:0:0:
448,192,196113,1,0,0:0:0:0:
320,192,196202,1,0,0:0:0:0:
64,192,196202,1,0,0:0:0:0:
192,192,196291,1,0,0:0:0:0:
448,192,196380,1,0,0:0:0:0:
320,192,196380,1,0,0:0:0:0:
64,192,196470,1,0,0:0:0:0:
320,192,196559,1,0,0:0:0:0:
192,192,196559,1,0,0:0:0:0:
448,192,196648,1,0,0:0:0:0:
64,192,196738,1,0,0:0:0:0:
192,192,196738,1,0,0:0:0:0:
320,192,196827,1,0,0:0:0:0:
192,192,196916,1,0,0:0:0:0:
448,192,196916,1,0,0:0:0:0:
320,192,197005,1,0,0:0:0:0:
64,192,197095,1,0,0:0:0:0:
192,192,197095,1,0,0:0:0:0:
448,192,197184,1,0,0:0:0:0:
320,192,197273,1,0,0:0:0:0:
192,192,197273,1,0,0:0:0:0:
448,192,197363,1,0,0:0:0:0:
64,192,197452,1,0,0:0:0:0:
192,192,197452,1,0,0:0:0:0:
448,192,197541,1,0,0:0:0:0:
64,192,197630,1,0,0:0:0:0:
192,192,197630,1,0,0:0:0:0:
448,192,197720,1,0,0:0:0:0:
64,192,197809,1,0,0:0:0:0:
320,192,197809,1,0,0:0:0:0:
192,192,197898,1,0,0:0:0:0:
448,192,197988,1,0,0:0:0:0:
320,192,197988,1,0,0:0:0:0:
192,192,198077,1,0,0:0:0:0:
64,192,198166,1,0,0:0:0:0:
448,192,198166,1,0,0:0:0:0:
320,192,198166,1,0,0:0:0:0:
192,192,198255,1,0,0:0:0:0:
320,192,198345,1,0,0:0:0:0:
192,192,198434,1,0,0:0:0:0:
448,192,198523,1,0,0:0:0:0:
64,192,198523,1,0,0:0:0:0:
320,192,198613,1,0,0:0:0:0:
192,192,198702,1,0,0:0:0:0:
448,192,198702,1,0,0:0:0:0:
64,192,198702,1,0,0:0:0:0:
192,192,198791,1,0,0:0:0:0:
448,192,198880,1,0,0:0:0:0:
64,192,198880,1,0,0:0:0:0:
320,192,198970,1,0,0:0:0:0:
448,192,199059,1,0,0:0:0:0:
192,192,199059,1,0,0:0:0:0:
64,192,199059,1,0,0:0:0:0:
448,192,199148,1,0,0:0:0:0:
64,192,199238,1,0,0:0:0:0:
192,192,199238,1,0,0:0:0:0:
448,192,199327,1,0,0:0:0:0:
192,192,199416,1,0,0:0:0:0:
320,192,199416,1,0,0:0:0:0:
448,192,199505,1,0,0:0:0:0:
64,192,199595,1,0,0:0:0:0:
192,192,199595,1,0,0:0:0:0:
320,192,199595,1,0,0:0:0:0:
448,192,199684,1,0,0:0:0:0:
64,192,199773,1,0,0:0:0:0:
448,192,199863,1,0,0:0:0:0:
192,192,199952,1,0,0:0:0:0:
64,192,199952,1,0,0:0:0:0:
448,192,199952,1,0,0:0:0:0:
320,192,199952,1,0,0:0:0:0:
320,192,200041,1,0,0:0:0:0:
448,192,200130,1,0,0:0:0:0:
192,192,200130,1,0,0:0:0:0:
320,192,200220,1,0,0:0:0:0:
64,192,200309,1,0,0:0:0:0:
192,192,200309,1,0,0:0:0:0:
320,192,200398,1,0,0:0:0:0:
448,192,200488,1,0,0:0:0:0:
192,192,200488,1,0,0:0:0:0:
320,192,200577,1,0,0:0:0:0:
64,192,200666,1,0,0:0:0:0:
192,192,200666,1,0,0:0:0:0:
320,192,200755,1,0,0:0:0:0:
448,192,200845,1,0,0:0:0:0:
192,192,200845,1,0,0:0:0:0:
320,192,200934,1,0,0:0:0:0:
64,192,201023,1,0,0:0:0:0:
192,192,201023,1,0,0:0:0:0:
320,192,201113,1,0,0:0:0:0:
448,192,201202,1,0,0:0:0:0:
64,192,201202,1,0,0:0:0:0:
320,192,201291,1,0,0:0:0:0:
448,192,201380,1,0,0:0:0:0:
192,192,201380,1,0,0:0:0:0:
64,192,201380,1,0,0:0:0:0:
320,192,201470,1,0,0:0:0:0:
192,192,201559,1,0,0:0:0:0:
64,192,201559,1,0,0:0:0:0:
320,192,201648,1,0,0:0:0:0:
192,192,201738,1,0,0:0:0:0:
448,192,201738,1,0,0:0:0:0:
320,192,201827,1,0,0:0:0:0:
64,192,201916,1,0,0:0:0:0:
192,192,201916,1,0,0:0:0:0:
320,192,202005,1,0,0:0:0:0:
64,192,202095,1,0,0:0:0:0:
448,192,202095,1,0,0:0:0:0:
192,192,202184,1,0,0:0:0:0:
64,192,202273,1,0,0:0:0:0:
448,192,202273,1,0,0:0:0:0:
320,192,202273,1,0,0:0:0:0:
448,192,202363,1,0,0:0:0:0:
320,192,202452,1,0,0:0:0:0:
192,192,202452,1,0,0:0:0:0:
64,192,202541,1,0,0:0:0:0:
448,192,202630,1,0,0:0:0:0:
320,192,202630,1,0,0:0:0:0:
192,192,202720,1,0,0:0:0:0:
320,192,202809,1,0,0:0:0:0:
448,192,202809,1,0,0:0:0:0:
64,192,202809,1,0,0:0:0:0:
192,192,202898,1,0,0:0:0:0:
320,192,202988,1,0,0:0:0:0:
64,192,202988,1,0,0:0:0:0:
448,192,202988,1,0,0:0:0:0:
320,192,203077,1,0,0:0:0:0:
64,192,203166,1,0,0:0:0:0:
192,192,203166,1,0,0:0:0:0:
448,192,203166,1,0,0:0:0:0:
320,192,203255,1,0,0:0:0:0:
64,192,203345,1,0,0:0:0:0:
448,192,203345,1,0,0:0:0:0:
192,192,203434,1,0,0:0:0:0:
320,192,203523,1,0,0:0:0:0:
64,192,203523,1,0,0:0:0:0:
448,192,203523,1,0,0:0:0:0:
192,192,203613,1,0,0:0:0:0:
320,192,203702,1,0,0:0:0:0:
64,192,203702,1,0,0:0:0:0:
448,192,203791,1,0,0:0:0:0:
192,192,203880,1,0,0:0:0:0:
64,192,203880,1,0,0:0:0:0:
320,192,203970,1,0,0:0:0:0:
192,192,204059,1,0,0:0:0:0:
448,192,204059,1,0,0:0:0:0:
320,192,204148,1,0,0:0:0:0:
64,192,204238,1,0,0:0:0:0:
192,192,204238,1,0,0:0:0:0:
448,192,204327,1,0,0:0:0:0:
320,192,204416,1,0,0:0:0:0:
192,192,204416,1,0,0:0:0:0:
64,192,204505,1,0,0:0:0:0:
448,192,204595,1,0,0:0:0:0:
192,192,204595,1,0,0:0:0:0:
320,192,204684,1,0,0:0:0:0:
64,192,204773,1,0,0:0:0:0:
448,192,204773,1,0,0:0:0:0:
192,192,204863,1,0,0:0:0:0:
64,192,204952,1,0,0:0:0:0:
320,192,204952,1,0,0:0:0:0:
448,192,205041,1,0,0:0:0:0:
192,192,205130,1,0,0:0:0:0:
320,192,205130,1,0,0:0:0:0:
448,192,205220,1,0,0:0:0:0:
64,192,205309,1,0,0:0:0:0:
320,192,205309,1,0,0:0:0:0:
192,192,205309,1,0,0:0:0:0:
64,192,205398,1,0,0:0:0:0:
448,192,205488,1,0,0:0:0:0:
192,192,205577,1,0,0:0:0:0:
64,192,205666,128,0,205845:0:0:0:0:
192,192,205845,1,0,0:0:0:0:
448,192,205845,128,0,206023:0:0:0:0:
192,192,206023,1,0,0:0:0:0:
64,192,206023,1,0,0:0:0:0:
320,192,206023,128,0,206202:0:0:0:0:
192,192,206202,128,0,206380:0:0:0:0:
448,192,206202,1,0,0:0:0:0:
64,192,206380,128,0,206559:0:0:0:0:
320,192,206380,1,0,0:0:0:0:
192,192,206559,1,0,0:0:0:0:
448,192,206559,128,0,206738:0:0:0:0:
192,192,206738,1,0,0:0:0:0:
64,192,206738,1,0,0:0:0:0:
320,192,206738,128,0,206916:0:0:0:0:
192,192,206916,128,0,207095:0:0:0:0:
64,192,206916,1,0,0:0:0:0:
64,192,207095,128,0,207273:0:0:0:0:
320,192,207095,1,0,0:0:0:0:
192,192,207273,1,0,0:0:0:0:
448,192,207273,128,0,207452:0:0:0:0:
192,192,207452,128,0,207630:0:0:0:0:
64,192,207452,1,0,0:0:0:0:
320,192,207452,1,0,0:0:0:0:
320,192,207630,128,0,207809:0:0:0:0:
448,192,207630,1,0,0:0:0:0:
64,192,207809,128,0,207988:0:0:0:0:
192,192,207809,1,0,0:0:0:0:
192,192,207988,128,0,208166:0:0:0:0:
320,192,207988,1,0,0:0:0:0:
64,192,208166,1,0,0:0:0:0:
320,192,208166,128,0,208345:0:0:0:0:
448,192,208166,1,0,0:0:0:0:
64,192,208345,128,0,208523:0:0:0:0:
192,192,208345,1,0,0:0:0:0:
192,192,208523,128,0,208702:0:0:0:0:
448,192,208523,1,0,0:0:0:0:
64,192,208702,128,0,208880:0:0:0:0:
320,192,208702,1,0,0:0:0:0:
192,192,208880,1,0,0:0:0:0:
448,192,208880,128,0,209059:0:0:0:0:
320,192,208880,1,0,0:0:0:0:
64,192,209059,1,0,0:0:0:0:
320,192,209059,128,0,209238:0:0:0:0:
64,192,209238,128,0,209416:0:0:0:0:
192,192,209238,1,0,0:0:0:0:
320,192,209416,128,0,209595:0:0:0:0:
448,192,209416,1,0,0:0:0:0:
192,192,209595,1,0,0:0:0:0:
64,192,209595,1,0,0:0:0:0:
448,192,209595,128,0,209773:0:0:0:0:
192,192,209773,128,0,209952:0:0:0:0:
64,192,209952,128,0,210130:0:0:0:0:
320,192,209952,1,0,0:0:0:0:
448,192,210130,1,0,0:0:0:0:
64,192,210309,128,0,210488:0:0:0:0:
192,192,210309,1,0,0:0:0:0:
448,192,210488,1,0,0:0:0:0:
64,192,210666,128,0,210845:0:0:0:0:
192,192,210666,1,0,0:0:0:0:
320,192,210845,128,0,211023:0:0:0:0:
448,192,210845,1,0,0:0:0:0:
192,192,211023,1,0,0:0:0:0:
64,192,211023,1,0,0:0:0:0:
448,192,211023,128,0,211202:0:0:0:0:
64,192,211202,1,0,0:0:0:0:
64,192,211380,1,0,0:0:0:0:
192,192,211380,1,0,0:0:0:0:
320,192,211380,128,0,211559:0:0:0:0:
448,192,211380,1,0,0:0:0:0:
64,192,211559,128,0,211738:0:0:0:0:
192,192,211559,1,0,0:0:0:0:
192,192,211738,128,0,211916:0:0:0:0:
448,192,211738,1,0,0:0:0:0:
320,192,211738,1,0,0:0:0:0:
448,192,211916,128,0,212095:0:0:0:0:
320,192,211916,1,0,0:0:0:0:
64,192,212095,128,0,212273:0:0:0:0:
192,192,212095,1,0,0:0:0:0:
192,192,212273,128,0,212452:0:0:0:0:
320,192,212273,1,0,0:0:0:0:
64,192,212452,1,0,0:0:0:0:
448,192,212452,128,0,212630:0:0:0:0:
320,192,212452,1,0,0:0:0:0:
192,192,212630,128,0,212809:0:0:0:0:
64,192,212630,1,0,0:0:0:0:
320,192,212809,128,0,212988:0:0:0:0:
448,192,212809,1,0,0:0:0:0:
64,192,212988,1,0,0:0:0:0:
448,192,212988,128,0,213166:0:0:0:0:
192,192,213166,128,0,213345:0:0:0:0:
64,192,213166,1,0,0:0:0:0:
320,192,213166,1,0,0:0:0:0:
448,192,213345,128,0,213523:0:0:0:0:
320,192,213345,1,0,0:0:0:0:
192,192,213523,1,0,0:0:0:0:
320,192,213523,128,0,213702:0:0:0:0:
64,192,213702,1,0,0:0:0:0:
448,192,213702,128,0,213880:0:0:0:0:
192,192,213880,128,0,214059:0:0:0:0:
64,192,213880,1,0,0:0:0:0:
320,192,213880,1,0,0:0:0:0:
320,192,214059,128,0,214238:0:0:0:0:
448,192,214059,1,0,0:0:0:0:
192,192,214238,128,0,214416:0:0:0:0:
64,192,214238,1,0,0:0:0:0:
64,192,214416,128,0,214595:0:0:0:0:
448,192,214416,1,0,0:0:0:0:
192,192,214595,1,0,0:0:0:0:
320,192,214595,128,0,214773:0:0:0:0:
448,192,214595,1,0,0:0:0:0:
64,192,214773,128,0,214952:0:0:0:0:
448,192,214773,1,0,0:0:0:0:
448,192,214952,128,0,215130:0:0:0:0:
320,192,214952,1,0,0:0:0:0:
192,192,215130,128,0,215309:0:0:0:0:
320,192,215130,1,0,0:0:0:0:
64,192,215309,128,0,215488:0:0:0:0:
448,192,215309,1,0,0:0:0:0:
320,192,215309,1,0,0:0:0:0:
192,192,215488,128,0,215666:0:0:0:0:
448,192,215488,1,0,0:0:0:0:
64,192,215666,1,0,0:0:0:0:
448,192,215666,128,0,215845:0:0:0:0:
192,192,215845,128,0,216023:0:0:0:0:
320,192,215845,1,0,0:0:0:0:
64,192,216023,1,0,0:0:0:0:
320,192,216023,128,0,216202:0:0:0:0:
448,192,216023,1,0,0:0:0:0:
64,192,216202,128,0,216380:0:0:0:0:
192,192,216202,1,0,0:0:0:0:
192,192,216380,128,0,216559:0:0:0:0:
448,192,216380,1,0,0:0:0:0:
64,192,216559,1,0,0:0:0:0:
448,192,216559,128,0,216738:0:0:0:0:
192,192,216738,1,0,0:0:0:0:
64,192,216738,1,0,0:0:0:0:
320,192,216738,128,0,216916:0:0:0:0:
64,192,216916,128,0,217095:0:0:0:0:
448,192,216916,1,0,0:0:0:0:
192,192,217095,1,0,0:0:0:0:
448,192,217095,128,0,217273:0:0:0:0:
320,192,217095,1,0,0:0:0:0:
320,192,217273,1,0,0:0:0:0:
64,192,217273,128,0,217452:0:0:0:0:
320,192,217452,1,0,0:0:0:0:
448,192,217452,1,0,0:0:0:0:
192,192,217452,128,0,217630:0:0:0:0:
320,192,217630,128,0,217809:0:0:0:0:
64,192,217630,1,0,0:0:0:0:
448,192,217809,128,0,217988:0:0:0:0:
192,192,217809,1,0,0:0:0:0:
320,192,217988,1,0,0:0:0:0:
64,192,217988,128,0,218166:0:0:0:0:
320,192,218166,1,0,0:0:0:0:
448,192,218166,1,0,0:0:0:0:
192,192,218166,128,0,218345:0:0:0:0:
320,192,218345,128,0,218523:0:0:0:0:
448,192,218345,1,0,0:0:0:0:
448,192,218523,128,0,218702:0:0:0:0:
192,192,218523,1,0,0:0:0:0:
320,192,218702,1,0,0:0:0:0:
64,192,218702,128,0,218880:0:0:0:0:
320,192,218880,128,0,219059:0:0:0:0:
448,192,218880,1,0,0:0:0:0:
192,192,218880,1,0,0:0:0:0:
192,192,219059,128,0,219238:0:0:0:0:
64,192,219059,1,0,0:0:0:0:
448,192,219238,128,0,219416:0:0:0:0:
320,192,219238,1,0,0:0:0:0:
320,192,219416,128,0,219595:0:0:0:0:
192,192,219416,1,0,0:0:0:0:
448,192,219595,1,0,0:0:0:0:
192,192,219595,128,0,219773:0:0:0:0:
64,192,219595,1,0,0:0:0:0:
448,192,219773,128,0,219952:0:0:0:0:
320,192,219773,1,0,0:0:0:0:
320,192,219952,128,0,220130:0:0:0:0:
64,192,219952,1,0,0:0:0:0:
448,192,220130,128,0,220309:0:0:0:0:
192,192,220130,1,0,0:0:0:0:
320,192,220309,1,0,0:0:0:0:
64,192,220309,128,0,220488:0:0:0:0:
192,192,220309,1,0,0:0:0:0:
448,192,220488,1,0,0:0:0:0:
192,192,220488,128,0,220666:0:0:0:0:
448,192,220666,128,0,220845:0:0:0:0:
320,192,220666,1,0,0:0:0:0:
192,192,220845,128,0,221023:0:0:0:0:
64,192,220845,1,0,0:0:0:0:
320,192,221023,1,0,0:0:0:0:
448,192,221023,1,0,0:0:0:0:
64,192,221023,128,0,221202:0:0:0:0:
320,192,221202,128,0,221380:0:0:0:0:
448,192,221380,128,0,221559:0:0:0:0:
192,192,221380,1,0,0:0:0:0:
64,192,221559,1,0,0:0:0:0:
448,192,221738,128,0,221916:0:0:0:0:
320,192,221738,1,0,0:0:0:0:
64,192,221916,1,0,0:0:0:0:
448,192,222095,128,0,222273:0:0:0:0:
320,192,222095,1,0,0:0:0:0:
192,192,222273,128,0,222452:0:0:0:0:
64,192,222273,1,0,0:0:0:0:
320,192,222452,1,0,0:0:0:0:
448,192,222452,1,0,0:0:0:0:
64,192,222452,128,0,222630:0:0:0:0:
448,192,222630,1,0,0:0:0:0:
448,192,222809,1,0,0:0:0:0:
320,192,222809,1,0,0:0:0:0:
64,192,222809,1,0,0:0:0:0:
192,192,222809,128,0,222988:0:0:0:0:
448,192,222988,128,0,223166:0:0:0:0:
320,192,222988,1,0,0:0:0:0:
320,192,223166,128,0,223345:0:0:0:0:
64,192,223166,1,0,0:0:0:0:
192,192,223166,1,0,0:0:0:0:
64,192,223345,128,0,223523:0:0:0:0:
192,192,223345,1,0,0:0:0:0:
448,192,223523,128,0,223702:0:0:0:0:
320,192,223523,1,0,0:0:0:0:
320,192,223702,128,0,223880:0:0:0:0:
192,192,223702,1,0,0:0:0:0:
448,192,223880,1,0,0:0:0:0:
64,192,223880,128,0,224059:0:0:0:0:
192,192,223880,1,0,0:0:0:0:
320,192,224059,128,0,224238:0:0:0:0:
448,192,224059,1,0,0:0:0:0:
192,192,224238,128,0,224416:0:0:0:0:
64,192,224238,1,0,0:0:0:0:
448,192,224416,1,0,0:0:0:0:
64,192,224416,128,0,224595:0:0:0:0:
320,192,224595,128,0,224773:0:0:0:0:
448,192,224595,1,0,0:0:0:0:
192,192,224595,1,0,0:0:0:0:
64,192,224773,128,0,224952:0:0:0:0:
192,192,224773,1,0,0:0:0:0:
320,192,224952,1,0,0:0:0:0:
192,192,224952,128,0,225130:0:0:0:0:
448,192,225130,1,0,0:0:0:0:
64,192,225130,128,0,225309:0:0:0:0:
320,192,225309,128,0,225488:0:0:0:0:
448,192,225309,1,0,0:0:0:0:
192,192,225309,1,0,0:0:0:0:
192,192,225488,128,0,225666:0:0:0:0:
64,192,225488,1,0,0:0:0:0:
320,192,225666,128,0,225845:0:0:0:0:
448,192,225666,1,0,0:0:0:0:
448,192,225845,128,0,226023:0:0:0:0:
64,192,225845,1,0,0:0:0:0:
320,192,226023,1,0,0:0:0:0:
192,192,226023,128,0,226202:0:0:0:0:
64,192,226023,1,0,0:0:0:0:
448,192,226202,128,0,226380:0:0:0:0:
64,192,226202,1,0,0:0:0:0:
64,192,226380,128,0,226559:0:0:0:0:
192,192,226380,1,0,0:0:0:0:
320,192,226559,128,0,226738:0:0:0:0:
192,192,226559,1,0,0:0:0:0:
448,192,226738,128,0,226916:0:0:0:0:
64,192,226738,1,0,0:0:0:0:
192,192,226827,1,0,0:0:0:0:
64,192,226916,1,0,0:0:0:0:
320,192,226916,1,0,0:0:0:0:
192,192,227005,1,0,0:0:0:0:
320,192,227095,1,0,0:0:0:0:
448,192,227095,1,0,0:0:0:0:
192,192,227184,1,0,0:0:0:0:
64,192,227184,1,0,0:0:0:0:
448,192,227273,1,0,0:0:0:0:
320,192,227273,1,0,0:0:0:0:
192,192,227363,1,0,0:0:0:0:
64,192,227363,1,0,0:0:0:0:
448,192,227452,1,0,0:0:0:0:
320,192,227452,1,0,0:0:0:0:
192,192,227541,1,0,0:0:0:0:
64,192,227541,1,0,0:0:0:0:
320,192,227630,1,0,0:0:0:0:
448,192,227630,1,0,0:0:0:0:
192,192,227720,1,0,0:0:0:0:
64,192,227720,1,0,0:0:0:0:
448,192,227809,1,0,0:0:0:0:
320,192,227831,1,0,0:0:0:0:
192,192,227854,1,0,0:0:0:0:
64,192,227876,1,0,0:0:0:0:
448,192,227898,1,0,0:0:0:0:
320,192,227921,1,0,0:0:0:0:
192,192,227943,1,0,0:0:0:0:
64,192,227965,1,0,0:0:0:0:
448,192,227988,1,0,0:0:0:0:
320,192,228010,1,0,0:0:0:0:
192,192,228032,1,0,0:0:0:0:
64,192,228055,1,0,0:0:0:0:
448,192,228077,1,0,0:0:0:0:
320,192,228099,1,0,0:0:0:0:
192,192,228122,1,0,0:0:0:0:
64,192,228144,1,0,0:0:0:0:
448,192,228166,1,0,0:0:0:0:
320,192,228189,1,0,0:0:0:0:
192,192,228211,1,0,0:0:0:0:
64,192,228233,1,0,0:0:0:0:
448,192,228255,1,0,0:0:0:0:
320,192,228278,1,0,0:0:0:0:
192,192,228300,1,0,0:0:0:0:
64,192,228322,1,0,0:0:0:0:
448,192,228345,1,0,0:0:0:0:
320,192,228367,1,0,0:0:0:0:
192,192,228389,1,0,0:0:0:0:
64,192,228412,1,0,0:0:0:0:
448,192,228434,1,0,0:0:0:0:
320,192,228456,1,0,0:0:0:0:
192,192,228479,1,0,0:0:0:0:
64,192,228501,1,0,0:0:0:0:
192,192,228523,1,0,0:0:0:0:
320,192,228523,1,0,0:0:0:0:
448,192,228523,1,0,0:0:0:0:
