osu file format v14

[General]
AudioFilename: - _81554367_soundcloud.mp3
AudioLeadIn: 0
PreviewTime: 72781
Countdown: 1
SampleSet: Normal
StackLeniency: 0.7
Mode: 0
LetterboxInBreaks: 0
WidescreenStoryboard: 0

[Editor]
Bookmarks: 542,11769,23180,24100,35879,36431,38640,41032,41769,42321,46186,46922,47290,47658,54652,55020,55388,55756,56124,57229,57965,58517,58701,59069,59253,59437,59989,60173,60726,60910,61462,61646,62198,62382,62934,63118,63670,63854,64039,64407,64959,65327,65879,66063,66615,66799,67167,67351,67720,68088,68272,68824,69192,69376,69560,69928,70480,70848,71216,72689,72873,74161,78210,78394,78578,85204,85940,91278,91646,91830,92382,92566,93118,93302,93854,94039,94591,94775,96063,96247,97720,102137,102505,102873,103241,103609,109499,113916,114284,114652,115020,115388,118333,118609,118701,119805,121278,141523,142259,142996,143364,143732,144100,144468,144836,145388,145572,146124,146308,146861,147045,147597,147781,148333,148517,149069,149253,149805,149989,150542,150726,151278,151462,152014,152198,152750,152934,153486,153670,155511,156615,156983,157351,157720,158088,158272,159560,169683,169867,170051,171339,176308,177045,177229,177781,177965,178517,178701,179253,179437,179989,180173,180220,181646,183118,183486,183670,184039,184223,184591,184775,185143,185327,185419,185511,185695,185787,185879,186063,186431,186615,186983,187167,187535,187720,188088,188824,189008,191953,192505,194897,200787,203364,203548,203732,206677,215511,217351,218456,219008,219744,219928,221400,222873,224161,224345,224391,227290,235756,238885,239069,242014,242566,244775,244959,249560,249744,249928,250112,250480,250848,260971,261339,262627,264284,265572,268333,268517,269069,269253,269805,269989,270542,270726,271278,271462,272750,272934,274407,277351,284713,286186,290603,290971,291339,291707,292075,295020,296493,297965,300910,303486,303854,306799,309008,309192,309376,309560
DistanceSpacing: 0.8
BeatDivisor: 4
GridSize: 4
TimelineZoom: 1.750002

[Metadata]
Title:Macross 30 - Planet Cradle
TitleUnicode:マクロス30 - プラネット・クレイドル
Artist:Sensuga Haruka
ArtistUnicode:千菅春香
Creator:- Yoshimaro -
Version:Insane
Source:
Tags:
BeatmapID:834979
BeatmapSetID:381736

[Difficulty]
HPDrainRate:6
CircleSize:4
OverallDifficulty:8
ApproachRate:9.5
SliderMultiplier:1.89999990463257
SliderTickRate:1

[Events]
//Background and Video events
0,0,"Macross-Wallpaper.jpg",0,0
//Break Periods
2,24300,35354
2,38840,41244
2,44729,46397
2,227490,236152
2,239085,242041
//Storyboard Layer 0 (Background)
//Storyboard Layer 1 (Fail)
//Storyboard Layer 2 (Pass)
//Storyboard Layer 3 (Foreground)
//Storyboard Sound Samples

[TimingPoints]
174,368.098159509202,4,1,0,100,1,0
542,-200,4,2,0,50,0,0
12321,-181.818181818182,4,2,0,50,0,0
14345,-200,4,2,0,50,0,0
15266,-166.666666666667,4,2,0,50,0,0
20235,-200,4,2,0,50,0,0
23548,-125,4,2,0,50,0,0
35879,-125,4,2,0,60,0,0
47658,-117.647058823529,4,2,0,60,0,0
48993,-200,4,2,0,5,0,0
49315,-117.647058823529,4,2,0,60,0,0
50327,-200,4,2,0,5,0,0
50419,-117.647058823529,4,2,0,60,0,0
50511,-200,4,2,0,5,0,0
50603,-117.647058823529,4,2,0,60,0,0
52259,-117.647058823529,4,2,0,35,0,0
52996,-117.647058823529,4,2,0,60,0,0
54652,-133.333333333333,4,2,0,60,0,0
54959,-200,4,2,0,5,0,0
55020,-133.333333333333,4,2,0,60,0,0
55327,-200,4,2,0,5,0,0
55388,-133.333333333333,4,2,0,60,0,0
55695,-200,4,2,0,5,0,0
55756,-133.333333333333,4,2,0,60,0,0
56063,-200,4,2,0,5,0,0
56124,-133.333333333333,4,2,0,60,0,0
59437,-95.2380952380952,4,2,0,70,0,0
64039,-76.9230769230769,4,2,0,50,0,0
64591,-76.9230769230769,4,2,0,70,0,0
64683,-76.9230769230769,4,2,0,50,0,0
65327,-90.9090909090909,4,2,0,70,0,0
68272,-105.263157894737,4,2,0,80,0,0
71216,-105.263157894737,4,2,0,100,0,0
71308,-200,4,2,0,40,0,0
71953,-200,4,2,0,55,0,0
72873,-200,4,2,0,35,0,0
73057,-200,4,2,0,42,0,0
73241,-200,4,2,0,49,0,0
73425,-200,4,2,0,56,0,0
73609,-200,4,2,0,63,0,0
73793,-200,4,2,0,70,0,0
73977,-200,4,2,0,77,0,0
74161,-71.4285714285714,4,1,0,70,0,1
74345,-71.4285714285714,4,1,0,70,0,1
85204,-200,4,2,0,50,0,1
85572,-200,4,2,0,70,0,1
85940,-71.4285714285714,4,1,0,70,0,1
90542,-90.9090909090909,4,1,0,70,0,1
90634,-200,4,2,0,5,0,1
90726,-90.9090909090909,4,1,0,70,0,1
90818,-200,4,2,0,5,0,1
90910,-90.9090909090909,4,1,0,70,0,1
91002,-200,4,2,0,5,0,1
91094,-71.4285714285714,4,1,0,70,0,1
96247,-71.4285714285714,4,1,0,70,0,0
102137,-200,4,1,0,30,0,0
102443,-200,4,2,0,5,0,0
102505,-153.846153846154,4,1,0,40,0,0
102812,-200,4,2,0,5,0,0
102873,-125,4,1,0,50,0,0
103180,-200,4,2,0,5,0,0
103241,-105.263157894737,4,1,0,60,0,0
103548,-200,4,2,0,5,0,0
103609,-71.4285714285714,4,1,0,70,0,0
108394,-200,4,2,0,45,0,0
108578,-200,4,2,0,55,0,0
108762,-200,4,2,0,65,0,0
109131,-200,4,2,0,70,0,0
109315,-200,4,2,0,80,0,0
109499,-71.4285714285714,4,1,0,70,0,0
113916,-200,4,1,0,30,0,0
114222,-200,4,2,0,5,0,0
114284,-153.846153846154,4,1,0,40,0,0
114591,-200,4,2,0,5,0,0
114652,-125,4,1,0,50,0,0
114959,-200,4,2,0,5,0,0
115020,-105.263157894737,4,1,0,60,0,0
115327,-200,4,2,0,5,0,0
115388,-71.4285714285714,4,1,0,70,0,0
119805,-200,4,2,0,100,0,0
119897,-200,4,2,0,45,0,0
119989,-200,4,2,0,50,0,0
120173,-200,4,2,0,55,0,0
120357,-200,4,2,0,60,0,0
120542,-200,4,2,0,70,0,0
120726,-200,4,2,0,75,0,0
120910,-200,4,2,0,80,0,0
121094,-200,4,2,0,90,0,0
121278,-200,4,2,0,100,0,0
121370,-100,4,2,0,60,0,0
131861,-200,4,2,0,5,0,0
131953,-100,4,2,0,60,0,0
132045,-200,4,2,0,5,0,0
132137,-100,4,2,0,60,0,0
141523,-133.333333333333,4,2,0,60,0,0
142996,-100,4,2,0,60,0,0
143364,-100,4,2,0,25,0,0
143548,-100,4,2,0,32,0,0
143732,-100,4,2,0,40,0,0
143916,-100,4,2,0,47,0,0
144100,-100,4,2,0,55,0,0
144284,-100,4,2,0,62,0,0
144468,-100,4,2,0,69,0,0
144652,-100,4,2,0,76,0,0
144836,-83.3333333333333,4,2,0,80,0,0
153486,-83.3333333333333,4,2,0,85,0,0
156615,-105.263157894737,4,2,0,100,0,0
156707,-200,4,2,0,40,0,0
157352,-200,4,2,0,55,0,0
158272,-200,4,2,0,35,0,0
158456,-200,4,2,0,42,0,0
158640,-200,4,2,0,49,0,0
158824,-200,4,2,0,56,0,0
159008,-200,4,2,0,63,0,0
159192,-200,4,2,0,70,0,0
159376,-200,4,2,0,77,0,0
159560,-66.6666666666667,4,1,0,70,0,1
170051,-200,4,2,0,35,0,1
170235,-200,4,2,0,42,0,1
170419,-200,4,2,0,49,0,1
170603,-200,4,2,0,56,0,1
170787,-200,4,2,0,63,0,1
170971,-200,4,2,0,70,0,1
171155,-200,4,2,0,77,0,1
171339,-66.6666666666667,4,1,0,70,0,1
175940,-66.6666666666667,4,1,0,70,0,1
176032,-200,4,2,0,5,0,1
176124,-66.6666666666667,4,1,0,70,0,1
176216,-200,4,2,0,5,0,1
176308,-66.6666666666667,4,1,0,70,0,1
176400,-200,4,2,0,5,0,1
176493,-66.6666666666667,4,1,0,70,0,1
180173,-66.6666666666667,4,1,0,70,0,0
183118,-166.666666666667,4,1,0,70,0,0
183670,-142.857142857143,4,1,0,70,0,0
184223,-125,4,1,0,70,0,0
184775,-111.111111111111,4,1,0,70,0,0
186615,-100,4,1,0,70,0,0
188640,-90.9090909090909,4,1,0,70,0,0
193425,-200,4,2,0,45,0,0
193609,-200,4,2,0,50,0,0
193793,-200,4,2,0,55,0,0
193977,-200,4,2,0,60,0,0
194162,-200,4,2,0,70,0,0
194346,-200,4,2,0,75,0,0
194530,-200,4,2,0,80,0,0
194714,-200,4,2,0,90,0,0
194897,-71.4285714285714,4,1,0,70,0,1
205940,-200,4,2,0,50,0,1
206308,-200,4,2,0,70,0,1
206677,-71.4285714285714,4,1,0,70,0,1
222873,-200,4,2,0,45,0,1
223057,-200,4,2,0,50,0,1
223241,-200,4,2,0,55,0,1
223425,-200,4,2,0,60,0,1
223610,-200,4,2,0,70,0,1
223794,-200,4,2,0,75,0,1
223978,-200,4,2,0,80,0,1
224162,-200,4,2,0,90,0,1
224345,-125,4,2,0,50,0,0
224346,-200,4,2,0,100,0,0
236677,-125,4,2,0,60,0,0
249560,-105.263157894737,4,2,0,60,0,0
250112,-166.666666666667,4,2,0,60,0,0
250419,-200,4,2,0,5,0,0
250480,-111.111111111111,4,2,0,60,0,0
250787,-200,4,2,0,5,0,0
250848,-64.5161290322581,4,1,0,70,0,1
261339,-200,4,2,0,35,0,1
261523,-200,4,2,0,42,0,1
261707,-200,4,2,0,49,0,1
261891,-200,4,2,0,56,0,1
262075,-200,4,2,0,63,0,1
262259,-200,4,2,0,70,0,1
262443,-200,4,2,0,77,0,1
262627,-64.5161290322581,4,1,0,70,0,1
267229,-64.5161290322581,4,1,0,70,0,1
267321,-200,4,2,0,5,0,1
267413,-64.5161290322581,4,1,0,70,0,1
267505,-200,4,2,0,5,0,1
267597,-64.5161290322581,4,1,0,70,0,1
267689,-200,4,2,0,5,0,1
267781,-64.5161290322581,4,1,0,70,0,1
272934,-64.5161290322581,4,1,0,70,0,0
297965,-62.5,4,1,0,70,0,0

[HitObjects]
300,72,542,6,0,P|328:72|360:84,1,47.4999976158142
420,112,910,1,0,0:0:0:0:
328,136,1094,6,0,P|296:136|264:148,1,47.4999976158142
208,176,1462,1,0,0:0:0:0:
284,192,1646,6,0,P|320:192|344:200,1,47.4999976158142
404,232,2014,1,0,0:0:0:0:
320,236,2198,6,0,P|284:236|256:244,1,47.4999976158142
200,280,2566,6,0,P|164:256|152:208,1,94.9999952316283
156,140,3118,1,0,0:0:0:0:
180,68,3302,1,0,0:0:0:0:
256,80,3486,6,0,P|272:108|272:128,1,47.4999976158142
264,200,3854,1,0,0:0:0:0:
312,116,4039,6,0,P|328:144|332:168,1,47.4999976158142
320,236,4407,1,0,0:0:0:0:
364,152,4591,6,0,P|380:180|384:200,1,47.4999976158142
372,272,4959,1,0,0:0:0:0:
440,184,5143,6,0,P|456:156|460:136,1,47.4999976158142
448,64,5511,6,0,B|428:44|428:44|424:64|408:88|380:88,1,94.9999952316283
312,104,6063,1,0,0:0:0:0:
232,112,6247,1,0,0:0:0:0:
216,188,6431,6,0,P|188:168|172:144,1,47.4999976158142
228,96,6799,1,0,0:0:0:0:
288,208,6983,6,0,P|316:188|328:164,1,47.4999976158142
280,124,7351,1,0,0:0:0:0:
216,228,7535,6,0,P|188:208|176:184,1,47.4999976158142
216,140,7903,1,0,0:0:0:0:
284,244,8088,6,0,P|312:224|328:196,1,47.4999976158142
280,160,8456,6,0,B|248:156|240:148|240:148|236:144|224:116|228:92,1,94.9999952316283
200,180,9008,1,0,0:0:0:0:
264,132,9192,1,0,0:0:0:0:
308,64,9376,6,0,P|328:84|340:120,1,47.4999976158142
368,164,9744,1,0,0:0:0:0:
304,112,9928,6,0,P|284:136|276:152,1,47.4999976158142
280,224,10296,1,0,0:0:0:0:
224,164,10480,6,0,P|204:184|188:216,1,47.4999976158142
164,264,10848,1,0,0:0:0:0:
228,212,11032,6,0,P|248:236|248:260,1,47.4999976158142
252,324,11400,1,0,0:0:0:0:
172,168,11769,5,0,0:0:0:0:
336,248,11953,1,0,0:0:0:0:
224,312,12321,6,0,P|196:304|172:276,1,52.249998971939
128,224,12689,1,0,0:0:0:0:
208,236,12873,6,0,P|244:224|272:208,1,52.249998971939
320,168,13241,1,0,0:0:0:0:
220,188,13425,6,0,P|192:180|168:160,1,52.249998971939
124,100,13793,1,0,0:0:0:0:
208,136,13977,6,0,P|244:124|272:108,1,52.249998971939
328,64,14345,6,0,B|356:60|360:48|360:48|368:48|392:72|380:100,1,94.9999952316283
280,156,14897,5,0,0:0:0:0:
152,112,15081,1,0,0:0:0:0:
272,212,15266,6,0,P|312:204|328:192,1,56.9999953994752
360,100,15634,1,0,0:0:0:0:
368,232,15818,6,0,P|328:224|312:216,1,56.9999953994752
280,120,16186,1,0,0:0:0:0:
272,244,16370,6,0,P|312:236|328:224,1,56.9999953994752
360,132,16738,1,0,0:0:0:0:
368,264,16922,6,0,P|328:256|312:244,1,56.9999953994752
212,164,17290,5,0,0:0:0:0:
376,68,17658,5,0,0:0:0:0:
376,256,17842,1,0,0:0:0:0:
204,280,18210,6,0,P|176:288|140:292,1,56.9999953994752
56,256,18578,1,0,0:0:0:0:
204,272,18762,6,0,P|160:272|148:268,1,56.9999953994752
80,192,19131,1,0,0:0:0:0:
208,264,19315,6,0,P|184:260|156:236,1,56.9999953994752
132,148,19683,1,0,0:0:0:0:
212,256,19867,6,0,P|192:236|180:208,1,56.9999953994752
196,116,20235,6,0,B|204:96|224:88|224:88|232:120|252:144,1,94.9999952316283
264,168,20787,1,0,0:0:0:0:
296,200,20971,1,0,0:0:0:0:
288,268,21155,5,0,0:0:0:0:
228,224,21339,1,0,0:0:0:0:
196,156,21523,1,0,0:0:0:0:
164,296,21707,5,0,0:0:0:0:
240,228,21891,1,0,0:0:0:0:
288,136,22075,1,0,0:0:0:0:
368,304,22259,5,0,0:0:0:0:
260,240,22443,1,0,0:0:0:0:
184,136,22627,2,0,B|168:116|176:96|192:84|208:76|208:76|204:96|220:120|248:132,1,142.499992847443
196,248,23548,6,0,P|252:224|264:208,1,75.9999961853027
344,108,23916,1,0,0:0:0:0:
256,300,24100,5,4,0:0:0:0:
256,120,35879,5,0,0:0:0:0:
200,260,36431,2,0,P|160:240|140:204,1,75.9999961853027
120,116,36799,1,0,0:0:0:0:
232,192,36983,1,0,0:0:0:0:
244,68,37167,6,0,P|292:60|324:76,1,75.9999961853027
212,120,37535,2,0,P|252:112|288:128,1,75.9999961853027
380,176,37904,5,0,0:0:0:0:
272,216,38088,1,0,0:0:0:0:
200,120,38272,5,0,0:0:0:0:
320,180,38456,1,0,0:0:0:0:
256,24,38640,5,0,0:0:0:0:
256,276,41769,5,0,0:0:0:0:
332,240,42321,6,0,P|304:208|304:156,1,75.9999961853027
408,152,42689,1,0,0:0:0:0:
236,184,42873,6,0,P|204:156|200:124,1,75.9999961853027
320,120,43241,6,0,P|352:92|356:60,1,75.9999961853027
120,200,43793,5,0,0:0:0:0:
364,240,44161,1,0,0:0:0:0:
256,60,44529,5,0,0:0:0:0:
256,308,46922,5,0,0:0:0:0:
256,112,47290,1,0,0:0:0:0:
348,236,47658,5,0,0:0:0:0:
432,136,48026,6,0,L|464:112,2,40.374998743534
328,192,48394,1,0,0:0:0:0:
208,212,48578,1,0,0:0:0:0:
312,60,48947,6,0,L|296:84,1,20.187499371767
192,284,49315,6,0,P|156:256|144:224,1,80.7499974870681
168,116,49683,1,0,0:0:0:0:
328,228,49867,5,0,0:0:0:0:
328,228,49959,1,0,0:0:0:0:
328,228,50051,1,0,0:0:0:0:
424,100,50235,6,0,L|400:132,1,40.374998743534
396,92,50419,2,0,L|372:124,1,40.374998743534
360,80,50603,6,0,B|340:44|340:44|308:68,1,80.7499974870681
192,92,50971,6,0,L|148:104,2,40.374998743534
280,168,51339,6,0,L|308:208,2,40.374998743534
188,248,51707,5,0,0:0:0:0:
332,228,51891,2,0,P|364:204|384:168,1,80.7499974870681
400,280,52259,5,0,0:0:0:0:
400,280,52351,1,0,0:0:0:0:
400,280,52443,1,0,0:0:0:0:
272,192,52627,1,0,0:0:0:0:
284,320,52812,1,0,0:0:0:0:
168,244,52996,6,0,P|132:216|112:176,1,80.7499974870681
256,204,53364,1,0,0:0:0:0:
348,160,53548,6,0,B|380:140|396:140|396:140|384:168,1,80.7499974870681
256,188,53916,1,0,0:0:0:0:
356,216,54100,2,0,P|376:224|404:256,2,40.374998743534
204,144,54468,5,0,0:0:0:0:
232,320,54652,6,0,B|184:308|156:276|144:236,1,118.749998569488
164,236,55020,6,0,B|196:260|216:264|248:268|276:256,1,118.749998569488
236,232,55388,6,0,B|284:228|292:224|320:208|344:184,1,118.749998569488
300,180,55756,6,0,B|268:176|240:164|224:144|224:144|248:120,1,118.749998569488
264,100,56124,6,0,B|300:88|332:92|352:108|364:124|376:160,1,142.499998283386
200,156,56861,2,0,B|168:152|144:160|112:180|96:196|80:224,1,142.499998283386
336,168,57597,2,0,B|376:180|416:216|400:288,1,142.499998283386
152,136,58517,6,0,L|184:168,2,35.6249995708465
364,92,59069,1,0,0:0:0:0:
228,148,59253,1,0,0:0:0:0:
168,280,59437,5,4,0:0:0:0:
316,156,59621,1,0,0:0:0:0:
312,312,59805,1,0,0:0:0:0:
160,184,59989,6,0,P|204:136|256:116,1,99.7499919490816,0|4,0:0|0:0,0:0:0:0:
404,96,60358,1,0,0:0:0:0:
432,124,60450,1,0,0:0:0:0:
448,160,60542,1,0,0:0:0:0:
280,172,60726,6,0,B|224:144|224:144|200:176,1,99.7499919490816,0|4,0:0|0:0,0:0:0:0:
104,296,61094,6,0,L|64:332,2,49.8749959745408
268,212,61462,6,0,P|328:200|344:168,1,99.7499919490816,0|4,0:0|0:0,0:0:0:0:
152,96,61830,1,0,0:0:0:0:
116,116,61922,1,0,0:0:0:0:
88,144,62014,1,0,0:0:0:0:
292,176,62198,6,0,B|232:168|232:168|208:120,1,99.7499919490816,0|4,0:0|0:0,0:0:0:0:
376,264,62566,6,0,L|412:300,2,49.8749959745408
248,156,62934,6,0,B|208:104|208:104|260:80,1,99.7499919490816,0|4,0:0|0:0,0:0:0:0:
124,296,63302,5,0,0:0:0:0:
124,296,63394,1,0,0:0:0:0:
124,296,63486,1,0,0:0:0:0:
284,168,63670,6,0,B|336:128|336:128|296:112,1,99.7499919490816,0|4,0:0|0:0,0:0:0:0:
248,288,64039,6,0,P|192:232|184:184,1,123.499988147736
92,48,64407,5,0,0:0:0:0:
116,60,64499,1,0,0:0:0:0:
92,68,64591,1,4,0:0:0:0:
116,80,64683,1,0,0:0:0:0:
92,96,64775,1,0,0:0:0:0:
116,108,64867,1,0,0:0:0:0:
92,124,64959,5,0,0:0:0:0:
100,148,65051,1,0,0:0:0:0:
124,160,65143,1,0,0:0:0:0:
152,160,65235,1,0,0:0:0:0:
176,148,65327,6,0,P|216:112|268:112,1,104.499997943878,4|0,0:0|0:0,0:0:0:0:
172,232,65695,1,0,0:0:0:0:
336,192,65879,6,0,L|392:172,2,52.249998971939,0|0|4,0:0|0:0|0:0,0:0:0:0:
220,92,66247,5,0,0:0:0:0:
272,292,66431,1,0,0:0:0:0:
192,136,66615,6,0,P|188:84|248:76,1,104.499997943878,0|4,0:0|0:0,0:0:0:0:
272,268,66983,5,0,0:0:0:0:
336,72,67167,6,0,B|384:124|384:124|360:164,1,104.499997943878,0|4,0:0|0:0,0:0:0:0:
256,320,67720,5,4,0:0:0:0:
256,72,68088,1,4,0:0:0:0:
376,256,68272,6,0,B|396:304|400:304|400:304|436:284,1,90.2499930601121,4|4,0:0|0:0,0:0:0:0:
152,100,68824,2,0,B|104:64|104:64|104:100,1,90.2499930601121,4|4,0:0|0:0,0:0:0:0:
156,304,69376,2,0,B|124:360|124:360|164:340,1,90.2499930601121,4|4,0:0|0:0,0:0:0:0:
368,96,69928,2,0,B|424:76|424:76|404:108,1,90.2499930601121,4|4,0:0|0:0,0:0:0:0:
300,172,70296,5,0,0:0:0:0:
240,244,70480,1,4,0:0:0:0:
220,136,70664,1,0,0:0:0:0:
296,256,70848,1,4,0:0:0:0:
144,96,71032,1,0,0:0:0:0:
364,264,71216,5,4,0:0:0:0:
372,252,71308,1,0,0:0:0:0:
376,240,71400,1,0,0:0:0:0:
376,228,71493,1,0,0:0:0:0:
376,216,71585,1,0,0:0:0:0:
372,204,71677,1,0,0:0:0:0:
364,192,71769,1,0,0:0:0:0:
356,180,71861,1,0,0:0:0:0:
352,168,71953,1,0,0:0:0:0:
352,156,72045,1,0,0:0:0:0:
356,144,72137,1,0,0:0:0:0:
364,132,72229,1,0,0:0:0:0:
368,120,72321,1,0,0:0:0:0:
364,108,72413,1,0,0:0:0:0:
356,96,72505,1,0,0:0:0:0:
348,84,72597,1,0,0:0:0:0:
340,72,72689,1,4,0:0:0:0:
168,104,72873,5,4,0:0:0:0:
144,120,72965,1,4,0:0:0:0:
124,140,73057,1,4,0:0:0:0:
108,164,73149,1,4,0:0:0:0:
108,192,73241,1,4,0:0:0:0:
120,220,73333,1,4,0:0:0:0:
144,256,73425,5,4,0:0:0:0:
176,280,73517,1,4,0:0:0:0:
220,284,73609,1,4,0:0:0:0:
260,264,73701,1,4,0:0:0:0:
288,224,73793,1,4,0:0:0:0:
292,184,73885,1,4,0:0:0:0:
276,144,73977,1,4,0:0:0:0:
264,104,74069,1,4,0:0:0:0:
280,64,74161,5,4,0:0:0:0:
332,296,74345,1,0,0:0:0:0:
144,172,74529,6,0,L|88:136,2,66.4999946327212
68,296,74897,5,0,0:0:0:0:
100,320,74989,1,0,0:0:0:0:
136,336,75081,1,0,0:0:0:0:
176,340,75173,1,0,0:0:0:0:
216,336,75266,1,0,0:0:0:0:
408,248,75450,5,0,0:0:0:0:
420,212,75542,1,0,0:0:0:0:
420,172,75634,1,4,0:0:0:0:
216,76,75818,6,0,P|288:56|344:80,1,132.999989265442
136,124,76186,1,0,0:0:0:0:
336,128,76370,6,0,P|256:120|192:136,1,132.999989265442,4|0,0:0|0:0,0:0:0:0:
332,144,76738,6,0,P|260:184|240:232,1,132.999989265442,4|0,0:0|0:0,0:0:0:0:
336,156,77106,6,0,P|312:224|344:280,1,132.999989265442,4|0,0:0|0:0,0:0:0:0:
444,76,77474,6,0,L|420:152,2,66.4999946327212
184,84,77842,5,0,0:0:0:0:
148,100,77934,1,0,0:0:0:0:
116,124,78026,1,0,0:0:0:0:
92,156,78118,1,0,0:0:0:0:
76,192,78210,1,4,0:0:0:0:
104,64,78394,5,4,0:0:0:0:
136,44,78486,1,0,0:0:0:0:
172,32,78578,5,4,0:0:0:0:
176,280,78762,1,4,0:0:0:0:
320,84,78947,1,4,0:0:0:0:
368,288,79131,1,4,0:0:0:0:
144,128,79315,1,4,0:0:0:0:
212,324,79499,1,4,0:0:0:0:
360,84,79683,1,4,0:0:0:0:
384,320,79867,1,4,0:0:0:0:
216,132,80051,6,0,B|128:104|128:104|160:144,1,132.999989265442,4|0,0:0|0:0,0:0:0:0:
384,304,80419,5,4,0:0:0:0:
392,288,80511,1,0,0:0:0:0:
396,268,80603,1,0,0:0:0:0:
400,248,80695,1,0,0:0:0:0:
400,228,80787,1,0,0:0:0:0:
272,320,80971,5,0,0:0:0:0:
228,328,81063,1,0,0:0:0:0:
180,324,81155,1,4,0:0:0:0:
104,192,81339,1,4,0:0:0:0:
168,60,81523,2,0,P|256:40|300:52,1,132.999989265442,4|0,0:0|0:0,0:0:0:0:
112,112,81891,1,0,0:0:0:0:
324,104,82075,2,0,P|244:104|208:64,1,132.999989265442,4|0,0:0|0:0,0:0:0:0:
224,300,82443,1,0,0:0:0:0:
320,128,82627,6,0,B|412:88|412:88|404:120,1,132.999989265442,4|0,0:0|0:0,0:0:0:0:
356,340,82996,1,4,0:0:0:0:
160,160,83180,2,0,P|120:100|64:76,1,132.999989265442,4|4,0:0|0:0,0:0:0:0:
184,328,83548,1,4,0:0:0:0:
308,120,83732,2,0,B|360:76|380:72|380:72|372:128,1,132.999989265442
140,192,84100,6,0,L|80:220,2,66.4999946327212,4|0|0,0:0|0:0|0:0,0:0:0:0:
360,124,84468,5,4,0:0:0:0:
172,288,84652,1,0,0:0:0:0:
256,48,84836,1,4,0:0:0:0:
352,288,85020,1,0,0:0:0:0:
140,136,85204,5,4,0:0:0:0:
144,108,85296,1,4,0:0:0:0:
164,92,85388,1,4,0:0:0:0:
192,88,85480,1,4,0:0:0:0:
224,112,85572,5,4,0:0:0:0:
228,152,85664,1,4,0:0:0:0:
252,184,85756,1,4,0:0:0:0:
292,188,85848,1,4,0:0:0:0:
324,164,85940,5,4,0:0:0:0:
112,112,86124,1,0,0:0:0:0:
224,312,86308,6,0,L|260:376,2,66.4999946327212
404,176,86677,5,4,0:0:0:0:
412,144,86769,1,0,0:0:0:0:
416,112,86861,1,0,0:0:0:0:
416,80,86953,1,0,0:0:0:0:
408,48,87045,1,0,0:0:0:0:
440,240,87229,5,0,0:0:0:0:
420,280,87321,1,0,0:0:0:0:
392,316,87413,1,4,0:0:0:0:
200,172,87597,6,0,B|128:152|128:152|104:92,1,132.999989265442,4|0,0:0|0:0,0:0:0:0:
264,240,87965,1,0,0:0:0:0:
419,120,88149,2,0,B|323:140|323:140|315:180,1,132.999989265442,4|0,0:0|0:0,0:0:0:0:
214,120,88517,2,0,B|310:140|310:140|318:180,1,132.999989265442,4|0,0:0|0:0,0:0:0:0:
144,304,88885,5,4,0:0:0:0:
100,72,89069,6,0,L|136:156,2,66.4999946327212,4|0|0,0:0|0:0|0:0,0:0:0:0:
204,280,89437,5,0,0:0:0:0:
240,248,89529,1,0,0:0:0:0:
284,236,89621,1,0,0:0:0:0:
328,252,89713,1,0,0:0:0:0:
364,280,89805,1,4,0:0:0:0:
112,160,89989,5,4,0:0:0:0:
124,128,90081,1,0,0:0:0:0:
136,96,90173,2,0,P|188:48|252:68,1,132.999989265442,0|4,0:0|0:0,0:0:0:0:
188,184,90542,6,0,L|120:168,1,52.2499989719391,4|0,0:0|0:0,0:0:0:0:
192,216,90726,2,0,L|132:232,1,52.2499989719391,4|0,0:0|0:0,0:0:0:0:
208,252,90910,2,0,L|164:284,1,52.2499989719391,4|0,0:0|0:0,0:0:0:0:
288,344,91094,1,4,0:0:0:0:
416,312,91278,5,0,0:0:0:0:
428,276,91370,1,0,0:0:0:0:
436,236,91462,1,0,0:0:0:0:
444,196,91554,1,0,0:0:0:0:
452,156,91646,6,0,P|448:84|404:40,1,132.999989265442,0|4,0:0|0:0,0:0:0:0:
336,288,92014,6,0,L|392:340,2,66.4999946327212
208,144,92382,6,0,B|300:168|300:168|268:200,1,132.999989265442,0|4,0:0|0:0,0:0:0:0:
64,64,92750,5,0,0:0:0:0:
108,44,92842,1,0,0:0:0:0:
152,36,92934,1,0,0:0:0:0:
312,160,93118,6,0,B|224:196|224:196|260:232,1,132.999989265442,0|4,0:0|0:0,0:0:0:0:
436,76,93486,6,0,L|488:24,2,66.4999946327212
204,248,93854,6,0,B|252:208|252:208|252:136,1,132.999989265442,0|4,0:0|0:0,0:0:0:0:
56,304,94223,5,0,0:0:0:0:
100,324,94315,1,0,0:0:0:0:
144,332,94407,1,0,0:0:0:0:
308,248,94591,6,0,B|260:208|260:208|260:136,1,132.999989265442,0|4,0:0|0:0,0:0:0:0:
256,192,94821,12,4,96247,0:0:0:0:
200,132,97720,5,4,0:0:0:0:
52,264,97904,2,0,L|120:208,2,66.4999946327212
296,72,98272,1,0,0:0:0:0:
232,280,98456,1,4,0:0:0:0:
436,144,98640,5,4,0:0:0:0:
444,176,98732,1,0,0:0:0:0:
440,208,98824,1,0,0:0:0:0:
252,84,99008,5,4,0:0:0:0:
200,72,99100,1,0,0:0:0:0:
148,64,99192,5,4,0:0:0:0:
272,316,99376,1,4,0:0:0:0:
460,112,99560,1,4,0:0:0:0:
144,160,99744,1,4,0:0:0:0:
372,44,99928,1,4,0:0:0:0:
324,316,100112,1,4,0:0:0:0:
244,116,100296,6,0,P|220:48|164:40,1,132.999989265442,4|0,0:0|0:0,0:0:0:0:
224,208,100664,6,0,L|336:136,1,132.999989265442
124,120,101032,5,0,0:0:0:0:
116,144,101124,1,0,0:0:0:0:
112,172,101216,1,0,0:0:0:0:
112,200,101308,1,0,0:0:0:0:
116,228,101400,1,4,0:0:0:0:
72,100,101585,6,0,P|88:68|120:52,2,66.4999946327212
204,264,101953,1,0,0:0:0:0:
320,292,102137,2,0,P|356:288|400:264,1,79.1666626930238,4|0,0:0|0:0,0:0:0:0:
404,252,102505,6,0,B|348:256|320:240|300:232,1,102.91665678978,4|0,0:0|0:0,0:0:0:0:
284,212,102873,6,0,B|340:216|384:200|408:184,1,126.666660308838,4|0,0:0|0:0,0:0:0:0:
416,160,103241,6,0,B|360:164|320:152|320:152|336:124|336:124|340:92|336:80,1,150.416655100187,4|0,0:0|0:0,0:0:0:0:
340,88,103609,6,0,B|236:56|236:56|248:88,1,132.999989265442,4|0,0:0|0:0,0:0:0:0:
116,260,103977,1,0,0:0:0:0:
264,120,104161,1,0,0:0:0:0:
264,120,104253,1,0,0:0:0:0:
264,120,104345,1,4,0:0:0:0:
340,284,104529,5,0,0:0:0:0:
168,136,104713,1,0,0:0:0:0:
384,80,104897,6,0,P|404:144|380:208,1,132.999989265442,0|4,0:0|0:0,0:0:0:0:
280,292,105266,1,0,0:0:0:0:
148,304,105450,1,0,0:0:0:0:
364,84,105634,5,0,0:0:0:0:
328,172,105818,1,4,0:0:0:0:
268,244,106002,2,0,P|196:256|144:220,1,132.999989265442
240,148,106370,1,0,0:0:0:0:
136,92,106554,5,4,0:0:0:0:
216,208,106738,1,0,0:0:0:0:
392,68,106922,1,4,0:0:0:0:
292,180,107106,1,0,0:0:0:0:
216,320,107290,1,4,0:0:0:0:
232,172,107474,1,0,0:0:0:0:
404,120,107658,6,0,B|444:212|444:212|420:256,1,132.999989265442,4|0,0:0|0:0,0:0:0:0:
228,280,108026,6,0,L|324:256,2,66.4999946327212,4|0|0,0:0|0:0|0:0,0:0:0:0:
108,188,108394,5,4,0:0:0:0:
116,164,108486,1,4,0:0:0:0:
128,140,108578,1,4,0:0:0:0:
140,116,108670,1,4,0:0:0:0:
164,96,108762,5,4,0:0:0:0:
196,88,108854,1,4,0:0:0:0:
228,100,108947,1,4,0:0:0:0:
248,128,109039,1,4,0:0:0:0:
268,168,109131,5,4,0:0:0:0:
304,196,109223,1,4,0:0:0:0:
348,184,109315,1,4,0:0:0:0:
376,148,109407,1,4,0:0:0:0:
372,100,109499,6,0,P|312:68|272:108,1,132.999989265442,4|0,0:0|0:0,0:0:0:0:
392,304,109867,5,0,0:0:0:0:
396,292,109959,1,0,0:0:0:0:
400,280,110051,1,0,0:0:0:0:
404,268,110143,1,0,0:0:0:0:
408,256,110235,1,0,0:0:0:0:
208,288,110419,6,0,L|280:260,2,66.4999946327212
344,196,110787,1,0,0:0:0:0:
152,276,110971,5,4,0:0:0:0:
128,184,111155,1,0,0:0:0:0:
204,280,111339,1,4,0:0:0:0:
212,120,111523,1,0,0:0:0:0:
260,292,111707,1,4,0:0:0:0:
304,64,111891,1,0,0:0:0:0:
312,312,112075,1,4,0:0:0:0:
404,36,112259,1,0,0:0:0:0:
368,192,112443,6,0,P|296:224|248:188,1,132.999989265442,4|0,0:0|0:0,0:0:0:0:
224,320,112812,5,0,0:0:0:0:
204,320,112904,1,0,0:0:0:0:
184,312,112996,1,0,0:0:0:0:
168,304,113088,1,0,0:0:0:0:
152,292,113180,1,4,0:0:0:0:
288,144,113364,5,0,0:0:0:0:
332,320,113548,1,0,0:0:0:0:
148,184,113732,1,0,0:0:0:0:
424,308,113916,6,0,P|460:280|460:248,1,79.1666626930238,4|0,0:0|0:0,0:0:0:0:
440,236,114284,6,0,B|420:204|376:184|344:208,1,102.91665678978,4|0,0:0|0:0,0:0:0:0:
336,212,114652,6,0,B|280:216|280:216|248:212|256:176|256:176|264:160|264:160,1,126.666660308838,4|0,0:0|0:0,0:0:0:0:
276,144,115020,6,0,B|304:124|320:100|320:100|316:84|264:72|236:88|236:88,1,150.416655100187,4|0,0:0|0:0,0:0:0:0:
208,116,115388,6,0,B|120:112|120:112|104:64,1,132.999989265442,4|0,0:0|0:0,0:0:0:0:
448,80,115756,6,0,L|376:80,2,66.4999946327212
328,288,116124,1,4,0:0:0:0:
328,288,116308,1,4,0:0:0:0:
116,196,116493,5,0,0:0:0:0:
108,176,116585,1,0,0:0:0:0:
108,156,116677,1,0,0:0:0:0:
212,312,116861,1,4,0:0:0:0:
212,312,117045,1,4,0:0:0:0:
244,76,117229,6,0,L|256:4,2,66.4999946327212
388,300,117597,1,4,0:0:0:0:
388,300,117781,1,4,0:0:0:0:
172,136,117965,5,0,0:0:0:0:
160,128,118057,1,0,0:0:0:0:
148,120,118149,1,0,0:0:0:0:
136,112,118241,1,0,0:0:0:0:
124,104,118333,1,4,0:0:0:0:
360,88,118517,5,0,0:0:0:0:
376,108,118609,1,0,0:0:0:0:
384,132,118701,1,0,0:0:0:0:
256,252,118885,1,4,0:0:0:0:
120,72,119069,2,0,P|88:100|84:128,2,66.4999946327212
264,56,119437,1,4,0:0:0:0:
396,120,119621,1,4,0:0:0:0:
436,260,119805,5,4,0:0:0:0:
404,280,119897,1,4,0:0:0:0:
368,280,119989,1,4,0:0:0:0:
340,256,120081,1,4,0:0:0:0:
316,220,120173,5,4,0:0:0:0:
320,176,120266,1,4,0:0:0:0:
348,144,120358,1,4,0:0:0:0:
384,120,120450,1,4,0:0:0:0:
400,76,120542,5,4,0:0:0:0:
376,36,120634,1,4,0:0:0:0:
336,16,120726,1,4,0:0:0:0:
292,12,120818,1,4,0:0:0:0:
244,20,120910,5,4,0:0:0:0:
196,32,121002,1,4,0:0:0:0:
164,72,121094,1,4,0:0:0:0:
172,120,121186,1,4,0:0:0:0:
196,164,121278,5,4,0:0:0:0:
300,124,121462,1,0,0:0:0:0:
276,232,121646,1,0,0:0:0:0:
276,232,121738,1,0,0:0:0:0:
276,232,121830,2,0,P|216:212|192:184,1,94.9999952316285
316,168,122198,1,0,0:0:0:0:
200,120,122382,6,0,P|148:96|116:116,1,94.9999952316285
216,156,122750,2,0,P|172:188|176:224,1,94.9999952316285
236,308,123118,1,0,0:0:0:0:
296,220,123302,1,0,0:0:0:0:
384,276,123486,1,0,0:0:0:0:
432,184,123670,1,0,0:0:0:0:
332,112,123854,5,0,0:0:0:0:
332,112,124039,2,0,P|276:120|244:96,1,94.9999952316285
176,240,124407,1,0,0:0:0:0:
136,124,124591,6,0,L|120:80,2,47.4999976158143
232,240,124959,2,0,B|284:264|284:264|280:216,1,94.9999952316285
232,124,125327,1,0,0:0:0:0:
324,56,125511,1,0,0:0:0:0:
324,56,125603,1,0,0:0:0:0:
324,56,125695,1,0,0:0:0:0:
428,140,125879,2,0,P|436:196|420:232,1,94.9999952316285
332,104,126247,2,0,L|312:56,2,47.4999976158143
192,136,126615,5,0,0:0:0:0:
300,228,126799,1,0,0:0:0:0:
256,192,127167,5,0,0:0:0:0:
176,316,127535,5,0,0:0:0:0:
92,236,127720,1,0,0:0:0:0:
220,276,127904,6,0,P|272:264|300:236,1,94.9999952316285
456,288,128272,6,0,L|408:324,2,47.4999976158143
364,224,128640,5,0,0:0:0:0:
448,148,128824,1,0,0:0:0:0:
448,148,128916,1,0,0:0:0:0:
448,148,129008,1,0,0:0:0:0:
344,100,129192,6,0,P|288:80|260:100,1,94.9999952316285
124,144,129560,2,0,P|164:180|212:192,1,94.9999952316285
348,184,129928,6,0,B|304:136|304:136|328:116,1,94.9999952316285
180,68,130296,1,0,0:0:0:0:
172,92,130388,1,0,0:0:0:0:
172,116,130480,1,0,0:0:0:0:
184,248,130664,6,0,P|132:224|112:168,1,94.9999952316285
224,136,131032,1,0,0:0:0:0:
224,260,131216,1,0,0:0:0:0:
300,148,131400,6,0,P|348:124|380:144,1,94.9999952316285
248,224,131769,6,0,L|272:184,1,47.4999976158143
276,232,131953,2,0,L|304:192,1,47.4999976158143
392,280,132137,6,0,L|448:320,2,47.4999976158143
356,152,132505,1,0,0:0:0:0:
244,224,132689,6,0,P|176:224|160:200,1,94.9999952316285
264,112,133057,6,0,B|320:80|320:80|312:112,1,94.9999952316285
120,92,133425,1,0,0:0:0:0:
148,204,133609,1,0,0:0:0:0:
240,136,133793,1,0,0:0:0:0:
280,244,133977,5,0,0:0:0:0:
280,244,134161,2,0,P|248:316|228:316,1,94.9999952316285
108,188,134529,1,0,0:0:0:0:
248,96,134713,6,0,L|204:128,2,47.4999976158143
248,220,135081,1,0,0:0:0:0:
160,308,135266,5,0,0:0:0:0:
364,88,135634,1,0,0:0:0:0:
180,208,136002,6,0,P|144:168|148:128,1,94.9999952316285
300,128,136370,1,0,0:0:0:0:
208,212,136554,6,0,B|280:208|280:208|308:168,1,94.9999952316285
384,92,136922,1,0,0:0:0:0:
432,216,137106,1,0,0:0:0:0:
300,108,137290,2,0,L|252:48,2,47.4999976158143
288,248,137658,1,0,0:0:0:0:
196,116,137842,1,0,0:0:0:0:
372,72,138026,5,0,0:0:0:0:
372,72,138118,1,0,0:0:0:0:
372,72,138210,1,0,0:0:0:0:
276,192,138394,5,0,0:0:0:0:
144,176,138578,2,0,P|80:148|72:120,1,94.9999952316285
168,248,138947,6,0,P|224:244|260:228,1,94.9999952316285
180,124,139315,6,0,P|176:176|216:220,1,94.9999952316285
312,280,139683,1,0,0:0:0:0:
388,172,139867,1,0,0:0:0:0:
444,292,140051,1,0,0:0:0:0:
320,264,140235,6,0,L|228:216,1,94.9999952316285
64,200,140603,2,0,L|156:152,1,94.9999952316285
324,132,140971,2,0,L|232:84,1,94.9999952316285
316,208,141339,1,0,0:0:0:0:
120,76,141523,6,0,B|80:100|64:128|64:168|76:208,1,142.499998283386
364,104,142259,6,0,B|404:128|420:156|420:196|408:236,1,142.499998283386
316,276,142812,1,0,0:0:0:0:
184,224,142996,6,0,P|232:192|284:200,1,94.9999952316285
136,296,143364,5,4,0:0:0:0:
128,288,143456,1,4,0:0:0:0:
120,280,143548,1,4,0:0:0:0:
116,272,143640,1,4,0:0:0:0:
112,264,143732,5,4,0:0:0:0:
104,248,143824,1,4,0:0:0:0:
96,228,143916,1,4,0:0:0:0:
96,208,144008,1,4,0:0:0:0:
100,188,144100,5,4,0:0:0:0:
112,164,144192,1,4,0:0:0:0:
128,140,144284,1,4,0:0:0:0:
152,124,144376,1,4,0:0:0:0:
180,112,144468,5,4,0:0:0:0:
212,116,144560,1,4,0:0:0:0:
240,132,144652,1,4,0:0:0:0:
264,156,144744,1,4,0:0:0:0:
276,188,144836,5,4,0:0:0:0:
128,280,145020,6,0,L|76:320,2,56.9999953994753
296,120,145388,6,0,B|336:164|340:176|340:176|312:208,1,113.999990798951,0|4,0:0|0:0,0:0:0:0:
396,20,145756,5,0,0:0:0:0:
436,44,145848,1,0,0:0:0:0:
468,80,145940,1,0,0:0:0:0:
172,248,146124,6,0,B|220:208|220:208|260:216|276:224,1,113.999990798951,0|4,0:0|0:0,0:0:0:0:
92,72,146493,6,0,L|52:32,2,56.9999953994753
308,204,146861,6,0,B|332:260|332:260|268:264,1,113.999990798951,0|4,0:0|0:0,0:0:0:0:
240,252,147137,1,4,0:0:0:0:
204,232,147229,1,4,0:0:0:0:
188,196,147321,1,4,0:0:0:0:
184,156,147413,1,4,0:0:0:0:
164,120,147505,1,4,0:0:0:0:
140,88,147597,6,4,B|64:60|64:60|60:120,1,113.999990798951
296,284,147965,6,0,L|344:332,2,56.9999953994753
412,104,148333,6,0,B|372:60|372:60|368:56|320:88,1,113.999990798951,0|4,0:0|0:0,0:0:0:0:
148,276,148701,5,0,0:0:0:0:
124,244,148793,1,0,0:0:0:0:
104,208,148885,1,0,0:0:0:0:
412,236,149069,6,0,B|448:296|448:296|456:304|408:304,1,113.999990798951,0|4,0:0|0:0,0:0:0:0:
136,88,149437,6,0,L|192:136,2,56.9999953994753
232,320,149805,6,0,B|288:360|288:360|316:316,1,113.999990798951,0|4,0:0|0:0,0:0:0:0:
332,288,150081,1,4,0:0:0:0:
340,248,150173,1,4,0:0:0:0:
332,208,150266,1,4,0:0:0:0:
316,172,150358,1,4,0:0:0:0:
308,132,150450,1,4,0:0:0:0:
324,96,150542,6,4,B|384:52|384:52|392:64|396:104,1,113.999990798951
300,312,150910,6,0,L|324:240,2,56.9999953994753
124,132,151278,6,0,B|88:80|88:80|92:72|144:80,1,113.999990798951,0|4,0:0|0:0,0:0:0:0:
168,292,151646,5,0,0:0:0:0:
152,256,151738,1,0,0:0:0:0:
120,232,151830,1,0,0:0:0:0:
360,128,152014,6,0,B|400:76|400:76|396:68|352:76,1,113.999990798951,0|4,0:0|0:0,0:0:0:0:
424,192,152382,1,0,0:0:0:0:
172,304,152566,1,0,0:0:0:0:
148,76,152750,5,4,0:0:0:0:
272,324,153118,1,4,0:0:0:0:
372,68,153486,6,4,B|436:36|436:36|432:88,1,113.999990798951,4|4,0:0|0:0,0:0:0:0:
176,300,154039,2,4,B|124:336|124:336|116:336|104:288,1,113.999990798951
188,48,154591,2,4,B|136:12|136:12|128:12|132:60,1,113.999990798951
400,316,155143,2,4,B|464:332|464:332|472:328|468:284,1,113.999990798951
168,304,155511,1,4,0:0:0:0:
160,60,155695,1,0,0:0:0:0:
400,240,155879,2,4,B|368:320|368:320|344:296,1,113.999990798951
340,24,156247,2,4,B|388:84|388:84|364:116,1,113.999990798951
180,232,156615,5,4,0:0:0:0:
168,236,156707,1,0,0:0:0:0:
156,236,156799,1,0,0:0:0:0:
144,232,156891,1,0,0:0:0:0:
120,236,156983,5,0,0:0:0:0:
104,224,157075,1,0,0:0:0:0:
92,208,157167,1,0,0:0:0:0:
88,188,157259,1,0,0:0:0:0:
60,184,157351,5,0,0:0:0:0:
56,160,157443,1,0,0:0:0:0:
60,136,157535,1,0,0:0:0:0:
72,116,157627,1,0,0:0:0:0:
40,96,157720,5,0,0:0:0:0:
56,76,157812,1,0,0:0:0:0:
76,60,157904,1,0,0:0:0:0:
100,48,157996,1,0,0:0:0:0:
124,44,158088,5,4,0:0:0:0:
272,172,158272,5,4,0:0:0:0:
300,188,158364,1,4,0:0:0:0:
316,216,158456,1,4,0:0:0:0:
324,248,158548,1,4,0:0:0:0:
308,276,158640,1,4,0:0:0:0:
280,292,158732,1,4,0:0:0:0:
248,288,158824,5,4,0:0:0:0:
212,264,158916,1,4,0:0:0:0:
196,224,159008,1,4,0:0:0:0:
200,180,159100,1,4,0:0:0:0:
228,144,159192,1,4,0:0:0:0:
272,132,159284,1,4,0:0:0:0:
316,140,159376,1,4,0:0:0:0:
360,140,159468,1,4,0:0:0:0:
404,128,159560,5,4,0:0:0:0:
184,288,159744,6,0,L|116:324,2,71.2499991416931,0|0|4,0:0|0:0|0:0,0:0:0:0:
416,284,160112,1,0,0:0:0:0:
444,264,160204,1,0,0:0:0:0:
468,236,160296,1,0,0:0:0:0:
480,200,160388,1,0,0:0:0:0:
484,164,160480,1,0,0:0:0:0:
348,320,160664,5,4,0:0:0:0:
300,320,160756,1,0,0:0:0:0:
252,320,160848,1,0,0:0:0:0:
204,320,160940,1,0,0:0:0:0:
156,320,161032,1,4,0:0:0:0:
336,248,161216,6,0,P|416:200|416:140,1,142.499998283386
228,156,161585,1,0,0:0:0:0:
92,52,161769,6,0,B|132:128|132:128|184:92,1,142.499998283386,4|0,0:0|0:0,0:0:0:0:
400,132,162137,2,0,B|452:208|448:212|448:212|400:212,1,142.499998283386,4|0,0:0|0:0,0:0:0:0:
112,212,162505,2,0,B|72:280|72:280|92:284|136:272,1,142.499998283386,4|0,0:0|0:0,0:0:0:0:
260,144,162873,5,0,0:0:0:0:
276,128,162965,1,0,0:0:0:0:
288,112,163057,1,0,0:0:0:0:
304,96,163149,1,0,0:0:0:0:
320,80,163241,1,4,0:0:0:0:
192,204,163425,5,0,0:0:0:0:
152,176,163517,1,0,0:0:0:0:
124,136,163609,1,4,0:0:0:0:
360,128,163793,1,4,0:0:0:0:
144,332,163977,1,4,0:0:0:0:
96,76,164161,1,4,0:0:0:0:
372,280,164345,1,4,0:0:0:0:
388,32,164529,1,4,0:0:0:0:
112,156,164713,1,4,0:0:0:0:
408,160,164897,6,0,B|460:216|460:216|436:244|388:236,1,142.499998283386,4|0,0:0|0:0,0:0:0:0:
200,192,165266,6,0,L|272:216,2,71.2499991416931,0|0|4,0:0|0:0|0:0,0:0:0:0:
200,324,165634,5,0,0:0:0:0:
160,292,165726,1,0,0:0:0:0:
120,260,165818,1,4,0:0:0:0:
292,328,166002,5,0,0:0:0:0:
308,296,166094,1,0,0:0:0:0:
324,264,166186,1,0,0:0:0:0:
340,232,166278,1,0,0:0:0:0:
356,200,166370,1,4,0:0:0:0:
168,192,166554,6,0,P|108:168|92:96,1,142.499998283386
104,248,166922,1,4,0:0:0:0:
208,56,167106,1,0,0:0:0:0:
268,236,167290,2,0,B|328:172|328:172|324:112,1,142.499998283386,4|4,0:0|0:0,0:0:0:0:
156,176,167658,1,0,0:0:0:0:
388,188,167842,1,0,0:0:0:0:
200,312,168026,1,4,0:0:0:0:
240,92,168210,6,0,B|300:168|300:168|256:192,1,142.499998283386,4|4,0:0|0:0,0:0:0:0:
140,84,168578,1,0,0:0:0:0:
392,68,168762,1,0,0:0:0:0:
144,116,168947,2,0,B|92:188|92:188|136:224,1,142.499998283386,4|0,0:0|0:0,0:0:0:0:
400,208,169315,2,0,P|396:280|328:296,1,142.499998283386,4|0,0:0|0:0,0:0:0:0:
288,120,169683,6,0,B|272:32|272:32|248:40|212:76,1,142.499998283386,4|0,0:0|0:0,0:0:0:0:
196,256,170051,1,4,0:0:0:0:
200,292,170143,1,4,0:0:0:0:
228,316,170235,1,4,0:0:0:0:
264,308,170327,1,4,0:0:0:0:
284,280,170419,1,4,0:0:0:0:
288,244,170511,1,4,0:0:0:0:
272,212,170603,5,4,0:0:0:0:
244,192,170695,1,4,0:0:0:0:
216,172,170787,1,4,0:0:0:0:
196,144,170879,1,4,0:0:0:0:
200,108,170971,1,4,0:0:0:0:
228,88,171063,1,4,0:0:0:0:
264,92,171155,1,4,0:0:0:0:
292,116,171247,1,4,0:0:0:0:
328,124,171339,5,4,0:0:0:0:
108,180,171523,2,0,L|36:196,2,71.2499991416931,0|0|4,0:0|0:0|0:0,0:0:0:0:
360,112,171891,5,0,0:0:0:0:
344,96,171983,1,0,0:0:0:0:
324,84,172075,1,0,0:0:0:0:
304,76,172167,1,0,0:0:0:0:
284,72,172259,1,0,0:0:0:0:
432,200,172443,5,0,0:0:0:0:
396,220,172535,1,0,0:0:0:0:
360,240,172627,1,0,0:0:0:0:
324,260,172720,1,0,0:0:0:0:
288,280,172812,1,4,0:0:0:0:
160,124,172996,6,0,B|108:56|108:56|84:80|84:116,1,142.499998283386
316,76,173364,1,0,0:0:0:0:
96,116,173548,2,0,B|80:216|80:216|136:240,1,142.499998283386,4|0,0:0|0:0,0:0:0:0:
384,168,173916,2,0,B|448:232|448:232|432:244|396:244,1,142.499998283386,4|0,0:0|0:0,0:0:0:0:
120,268,174284,6,0,B|212:256|212:256|216:252|244:204,1,142.499998283386
408,84,174652,2,0,L|352:136,2,71.2499991416931
108,152,175020,1,0,0:0:0:0:
396,288,175204,1,0,0:0:0:0:
272,36,175388,1,0,0:0:0:0:
140,296,175572,2,0,P|216:288|272:236,1,142.499998283386,0|4,0:0|0:0,0:0:0:0:
364,72,175940,6,0,L|312:128,1,71.2499991416931
400,128,176124,2,0,L|328:144,1,71.2499991416931
408,188,176308,2,0,L|332:172,1,71.2499991416931
280,296,176493,1,0,0:0:0:0:
88,208,176677,1,0,0:0:0:0:
128,196,176769,1,0,0:0:0:0:
168,184,176861,1,0,0:0:0:0:
208,168,176953,1,0,0:0:0:0:
248,156,177045,2,0,P|316:120|344:64,1,142.499998283386,0|4,0:0|0:0,0:0:0:0:
112,88,177413,6,0,L|40:96,2,71.2499991416931
172,280,177781,6,0,B|104:224|104:224|136:180,1,142.499998283386,0|4,0:0|0:0,0:0:0:0:
352,216,178149,1,0,0:0:0:0:
348,260,178241,1,0,0:0:0:0:
328,300,178333,1,0,0:0:0:0:
448,204,178517,2,0,B|520:136|520:136|472:112,1,142.499998283386,0|4,0:0|0:0,0:0:0:0:
180,292,178885,6,0,L|252:260,2,71.2499991416931
132,100,179253,2,0,B|92:28|92:28|152:4,1,142.499998283386,0|4,0:0|0:0,0:0:0:0:
256,232,179621,5,0,0:0:0:0:
260,276,179713,1,0,0:0:0:0:
268,320,179805,1,0,0:0:0:0:
348,112,179989,6,0,B|372:28|372:28|372:20|328:-8,1,142.499998283386,0|4,0:0|0:0,0:0:0:0:
256,192,180220,12,4,181646,0:0:0:0:
224,296,183118,6,0,P|164:248|124:280,1,113.999990798951
232,216,183670,6,0,L|380:184,1,132.999989265442
360,288,184223,6,0,P|268:280|228:232,1,151.999992370606
156,156,184775,6,0,B|240:112|276:116|276:116|320:164,1,170.999986198426
404,216,185327,6,0,L|440:244,2,42.7499965496065
252,240,185695,2,0,L|216:264,2,42.7499965496065
140,192,186063,6,0,B|64:176|64:176|28:164|8:120|56:84,1,170.999986198426
152,104,186615,6,0,L|344:52,1,189.999990463257
352,220,187167,6,0,P|428:164|440:72,1,189.999990463257
280,80,187720,6,0,B|156:68|156:68|108:148,1,189.999990463257
112,140,188180,1,0,0:0:0:0:
128,148,188272,1,0,0:0:0:0:
112,160,188364,1,0,0:0:0:0:
128,168,188456,1,0,0:0:0:0:
192,292,188640,2,0,B|216:332|216:332|280:288,1,104.499997943878
300,132,189008,6,0,B|356:100|356:100|344:152,1,104.499997943878
252,236,189376,1,0,0:0:0:0:
116,228,189560,2,0,B|68:192|68:192|128:172,1,104.499997943878
208,272,189928,1,0,0:0:0:0:
236,140,190112,2,0,P|296:116|320:144,1,104.499997943878
284,268,190480,1,0,0:0:0:0:
380,172,190664,2,0,B|416:224|416:224|376:264,1,104.499997943878
256,212,191032,1,0,0:0:0:0:
152,124,191216,2,0,L|112:80,2,52.2499989719391
272,188,191585,2,0,P|332:176|356:136,1,104.499997943878
244,64,191953,5,4,0:0:0:0:
136,192,192137,1,0,0:0:0:0:
160,220,192229,1,0,0:0:0:0:
192,240,192321,1,0,0:0:0:0:
104,120,192505,1,4,0:0:0:0:
336,120,192689,2,0,L|400:128,2,52.2499989719391
156,100,193057,1,4,0:0:0:0:
192,288,193241,1,4,0:0:0:0:
340,176,193425,5,4,0:0:0:0:
368,164,193517,1,4,0:0:0:0:
396,168,193609,1,4,0:0:0:0:
420,192,193701,1,4,0:0:0:0:
420,224,193793,5,4,0:0:0:0:
396,252,193885,1,4,0:0:0:0:
360,256,193977,1,4,0:0:0:0:
328,228,194069,1,4,0:0:0:0:
304,196,194161,5,4,0:0:0:0:
280,156,194253,1,4,0:0:0:0:
236,136,194345,1,4,0:0:0:0:
184,144,194437,1,4,0:0:0:0:
152,188,194529,5,4,0:0:0:0:
168,244,194621,1,4,0:0:0:0:
216,272,194713,1,4,0:0:0:0:
272,248,194805,1,4,0:0:0:0:
292,188,194897,5,4,0:0:0:0:
132,132,195081,1,0,0:0:0:0:
296,328,195266,1,0,0:0:0:0:
432,128,195450,6,0,L|472:68,2,66.4999946327212
256,308,195818,1,0,0:0:0:0:
216,312,195910,1,0,0:0:0:0:
176,308,196002,1,0,0:0:0:0:
136,300,196094,1,0,0:0:0:0:
96,288,196186,6,0,P|40:224|44:176,1,132.999989265442,0|4,0:0|0:0,0:0:0:0:
276,108,196554,6,0,L|208:132,2,66.4999946327212
148,200,196922,5,0,0:0:0:0:
144,160,197014,1,0,0:0:0:0:
144,120,197106,2,0,P|192:56|244:68,1,132.999989265442,0|4,0:0|0:0,0:0:0:0:
220,292,197474,1,0,0:0:0:0:
352,112,197658,2,0,B|388:48|380:24|380:24|340:32,1,132.999989265442,0|4,0:0|0:0,0:0:0:0:
196,296,198026,1,0,0:0:0:0:
460,80,198210,6,0,L|328:104,1,132.999989265442,4|0,0:0|0:0,0:0:0:0:
32,152,198578,2,0,L|164:180,1,132.999989265442,4|0,0:0|0:0,0:0:0:0:
440,188,198947,2,0,B|352:204|352:204|332:220|336:252,1,132.999989265442,4|0,0:0|0:0,0:0:0:0:
104,128,199315,2,0,B|172:172|172:172|180:200|168:232,1,132.999989265442,4|0,0:0|0:0,0:0:0:0:
420,308,199683,6,0,B|460:240|460:240|444:220|396:208,1,132.999989265442,4|0,0:0|0:0,0:0:0:0:
156,272,200051,2,0,B|104:208|104:208|104:188|128:172|156:172,1,132.999989265442,4|0,0:0|0:0,0:0:0:0:
400,160,200419,2,0,P|440:108|416:48,1,132.999989265442,4|0,0:0|0:0,0:0:0:0:
152,16,200787,1,4,0:0:0:0:
292,224,200971,6,0,L|252:168,2,66.4999946327212
444,120,201339,2,0,P|484:60|488:-12,1,132.999989265442,0|4,0:0|0:0,0:0:0:0:
192,200,201707,1,0,0:0:0:0:
408,248,201891,1,0,0:0:0:0:
160,116,202075,1,0,0:0:0:0:
224,320,202259,6,0,B|300:288|300:288|304:280|300:224,1,132.999989265442
128,176,202627,1,0,0:0:0:0:
120,144,202720,1,0,0:0:0:0:
108,112,202812,1,0,0:0:0:0:
96,80,202904,1,0,0:0:0:0:
84,48,202996,1,0,0:0:0:0:
312,80,203180,5,0,0:0:0:0:
364,96,203272,1,0,0:0:0:0:
404,132,203364,1,0,0:0:0:0:
180,220,203548,1,0,0:0:0:0:
56,312,203732,5,4,0:0:0:0:
448,296,203916,1,0,0:0:0:0:
408,168,204100,1,4,0:0:0:0:
128,96,204284,1,0,0:0:0:0:
424,240,204468,1,4,0:0:0:0:
144,220,204652,1,0,0:0:0:0:
88,80,204836,1,4,0:0:0:0:
384,184,205020,6,0,B|424:120|424:120|408:96|368:96,1,132.999989265442
72,60,205388,1,0,0:0:0:0:
320,184,205572,1,4,0:0:0:0:
96,336,205756,1,0,0:0:0:0:
332,176,205940,5,4,0:0:0:0:
360,148,206032,1,4,0:0:0:0:
356,108,206124,1,4,0:0:0:0:
312,80,206216,1,4,0:0:0:0:
272,116,206308,5,4,0:0:0:0:
264,168,206400,1,4,0:0:0:0:
212,212,206493,1,4,0:0:0:0:
148,196,206585,1,4,0:0:0:0:
116,136,206677,5,4,0:0:0:0:
264,52,206861,1,0,0:0:0:0:
264,52,206953,1,0,0:0:0:0:
264,52,207045,1,0,0:0:0:0:
72,136,207229,5,0,0:0:0:0:
76,176,207321,1,0,0:0:0:0:
88,216,207413,1,0,0:0:0:0:
104,252,207505,1,0,0:0:0:0:
132,280,207597,1,0,0:0:0:0:
336,200,207781,1,0,0:0:0:0:
188,64,207965,6,0,B|272:52|272:52|284:84|240:128,1,132.999989265442
340,272,208333,6,0,L|304:208,2,66.4999946327212
448,112,208701,6,0,B|480:52|480:52|436:8|412:32,1,132.999989265442
204,160,209069,1,0,0:0:0:0:
248,152,209161,1,0,0:0:0:0:
296,144,209253,1,0,0:0:0:0:
344,136,209345,1,0,0:0:0:0:
388,128,209437,2,0,P|472:168|464:216,1,132.999989265442
152,244,209805,5,0,0:0:0:0:
344,324,209989,1,4,0:0:0:0:
108,328,210173,1,0,0:0:0:0:
392,200,210358,1,4,0:0:0:0:
172,72,210542,5,0,0:0:0:0:
144,224,210726,1,4,0:0:0:0:
248,48,210910,1,0,0:0:0:0:
360,312,211094,1,4,0:0:0:0:
348,120,211278,5,0,0:0:0:0:
176,272,211462,1,4,0:0:0:0:
56,168,211646,1,0,0:0:0:0:
368,240,211830,1,4,0:0:0:0:
132,100,212014,1,0,0:0:0:0:
436,100,212198,2,0,B|472:48|472:48|400:36|396:64,1,132.999989265442,4|0,0:0|0:0,0:0:0:0:
200,168,212566,6,0,L|136:208,2,66.4999946327212
68,308,212934,5,0,0:0:0:0:
112,320,213026,1,0,0:0:0:0:
156,328,213118,1,0,0:0:0:0:
204,328,213210,1,0,0:0:0:0:
248,320,213302,1,4,0:0:0:0:
344,132,213486,6,0,L|304:208,2,66.4999946327212
160,252,213854,5,0,0:0:0:0:
124,220,213947,1,0,0:0:0:0:
88,192,214039,2,0,B|56:164|52:124|52:124|60:104|104:108,1,132.999989265442,4|0,0:0|0:0,0:0:0:0:
260,144,214407,2,0,B|324:112|324:112|328:100|288:60,1,132.999989265442,4|0,0:0|0:0,0:0:0:0:
444,192,214775,2,0,P|356:156|336:120,1,132.999989265442,4|0,0:0|0:0,0:0:0:0:
140,120,215143,2,0,B|212:88|212:88|220:48|188:24,1,132.999989265442,4|0,0:0|0:0,0:0:0:0:
400,84,215511,5,0,0:0:0:0:
400,84,215603,1,0,0:0:0:0:
400,84,215695,1,0,0:0:0:0:
332,304,215879,5,0,0:0:0:0:
360,276,215971,1,0,0:0:0:0:
388,248,216063,1,0,0:0:0:0:
416,220,216155,1,0,0:0:0:0:
444,192,216247,1,4,0:0:0:0:
180,280,216431,6,0,L|116:304,2,66.4999946327212
100,216,216799,1,4,0:0:0:0:
408,308,216983,5,0,0:0:0:0:
428,268,217075,1,0,0:0:0:0:
432,220,217167,1,0,0:0:0:0:
420,176,217259,1,0,0:0:0:0:
392,140,217351,2,0,B|356:84|356:84|304:116|288:148,1,132.999989265442,4|0,0:0|0:0,0:0:0:0:
88,168,217720,2,0,B|32:208|32:208|48:236|104:244,1,132.999989265442,4|0,0:0|0:0,0:0:0:0:
404,204,218088,2,0,B|448:264|448:264|420:284|388:296,1,132.999989265442,4|0,0:0|0:0,0:0:0:0:
212,164,218456,6,0,L|264:212,2,66.4999946327212,4|0|0,0:0|0:0|0:0,0:0:0:0:
104,72,218824,1,0,0:0:0:0:
328,84,219008,5,0,0:0:0:0:
348,108,219100,1,0,0:0:0:0:
372,84,219192,1,0,0:0:0:0:
380,116,219284,1,0,0:0:0:0:
412,116,219376,1,0,0:0:0:0:
440,152,219468,1,0,0:0:0:0:
448,196,219560,1,0,0:0:0:0:
420,236,219652,1,0,0:0:0:0:
380,256,219744,6,0,B|312:264|312:264|276:244|268:200,1,132.999989265442,0|4,0:0|0:0,0:0:0:0:
152,52,220112,1,0,0:0:0:0:
392,168,220296,2,0,B|400:248|400:248|384:264|352:272,1,132.999989265442,0|4,0:0|0:0,0:0:0:0:
360,32,220664,2,0,P|304:80|316:152,1,132.999989265442,4|0,0:0|0:0,0:0:0:0:
404,328,221032,1,0,0:0:0:0:
176,264,221216,6,0,B|120:216|120:216|124:192|156:160,1,132.999989265442,0|4,0:0|0:0,0:0:0:0:
68,92,221585,1,0,0:0:0:0:
104,64,221677,1,0,0:0:0:0:
148,48,221769,1,0,0:0:0:0:
240,208,221953,5,0,0:0:0:0:
272,184,222045,1,0,0:0:0:0:
304,160,222137,1,0,0:0:0:0:
336,140,222229,1,0,0:0:0:0:
368,116,222321,1,4,0:0:0:0:
160,200,222505,5,0,0:0:0:0:
320,56,222689,1,0,0:0:0:0:
128,96,222873,5,4,0:0:0:0:
108,124,222965,1,4,0:0:0:0:
104,156,223057,1,4,0:0:0:0:
120,184,223149,1,4,0:0:0:0:
148,200,223241,5,4,0:0:0:0:
188,192,223333,1,4,0:0:0:0:
224,172,223425,1,4,0:0:0:0:
260,152,223517,1,4,0:0:0:0:
300,140,223609,5,4,0:0:0:0:
348,144,223701,1,4,0:0:0:0:
384,172,223793,1,4,0:0:0:0:
408,212,223885,1,4,0:0:0:0:
404,260,223977,5,4,0:0:0:0:
384,288,224069,1,4,0:0:0:0:
356,304,224161,1,4,0:0:0:0:
328,300,224253,1,4,0:0:0:0:
316,292,224345,5,4,0:0:0:0:
256,192,224391,12,0,227290,0:0:0:0:
312,184,236677,6,0,P|336:144|324:116,1,75.9999961853028
232,220,237045,1,0,0:0:0:0:
152,184,237229,2,0,P|124:152|120:116,1,75.9999961853028
168,248,237597,2,0,P|220:216|232:184,1,75.9999961853028
320,132,237965,1,0,0:0:0:0:
232,176,238149,1,0,0:0:0:0:
232,312,238517,1,0,0:0:0:0:
148,136,238885,1,0,0:0:0:0:
344,260,242566,6,0,L|348:184,1,75.9999961853028
272,216,242934,1,0,0:0:0:0:
276,132,243118,2,0,P|216:132|204:116,1,75.9999961853028
168,208,243486,1,0,0:0:0:0:
276,232,243670,1,0,0:0:0:0:
188,268,243854,2,0,P|212:320|240:324,1,75.9999961853028
376,332,244407,1,0,0:0:0:0:
256,184,244775,1,0,0:0:0:0:
256,192,244821,12,0,247720,0:0:0:0:
232,256,249560,6,0,P|188:212|176:168,1,90.2499930601123
164,300,249928,1,0,0:0:0:0:
316,288,250112,2,0,P|348:264|368:200,1,94.9999923324588
304,232,250480,2,0,B|328:180|328:148|320:72,1,142.499988498688
320,72,250848,6,0,L|308:0,2,73.6249968662262,4|0|0,0:0|0:0|0:0,0:0:0:0:
156,192,251216,1,4,0:0:0:0:
212,200,251308,1,0,0:0:0:0:
268,196,251400,1,0,0:0:0:0:
320,176,251493,1,0,0:0:0:0:
368,156,251585,2,0,L|428:112,2,73.6249968662262,4|0|0,0:0|0:0|0:0,0:0:0:0:
212,272,251953,5,4,0:0:0:0:
180,220,252045,1,0,0:0:0:0:
164,160,252137,1,0,0:0:0:0:
160,100,252229,1,0,0:0:0:0:
168,40,252321,1,4,0:0:0:0:
384,104,252505,6,0,B|424:196|424:196|372:220,1,147.249993732452,4|0,0:0|0:0,0:0:0:0:
164,84,252873,1,0,0:0:0:0:
44,228,253057,2,0,P|120:180|180:192,1,147.249993732452,4|0,0:0|0:0,0:0:0:0:
464,276,253425,2,0,P|388:256|316:280,1,147.249993732452,4|0,0:0|0:0,0:0:0:0:
108,296,253793,2,0,B|80:200|80:200|128:176,1,147.249993732452,4|0,0:0|0:0,0:0:0:0:
328,324,254161,5,0,0:0:0:0:
364,308,254253,1,0,0:0:0:0:
400,288,254345,2,0,B|448:224|440:192|440:192|396:196,1,147.249993732452,4|0,0:0|0:0,0:0:0:0:
128,236,254713,2,0,L|220:220,2,73.6249968662262
100,84,255081,5,0,0:0:0:0:
236,340,255266,1,4,0:0:0:0:
372,84,255450,1,4,0:0:0:0:
100,272,255634,1,4,0:0:0:0:
428,220,255818,1,4,0:0:0:0:
96,156,256002,1,4,0:0:0:0:
408,96,256186,2,0,B|456:36|456:36|432:32|376:32,1,147.249993732452,4|0,0:0|0:0,0:0:0:0:
336,28,256462,1,0,0:0:0:0:
280,32,256554,1,0,0:0:0:0:
72,136,256738,6,0,B|176:148|176:148|196:204,1,147.249993732452,4|0,0:0|0:0,0:0:0:0:
424,268,257106,1,0,0:0:0:0:
436,208,257198,1,0,0:0:0:0:
424,148,257290,1,4,0:0:0:0:
136,208,257474,2,0,P|224:208|260:168,1,147.249993732452
184,328,257842,5,0,0:0:0:0:
136,288,257934,1,0,0:0:0:0:
92,244,258026,2,0,B|48:160|48:144|48:144|92:136,1,147.249993732452,4|0,0:0|0:0,0:0:0:0:
400,72,258394,1,0,0:0:0:0:
164,228,258578,2,0,P|132:160|152:92,1,147.249993732452,0|4,0:0|0:0,0:0:0:0:
344,244,258947,2,0,L|404:304,2,73.6249968662262
424,128,259315,1,0,0:0:0:0:
144,104,259499,6,0,B|252:88|252:88|268:68|276:48,1,147.249993732452,0|4,0:0|0:0,0:0:0:0:
180,220,259867,1,0,0:0:0:0:
388,316,260051,2,0,B|324:244|324:244|364:196,1,147.249993732452,0|4,0:0|0:0,0:0:0:0:
208,324,260419,1,0,0:0:0:0:
104,128,260603,2,0,L|104:292,1,147.249993732452,4|0,0:0|0:0,0:0:0:0:
328,116,260971,2,0,L|252:180,2,73.6249968662262,4|0|0,0:0|0:0|0:0,0:0:0:0:
444,252,261339,5,4,0:0:0:0:
468,288,261431,1,4,0:0:0:0:
452,328,261523,1,4,0:0:0:0:
404,336,261615,1,4,0:0:0:0:
368,308,261707,1,4,0:0:0:0:
364,256,261799,1,4,0:0:0:0:
396,212,261891,5,4,0:0:0:0:
436,168,261983,1,4,0:0:0:0:
456,116,262075,1,4,0:0:0:0:
452,56,262167,1,4,0:0:0:0:
392,36,262259,5,4,0:0:0:0:
328,16,262351,1,4,0:0:0:0:
264,36,262443,1,4,0:0:0:0:
232,96,262535,1,4,0:0:0:0:
240,164,262627,5,4,0:0:0:0:
80,80,262812,6,0,L|148:112,2,73.6249968662262,0|0|4,0:0|0:0|0:0,0:0:0:0:
112,304,263180,1,0,0:0:0:0:
160,268,263272,1,0,0:0:0:0:
208,236,263364,2,0,B|272:200|272:200|348:224,1,147.249993732452,4|0,0:0|0:0,0:0:0:0:
400,228,263640,1,0,0:0:0:0:
460,220,263732,1,0,0:0:0:0:
492,172,263824,1,0,0:0:0:0:
488,112,263916,1,4,0:0:0:0:
224,140,264100,6,0,L|144:152,2,73.6249968662262
128,292,264468,1,4,0:0:0:0:
100,260,264560,1,0,0:0:0:0:
80,220,264652,1,0,0:0:0:0:
72,176,264744,1,0,0:0:0:0:
76,124,264836,2,0,B|104:56|104:56|136:64|156:104,1,147.249993732452,4|0,0:0|0:0,0:0:0:0:
460,212,265204,2,0,B|396:148|396:148|364:172|360:208,1,147.249993732452,4|0,0:0|0:0,0:0:0:0:
104,272,265572,6,0,B|172:312|172:312|204:300|232:272,1,147.249993732452,4|0,0:0|0:0,0:0:0:0:
160,152,265940,1,0,0:0:0:0:
436,212,266124,2,0,L|288:180,1,147.249993732452,4|0,0:0|0:0,0:0:0:0:
112,120,266493,6,0,L|200:152,2,73.6249968662262
276,320,266861,2,0,B|224:240|224:240|192:240|172:268,1,147.249993732452,0|4,0:0|0:0,0:0:0:0:
412,192,267229,6,0,L|484:208,1,73.6249968662262,4|0,0:0|0:0,0:0:0:0:
408,160,267413,2,0,L|480:136,1,73.6249968662262,4|0,0:0|0:0,0:0:0:0:
392,124,267597,2,0,L|448:76,1,73.6249968662262,4|0,0:0|0:0,0:0:0:0:
312,32,267781,5,4,0:0:0:0:
264,68,267873,1,0,0:0:0:0:
256,128,267965,1,0,0:0:0:0:
292,176,268057,1,0,0:0:0:0:
320,228,268149,1,0,0:0:0:0:
308,284,268241,1,0,0:0:0:0:
272,332,268333,2,0,B|200:352|200:352|184:328|168:272,1,147.249993732452,0|4,0:0|0:0,0:0:0:0:
104,48,268701,6,0,L|120:124,2,73.6249968662262
212,248,269069,6,0,B|284:184|284:184|328:212|336:236,1,147.249993732452,0|4,0:0|0:0,0:0:0:0:
444,328,269437,5,0,0:0:0:0:
484,284,269529,1,0,0:0:0:0:
512,232,269621,1,0,0:0:0:0:
192,152,269805,6,0,P|252:200|336:148,1,147.249993732452,0|4,0:0|0:0,0:0:0:0:
144,296,270173,6,0,L|84:352,2,73.6249968662262
356,152,270542,6,0,B|292:100|292:100|252:120|244:160,1,147.249993732452,0|4,0:0|0:0,0:0:0:0:
452,44,270910,5,0,0:0:0:0:
468,100,271002,1,0,0:0:0:0:
464,160,271094,1,0,0:0:0:0:
188,268,271278,6,0,L|248:120,1,147.249993732452
256,192,271508,12,0,272934,0:0:0:0:
