osu file format v14

[General]
AudioFilename: audio.mp3
AudioLeadIn: 0
PreviewTime: 1379277
Countdown: 0
SampleSet: None
StackLeniency: 0.2
Mode: 0
LetterboxInBreaks: 0
WidescreenStoryboard: 0

[Editor]
Bookmarks: 18023,34023,37164,47269,57374,67479,77269,77585,87374,87690,97795,118006,138216,158427,178006,198216,215900,223479,233269,233584,243374,261058,266110,271163,291373,299584,309689,319794,334952,347584,357689,367478,367794,374110,375373,380426,385478,395584,415794,425899,436005,437268,447373,457478,475162,495373,510531,530741,548426,558531,578741,598952,609057,619162,629268,640636,660847,672215,699215,699814,700284,717968,719231,720494,721757,724284,737547,738810,759020,779231,799441,805372,807353,809495,812044,820833,830659,839247,840729,860421,880113,899805,919498,939190,959498,974267,984113,1023498,1043190,1062882,1082574,1102574,1112421,1123519,1143212,1153058,1162904,1172750,1183827,1197058,1198596,1218596,1238289,1248442,1268100,1268809,1278090,1279590,1283557,1293157,1302757,1321957,1341157,1360642,1366746,1373062,1379277,1381488,1383419,1390747,1420060,1449373,1464029,1478686,1486014,1515327,1544640,1559296,1573953,1586777,1588151
DistanceSpacing: 1
BeatDivisor: 4
GridSize: 4
TimelineZoom: 2.1

[Metadata]
Title:Touhou Medley ~ Touhou LAST BOSS Rush
TitleUnicode:東方メドレー ~ 東方ラストボスラッシュ
Artist:Senpi-
ArtistUnicode:戦ピー
Creator:Aikyuu-Chan
Version:Last Memories of Hope
Source:東方Project
Tags:
BeatmapID:1836947
BeatmapSetID:878319

[Difficulty]
HPDrainRate:0
CircleSize:4
OverallDifficulty:8
ApproachRate:9.4
SliderMultiplier:2.1
SliderTickRate:1

[Events]
//Background and Video events
0,0,"sample_90cc8ad0268ed0c43a58d59fb56f4c9610dfb601.png",0,0
//Break Periods
2,44626,1382859
//Storyboard Layer 0 (Background)
//Storyboard Layer 1 (Fail)
//Storyboard Layer 2 (Pass)
//Storyboard Layer 3 (Foreground)
//Storyboard Sound Samples

[TimingPoints]
18023,1000,4,2,1,80,1,0
18023,-100,4,2,1,80,0,1
18085,-100,4,2,1,80,0,0
34023,500,4,2,1,80,1,0
34023,-100,4,2,1,80,0,0
34932,444.444444444444,4,2,1,80,1,0
34932,-100,4,2,1,80,0,0
35785,342.857142857143,4,2,1,80,1,0
35785,-100,4,2,1,80,0,0
36470,329.67032967033,4,2,1,80,1,0
36470,-100,4,2,1,80,0,0
37164,315.789473684211,4,2,1,80,1,0
37164,-100,4,2,1,80,0,1
37183,-100,4,2,1,80,0,0
47269,-100,4,2,1,80,0,1
47348,-100,4,2,1,80,0,0
57374,-100,4,2,1,80,0,0
67479,-100,4,2,1,80,0,1
77269,-100,4,2,1,80,0,0
77585,-100,4,2,1,80,0,1
87374,-100,4,2,1,80,0,0
87690,-100,4,2,1,80,0,0
97795,-100,4,2,1,80,0,1
97874,-100,4,2,1,80,0,0
118006,-100,4,2,1,80,0,0
138216,-100,4,2,1,80,0,1
138295,-100,4,2,1,80,0,0
158427,-100,4,2,1,80,0,1
158506,-100,4,2,1,80,0,0
178006,315.789473684211,4,2,1,80,1,0
178006,-100,4,2,1,80,0,1
178084,-100,4,2,1,80,0,0
198216,-100,4,2,1,80,0,1
215900,-100,4,2,1,80,0,0
223479,-100,4,2,1,80,0,1
233269,-100,4,2,1,80,0,0
233584,-100,4,2,1,80,0,1
243374,-100,4,2,1,80,0,0
243690,-100,4,2,1,80,0,1
243769,-100,4,2,1,80,0,0
261058,315.789473684211,4,2,1,80,1,0
261058,-100,4,2,1,80,0,1
261136,-100,4,2,1,80,0,0
266110,-100,4,2,1,80,0,0
271163,-100,4,2,1,80,0,1
291373,-100,4,2,1,80,0,0
299584,315.789473684211,4,2,1,80,1,0
299584,-100,4,2,1,80,0,1
299662,-100,4,2,1,80,0,0
309689,-100,4,2,1,80,0,0
319794,-100,4,2,1,80,0,1
319873,-100,4,2,1,80,0,0
334952,-100,4,2,1,80,0,0
347584,-100,4,2,1,80,0,1
347662,-100,4,2,1,80,0,0
357689,-100,4,2,1,80,0,1
367478,-100,4,2,1,80,0,0
367794,-100,4,2,1,80,0,1
374110,-100,4,2,1,80,0,0
375373,-100,4,2,1,80,0,0
380426,-100,4,2,1,80,0,0
385478,-100,4,2,1,80,0,1
385557,-100,4,2,1,80,0,0
395584,-100,4,2,1,80,0,1
395662,-100,4,2,1,80,0,0
415794,-100,4,2,1,80,0,0
425899,-100,4,2,1,80,0,0
436005,-100,4,2,1,80,0,0
437268,-100,4,2,1,80,0,1
437347,-100,4,2,1,80,0,0
447373,-100,4,2,1,80,0,0
457478,-100,4,2,1,80,0,1
474847,-100,4,2,1,80,0,0
475162,-100,4,2,1,80,0,1
475241,-100,4,2,1,80,0,0
495373,-100,4,2,1,80,0,0
510531,-100,4,2,1,80,0,1
510610,-100,4,2,1,80,0,0
530741,-100,4,2,1,80,0,1
548110,-100,4,2,1,80,0,0
548426,-100,4,2,1,80,0,1
548505,-100,4,2,1,80,0,0
558531,-100,4,2,1,80,0,0
578741,-100,4,2,1,80,0,1
598952,-100,4,2,1,80,0,0
609057,-100,4,2,1,80,0,0
619162,-100,4,2,1,80,0,1
619241,-100,4,2,1,80,0,0
629268,-100,4,2,1,80,0,0
640636,-100,4,2,1,80,0,0
660847,-100,4,2,1,80,0,1
660926,-100,4,2,1,80,0,0
672215,-100,4,2,1,80,0,0
699215,600,4,2,1,80,1,0
699215,-100,4,2,1,80,0,0
699814,1200,4,2,1,80,1,0
699815,-100,4,2,1,80,0,0
700284,315.789473684211,4,2,1,80,1,0
700284,-100,4,2,1,80,0,1
717968,-100,4,2,1,80,0,0
719231,-100,4,2,1,80,0,0
720494,-100,4,2,1,80,0,0
721757,-100,4,2,1,80,0,0
724284,-100,4,2,1,80,0,0
737547,631.578947368421,4,2,1,80,1,0
737547,-100,4,2,1,80,0,0
738810,315.789473684211,4,2,1,80,1,0
738810,-100,4,2,1,80,0,0
759020,-100,4,2,1,80,0,0
779231,-100,4,2,1,80,0,1
799441,379.746835443038,4,2,1,80,1,0
799441,-100,4,2,1,80,0,0
805372,495.867768595041,4,2,1,80,1,0
805372,-100,4,2,1,80,0,0
807353,535.714285714286,4,2,1,80,1,0
807355,-100,4,2,1,80,0,0
809503,937.502388059701,4,2,1,80,1,0
809503,-100,4,2,1,80,0,0
812044,4000,4,2,1,80,1,0
812044,-100,4,2,1,80,0,0
820833,306.90537084399,4,2,1,80,1,0
820833,-100,4,2,1,80,0,0
830659,306.122448979592,4,2,1,80,1,0
830659,-100,4,2,1,80,0,0
839247,273.971985988425,4,2,1,80,1,0
839247,-100,4,2,1,80,0,0
840729,307.692307692308,4,2,1,80,1,0
840729,-100,4,2,1,80,0,1
840805,-100,4,2,1,80,0,0
860421,-100,4,2,1,80,0,1
860498,-100,4,2,1,80,0,0
880113,-100,4,2,1,80,0,1
880190,-100,4,2,1,80,0,0
899805,-100,4,2,1,80,0,1
899882,-100,4,2,1,80,0,0
919498,-100,4,2,1,80,0,1
919575,-100,4,2,1,80,0,0
939190,-100,4,2,1,80,0,1
939267,-100,4,2,1,80,0,0
959498,307.692307692308,4,2,1,80,1,0
959498,-100,4,2,1,80,0,0
974267,-100,4,2,1,80,0,1
974344,-100,4,2,1,80,0,0
984113,-100,4,2,1,80,0,1
1023498,-100,4,2,1,80,0,0
1043190,-100,4,2,1,80,0,1
1043267,-100,4,2,1,80,0,0
1062882,-100,4,2,1,80,0,1
1082574,-100,4,2,1,80,0,0
1101036,384.615384615385,4,2,1,80,1,0
1101036,-100,4,2,1,80,0,0
1102574,615.384615384615,4,2,1,80,1,0
1102574,-100,4,2,1,80,0,0
1112443,307.692307692308,4,2,1,80,1,0
1112443,-100,4,2,1,80,0,0
1123519,-100,4,2,1,80,0,1
1143212,-100,4,2,1,80,0,0
1153058,-100,4,2,1,80,0,0
1162904,-100,4,2,1,80,0,1
1162981,-100,4,2,1,80,0,0
1172750,-100,4,2,1,80,0,1
1172827,-100,4,2,1,80,0,0
1183827,-100,4,2,1,80,0,0
1197058,-100,4,2,1,80,0,0
1198596,-100,4,2,1,80,0,0
1218596,307.692307692308,4,2,1,80,1,1
1218596,-100,4,2,1,80,0,1
1218673,-100,4,2,1,80,0,0
1238289,-100,4,2,1,80,0,0
1248408,307.692307692308,4,2,1,80,1,0
1248408,-100,4,2,1,80,0,1
1248484,-100,4,2,1,80,0,0
1268809,331.491712707182,4,2,1,80,1,0
1268809,-100,4,2,1,80,0,1
1268891,-100,4,2,1,80,0,0
1278090,600.002455909342,4,2,1,80,1,0
1278090,-100,4,2,1,80,0,0
1279590,1200,4,2,1,80,1,0
1279590,-100,4,2,1,80,0,0
1283557,300,4,2,1,80,1,0
1283557,-100,4,2,1,80,0,1
1283632,-100,4,2,1,80,0,0
1293157,-100,4,2,1,80,0,0
1302757,-100,4,2,1,80,0,1
1321657,-100,4,2,1,80,0,0
1321957,-100,4,2,1,80,0,1
1322032,-100,4,2,1,80,0,0
1341157,-100,4,2,1,80,0,1
1341232,-100,4,2,1,80,0,0
1360057,324.324324324324,4,2,1,80,1,0
1360381,363.636363636364,4,2,1,80,1,0
1360642,374.999514563107,4,2,1,80,1,0
1360642,-100,4,2,1,80,0,1
1360735,-100,4,2,1,80,0,0
1366746,394.736842105263,4,2,1,80,1,0
1366746,-100,4,2,1,80,0,0
1373062,413.791134020618,4,2,1,80,1,0
1373062,-100,4,2,1,80,0,0
1379277,456.273764258555,4,2,1,80,1,0
1379277,-100,4,2,1,80,0,0
1381488,487.801134020619,4,2,1,80,1,0
1381488,-100,4,2,1,80,0,0
1383399,458.015267175573,4,2,1,80,1,0
1383399,-100,4,2,1,80,0,1
1383513,-100,4,2,1,80,0,0
1390727,-100,4,2,1,80,0,1
1390841,-100,4,2,1,80,0,0
1420040,-100,4,2,1,80,0,0
1449353,-100,4,2,1,80,0,1
1464009,-100,4,2,1,80,0,0
1478666,-100,4,2,1,80,0,0
1485994,-100,4,2,1,80,0,1
1486108,-100,4,2,1,80,0,0
1515307,-100,4,2,1,80,0,0
1544620,-100,4,2,1,80,0,1
1559276,-100,4,2,1,80,0,0
1573933,-100,4,2,1,80,0,0
1586757,-100,4,2,1,80,0,0
1588131,-1000,4,2,1,80,0,0

[HitObjects]
28,140,37164,6,0,L|28:8,1,105
28,240,37479,2,0,P|120:280|224:240,1,210
220,160,37953,2,0,L|220:104,2,52.5
424,200,38269,2,0,L|480:200,1,52.5
484,244,38427,6,0,L|484:376,1,105
484,144,38742,2,0,P|392:104|288:144,1,210
292,224,39216,2,0,L|292:280,2,52.5
20,32,39532,2,0,L|76:32,1,52.5
48,100,39690,6,0,P|100:112|164:92,1,105
224,32,40006,2,0,L|224:252,1,210
152,296,40479,2,0,L|92:296,2,52.5
492,352,40795,2,0,L|436:352,1,52.5
464,284,40953,6,0,P|412:272|348:292,1,105
288,352,41269,2,0,L|288:132,1,210
360,88,41742,2,0,L|420:88,2,52.5
364,164,42058,2,0,L|364:224,1,52.5
432,284,42216,6,0,L|312:284,1,105
276,376,42532,2,0,P|244:272|288:156,1,210
355,176,43164,2,0,L|460:176,1,105
460,68,43479,6,0,L|240:68,1,210
104,72,44111,2,0,P|76:168|136:280,1,210
84,192,1383399,6,0,P|76:92|96:24,2,157.5
172,128,1384315,2,0,P|180:228|160:296,2,157.5
216,352,1385231,6,0,P|116:360|48:340,2,157.5
296,352,1386147,2,0,P|396:360|464:340,2,157.5
428,192,1387063,6,0,P|436:92|416:24,2,157.5
340,128,1387979,2,0,P|332:228|352:296,1,157.5
416,292,1388666,2,0,L|468:292,1,52.5
472,240,1388895,6,0,L|472:176,1,52.5
360,48,1389124,2,0,L|360:104,1,52.5
288,260,1389353,2,0,L|288:196,1,52.5
168,60,1389582,2,0,L|168:116,1,52.5
232,296,1389811,2,0,L|60:296,1,157.5
72,231,1390269,6,0,P|124:221|185:230,1,105
226,319,1390727,6,0,B|269:219|269:219|238:26|194:112|194:112|208:179,1,315
27,254,1391643,2,0,P|16:311|32:359,1,105
70,147,1392101,2,0,P|81:90|65:42,1,105
97,257,1392559,6,0,B|184:228|184:228|295:315|398:229,1,315
512,132,1393475,2,0,B|425:161|425:161|314:74|211:160,1,315
276,224,1394391,6,0,B|304:300|396:324|396:324|396:264,1,210
396,88,1395078,2,0,P|390:140|398:191,1,105
472,232,1395536,2,0,L|512:232,2,35
436,284,1395765,2,0,P|384:300|328:288,1,105
410,173,1396223,6,0,B|410:69|410:69|334:113|242:81,1,262.5
256,85,1396910,2,0,L|256:145,1,52.5
256,85,1397139,6,0,B|178:112|102:68|102:68|102:172,1,262.5
102,171,1397826,2,0,L|47:171,1,52.5
102,171,1398055,6,0,B|154:207|154:207|314:207,1,210
376,156,1398742,2,0,L|376:48,2,105
376,228,1399429,2,0,L|376:336,1,105
296,340,1399887,6,0,B|92:340|92:340|92:224,1,315
92,155,1400803,2,0,B|92:44|92:44|296:44,1,315
352,92,1401719,6,0,L|352:308,1,210
296,352,1402406,2,0,P|240:360|184:352,2,105
408,352,1403093,2,0,P|464:360|520:352,1,105
496,264,1403551,6,0,L|496:48,1,210
424,56,1404238,2,0,L|352:56,1,52.5
300,56,1404467,2,0,L|300:176,1,105
228,164,1404811,2,0,L|160:164,2,52.5
268,224,1405154,2,0,L|268:280,1,52.5
264,348,1405383,6,0,L|24:348,1,210
52,272,1406070,2,0,L|52:160,2,105
52,92,1406757,2,0,L|160:92,1,105
156,164,1407215,6,0,B|156:280|156:280|356:280,1,315
312,352,1408131,2,0,B|428:352|428:352|428:153,1,315
428,76,1409047,6,0,L|196:76,1,210
136,76,1409734,2,0,L|20:76,1,105
28,148,1410192,2,0,L|28:184,2,35
28,183,1410421,2,0,L|132:183,1,105
240,264,1410879,6,0,L|24:264,1,210
28,348,1411566,2,0,L|104:348,1,52.5
156,348,1411795,2,0,L|376:348,1,210
448,348,1412482,2,0,L|448:284,1,52.5
448,220,1412711,6,0,L|448:8,1,210
372,36,1413399,2,0,L|372:148,2,105
372,243,1414086,2,0,L|372:348,1,105
296,348,1414544,6,0,L|296:16,1,315
216,33,1415460,6,0,L|216:348,1,315
140,348,1416376,6,0,L|140:136,1,210
64,145,1417063,2,0,L|64:40,2,105
64,239,1417751,2,0,L|64:344,1,105
0,296,1418208,6,0,L|0:72,1,210
512,168,1418895,6,0,L|512:224,1,52.5
468,284,1419124,6,0,L|340:284,1,105
44,100,1419582,2,0,L|172:100,1,105
472,268,1420040,6,0,P|424:312|356:320,1,105
296,248,1420498,2,0,L|264:120,2,105
216,336,1421414,2,0,P|156:348|96:336,1,105
84,124,1421872,6,0,P|132:92|192:84,1,105
356,184,1422330,2,0,P|300:200|248:188,1,105
176,164,1422788,2,0,P|160:220|228:364,1,210
416,288,1423475,2,0,P|360:268|308:284,1,105
364,348,1424162,6,0,L|376:224,2,105
492,168,1425078,2,0,P|440:148|388:152,2,105
208,204,1425765,2,0,P|240:172|304:164,2,105
356,288,1426452,2,0,L|336:40,1,210
196,140,1427139,2,0,P|176:192|188:244,1,105
288,336,1427826,6,0,P|344:352|392:344,2,105
356,268,1428742,2,0,P|416:264|468:244,1,105
388,192,1429200,2,0,P|444:164|472:120,1,105
388,88,1429658,2,0,L|368:36,2,52.5
288,136,1430116,2,0,P|232:120|180:72,1,105
296,228,1430574,6,0,P|256:264|192:272,1,105
144,352,1431032,2,0,P|104:276|128:128,1,210
204,132,1431719,2,0,P|260:140|308:124,2,105
240,40,1432406,2,0,P|164:28|56:100,1,210
