osu file format v14

[General]
AudioFilename: audio.mp3
AudioLeadIn: 0
PreviewTime: -1
Countdown: 0
SampleSet: Soft
StackLeniency: 0.7
Mode: 1
LetterboxInBreaks: 0
WidescreenStoryboard: 0

[Editor]
DistanceSpacing: 1.9
BeatDivisor: 1
GridSize: 32
TimelineZoom: 1.3

[Metadata]
Title:The First Part of Touhou EX Boss Rush!!
TitleUnicode:The First Part of Touhou EX Boss Rush!!
Artist:Senpi-
ArtistUnicode:Senpi-
Creator:driodx
Version:Eastern Marathon
Source:
Tags:marathon [Chisaki-san] nico douga ZUN Flandre Remilia Scarlet Yakumo Ran Chen Fujiwara Mokou Kamisirasawa Keine Moriya Suwako Kochiya Sanae Yasaka Kanako komeiji Koishi Satori Houjuu Nue U.N. Owen was Her? Septette for the Dead Princess A Maiden's Illusionary Funeral ~ Necro-Fantasy Diāo Yè Zōng Reach for the Moon, Immortal Smoke Plain Asia Extend Ashe Native Faith Faith is for the Transient People The Venerable Ancient Battlefield ~ Suwa Foughten Field Hartmann's Youkai Girl Satori Maiden ~ 3rd eye Heian no Alien
BeatmapID:1900019
BeatmapSetID:910529

[Difficulty]
HPDrainRate:4
CircleSize:5
OverallDifficulty:5.5
ApproachRate:5
SliderMultiplier:1.4
SliderTickRate:1

[Events]
//Background and Video events
0,0,"Boss Rush.jpg",0,0
//Break Periods
2,21557,28285
//Storyboard Layer 0 (Background)
//Storyboard Layer 1 (Fail)
//Storyboard Layer 2 (Pass)
//Storyboard Layer 3 (Foreground)
//Storyboard Sound Samples

[TimingPoints]
2806,631.578947368421,4,2,0,30,1,0
2806,-100,4,2,0,30,0,0
17963,631.578947368421,4,1,0,30,1,8
18121,631.578947368421,4,1,0,30,1,0
19384,631.578947368421,4,1,0,30,1,8
19621,631.578947368421,4,1,0,30,1,0
29485,324.324324324324,4,1,0,40,1,0
29485,-111.111111111111,4,1,0,40,0,0
34674,-105.263157894737,4,1,0,45,0,0
44403,-101.010101010101,4,1,0,80,0,0
44484,-99.009900990099,4,1,0,80,0,0
44566,-97.0873786407767,4,1,0,80,0,0
44647,-95.2380952380952,4,1,0,80,0,0
44728,-93.4579439252336,4,1,0,80,0,0
44809,-91.743119266055,4,1,0,80,0,0
44890,-90.0900900900901,4,1,0,80,0,0
44971,-88.4955752212389,4,1,0,80,0,0
45052,-86.9565217391304,4,1,0,100,0,0
55755,-95.2380952380952,4,1,0,100,0,0
56079,-100,4,1,0,100,0,0
56403,-105.263157894737,4,1,0,100,0,0
56728,-111.111111111111,4,1,0,100,0,0
57052,-117.647058823529,4,1,0,100,0,0
59322,-90.9090909090909,4,1,0,100,0,1
78133,-91.743119266055,4,1,0,100,0,1
78214,-92.5925925925926,4,1,0,100,0,1
78295,-93.4579439252336,4,1,0,100,0,1
78376,-94.3396226415094,4,1,0,100,0,1
78457,-95.2380952380952,4,1,0,100,0,1
78539,-96.1538461538461,4,1,0,100,0,1
78620,-97.0873786407767,4,1,0,100,0,1
78674,-98.0392156862745,4,1,0,100,0,1
78728,-99.009900990099,4,1,0,100,0,1
78782,-100,4,1,0,100,0,0
89160,-100,4,1,0,60,0,0
91106,-98.0392156862745,4,1,0,60,0,0
91187,-96.1538461538461,4,1,0,60,0,0
91268,-94.3396226415094,4,1,0,60,0,0
91349,-92.5925925925926,4,1,0,60,0,0
91430,-90.9090909090909,4,1,0,75,0,0
91593,-86.9565217391304,4,1,0,90,0,0
91755,-83.3333333333333,4,1,0,100,0,1
112512,-100,4,1,0,65,0,0
126539,-100,4,1,0,40,0,0
126620,-100,4,1,0,65,0,0
131971,-100,4,1,0,100,0,0
133268,-100,4,1,0,80,0,0
148836,-100,4,1,0,60,0,0
151430,-100,4,1,0,100,0,0
153376,-100,4,1,0,65,0,0
154025,-80,4,1,0,100,0,1
157917,-80,4,1,0,70,0,1
158241,-80,4,1,0,100,0,1
159376,-80,4,1,0,50,0,1
159539,-80,4,1,0,100,0,1
159701,-80,4,1,0,50,0,1
159863,-80,4,1,0,100,0,1
160025,-80,4,1,0,50,0,1
160187,-80,4,1,0,100,0,1
161322,-80,4,1,0,50,0,1
161484,-80,4,1,0,100,0,1
164566,-80,4,1,0,50,0,1
164728,-80,4,1,0,100,0,1
168214,-80,4,1,0,75,0,1
168620,-80,4,1,0,100,0,1
195539,-86.9565217391304,4,1,0,100,0,0
215971,324.324324324324,4,1,0,100,1,8
216943,324.324324324324,4,1,0,100,1,0
216943,-80,4,1,0,100,0,1
237052,-86.9565217391304,4,1,0,100,0,0
237376,-83.3333333333333,4,1,0,100,0,0
237701,-80,4,1,0,100,0,1
248079,-83.3333333333333,4,1,0,100,0,0
255863,-86.9565217391304,4,1,0,100,0,0
256025,-85.4700854700855,4,1,0,100,0,0
256187,-84.0336134453781,4,1,0,100,0,0
256349,-82.6446280991736,4,1,0,100,0,0
256512,-81.3008130081301,4,1,0,100,0,0
256674,-80,4,1,0,100,0,0
256836,-78.7401574803149,4,1,0,100,0,0
256998,-77.5193798449612,4,1,0,100,0,0
257160,-76.3358778625954,4,1,0,100,0,0
257322,-75.187969924812,4,1,0,100,0,0
257484,-74.0740740740741,4,1,0,100,0,0
257647,-72.992700729927,4,1,0,100,0,0
257809,-71.9424460431655,4,1,0,100,0,0
258457,324.324324324324,4,1,0,100,1,0
258457,-71.4285714285714,4,1,0,100,0,1
268592,-76.9230769230769,4,1,0,100,0,0
268835,-83.3333333333333,4,1,0,100,0,0
268997,324.324324324324,4,1,0,100,1,0
268997,-80,4,1,0,100,0,1
289753,-80,4,1,0,100,0,0
301429,-80,4,1,0,100,0,1
311807,-80,4,1,0,100,0,0
322186,-80,4,1,0,100,0,1
332564,-80,4,1,0,100,0,0
342942,-86.9565217391304,4,1,0,100,0,0
355915,-76.9230769230769,4,1,0,100,0,1
376672,-90.9090909090909,4,1,0,100,0,0
397429,-83.3333333333333,4,1,0,100,0,1
418186,-90.9090909090909,4,1,0,100,0,0
418834,-80,4,1,0,100,0,1
438294,315.789473684211,4,1,0,100,1,0
438294,-83.3333333333333,4,1,0,100,0,0
448399,315.789473684211,7,1,0,100,1,0
448399,-76.9230769230769,7,1,0,100,0,1
448872,-50,7,1,0,100,0,1
449504,-76.9230769230769,7,1,0,100,0,1
451082,-50,7,1,0,100,0,1
451714,-76.9230769230769,7,1,0,100,0,1
453292,-50,7,1,0,100,0,1
453925,-76.9230769230769,7,1,0,100,0,1
455503,-50,7,1,0,100,0,1
456135,-76.9230769230769,7,1,0,100,0,1
457713,-50,7,1,0,100,0,1
458346,-76.9230769230769,7,1,0,100,0,1
459924,-50,7,1,0,100,0,1
460556,-76.9230769230769,7,1,0,100,0,1
462134,-50,7,1,0,100,0,1
462767,-76.9230769230769,7,1,0,100,0,1
464344,-50,7,1,0,100,0,1
464977,-76.9230769230769,7,1,0,100,0,1
466083,315.789473684211,4,1,0,100,1,0
476188,-90.9090909090909,4,1,0,100,0,0
486293,-83.3333333333333,4,1,0,100,0,0
496398,-80,4,1,0,100,0,1
516609,-90.9090909090909,4,1,0,100,0,0
526714,-83.3333333333333,4,1,0,100,0,0
536819,-71.4285714285714,4,1,0,100,0,1
546925,-83.3333333333333,4,1,0,100,0,0
557030,-71.4285714285714,4,1,0,100,0,1
577240,-100,4,1,0,50,0,0
597451,-100,4,1,0,60,0,0
597925,-100,4,1,0,100,0,0
598240,-100,4,1,0,60,0,0
598556,-100,4,1,0,100,0,0
600135,-100,4,1,0,60,0,0
600451,-100,4,1,0,100,0,0
601556,-100,4,1,0,75,0,0
602188,-100,4,1,0,100,0,0
602661,-100,4,1,0,75,0,0
602977,-100,4,1,0,100,0,0
607556,-80,4,1,0,100,0,0
617661,-66.6666666666667,4,1,0,100,0,1
619398,-66.6666666666667,4,1,0,75,0,1
619556,-66.6666666666667,4,1,0,100,0,1
621925,-66.6666666666667,4,1,0,75,0,1
622083,-66.6666666666667,4,1,0,100,0,1
624451,-66.6666666666667,4,1,0,75,0,1
624609,-66.6666666666667,4,1,0,100,0,1
629504,-66.6666666666667,4,1,0,75,0,1
629661,-66.6666666666667,4,1,0,100,0,1
632030,-66.6666666666667,4,1,0,75,0,1
632188,-66.6666666666667,4,1,0,100,0,1
634556,-66.6666666666667,4,1,0,75,0,1
634714,-66.6666666666667,4,1,0,100,0,1
637872,-86.9565217391304,4,1,0,80,0,0
657451,-76.9230769230769,4,1,0,100,0,0
657609,-74.0740740740741,4,1,0,100,0,0
657767,-71.4285714285714,4,1,0,100,0,0
657925,-68.9655172413793,4,1,0,100,0,0
658083,-71.4285714285714,4,1,0,100,0,1
658161,-71.4285714285714,4,1,0,80,0,1
658714,-71.4285714285714,4,1,0,100,0,1
658951,-71.4285714285714,4,1,0,100,0,1
659188,-71.4285714285714,4,1,0,100,0,1
659346,-71.4285714285714,4,1,0,100,0,1
659425,-71.4285714285714,4,1,0,80,0,1
659977,-71.4285714285714,4,1,0,100,0,1
660214,-71.4285714285714,4,1,0,100,0,1
660451,-71.4285714285714,4,1,0,100,0,1
660609,-71.4285714285714,4,1,0,100,0,1
660688,-71.4285714285714,4,1,0,80,0,1
661240,-71.4285714285714,4,1,0,100,0,1
661477,-71.4285714285714,4,1,0,100,0,1
661714,-71.4285714285714,4,1,0,100,0,1
661872,-71.4285714285714,4,1,0,100,0,1
663135,-71.4285714285714,4,1,0,100,0,1
663214,-71.4285714285714,4,1,0,80,0,1
663767,-71.4285714285714,4,1,0,100,0,1
664004,-71.4285714285714,4,1,0,100,0,1
664240,-71.4285714285714,4,1,0,100,0,1
664398,-71.4285714285714,4,1,0,100,0,1
664477,-71.4285714285714,4,1,0,80,0,1
665030,-71.4285714285714,4,1,0,100,0,1
665267,-71.4285714285714,4,1,0,100,0,1
665504,-71.4285714285714,4,1,0,100,0,1
665604,-71.4285714285714,4,1,0,100,0,1
668188,-71.4285714285714,4,1,0,100,0,1
668267,-71.4285714285714,4,1,0,80,0,1
668819,-71.4285714285714,4,1,0,100,0,1
669056,-71.4285714285714,4,1,0,100,0,1
669293,-71.4285714285714,4,1,0,100,0,1
669451,-71.4285714285714,4,1,0,100,0,1
669530,-71.4285714285714,4,1,0,80,0,1
670083,-71.4285714285714,4,1,0,100,0,1
670319,-71.4285714285714,4,1,0,100,0,1
670556,-71.4285714285714,4,1,0,100,0,1
670714,-71.4285714285714,4,1,0,100,0,1
670793,-71.4285714285714,4,1,0,80,0,1
671346,-71.4285714285714,4,1,0,100,0,1
671583,-71.4285714285714,4,1,0,100,0,1
671819,-71.4285714285714,4,1,0,100,0,1
671977,-71.4285714285714,4,1,0,100,0,1
673240,-71.4285714285714,4,1,0,100,0,1
673319,-71.4285714285714,4,1,0,80,0,1
673872,-71.4285714285714,4,1,0,100,0,1
674109,-71.4285714285714,4,1,0,100,0,1
674346,-71.4285714285714,4,1,0,100,0,1
674504,-71.4285714285714,4,1,0,100,0,1
674583,-71.4285714285714,4,1,0,80,0,1
675135,-71.4285714285714,4,1,0,100,0,1
675372,-71.4285714285714,4,1,0,100,0,1
675609,-71.4285714285714,4,1,0,100,0,1
675767,-71.4285714285714,4,1,0,100,0,1
675846,-71.4285714285714,4,1,0,80,0,1
677030,-71.4285714285714,4,1,0,90,0,1
678293,-71.4285714285714,4,1,0,100,0,1
683346,-71.4285714285714,4,1,0,100,0,1
683425,-71.4285714285714,4,1,0,75,0,1
683977,-71.4285714285714,4,1,0,100,0,1
684056,-71.4285714285714,4,1,0,75,0,1
684609,-71.4285714285714,4,1,0,100,0,1
684688,-71.4285714285714,4,1,0,75,0,1
685240,-71.4285714285714,4,1,0,100,0,1
685319,-71.4285714285714,4,1,0,75,0,1
685872,-71.4285714285714,4,1,0,100,0,1
685951,-71.4285714285714,4,1,0,75,0,1
686504,-71.4285714285714,4,1,0,100,0,1
686583,-71.4285714285714,4,1,0,75,0,1
687135,-71.4285714285714,4,1,0,100,0,1
687214,-71.4285714285714,4,1,0,75,0,1
687767,-71.4285714285714,4,1,0,100,0,1
687846,-71.4285714285714,4,1,0,75,0,1
688398,-71.4285714285714,4,1,0,100,0,0
688714,-72.7272727272727,4,1,0,100,0,0
689030,-74.0740740740741,4,1,0,90,0,0
689346,-75.187969924812,4,1,0,90,0,0
689661,-76.9230769230769,4,1,0,80,0,0
689977,-78.125,4,1,0,80,0,0
690293,-80,4,1,0,70,0,0
690609,-81.3008130081301,4,1,0,70,0,0
690925,-83.3333333333333,4,1,0,60,0,0
691240,-84.7457627118644,4,1,0,60,0,0
691556,-86.9565217391304,4,1,0,50,0,0
691872,-88.4955752212389,4,1,0,50,0,0
692188,-90.9090909090909,4,1,0,40,0,0
692504,-92.5925925925926,4,1,0,40,0,0
692819,-95.2380952380952,4,1,0,30,0,0
693135,-97.0873786407767,4,1,0,30,0,0
693451,-100,4,1,0,20,0,0
693767,-102.040816326531,4,1,0,20,0,0
694083,-105.263157894737,4,1,0,10,0,0
694398,-107.52688172043,4,1,0,10,0,0
695977,512.820512820513,4,1,0,100,1,0
699056,545.454545454546,4,1,0,50,1,0

[HitObjects]
192,256,2806,5,0,2:2:0:0:
320,256,3437,1,2,2:2:0:0:
192,256,4069,1,0,2:2:0:0:
320,256,4700,1,2,2:2:0:0:
192,256,5332,1,0,2:2:0:0:
192,256,5963,1,0,2:2:0:0:
320,256,6279,1,2,2:2:0:0:
192,256,6595,1,0,2:2:0:0:
320,256,7227,1,2,2:2:0:0:
320,256,7858,1,2,2:2:0:0:
192,256,8174,1,0,2:2:0:0:
320,256,8490,1,2,2:2:0:0:
320,256,8806,1,2,2:2:0:0:
320,256,9121,1,2,2:2:0:0:
320,256,9437,1,2,2:2:0:0:
320,256,9595,1,2,2:2:0:0:
192,256,9753,1,0,2:2:0:0:
192,256,10069,1,0,2:2:0:0:
192,256,10384,1,0,2:2:0:0:
320,256,10700,1,2,2:2:0:0:
192,256,11016,1,0,2:2:0:0:
320,256,11332,1,2,2:2:0:0:
192,256,11648,1,0,2:2:0:0:
192,256,12911,1,0,2:2:0:0:
320,256,13542,1,2,2:2:0:0:
192,256,14174,1,0,2:2:0:0:
320,256,14806,1,2,2:2:0:0:
192,256,15437,1,0,2:2:0:0:
192,256,16069,1,0,2:2:0:0:
320,256,16384,1,2,2:2:0:0:
192,256,16700,1,0,2:2:0:0:
320,256,17332,1,2,2:2:0:0:
320,256,18120,1,2,2:2:0:0:
192,256,18594,1,0,2:2:0:0:
320,256,18910,1,2,2:2:0:0:
320,256,19226,1,2,2:2:0:0:
192,256,19699,1,0,2:2:0:0:
320,256,20094,1,2,2:2:0:0:
320,256,20252,1,2,2:2:0:0:
192,256,20568,1,0,2:2:0:0:
192,256,20884,1,0,2:2:0:0:
320,256,21357,1,2,2:2:0:0:
320,256,29485,5,2,0:0:0:0:
192,256,30133,1,0,0:0:0:0:
320,256,30782,1,2,0:0:0:0:
192,256,31430,1,0,0:0:0:0:
320,256,32322,1,2,0:0:0:0:
320,256,32647,1,2,0:0:0:0:
192,256,32971,1,0,0:0:0:0:
192,256,33295,1,0,0:0:0:0:
320,256,33620,1,2,0:0:0:0:
320,256,33944,1,2,0:0:0:0:
192,256,34268,1,0,0:0:0:0:
192,256,34593,1,0,0:0:0:0:
320,256,34674,1,2,0:0:0:0:
192,256,34998,1,0,0:0:0:0:
320,256,35322,1,2,0:0:0:0:
192,256,35647,1,0,0:0:0:0:
320,256,35971,1,2,0:0:0:0:
320,256,36295,1,2,0:0:0:0:
192,256,36620,1,0,0:0:0:0:
320,256,36944,1,2,0:0:0:0:
320,256,37268,1,2,0:0:0:0:
192,256,37593,1,0,0:0:0:0:
320,256,37917,1,2,0:0:0:0:
192,256,38241,1,0,0:0:0:0:
320,256,38566,1,2,0:0:0:0:
192,256,38890,1,0,0:0:0:0:
192,256,39214,1,0,0:0:0:0:
320,256,39863,1,2,0:0:0:0:
192,256,40187,1,0,0:0:0:0:
320,256,40512,1,2,0:0:0:0:
192,256,40836,1,0,0:0:0:0:
320,256,41160,1,2,0:0:0:0:
320,256,41484,1,2,0:0:0:0:
192,256,41809,1,0,0:0:0:0:
320,256,42133,1,2,0:0:0:0:
320,256,42457,1,2,0:0:0:0:
192,256,42782,1,0,0:0:0:0:
320,256,43106,1,2,0:0:0:0:
192,256,43430,1,0,0:0:0:0:
320,256,43755,1,2,0:0:0:0:
192,256,44079,1,0,0:0:0:0:
192,256,44403,1,0,0:0:0:0:
192,256,44484,1,0,0:0:0:0:
320,256,44566,1,2,0:0:0:0:
320,256,44647,1,2,0:0:0:0:
192,256,44728,1,0,0:0:0:0:
192,256,44809,1,0,0:0:0:0:
320,256,44890,1,2,0:0:0:0:
192,256,44971,1,0,0:0:0:0:
320,128,45052,1,6,0:0:0:0:
192,256,45376,1,0,0:0:0:0:
192,256,45539,1,0,0:0:0:0:
192,256,45620,1,0,0:0:0:0:
320,128,45701,1,6,0:0:0:0:
192,256,46025,1,0,0:0:0:0:
192,256,46187,1,0,0:0:0:0:
192,256,46268,1,0,0:0:0:0:
320,128,46349,1,6,0:0:0:0:
320,256,46674,1,2,0:0:0:0:
192,256,46836,1,0,0:0:0:0:
192,256,46917,1,0,0:0:0:0:
320,128,46998,1,6,0:0:0:0:
320,256,47322,1,2,0:0:0:0:
192,256,47484,1,0,0:0:0:0:
192,256,47566,1,0,0:0:0:0:
320,128,47647,1,6,0:0:0:0:
192,256,47809,1,0,0:0:0:0:
192,256,47971,1,0,0:0:0:0:
320,256,48133,1,2,0:0:0:0:
320,256,48295,1,2,0:0:0:0:
192,256,48457,1,0,0:0:0:0:
192,256,48620,1,0,0:0:0:0:
320,256,48782,1,2,0:0:0:0:
320,256,48944,1,2,0:0:0:0:
192,256,49268,1,0,0:0:0:0:
256,192,49593,12,0,50079,0:0:0:0:
320,256,50241,5,2,0:0:0:0:
320,256,50403,1,2,0:0:0:0:
192,256,50566,1,0,0:0:0:0:
320,256,50728,1,2,0:0:0:0:
320,256,50890,1,2,0:0:0:0:
320,256,51052,1,2,0:0:0:0:
192,256,51214,1,0,0:0:0:0:
320,256,51376,1,2,0:0:0:0:
320,256,51539,1,2,0:0:0:0:
320,256,51701,1,2,0:0:0:0:
192,256,51863,1,0,0:0:0:0:
320,256,52025,1,2,0:0:0:0:
192,256,52187,1,0,0:0:0:0:
320,256,52349,1,2,0:0:0:0:
192,256,52430,1,0,0:0:0:0:
320,256,52512,1,2,0:0:0:0:
320,256,52674,1,2,0:0:0:0:
320,256,52836,1,2,0:0:0:0:
320,256,52998,1,2,0:0:0:0:
192,256,53160,1,0,0:0:0:0:
320,256,53322,1,2,0:0:0:0:
320,256,53484,1,2,0:0:0:0:
320,256,53647,1,2,0:0:0:0:
192,256,53809,1,0,0:0:0:0:
320,256,53971,1,2,0:0:0:0:
320,256,54133,1,2,0:0:0:0:
320,256,54295,1,2,0:0:0:0:
320,256,54457,1,2,0:0:0:0:
320,256,54620,1,2,0:0:0:0:
320,256,54782,1,2,0:0:0:0:
192,256,54944,1,0,0:0:0:0:
320,256,55106,1,2,0:0:0:0:
320,256,55187,1,2,0:0:0:0:
192,256,55268,1,0,0:0:0:0:
192,256,55349,1,0,0:0:0:0:
192,256,55430,1,0,0:0:0:0:
192,256,55755,1,0,0:0:0:0:
320,256,56079,1,2,0:0:0:0:
192,256,56403,1,0,0:0:0:0:
320,256,56728,1,2,0:0:0:0:
192,256,57052,1,0,0:0:0:0:
320,256,57376,1,2,0:0:0:0:
320,256,57457,1,2,0:0:0:0:
320,256,57539,1,2,0:0:0:0:
320,256,57620,1,2,0:0:0:0:
320,256,57701,1,2,0:0:0:0:
320,256,57782,1,2,0:0:0:0:
320,256,57863,1,2,0:0:0:0:
320,256,57944,1,2,0:0:0:0:
192,256,58025,1,0,0:0:0:0:
320,256,58349,1,2,0:0:0:0:
192,256,58674,1,0,0:0:0:0:
320,256,58998,1,2,0:0:0:0:
192,128,59322,5,4,0:0:0:0:
192,256,59484,1,0,0:0:0:0:
320,256,59647,1,2,0:0:0:0:
192,256,59809,1,0,0:0:0:0:
320,256,59971,1,2,0:0:0:0:
192,256,60133,1,0,0:0:0:0:
192,256,60214,1,0,0:0:0:0:
320,256,60295,1,2,0:0:0:0:
320,256,60457,1,2,0:0:0:0:
320,256,60539,1,2,0:0:0:0:
320,256,60620,1,2,0:0:0:0:
192,256,60782,1,0,0:0:0:0:
320,256,60944,1,2,0:0:0:0:
320,256,61106,1,2,0:0:0:0:
320,256,61268,1,2,0:0:0:0:
320,256,61430,1,2,0:0:0:0:
320,256,61512,1,2,0:0:0:0:
192,256,61593,1,0,0:0:0:0:
192,256,61755,1,0,0:0:0:0:
192,256,61917,1,0,0:0:0:0:
320,256,62079,1,2,0:0:0:0:
192,256,62241,1,0,0:0:0:0:
320,256,62403,1,2,0:0:0:0:
192,256,62566,1,0,0:0:0:0:
192,256,62728,1,0,0:0:0:0:
192,256,62809,1,0,0:0:0:0:
192,256,62890,1,0,0:0:0:0:
192,256,63052,1,0,0:0:0:0:
192,128,63214,1,4,0:0:0:0:
320,256,63539,1,2,0:0:0:0:
192,256,63701,1,0,0:0:0:0:
192,256,63863,1,0,0:0:0:0:
192,256,63944,1,0,0:0:0:0:
192,256,64025,1,0,0:0:0:0:
320,256,64187,1,2,0:0:0:0:
320,256,64349,1,2,0:0:0:0:
192,256,64512,1,0,0:0:0:0:
192,256,64674,1,0,0:0:0:0:
320,256,64836,1,2,0:0:0:0:
192,256,64917,1,0,0:0:0:0:
192,256,64998,1,0,0:0:0:0:
320,256,65160,1,2,0:0:0:0:
192,256,65322,1,0,0:0:0:0:
320,256,65403,1,2,0:0:0:0:
320,256,65484,1,2,0:0:0:0:
320,256,65647,1,2,0:0:0:0:
192,256,65728,1,0,0:0:0:0:
320,256,65809,1,2,0:0:0:0:
192,256,65971,1,0,0:0:0:0:
320,256,66133,1,2,0:0:0:0:
320,256,66214,1,2,0:0:0:0:
320,256,66295,1,2,0:0:0:0:
320,256,66376,1,2,0:0:0:0:
320,256,66457,1,2,0:0:0:0:
320,256,66620,1,2,0:0:0:0:
192,256,66701,1,0,0:0:0:0:
192,256,66782,1,0,0:0:0:0:
192,256,66944,1,0,0:0:0:0:
320,256,67106,1,2,0:0:0:0:
320,256,67430,1,2,0:0:0:0:
320,256,67755,1,2,0:0:0:0:
320,256,67836,1,2,0:0:0:0:
192,256,67917,1,0,0:0:0:0:
192,256,67998,1,0,0:0:0:0:
320,256,68079,1,2,0:0:0:0:
192,256,68160,1,0,0:0:0:0:
192,256,68241,1,0,0:0:0:0:
192,256,68322,1,0,0:0:0:0:
320,128,68403,1,6,0:0:0:0:
192,256,68566,1,0,0:0:0:0:
320,256,68728,1,2,0:0:0:0:
192,256,68890,1,0,0:0:0:0:
320,256,68971,1,2,0:0:0:0:
192,256,69052,1,0,0:0:0:0:
192,256,69214,1,0,0:0:0:0:
320,256,69376,1,2,0:0:0:0:
320,256,69539,1,2,0:0:0:0:
320,256,69620,1,2,0:0:0:0:
192,256,69701,1,0,0:0:0:0:
320,256,69863,1,2,0:0:0:0:
192,256,70025,1,0,0:0:0:0:
320,256,70187,1,2,0:0:0:0:
192,256,70349,1,0,0:0:0:0:
192,256,70512,1,0,0:0:0:0:
192,256,70593,1,0,0:0:0:0:
320,256,70674,1,2,0:0:0:0:
320,256,70836,1,2,0:0:0:0:
320,256,70998,1,2,0:0:0:0:
192,256,71160,1,0,0:0:0:0:
320,256,71322,1,2,0:0:0:0:
320,256,71484,1,2,0:0:0:0:
320,256,71647,1,2,0:0:0:0:
320,256,71809,1,2,0:0:0:0:
320,256,71890,1,2,0:0:0:0:
192,256,71971,1,0,0:0:0:0:
192,256,72133,1,0,0:0:0:0:
192,256,72295,1,0,0:0:0:0:
192,256,72376,1,0,0:0:0:0:
320,256,72457,1,2,0:0:0:0:
192,256,72620,1,0,0:0:0:0:
320,256,72782,1,2,0:0:0:0:
192,256,72944,1,0,0:0:0:0:
192,256,73106,1,0,0:0:0:0:
192,256,73187,1,0,0:0:0:0:
192,256,73268,1,0,0:0:0:0:
320,256,73430,1,2,0:0:0:0:
192,128,73593,1,4,0:0:0:0:
320,256,73917,1,2,0:0:0:0:
320,256,73998,1,2,0:0:0:0:
320,256,74079,1,2,0:0:0:0:
192,256,74241,1,0,0:0:0:0:
192,256,74322,1,0,0:0:0:0:
192,256,74403,1,0,0:0:0:0:
320,256,74566,1,2,0:0:0:0:
320,256,74647,1,2,0:0:0:0:
320,256,74728,1,2,0:0:0:0:
192,256,74890,1,0,0:0:0:0:
192,256,74971,1,0,0:0:0:0:
320,256,75052,1,2,0:0:0:0:
192,256,75133,1,0,0:0:0:0:
192,256,75214,1,0,0:0:0:0:
320,256,75376,1,2,0:0:0:0:
192,256,75539,1,0,0:0:0:0:
192,256,75701,1,0,0:0:0:0:
192,256,75782,1,0,0:0:0:0:
320,256,75863,1,2,0:0:0:0:
192,256,76025,1,0,0:0:0:0:
320,256,76187,1,2,0:0:0:0:
192,256,76349,1,0,0:0:0:0:
320,256,76512,1,2,0:0:0:0:
320,256,76674,1,2,0:0:0:0:
192,256,76836,1,0,0:0:0:0:
320,256,76998,1,2,0:0:0:0:
320,256,77079,1,2,0:0:0:0:
192,256,77160,1,0,0:0:0:0:
192,256,77322,1,0,0:0:0:0:
192,256,77484,1,0,0:0:0:0:
192,256,77566,1,0,0:0:0:0:
320,256,77647,1,2,0:0:0:0:
320,256,77728,1,2,0:0:0:0:
320,256,77809,1,2,0:0:0:0:
192,256,77890,1,0,0:0:0:0:
192,256,77971,1,0,0:0:0:0:
192,256,78052,1,0,0:0:0:0:
320,256,78133,1,2,0:0:0:0:
320,256,78214,1,2,0:0:0:0:
192,256,78295,1,0,0:0:0:0:
320,256,78376,1,2,0:0:0:0:
320,256,78457,1,2,0:0:0:0:
192,256,78539,1,0,0:0:0:0:
320,256,78620,1,2,0:0:0:0:
320,256,78701,1,2,0:0:0:0:
192,128,78782,1,4,0:0:0:0:
192,256,79106,1,0,0:0:0:0:
320,256,79268,1,2,0:0:0:0:
320,256,79349,1,2,0:0:0:0:
192,128,79430,1,4,0:0:0:0:
192,256,79755,1,0,0:0:0:0:
192,256,79917,1,0,0:0:0:0:
192,256,79998,1,0,0:0:0:0:
320,128,80079,1,6,0:0:0:0:
192,256,80403,1,0,0:0:0:0:
192,256,80566,1,0,0:0:0:0:
320,256,80647,1,2,0:0:0:0:
192,128,80728,1,4,0:0:0:0:
320,256,80890,1,2,0:0:0:0:
320,256,80971,1,2,0:0:0:0:
320,256,81052,1,2,0:0:0:0:
320,256,81214,1,2,0:0:0:0:
192,256,81376,1,0,0:0:0:0:
192,256,81539,1,0,0:0:0:0:
192,256,81701,1,0,0:0:0:0:
192,256,81782,1,0,0:0:0:0:
320,256,81863,1,2,0:0:0:0:
320,256,82025,1,2,0:0:0:0:
320,256,82187,1,2,0:0:0:0:
192,256,82349,1,0,0:0:0:0:
320,256,82430,1,2,0:0:0:0:
192,256,82512,1,0,0:0:0:0:
320,256,82674,1,2,0:0:0:0:
320,256,82755,1,2,0:0:0:0:
192,256,82836,1,0,0:0:0:0:
192,256,82998,1,0,0:0:0:0:
192,256,83160,1,0,0:0:0:0:
192,256,83241,1,0,0:0:0:0:
320,256,83322,1,2,0:0:0:0:
192,256,83403,1,0,0:0:0:0:
192,256,83484,1,0,0:0:0:0:
320,256,83566,1,2,0:0:0:0:
192,256,83647,1,0,0:0:0:0:
192,256,83728,1,0,0:0:0:0:
320,256,83809,1,2,0:0:0:0:
320,256,83890,1,2,0:0:0:0:
320,256,83971,1,2,0:0:0:0:
192,256,84133,1,0,0:0:0:0:
192,256,84214,1,0,0:0:0:0:
192,256,84295,1,0,0:0:0:0:
192,256,84457,1,0,0:0:0:0:
192,256,84539,1,0,0:0:0:0:
320,256,84620,1,2,0:0:0:0:
192,256,84782,1,0,0:0:0:0:
192,256,84863,1,0,0:0:0:0:
192,256,84944,1,0,0:0:0:0:
192,256,85106,1,0,0:0:0:0:
320,256,85187,1,2,0:0:0:0:
320,256,85268,1,2,0:0:0:0:
320,256,85430,1,2,0:0:0:0:
192,256,85512,1,0,0:0:0:0:
320,256,85593,1,2,0:0:0:0:
192,256,85755,1,0,0:0:0:0:
192,256,85836,1,0,0:0:0:0:
192,256,85917,1,0,0:0:0:0:
192,256,86079,1,0,0:0:0:0:
192,256,86160,1,0,0:0:0:0:
320,256,86241,1,2,0:0:0:0:
320,256,86403,1,2,0:0:0:0:
192,256,86484,1,0,0:0:0:0:
320,256,86566,1,2,0:0:0:0:
192,256,86728,1,0,0:0:0:0:
192,256,86809,1,0,0:0:0:0:
192,256,86890,1,0,0:0:0:0:
192,256,87052,1,0,0:0:0:0:
320,256,87214,1,2,0:0:0:0:
192,256,87376,1,0,0:0:0:0:
192,256,87457,1,0,0:0:0:0:
192,256,87539,1,0,0:0:0:0:
192,256,87701,1,0,0:0:0:0:
192,256,87782,1,0,0:0:0:0:
320,256,87863,1,2,0:0:0:0:
192,256,88025,1,0,0:0:0:0:
320,256,88106,1,2,0:0:0:0:
320,256,88187,1,2,0:0:0:0:
320,256,88349,1,2,0:0:0:0:
320,256,88430,1,2,0:0:0:0:
320,256,88512,1,2,0:0:0:0:
192,256,88674,1,0,0:0:0:0:
320,256,88836,1,2,0:0:0:0:
192,256,88917,1,0,0:0:0:0:
320,256,88998,1,2,0:0:0:0:
320,256,89079,1,2,0:0:0:0:
192,256,89160,1,0,0:0:0:0:
192,256,89484,1,0,0:0:0:0:
320,256,89809,1,2,0:0:0:0:
192,256,90133,1,0,0:0:0:0:
320,256,90457,1,2,0:0:0:0:
192,256,90782,1,0,0:0:0:0:
320,256,91106,1,2,0:0:0:0:
320,256,91187,1,2,0:0:0:0:
320,256,91268,1,2,0:0:0:0:
320,256,91349,1,2,0:0:0:0:
192,256,91430,1,0,0:0:0:0:
320,256,91593,1,2,0:0:0:0:
192,128,91755,5,4,0:0:0:0:
192,256,91917,1,0,0:0:0:0:
192,256,91998,1,0,0:0:0:0:
192,256,92079,1,0,0:0:0:0:
320,256,92241,1,2,0:0:0:0:
320,256,92403,1,2,0:0:0:0:
192,256,92566,1,0,0:0:0:0:
192,256,92647,1,0,0:0:0:0:
192,256,92728,1,0,0:0:0:0:
320,256,92890,1,2,0:0:0:0:
192,256,92971,1,0,0:0:0:0:
320,256,93052,1,2,0:0:0:0:
320,256,93133,1,2,0:0:0:0:
192,256,93214,1,0,0:0:0:0:
192,256,93376,1,0,0:0:0:0:
192,256,93539,1,0,0:0:0:0:
192,256,93620,1,0,0:0:0:0:
192,256,93701,1,0,0:0:0:0:
320,256,93863,1,2,0:0:0:0:
192,256,94025,1,0,0:0:0:0:
320,256,94187,1,2,0:0:0:0:
192,256,94349,1,0,0:0:0:0:
192,256,94512,1,0,0:0:0:0:
192,256,94593,1,0,0:0:0:0:
320,256,94674,1,2,0:0:0:0:
320,256,94836,1,2,0:0:0:0:
192,256,94998,1,0,0:0:0:0:
192,256,95079,1,0,0:0:0:0:
192,256,95160,1,0,0:0:0:0:
320,256,95241,1,2,0:0:0:0:
320,256,95322,1,2,0:0:0:0:
320,256,95403,1,2,0:0:0:0:
192,256,95484,1,0,0:0:0:0:
192,256,95566,1,0,0:0:0:0:
320,256,95647,1,2,0:0:0:0:
192,256,95809,1,0,0:0:0:0:
192,256,95890,1,0,0:0:0:0:
192,256,95971,1,0,0:0:0:0:
192,256,96133,1,0,0:0:0:0:
192,256,96295,1,0,0:0:0:0:
320,256,96457,1,2,0:0:0:0:
320,256,96539,1,2,0:0:0:0:
320,256,96620,1,2,0:0:0:0:
320,256,96782,1,2,0:0:0:0:
320,128,96944,1,6,0:0:0:0:
192,256,97106,1,0,0:0:0:0:
192,256,97268,1,0,0:0:0:0:
320,256,97430,1,2,0:0:0:0:
192,256,97512,1,0,0:0:0:0:
320,256,97593,1,2,0:0:0:0:
192,256,97674,1,0,0:0:0:0:
320,256,97755,1,2,0:0:0:0:
320,256,97917,1,2,0:0:0:0:
320,256,98079,1,2,0:0:0:0:
192,256,98160,1,0,0:0:0:0:
192,256,98241,1,0,0:0:0:0:
320,256,98403,1,2,0:0:0:0:
320,256,98566,1,2,0:0:0:0:
320,256,98647,1,2,0:0:0:0:
320,256,98728,1,2,0:0:0:0:
192,256,98809,1,0,0:0:0:0:
192,256,98890,1,0,0:0:0:0:
192,256,99052,1,0,0:0:0:0:
192,256,99133,1,0,0:0:0:0:
192,256,99214,1,0,0:0:0:0:
320,256,99376,1,2,0:0:0:0:
320,256,99457,1,2,0:0:0:0:
320,256,99539,1,2,0:0:0:0:
320,256,99782,1,2,0:0:0:0:
192,256,100025,1,0,0:0:0:0:
320,256,100187,1,2,0:0:0:0:
192,256,100430,1,0,0:0:0:0:
192,256,100674,1,0,0:0:0:0:
320,128,100836,1,6,0:0:0:0:
320,256,101160,1,2,0:0:0:0:
320,128,101484,1,6,0:0:0:0:
320,256,101647,1,2,0:0:0:0:
320,256,101809,1,2,0:0:0:0:
320,256,101890,1,2,0:0:0:0:
320,256,101971,1,2,0:0:0:0:
320,256,102052,1,2,0:0:0:0:
192,128,102133,1,4,0:0:0:0:
192,256,102295,1,0,0:0:0:0:
192,256,102457,1,0,0:0:0:0:
320,256,102620,1,2,0:0:0:0:
320,256,102782,1,2,0:0:0:0:
192,256,103025,1,0,0:0:0:0:
320,256,103268,1,2,0:0:0:0:
192,256,103430,1,0,0:0:0:0:
192,256,103593,1,0,0:0:0:0:
192,256,103755,1,0,0:0:0:0:
320,256,103917,1,2,0:0:0:0:
320,256,104079,1,2,0:0:0:0:
192,256,104403,1,0,0:0:0:0:
320,256,104566,1,2,0:0:0:0:
192,256,104728,1,0,0:0:0:0:
192,256,104890,1,0,0:0:0:0:
192,256,105052,1,0,0:0:0:0:
320,256,105214,1,2,0:0:0:0:
192,256,105376,1,0,0:0:0:0:
320,256,105620,1,2,0:0:0:0:
320,256,105701,1,2,0:0:0:0:
192,256,105863,1,0,0:0:0:0:
192,256,106025,1,0,0:0:0:0:
192,256,106187,1,0,0:0:0:0:
192,256,106349,1,0,0:0:0:0:
320,256,106674,1,2,0:0:0:0:
192,256,106836,1,0,0:0:0:0:
192,256,106917,1,0,0:0:0:0:
192,256,106998,1,0,0:0:0:0:
192,256,107160,1,0,0:0:0:0:
320,128,107322,1,6,0:0:0:0:
192,256,107484,1,0,0:0:0:0:
192,128,107647,1,0,0:0:0:0:
192,256,107809,1,0,0:0:0:0:
320,256,107971,1,2,0:0:0:0:
192,256,108214,1,0,0:0:0:0:
320,256,108295,1,2,0:0:0:0:
320,256,108457,1,2,0:0:0:0:
192,256,108620,1,0,0:0:0:0:
320,256,108944,1,2,0:0:0:0:
320,256,109106,1,2,0:0:0:0:
192,256,109268,1,0,0:0:0:0:
192,128,109593,1,4,0:0:0:0:
192,256,109755,1,0,0:0:0:0:
320,128,109917,1,6,0:0:0:0:
192,256,110079,1,0,0:0:0:0:
192,256,110241,1,0,0:0:0:0:
320,256,110403,1,2,0:0:0:0:
320,128,110566,1,6,0:0:0:0:
256,192,111214,12,0,112349,0:0:0:0:
320,256,112512,5,2,0:0:0:0:
320,256,112593,1,2,0:0:0:0:
192,256,112674,1,0,0:0:0:0:
192,256,112755,1,0,0:0:0:0:
320,256,112836,1,2,0:0:0:0:
320,256,112917,1,2,0:0:0:0:
192,256,112998,1,0,0:0:0:0:
192,256,113079,1,0,0:0:0:0:
320,256,113160,1,2,0:0:0:0:
192,256,113241,1,0,0:0:0:0:
192,256,113322,1,0,0:0:0:0:
192,256,113403,1,0,0:0:0:0:
320,256,113484,1,2,0:0:0:0:
192,256,113566,1,0,0:0:0:0:
192,256,113647,1,0,0:0:0:0:
192,256,113728,1,0,0:0:0:0:
320,256,113809,1,2,0:0:0:0:
320,256,113890,1,2,0:0:0:0:
192,256,113971,1,0,0:0:0:0:
192,256,114052,1,0,0:0:0:0:
320,256,114133,1,2,0:0:0:0:
320,256,114214,1,2,0:0:0:0:
192,256,114295,1,0,0:0:0:0:
192,256,114376,1,0,0:0:0:0:
320,256,114457,1,2,0:0:0:0:
192,256,114539,1,0,0:0:0:0:
192,256,114620,1,0,0:0:0:0:
192,256,114701,1,0,0:0:0:0:
320,256,114782,1,2,0:0:0:0:
192,256,114863,1,0,0:0:0:0:
192,256,114944,1,0,0:0:0:0:
192,256,115025,1,0,0:0:0:0:
320,256,115106,1,2,0:0:0:0:
192,256,115187,1,0,0:0:0:0:
320,256,115268,1,2,0:0:0:0:
192,256,115349,1,0,0:0:0:0:
320,256,115430,1,2,0:0:0:0:
192,256,115512,1,0,0:0:0:0:
192,256,115593,1,0,0:0:0:0:
192,256,115674,1,0,0:0:0:0:
320,256,115755,1,2,0:0:0:0:
192,256,115836,1,0,0:0:0:0:
192,256,115917,1,0,0:0:0:0:
320,256,115998,1,2,0:0:0:0:
320,256,116079,1,2,0:0:0:0:
192,256,116160,1,0,0:0:0:0:
192,256,116241,1,0,0:0:0:0:
320,256,116322,1,2,0:0:0:0:
320,256,116403,1,2,0:0:0:0:
192,256,116484,1,0,0:0:0:0:
192,256,116566,1,0,0:0:0:0:
192,256,116647,1,0,0:0:0:0:
320,256,116728,1,2,0:0:0:0:
320,256,116809,1,2,0:0:0:0:
320,256,116890,1,2,0:0:0:0:
192,256,116971,1,0,0:0:0:0:
320,256,117052,1,2,0:0:0:0:
320,256,117133,1,2,0:0:0:0:
192,256,117214,1,0,0:0:0:0:
192,256,117295,1,0,0:0:0:0:
320,256,117376,1,2,0:0:0:0:
192,256,117457,1,0,0:0:0:0:
192,256,117539,1,0,0:0:0:0:
192,256,117620,1,0,0:0:0:0:
320,256,117701,1,2,0:0:0:0:
320,256,117782,1,2,0:0:0:0:
192,256,117863,1,0,0:0:0:0:
192,256,117944,1,0,0:0:0:0:
320,256,118025,1,2,0:0:0:0:
320,256,118106,1,2,0:0:0:0:
192,256,118187,1,0,0:0:0:0:
192,256,118268,1,0,0:0:0:0:
320,256,118349,1,2,0:0:0:0:
320,256,118430,1,2,0:0:0:0:
192,256,118512,1,0,0:0:0:0:
192,256,118593,1,0,0:0:0:0:
320,256,118674,1,2,0:0:0:0:
320,256,118755,1,2,0:0:0:0:
192,256,118836,1,0,0:0:0:0:
192,256,118917,1,0,0:0:0:0:
320,256,118998,1,2,0:0:0:0:
192,256,119079,1,0,0:0:0:0:
192,256,119160,1,0,0:0:0:0:
192,256,119241,1,0,0:0:0:0:
320,256,119322,1,2,0:0:0:0:
192,256,119403,1,0,0:0:0:0:
192,256,119484,1,0,0:0:0:0:
192,256,119566,1,0,0:0:0:0:
320,256,119647,1,2,0:0:0:0:
192,256,119728,1,0,0:0:0:0:
192,256,119809,1,0,0:0:0:0:
192,256,119890,1,0,0:0:0:0:
320,256,119971,1,2,0:0:0:0:
192,256,120052,1,0,0:0:0:0:
192,256,120133,1,0,0:0:0:0:
192,256,120214,1,0,0:0:0:0:
320,256,120295,1,2,0:0:0:0:
320,256,120376,1,2,0:0:0:0:
320,256,120457,1,2,0:0:0:0:
192,256,120539,1,0,0:0:0:0:
320,256,120620,1,2,0:0:0:0:
320,256,120701,1,2,0:0:0:0:
320,256,120782,1,2,0:0:0:0:
192,256,120863,1,0,0:0:0:0:
320,256,120944,1,2,0:0:0:0:
320,256,121025,1,2,0:0:0:0:
320,256,121106,1,2,0:0:0:0:
192,256,121187,1,0,0:0:0:0:
320,256,121268,1,2,0:0:0:0:
320,256,121349,1,2,0:0:0:0:
320,256,121430,1,2,0:0:0:0:
192,256,121512,1,0,0:0:0:0:
320,256,121593,1,2,0:0:0:0:
192,256,121674,1,0,0:0:0:0:
192,256,121755,1,0,0:0:0:0:
320,256,121836,1,2,0:0:0:0:
320,256,121917,1,2,0:0:0:0:
192,256,121998,1,0,0:0:0:0:
192,256,122079,1,0,0:0:0:0:
320,256,122160,1,2,0:0:0:0:
320,256,122241,1,2,0:0:0:0:
192,256,122322,1,0,0:0:0:0:
192,256,122403,1,0,0:0:0:0:
320,256,122484,1,2,0:0:0:0:
192,256,122566,1,0,0:0:0:0:
192,256,122647,1,0,0:0:0:0:
320,256,122728,1,2,0:0:0:0:
192,256,122809,1,0,0:0:0:0:
320,256,122890,1,2,0:0:0:0:
320,256,122971,1,2,0:0:0:0:
192,256,123052,1,0,0:0:0:0:
192,256,123133,1,0,0:0:0:0:
320,256,123214,1,2,0:0:0:0:
320,256,123295,1,2,0:0:0:0:
192,256,123376,1,0,0:0:0:0:
192,256,123457,1,0,0:0:0:0:
320,256,123539,1,2,0:0:0:0:
192,256,123620,1,0,0:0:0:0:
192,256,123701,1,0,0:0:0:0:
192,256,123782,1,0,0:0:0:0:
320,256,123863,1,2,0:0:0:0:
192,256,123944,1,0,0:0:0:0:
192,256,124025,1,0,0:0:0:0:
192,256,124106,1,0,0:0:0:0:
320,256,124187,1,2,0:0:0:0:
320,256,124268,1,2,0:0:0:0:
192,256,124349,1,0,0:0:0:0:
192,256,124430,1,0,0:0:0:0:
320,256,124512,1,2,0:0:0:0:
320,256,124593,1,2,0:0:0:0:
192,256,124674,1,0,0:0:0:0:
192,256,124755,1,0,0:0:0:0:
320,256,124836,1,2,0:0:0:0:
192,256,124917,1,0,0:0:0:0:
192,256,124998,1,0,0:0:0:0:
192,256,125079,1,0,0:0:0:0:
320,256,125160,1,2,0:0:0:0:
192,256,125241,1,0,0:0:0:0:
192,256,125322,1,0,0:0:0:0:
192,256,125403,1,0,0:0:0:0:
320,256,125484,1,2,0:0:0:0:
320,256,125566,1,2,0:0:0:0:
320,256,125647,1,2,0:0:0:0:
192,256,125728,1,0,0:0:0:0:
320,256,125809,1,2,0:0:0:0:
320,256,125890,1,2,0:0:0:0:
320,256,125971,1,2,0:0:0:0:
192,256,126052,1,0,0:0:0:0:
320,256,126133,1,2,0:0:0:0:
192,256,126214,1,0,0:0:0:0:
192,256,126295,1,0,0:0:0:0:
192,256,126376,1,0,0:0:0:0:
320,256,126457,1,2,0:0:0:0:
192,256,126539,1,0,0:0:0:0:
320,256,126620,1,2,0:0:0:0:
320,256,126701,1,2,0:0:0:0:
320,256,126782,1,2,0:0:0:0:
192,256,126863,1,0,0:0:0:0:
192,256,126944,1,0,0:0:0:0:
320,256,127025,1,2,0:0:0:0:
320,256,127106,1,2,0:0:0:0:
192,256,127187,1,0,0:0:0:0:
192,256,127268,1,0,0:0:0:0:
192,256,127349,1,0,0:0:0:0:
320,256,127430,1,2,0:0:0:0:
192,256,127512,1,0,0:0:0:0:
192,256,127593,1,0,0:0:0:0:
192,256,127674,1,0,0:0:0:0:
320,256,127755,1,2,0:0:0:0:
320,256,127836,1,2,0:0:0:0:
320,256,127917,1,2,0:0:0:0:
192,256,127998,1,0,0:0:0:0:
320,256,128079,1,2,0:0:0:0:
192,256,128160,1,0,0:0:0:0:
192,256,128241,1,0,0:0:0:0:
192,256,128322,1,0,0:0:0:0:
320,256,128403,1,2,0:0:0:0:
192,256,128484,1,0,0:0:0:0:
192,256,128566,1,0,0:0:0:0:
192,256,128647,1,0,0:0:0:0:
320,256,128728,1,2,0:0:0:0:
192,256,128809,1,0,0:0:0:0:
192,256,128890,1,0,0:0:0:0:
192,256,128971,1,0,0:0:0:0:
320,256,129052,1,2,0:0:0:0:
192,256,129133,1,0,0:0:0:0:
192,256,129214,1,0,0:0:0:0:
192,256,129295,1,0,0:0:0:0:
320,256,129376,1,2,0:0:0:0:
320,256,129457,1,2,0:0:0:0:
192,256,129539,1,0,0:0:0:0:
192,256,129620,1,0,0:0:0:0:
320,256,129701,1,2,0:0:0:0:
320,256,129782,1,2,0:0:0:0:
192,256,129863,1,0,0:0:0:0:
192,256,129944,1,0,0:0:0:0:
320,256,130025,1,2,0:0:0:0:
320,256,130106,1,2,0:0:0:0:
192,256,130187,1,0,0:0:0:0:
192,256,130268,1,0,0:0:0:0:
320,256,130349,1,2,0:0:0:0:
320,256,130430,1,2,0:0:0:0:
192,256,130512,1,0,0:0:0:0:
192,256,130593,1,0,0:0:0:0:
320,256,130674,1,2,0:0:0:0:
320,256,130755,1,2,0:0:0:0:
320,256,130836,1,2,0:0:0:0:
192,256,130917,1,0,0:0:0:0:
320,256,130998,1,2,0:0:0:0:
320,256,131079,1,2,0:0:0:0:
320,256,131160,1,2,0:0:0:0:
192,256,131241,1,0,0:0:0:0:
320,256,131322,1,2,0:0:0:0:
320,256,131403,1,2,0:0:0:0:
320,256,131484,1,2,0:0:0:0:
192,256,131566,1,0,0:0:0:0:
320,256,131647,1,2,0:0:0:0:
320,256,131728,1,2,0:0:0:0:
320,256,131809,1,2,0:0:0:0:
192,256,131890,1,0,0:0:0:0:
320,128,131971,1,6,0:0:0:0:
320,128,132133,1,6,0:0:0:0:
320,128,132457,1,6,0:0:0:0:
256,192,132620,12,0,133106,0:0:0:0:
192,256,133268,5,0,0:0:0:0:
192,256,133430,1,0,0:0:0:0:
320,256,133593,1,2,0:0:0:0:
320,256,133755,1,2,0:0:0:0:
192,256,134079,1,0,0:0:0:0:
192,256,134241,1,0,0:0:0:0:
320,256,134403,1,2,0:0:0:0:
320,256,134728,1,2,0:0:0:0:
320,256,134890,1,2,0:0:0:0:
192,256,135052,1,0,0:0:0:0:
320,256,135376,1,2,0:0:0:0:
192,256,135539,1,0,0:0:0:0:
192,256,135701,1,0,0:0:0:0:
192,256,136025,1,0,0:0:0:0:
192,256,136187,1,0,0:0:0:0:
320,256,136349,1,2,0:0:0:0:
192,256,136674,1,0,0:0:0:0:
320,256,136836,1,2,0:0:0:0:
320,256,136998,1,2,0:0:0:0:
192,256,137160,1,0,0:0:0:0:
192,256,137484,1,0,0:0:0:0:
192,256,137809,1,0,0:0:0:0:
192,256,137971,1,0,0:0:0:0:
192,256,138052,1,0,0:0:0:0:
192,256,138133,1,0,0:0:0:0:
192,256,138295,1,0,0:0:0:0:
192,256,138457,1,0,0:0:0:0:
192,256,138620,1,0,0:0:0:0:
320,256,138782,1,2,0:0:0:0:
320,256,138944,1,2,0:0:0:0:
192,256,139268,1,0,0:0:0:0:
192,256,139430,1,0,0:0:0:0:
320,256,139593,1,2,0:0:0:0:
320,256,139917,1,2,0:0:0:0:
320,256,140079,1,2,0:0:0:0:
192,256,140241,1,0,0:0:0:0:
320,256,140566,1,2,0:0:0:0:
192,256,140728,1,0,0:0:0:0:
192,256,140890,1,0,0:0:0:0:
192,256,141214,1,0,0:0:0:0:
192,256,141376,1,0,0:0:0:0:
320,256,141539,1,2,0:0:0:0:
192,256,141863,1,0,0:0:0:0:
192,256,142187,1,0,0:0:0:0:
192,256,142512,1,0,0:0:0:0:
192,256,142674,1,0,0:0:0:0:
192,256,142998,1,0,0:0:0:0:
192,256,143160,1,0,0:0:0:0:
192,256,143241,1,0,0:0:0:0:
192,256,143322,1,0,0:0:0:0:
192,256,143484,1,0,0:0:0:0:
192,128,143647,1,4,2:0:0:0:
192,256,143809,1,0,0:0:0:0:
320,256,143971,1,2,0:0:0:0:
320,256,144133,1,2,0:0:0:0:
192,256,144457,1,0,0:0:0:0:
192,256,144620,1,0,0:0:0:0:
320,256,144782,1,2,0:0:0:0:
320,256,145106,1,2,0:0:0:0:
192,256,145268,1,0,0:0:0:0:
192,256,145430,1,0,0:0:0:0:
192,256,145755,1,0,0:0:0:0:
192,256,145917,1,0,0:0:0:0:
192,256,146079,1,0,0:0:0:0:
192,256,146403,1,0,0:0:0:0:
192,256,146566,1,0,0:0:0:0:
320,256,146728,1,2,0:0:0:0:
192,256,147052,1,0,0:0:0:0:
320,256,147214,1,2,0:0:0:0:
320,256,147376,1,2,0:0:0:0:
192,256,147539,1,0,0:0:0:0:
192,256,147863,1,0,0:0:0:0:
192,256,148187,1,0,0:0:0:0:
192,256,148349,1,0,0:0:0:0:
192,256,148430,1,0,0:0:0:0:
192,256,148512,1,0,0:0:0:0:
192,256,148674,1,0,0:0:0:0:
192,256,148836,1,0,0:0:0:0:
192,256,148917,1,0,0:0:0:0:
320,256,148998,1,2,0:0:0:0:
320,256,149079,1,2,0:0:0:0:
320,256,149160,1,2,0:0:0:0:
192,256,149241,1,0,0:0:0:0:
320,256,149322,1,2,0:0:0:0:
192,256,149403,1,0,0:0:0:0:
192,256,149484,1,0,0:0:0:0:
320,256,149566,1,2,0:0:0:0:
320,256,149647,1,2,0:0:0:0:
192,256,149728,1,0,0:0:0:0:
320,256,149809,1,2,0:0:0:0:
192,256,149890,1,0,0:0:0:0:
320,256,149971,1,2,0:0:0:0:
192,256,150052,1,0,0:0:0:0:
192,256,150133,1,0,0:0:0:0:
192,256,150214,1,0,0:0:0:0:
320,256,150295,1,2,0:0:0:0:
320,256,150376,1,2,0:0:0:0:
192,256,150457,1,0,0:0:0:0:
320,256,150539,1,2,0:0:0:0:
320,256,150620,1,2,0:0:0:0:
192,256,150701,1,0,0:0:0:0:
320,256,150782,1,2,0:0:0:0:
320,256,150863,1,2,0:0:0:0:
192,256,150944,1,0,0:0:0:0:
192,256,151025,1,0,0:0:0:0:
320,256,151106,1,2,0:0:0:0:
192,256,151187,1,0,0:0:0:0:
320,256,151268,1,2,0:0:0:0:
192,256,151349,1,0,0:0:0:0:
320,128,151430,1,6,0:0:0:0:
192,256,151917,1,0,0:0:0:0:
192,256,151998,1,0,0:0:0:0:
320,128,152079,1,6,0:0:0:0:
192,256,152566,1,0,0:0:0:0:
192,256,152647,1,0,0:0:0:0:
320,128,152728,1,6,0:0:0:0:
320,128,153052,1,6,0:0:0:0:
192,256,153376,1,0,0:0:0:0:
320,256,153457,1,2,0:0:0:0:
192,256,153539,1,0,0:0:0:0:
320,256,153701,1,2,0:0:0:0:
192,128,154025,5,4,0:0:0:0:
320,256,154349,1,2,0:0:0:0:
192,256,154512,1,0,0:0:0:0:
320,256,154674,1,2,0:0:0:0:
192,256,154998,1,0,0:0:0:0:
320,256,155160,1,2,0:0:0:0:
192,256,155322,1,0,0:0:0:0:
192,256,155484,1,0,0:0:0:0:
192,256,155647,1,0,0:0:0:0:
192,256,155728,1,0,0:0:0:0:
192,256,155809,1,0,0:0:0:0:
320,256,155971,1,2,0:0:0:0:
192,256,156052,1,0,0:0:0:0:
192,256,156133,1,0,0:0:0:0:
320,256,156295,1,2,0:0:0:0:
192,256,156457,1,0,0:0:0:0:
192,256,156539,1,0,0:0:0:0:
192,256,156620,1,0,0:0:0:0:
192,256,156701,1,0,0:0:0:0:
192,256,156782,1,0,0:0:0:0:
320,256,156944,1,2,0:0:0:0:
192,256,157106,1,0,0:0:0:0:
320,256,157268,1,2,0:0:0:0:
320,256,157349,1,2,0:0:0:0:
192,256,157430,1,0,0:0:0:0:
192,256,157512,1,0,0:0:0:0:
320,256,157593,1,2,0:0:0:0:
320,256,157755,1,2,0:0:0:0:
192,256,157917,1,0,0:0:0:0:
320,256,158079,1,2,0:0:0:0:
320,256,158241,1,2,0:0:0:0:
320,256,158403,1,2,0:0:0:0:
192,256,158566,1,0,0:0:0:0:
192,256,158728,1,0,0:0:0:0:
192,256,158809,1,0,0:0:0:0:
192,256,158890,1,0,0:0:0:0:
320,256,159052,1,2,0:0:0:0:
320,128,159214,1,6,0:0:0:0:
192,256,159376,1,0,0:0:0:0:
320,256,159539,1,2,0:0:0:0:
192,256,159701,1,0,0:0:0:0:
192,256,159863,1,0,0:0:0:0:
192,256,160025,1,0,0:0:0:0:
320,256,160187,1,2,0:0:0:0:
320,256,160349,1,2,0:0:0:0:
192,256,160512,1,0,0:0:0:0:
320,256,160593,1,2,0:0:0:0:
192,256,160674,1,0,0:0:0:0:
320,256,160836,1,2,0:0:0:0:
192,256,160998,1,0,0:0:0:0:
192,256,161079,1,0,0:0:0:0:
192,256,161160,1,0,0:0:0:0:
192,256,161322,1,0,0:0:0:0:
320,256,161484,1,2,0:0:0:0:
192,256,161647,1,0,0:0:0:0:
192,256,161809,1,0,0:0:0:0:
192,256,162133,1,0,0:0:0:0:
192,256,162295,1,0,0:0:0:0:
320,256,162457,1,2,0:0:0:0:
320,256,162782,1,2,0:0:0:0:
192,256,162944,1,0,0:0:0:0:
192,256,163106,1,0,0:0:0:0:
192,256,163430,1,0,0:0:0:0:
192,256,163755,1,0,0:0:0:0:
192,256,163917,1,0,0:0:0:0:
192,256,164079,1,0,0:0:0:0:
192,256,164160,1,0,0:0:0:0:
192,256,164241,1,0,0:0:0:0:
192,256,164322,1,0,0:0:0:0:
320,128,164403,1,6,0:0:0:0:
192,256,164566,1,0,0:0:0:0:
320,256,164728,1,2,0:0:0:0:
192,256,164890,1,0,0:0:0:0:
320,256,165052,1,2,0:0:0:0:
192,256,165376,1,0,0:0:0:0:
320,256,165539,1,2,0:0:0:0:
192,256,165701,1,0,0:0:0:0:
320,256,165863,1,2,0:0:0:0:
320,256,166025,1,2,0:0:0:0:
320,256,166106,1,2,0:0:0:0:
192,256,166187,1,0,0:0:0:0:
192,256,166268,1,0,0:0:0:0:
320,256,166349,1,2,0:0:0:0:
192,256,166430,1,0,0:0:0:0:
192,256,166512,1,0,0:0:0:0:
192,256,166674,1,0,0:0:0:0:
192,256,166836,1,0,0:0:0:0:
192,256,166998,1,0,0:0:0:0:
320,256,167160,1,2,0:0:0:0:
320,256,167322,1,2,0:0:0:0:
192,256,167484,1,0,0:0:0:0:
320,256,167647,1,2,0:0:0:0:
192,256,167809,1,0,0:0:0:0:
192,256,167971,1,0,0:0:0:0:
320,256,168133,1,2,0:0:0:0:
192,256,168214,1,0,0:0:0:0:
320,256,168295,1,2,0:0:0:0:
320,256,168376,1,2,0:0:0:0:
320,256,168457,1,2,0:0:0:0:
320,256,168539,1,2,0:0:0:0:
192,256,168620,1,0,0:0:0:0:
192,256,168782,1,0,0:0:0:0:
192,256,168944,1,0,0:0:0:0:
192,256,169106,1,0,0:0:0:0:
192,256,169187,1,0,0:0:0:0:
192,256,169268,1,0,0:0:0:0:
320,256,169430,1,2,0:0:0:0:
320,128,169593,1,6,0:0:0:0:
192,256,169755,1,0,0:0:0:0:
320,256,169917,1,2,0:0:0:0:
192,256,170079,1,0,0:0:0:0:
320,256,170241,1,2,0:0:0:0:
192,256,170403,1,0,0:0:0:0:
192,256,170566,1,0,0:0:0:0:
320,256,170728,1,2,0:0:0:0:
192,256,170890,1,0,0:0:0:0:
192,256,171052,1,0,0:0:0:0:
320,256,171214,1,2,0:0:0:0:
192,256,171376,1,0,0:0:0:0:
192,256,171539,1,0,0:0:0:0:
192,256,171701,1,0,0:0:0:0:
192,256,171863,1,0,0:0:0:0:
320,256,172025,1,2,0:0:0:0:
192,256,172187,1,0,0:0:0:0:
192,256,172268,1,0,0:0:0:0:
192,256,172349,1,0,0:0:0:0:
192,256,172430,1,0,0:0:0:0:
320,256,172512,1,2,0:0:0:0:
320,256,172593,1,2,0:0:0:0:
320,256,172674,1,2,0:0:0:0:
320,256,172755,1,2,0:0:0:0:
192,256,172836,1,0,0:0:0:0:
192,256,172917,1,0,0:0:0:0:
192,256,172998,1,0,0:0:0:0:
192,256,173079,1,0,0:0:0:0:
320,256,173160,1,2,0:0:0:0:
320,256,173241,1,2,0:0:0:0:
320,256,173322,1,2,0:0:0:0:
320,256,173403,1,2,0:0:0:0:
320,256,173484,1,2,0:0:0:0:
320,256,173566,1,2,0:0:0:0:
192,256,173647,1,0,0:0:0:0:
192,256,173728,1,0,0:0:0:0:
320,256,173809,1,2,0:0:0:0:
320,256,173890,1,2,0:0:0:0:
192,256,173971,1,0,0:0:0:0:
192,256,174052,1,0,0:0:0:0:
320,256,174133,1,2,0:0:0:0:
192,256,174214,1,0,0:0:0:0:
320,256,174295,1,2,0:0:0:0:
320,256,174376,1,2,0:0:0:0:
192,256,174457,1,0,0:0:0:0:
192,256,174539,1,0,0:0:0:0:
192,256,174620,1,0,0:0:0:0:
192,256,174701,1,0,0:0:0:0:
192,128,174782,1,4,0:0:0:0:
192,256,174944,1,0,0:0:0:0:
320,256,175106,1,2,0:0:0:0:
192,256,175268,1,0,0:0:0:0:
320,256,175430,1,2,0:0:0:0:
192,256,175593,1,0,0:0:0:0:
192,256,175755,1,0,0:0:0:0:
320,256,175917,1,2,0:0:0:0:
192,256,176079,1,0,0:0:0:0:
192,256,176241,1,0,0:0:0:0:
320,256,176403,1,2,0:0:0:0:
320,256,176484,1,2,0:0:0:0:
192,256,176566,1,0,0:0:0:0:
192,256,176647,1,0,0:0:0:0:
320,256,176728,1,2,0:0:0:0:
192,256,176809,1,0,0:0:0:0:
192,256,176890,1,0,0:0:0:0:
320,256,177052,1,2,0:0:0:0:
192,256,177214,1,0,0:0:0:0:
192,256,177376,1,0,0:0:0:0:
192,256,177457,1,0,0:0:0:0:
192,256,177539,1,0,0:0:0:0:
192,256,177620,1,0,0:0:0:0:
320,256,177701,1,2,0:0:0:0:
320,256,177782,1,2,0:0:0:0:
192,256,177863,1,0,0:0:0:0:
192,256,177944,1,0,0:0:0:0:
320,256,178025,1,2,0:0:0:0:
320,256,178106,1,2,0:0:0:0:
192,256,178187,1,0,0:0:0:0:
192,256,178268,1,0,0:0:0:0:
192,256,178349,1,0,0:0:0:0:
192,256,178430,1,0,0:0:0:0:
320,256,178512,1,2,0:0:0:0:
192,256,178674,1,0,0:0:0:0:
192,256,178836,1,0,0:0:0:0:
192,256,178917,1,0,0:0:0:0:
320,256,178998,1,2,0:0:0:0:
320,256,179160,1,2,0:0:0:0:
192,256,179322,1,0,0:0:0:0:
192,256,179484,1,0,0:0:0:0:
192,256,179566,1,0,0:0:0:0:
192,256,179647,1,0,0:0:0:0:
320,256,179809,1,2,0:0:0:0:
320,128,179971,1,6,0:0:0:0:
192,256,180133,1,0,0:0:0:0:
320,256,180295,1,2,0:0:0:0:
192,256,180457,1,0,0:0:0:0:
192,256,180620,1,0,0:0:0:0:
192,256,180782,1,0,0:0:0:0:
192,256,180944,1,0,0:0:0:0:
320,256,181106,1,2,0:0:0:0:
192,256,181268,1,0,0:0:0:0:
192,256,181430,1,0,0:0:0:0:
320,256,181593,1,2,0:0:0:0:
192,256,181755,1,0,0:0:0:0:
192,256,181917,1,0,0:0:0:0:
192,256,182079,1,0,0:0:0:0:
320,256,182241,1,2,0:0:0:0:
192,256,182403,1,0,0:0:0:0:
192,256,182566,1,0,0:0:0:0:
192,256,182728,1,0,0:0:0:0:
192,256,182890,1,0,0:0:0:0:
192,256,183052,1,0,0:0:0:0:
320,256,183214,1,2,0:0:0:0:
192,256,183376,1,0,0:0:0:0:
320,256,183539,1,2,0:0:0:0:
192,256,183701,1,0,0:0:0:0:
192,256,183782,1,0,0:0:0:0:
320,256,183863,1,2,0:0:0:0:
320,256,183944,1,2,0:0:0:0:
320,256,184025,1,2,0:0:0:0:
192,256,184106,1,0,0:0:0:0:
320,256,184187,1,2,0:0:0:0:
320,256,184268,1,2,0:0:0:0:
192,256,184349,1,0,0:0:0:0:
192,256,184430,1,0,0:0:0:0:
320,256,184512,1,2,0:0:0:0:
192,256,184593,1,0,0:0:0:0:
320,256,184674,1,2,0:0:0:0:
320,256,184755,1,2,0:0:0:0:
192,256,184836,1,0,0:0:0:0:
192,256,184917,1,0,0:0:0:0:
320,256,184998,1,2,0:0:0:0:
192,256,185079,1,0,0:0:0:0:
320,128,185160,1,6,0:0:0:0:
192,256,185322,1,0,0:0:0:0:
320,256,185484,1,2,0:0:0:0:
192,256,185647,1,0,0:0:0:0:
320,256,185809,1,2,0:0:0:0:
192,256,185971,1,0,0:0:0:0:
192,256,186133,1,0,0:0:0:0:
320,256,186295,1,2,0:0:0:0:
192,256,186457,1,0,0:0:0:0:
192,256,186539,1,0,0:0:0:0:
320,256,186620,1,2,0:0:0:0:
320,256,186782,1,2,0:0:0:0:
192,256,186863,1,0,0:0:0:0:
192,256,186944,1,0,0:0:0:0:
192,256,187025,1,0,0:0:0:0:
320,256,187106,1,2,0:0:0:0:
320,256,187187,1,2,0:0:0:0:
192,256,187268,1,0,0:0:0:0:
192,256,187349,1,0,0:0:0:0:
192,256,187430,1,0,0:0:0:0:
320,256,187593,1,2,0:0:0:0:
192,256,187755,1,0,0:0:0:0:
192,256,187917,1,0,0:0:0:0:
192,256,187998,1,0,0:0:0:0:
320,256,188079,1,2,0:0:0:0:
192,256,188241,1,0,0:0:0:0:
320,256,188403,1,2,0:0:0:0:
192,256,188566,1,0,0:0:0:0:
192,256,188728,1,0,0:0:0:0:
320,256,188890,1,2,0:0:0:0:
320,256,188971,1,2,0:0:0:0:
320,256,189052,1,2,0:0:0:0:
192,256,189133,1,0,0:0:0:0:
320,256,189214,1,2,0:0:0:0:
320,256,189295,1,2,0:0:0:0:
192,256,189376,1,0,0:0:0:0:
192,256,189457,1,0,0:0:0:0:
320,256,189539,1,2,0:0:0:0:
320,256,189620,1,2,0:0:0:0:
192,256,189701,1,0,0:0:0:0:
192,256,189782,1,0,0:0:0:0:
320,256,189863,1,2,0:0:0:0:
320,256,189944,1,2,0:0:0:0:
192,256,190025,1,0,0:0:0:0:
320,256,190187,1,2,0:0:0:0:
320,128,190349,1,6,0:0:0:0:
192,256,190512,1,0,0:0:0:0:
320,256,190674,1,2,0:0:0:0:
192,256,190836,1,0,0:0:0:0:
320,256,190998,1,2,0:0:0:0:
192,256,191160,1,0,0:0:0:0:
192,256,191322,1,0,0:0:0:0:
320,256,191484,1,2,0:0:0:0:
192,256,191647,1,0,0:0:0:0:
192,256,191809,1,0,0:0:0:0:
320,256,191971,1,2,0:0:0:0:
192,256,192133,1,0,0:0:0:0:
192,256,192295,1,0,0:0:0:0:
192,256,192457,1,0,0:0:0:0:
192,256,192620,1,0,0:0:0:0:
320,256,192782,1,2,0:0:0:0:
320,256,192944,1,2,0:0:0:0:
320,256,193025,1,2,0:0:0:0:
192,256,193106,1,0,0:0:0:0:
192,256,193187,1,0,0:0:0:0:
320,256,193268,1,2,0:0:0:0:
320,256,193349,1,2,0:0:0:0:
192,256,193430,1,0,0:0:0:0:
192,256,193512,1,0,0:0:0:0:
320,256,193593,1,2,0:0:0:0:
320,256,193674,1,2,0:0:0:0:
192,256,193755,1,0,0:0:0:0:
192,256,193836,1,0,0:0:0:0:
320,256,193917,1,2,0:0:0:0:
320,256,193998,1,2,0:0:0:0:
192,256,194079,1,0,0:0:0:0:
192,256,194160,1,0,0:0:0:0:
320,256,194241,1,2,0:0:0:0:
320,256,194322,1,2,0:0:0:0:
320,256,194403,1,2,0:0:0:0:
192,256,194484,1,0,0:0:0:0:
320,256,194566,1,2,0:0:0:0:
192,256,194647,1,0,0:0:0:0:
192,256,194728,1,0,0:0:0:0:
320,256,194809,1,2,0:0:0:0:
320,256,194890,1,2,0:0:0:0:
192,256,194971,1,0,0:0:0:0:
320,256,195052,1,2,0:0:0:0:
320,256,195133,1,2,0:0:0:0:
192,256,195214,1,0,0:0:0:0:
192,256,195295,1,0,0:0:0:0:
192,256,195376,1,0,0:0:0:0:
192,128,195539,5,4,0:0:0:0:
192,256,195701,1,0,0:0:0:0:
320,256,195863,1,2,0:0:0:0:
320,256,196025,1,2,0:0:0:0:
192,256,196349,1,0,0:0:0:0:
192,256,196512,1,0,0:0:0:0:
320,256,196674,1,2,0:0:0:0:
320,256,196998,1,2,0:0:0:0:
320,256,197160,1,2,0:0:0:0:
192,256,197322,1,0,0:0:0:0:
320,256,197647,1,2,0:0:0:0:
192,256,197809,1,0,0:0:0:0:
192,256,197971,1,0,0:0:0:0:
192,256,198295,1,0,0:0:0:0:
192,256,198457,1,0,0:0:0:0:
320,256,198620,1,2,0:0:0:0:
192,256,198944,1,0,0:0:0:0:
320,256,199106,1,2,0:0:0:0:
320,256,199268,1,2,0:0:0:0:
192,256,199430,1,0,0:0:0:0:
192,256,199755,1,0,0:0:0:0:
192,256,200079,1,0,0:0:0:0:
192,256,200241,1,0,0:0:0:0:
192,256,200322,1,0,0:0:0:0:
192,256,200403,1,0,0:0:0:0:
192,256,200566,1,0,0:0:0:0:
192,256,200728,1,0,0:0:0:0:
192,256,200890,1,0,0:0:0:0:
320,256,201052,1,2,0:0:0:0:
320,256,201214,1,2,0:0:0:0:
192,256,201539,1,0,0:0:0:0:
320,256,201701,1,2,0:0:0:0:
320,256,201863,1,2,0:0:0:0:
320,256,202187,1,2,0:0:0:0:
320,256,202349,1,2,0:0:0:0:
192,256,202512,1,0,0:0:0:0:
320,256,202836,1,2,0:0:0:0:
320,256,202998,1,2,0:0:0:0:
192,256,203160,1,0,0:0:0:0:
192,256,203484,1,0,0:0:0:0:
192,256,203647,1,0,0:0:0:0:
320,256,203809,1,2,0:0:0:0:
192,256,204133,1,0,0:0:0:0:
320,256,204295,1,2,0:0:0:0:
320,256,204457,1,2,0:0:0:0:
192,256,204620,1,0,0:0:0:0:
192,256,204944,1,0,0:0:0:0:
192,256,205268,1,0,0:0:0:0:
192,256,205430,1,0,0:0:0:0:
192,256,205512,1,0,0:0:0:0:
192,256,205593,1,0,0:0:0:0:
192,256,205755,1,0,0:0:0:0:
192,128,205917,1,4,0:0:0:0:
192,256,206079,1,0,0:0:0:0:
320,256,206241,1,2,0:0:0:0:
320,256,206403,1,2,0:0:0:0:
192,256,206728,1,0,0:0:0:0:
192,256,206890,1,0,0:0:0:0:
320,256,207052,1,2,0:0:0:0:
320,256,207376,1,2,0:0:0:0:
192,256,207539,1,0,0:0:0:0:
192,256,207701,1,0,0:0:0:0:
192,256,208025,1,0,0:0:0:0:
192,256,208187,1,0,0:0:0:0:
192,256,208349,1,0,0:0:0:0:
192,256,208674,1,0,0:0:0:0:
192,256,208836,1,0,0:0:0:0:
320,256,208998,1,2,0:0:0:0:
192,256,209322,1,0,0:0:0:0:
320,256,209484,1,2,0:0:0:0:
320,256,209647,1,2,0:0:0:0:
192,256,209809,1,0,0:0:0:0:
192,256,210133,1,0,0:0:0:0:
192,256,210457,1,0,0:0:0:0:
192,256,210620,1,0,0:0:0:0:
192,256,210701,1,0,0:0:0:0:
192,256,210782,1,0,0:0:0:0:
192,256,210944,1,0,0:0:0:0:
192,256,211106,1,0,0:0:0:0:
192,256,211268,1,0,0:0:0:0:
192,256,211430,1,0,0:0:0:0:
320,256,211593,1,2,0:0:0:0:
192,256,211917,1,0,0:0:0:0:
192,256,212079,1,0,0:0:0:0:
320,256,212241,1,2,0:0:0:0:
320,256,212566,1,2,0:0:0:0:
320,256,212728,1,2,0:0:0:0:
192,256,212890,1,0,0:0:0:0:
320,256,213214,1,2,0:0:0:0:
192,256,213376,1,0,0:0:0:0:
192,256,213539,1,0,0:0:0:0:
320,128,213701,1,6,0:0:0:0:
192,256,214187,1,0,0:0:0:0:
192,256,214268,1,0,0:0:0:0:
320,128,214349,1,6,0:0:0:0:
192,256,214836,1,0,0:0:0:0:
192,256,214917,1,0,0:0:0:0:
320,128,214998,1,6,0:0:0:0:
320,128,215322,1,6,0:0:0:0:
192,256,215484,1,0,0:0:0:0:
192,256,215647,1,0,0:0:0:0:
192,256,215728,1,0,0:0:0:0:
192,256,215809,1,0,0:0:0:0:
192,256,215890,1,0,0:0:0:0:
320,256,215971,1,2,0:0:0:0:
256,192,216133,12,0,216781,0:0:0:0:
192,128,216943,5,4,0:0:0:0:
192,256,217105,1,0,0:0:0:0:
192,256,217267,1,0,0:0:0:0:
192,256,217348,1,0,0:0:0:0:
320,256,217429,1,2,0:0:0:0:
320,256,217915,1,2,0:0:0:0:
192,256,218078,1,0,0:0:0:0:
320,256,218240,1,2,0:0:0:0:
192,256,218402,1,0,0:0:0:0:
192,256,218564,1,0,0:0:0:0:
192,256,218888,1,0,0:0:0:0:
192,256,219213,1,0,0:0:0:0:
320,256,219375,1,2,0:0:0:0:
192,256,219537,1,0,0:0:0:0:
192,256,219699,1,0,0:0:0:0:
192,256,219861,1,0,0:0:0:0:
192,256,219943,1,0,0:0:0:0:
320,256,220024,1,2,0:0:0:0:
320,256,220510,1,2,0:0:0:0:
192,256,220672,1,0,0:0:0:0:
320,256,220834,1,2,0:0:0:0:
192,256,221078,1,0,0:0:0:0:
320,256,221159,1,2,0:0:0:0:
192,256,221483,1,0,0:0:0:0:
192,256,221645,1,0,0:0:0:0:
192,256,221726,1,0,0:0:0:0:
320,256,221807,1,2,0:0:0:0:
192,256,221970,1,0,0:0:0:0:
192,128,222132,1,4,0:0:0:0:
192,256,222294,1,0,0:0:0:0:
192,256,222456,1,0,0:0:0:0:
192,256,222537,1,0,0:0:0:0:
320,256,222618,1,2,0:0:0:0:
192,256,222780,1,0,0:0:0:0:
192,256,222943,1,0,0:0:0:0:
320,256,223105,1,2,0:0:0:0:
320,256,223267,1,2,0:0:0:0:
192,256,223429,1,0,0:0:0:0:
320,256,223753,1,2,0:0:0:0:
192,256,223915,1,0,0:0:0:0:
192,256,224078,1,0,0:0:0:0:
320,256,224402,1,2,0:0:0:0:
320,256,224564,1,2,0:0:0:0:
192,256,224645,1,0,0:0:0:0:
192,256,224726,1,0,0:0:0:0:
320,256,224807,1,2,0:0:0:0:
192,256,224888,1,0,0:0:0:0:
192,256,225051,1,0,0:0:0:0:
320,256,225375,1,2,0:0:0:0:
192,256,225699,1,0,0:0:0:0:
320,256,225861,1,2,0:0:0:0:
192,256,226024,1,0,0:0:0:0:
192,256,226348,1,0,0:0:0:0:
192,256,226672,1,0,0:0:0:0:
192,256,226834,1,0,0:0:0:0:
192,256,226915,1,0,0:0:0:0:
192,256,226997,1,0,0:0:0:0:
192,256,227159,1,0,0:0:0:0:
192,128,227321,1,4,0:0:0:0:
192,256,227483,1,0,0:0:0:0:
192,256,227645,1,0,0:0:0:0:
192,256,227726,1,0,0:0:0:0:
320,256,227807,1,2,0:0:0:0:
320,256,228294,1,2,0:0:0:0:
192,256,228456,1,0,0:0:0:0:
320,256,228618,1,2,0:0:0:0:
192,256,228780,1,0,0:0:0:0:
192,256,228943,1,0,0:0:0:0:
320,256,229267,1,2,0:0:0:0:
192,256,229591,1,0,0:0:0:0:
320,256,229753,1,2,0:0:0:0:
192,256,229915,1,0,0:0:0:0:
192,256,230078,1,0,0:0:0:0:
192,256,230240,1,0,0:0:0:0:
192,256,230321,1,0,0:0:0:0:
320,256,230402,1,2,0:0:0:0:
192,256,230564,1,0,0:0:0:0:
320,256,230888,1,2,0:0:0:0:
192,256,231051,1,0,0:0:0:0:
320,256,231213,1,2,0:0:0:0:
192,256,231456,1,0,0:0:0:0:
320,256,231537,1,2,0:0:0:0:
192,256,231861,1,0,0:0:0:0:
192,256,232024,1,0,0:0:0:0:
192,256,232105,1,0,0:0:0:0:
192,256,232186,1,0,0:0:0:0:
320,256,232348,1,2,0:0:0:0:
192,128,232510,1,4,0:0:0:0:
192,256,232672,1,0,0:0:0:0:
192,256,232834,1,0,0:0:0:0:
192,256,232915,1,0,0:0:0:0:
320,256,232997,1,2,0:0:0:0:
192,256,233159,1,0,0:0:0:0:
192,256,233321,1,0,0:0:0:0:
320,256,233483,1,2,0:0:0:0:
320,256,233645,1,2,0:0:0:0:
192,256,233807,1,0,0:0:0:0:
320,256,234132,1,2,0:0:0:0:
192,256,234294,1,0,0:0:0:0:
192,256,234456,1,0,0:0:0:0:
320,256,234780,1,2,0:0:0:0:
320,256,234942,1,2,0:0:0:0:
192,256,235024,1,0,0:0:0:0:
192,256,235105,1,0,0:0:0:0:
320,256,235186,1,2,0:0:0:0:
192,256,235267,1,0,0:0:0:0:
192,256,235348,1,0,0:0:0:0:
320,256,235429,1,2,0:0:0:0:
320,256,235510,1,2,0:0:0:0:
320,256,235591,1,2,0:0:0:0:
320,256,235672,1,2,0:0:0:0:
192,256,235753,1,0,0:0:0:0:
192,256,235834,1,0,0:0:0:0:
320,256,235915,1,2,0:0:0:0:
320,256,235997,1,2,0:0:0:0:
192,256,236078,1,0,0:0:0:0:
320,256,236159,1,2,0:0:0:0:
320,256,236240,1,2,0:0:0:0:
320,256,236321,1,2,0:0:0:0:
320,256,236402,1,2,0:0:0:0:
192,256,236483,1,0,0:0:0:0:
192,256,236564,1,0,0:0:0:0:
192,256,236645,1,0,0:0:0:0:
320,256,236726,1,2,0:0:0:0:
192,256,236807,1,0,0:0:0:0:
192,256,236888,1,0,0:0:0:0:
192,128,237051,1,4,0:0:0:0:
320,128,237375,1,6,0:0:0:0:
320,128,237699,1,6,0:0:0:0:
320,256,238024,1,2,0:0:0:0:
192,256,238348,1,0,0:0:0:0:
192,256,238672,1,0,0:0:0:0:
320,256,238834,1,2,0:0:0:0:
320,256,239321,1,2,0:0:0:0:
192,256,239483,1,0,0:0:0:0:
192,256,239645,1,0,0:0:0:0:
192,256,239888,1,0,0:0:0:0:
192,256,240132,1,0,0:0:0:0:
192,256,240294,1,0,0:0:0:0:
192,256,240456,1,0,0:0:0:0:
320,256,240618,1,2,0:0:0:0:
192,256,240780,1,0,0:0:0:0:
192,256,240942,1,0,0:0:0:0:
320,256,241105,1,2,0:0:0:0:
192,256,241267,1,0,0:0:0:0:
320,256,241429,1,2,0:0:0:0:
320,256,241591,1,2,0:0:0:0:
320,256,241915,1,2,0:0:0:0:
192,256,242240,1,0,0:0:0:0:
192,256,242402,1,0,0:0:0:0:
192,256,242483,1,0,0:0:0:0:
192,256,242564,1,0,0:0:0:0:
320,256,242726,1,2,0:0:0:0:
192,256,242888,1,0,0:0:0:0:
320,256,243213,1,2,0:0:0:0:
192,256,243537,1,0,0:0:0:0:
192,256,243861,1,0,0:0:0:0:
320,256,244024,1,2,0:0:0:0:
192,256,244510,1,0,0:0:0:0:
192,256,244672,1,0,0:0:0:0:
320,256,244834,1,2,0:0:0:0:
320,256,244997,1,2,0:0:0:0:
320,256,245159,1,6,0:0:0:0:
192,256,245321,1,0,0:0:0:0:
192,256,245483,1,0,0:0:0:0:
320,256,245645,1,2,0:0:0:0:
192,256,245807,1,0,0:0:0:0:
320,256,245970,1,2,0:0:0:0:
192,256,246132,1,0,0:0:0:0:
320,256,246294,1,2,0:0:0:0:
192,256,246456,1,0,0:0:0:0:
320,256,246618,1,2,0:0:0:0:
192,256,246780,1,0,0:0:0:0:
192,256,247105,1,0,0:0:0:0:
192,256,247429,1,0,0:0:0:0:
192,256,247591,1,0,0:0:0:0:
192,256,247753,1,0,0:0:0:0:
192,256,247834,1,0,0:0:0:0:
192,256,247915,1,0,0:0:0:0:
192,256,247997,1,0,0:0:0:0:
320,128,248078,1,6,0:0:0:0:
320,256,248402,1,2,0:0:0:0:
192,256,248726,1,0,0:0:0:0:
192,256,248888,1,0,0:0:0:0:
320,256,249051,1,2,0:0:0:0:
320,256,249213,1,2,0:0:0:0:
192,256,249375,1,0,0:0:0:0:
192,256,249537,1,0,0:0:0:0:
320,256,249699,1,2,0:0:0:0:
320,256,249861,1,2,0:0:0:0:
192,256,250024,1,0,0:0:0:0:
192,256,250186,1,0,0:0:0:0:
192,256,250348,1,0,0:0:0:0:
320,256,250510,1,2,0:0:0:0:
320,256,250672,1,2,0:0:0:0:
192,256,250997,1,0,0:0:0:0:
320,256,251321,1,2,0:0:0:0:
320,256,251645,1,2,0:0:0:0:
320,256,251807,1,2,0:0:0:0:
192,256,251970,1,0,0:0:0:0:
320,256,252294,1,2,0:0:0:0:
192,256,252618,1,0,0:0:0:0:
192,256,252780,1,0,0:0:0:0:
192,256,252861,1,0,0:0:0:0:
192,256,252942,1,0,0:0:0:0:
320,256,253105,1,2,0:0:0:0:
192,128,253267,1,4,0:0:0:0:
320,256,253591,1,2,0:0:0:0:
192,256,253915,1,0,0:0:0:0:
192,256,254078,1,0,0:0:0:0:
320,256,254240,1,2,0:0:0:0:
320,256,254402,1,2,0:0:0:0:
192,256,254564,1,0,0:0:0:0:
320,256,254888,1,2,0:0:0:0:
192,256,255051,1,0,0:0:0:0:
192,256,255213,1,0,0:0:0:0:
192,256,255537,1,0,0:0:0:0:
192,128,255861,1,4,0:0:0:0:
192,256,256024,1,0,0:0:0:0:
320,256,256186,1,2,0:0:0:0:
320,256,256348,1,2,0:0:0:0:
320,128,256510,1,6,0:0:0:0:
192,256,256672,1,0,0:0:0:0:
192,256,256834,1,0,0:0:0:0:
320,256,256997,1,2,0:0:0:0:
192,128,257159,1,4,0:0:0:0:
320,256,257321,1,2,0:0:0:0:
192,128,257483,1,4,0:0:0:0:
320,256,257645,1,2,0:0:0:0:
320,128,257807,1,6,0:0:0:0:
320,256,258456,5,2,0:0:0:0:
192,256,258538,1,0,0:0:0:0:
192,256,258619,1,0,0:0:0:0:
192,256,258700,1,0,0:0:0:0:
192,256,258781,1,0,0:0:0:0:
320,256,258862,1,2,0:0:0:0:
320,256,258943,1,2,0:0:0:0:
320,256,259024,1,2,0:0:0:0:
192,256,259105,1,0,0:0:0:0:
192,256,259186,1,0,0:0:0:0:
320,256,259267,1,2,0:0:0:0:
192,256,259348,1,0,0:0:0:0:
320,256,259429,1,2,0:0:0:0:
320,256,259511,1,2,0:0:0:0:
192,256,259592,1,0,0:0:0:0:
192,256,259673,1,0,0:0:0:0:
192,256,259754,1,0,0:0:0:0:
320,256,259835,1,2,0:0:0:0:
320,256,259916,1,2,0:0:0:0:
192,256,259997,1,0,0:0:0:0:
192,256,260078,1,0,0:0:0:0:
320,256,260159,1,2,0:0:0:0:
320,256,260240,1,2,0:0:0:0:
192,256,260321,1,0,0:0:0:0:
320,256,260402,1,2,0:0:0:0:
192,256,260484,1,0,0:0:0:0:
192,256,260565,1,0,0:0:0:0:
320,256,260646,1,2,0:0:0:0:
192,256,260727,1,0,0:0:0:0:
192,256,260808,1,0,0:0:0:0:
320,256,260889,1,2,0:0:0:0:
320,256,260970,1,2,0:0:0:0:
320,256,261051,1,2,0:0:0:0:
192,256,261132,1,0,0:0:0:0:
192,256,261213,1,0,0:0:0:0:
192,256,261294,1,0,0:0:0:0:
192,256,261375,1,0,0:0:0:0:
320,256,261457,1,2,0:0:0:0:
320,256,261538,1,2,0:0:0:0:
320,256,261619,1,2,0:0:0:0:
192,256,261700,1,0,0:0:0:0:
192,256,261781,1,0,0:0:0:0:
320,256,261862,1,2,0:0:0:0:
192,256,261943,1,0,0:0:0:0:
320,256,262024,1,2,0:0:0:0:
320,256,262105,1,2,0:0:0:0:
192,256,262186,1,0,0:0:0:0:
192,256,262267,1,0,0:0:0:0:
192,256,262348,1,0,0:0:0:0:
320,256,262429,1,2,0:0:0:0:
320,256,262511,1,2,0:0:0:0:
192,256,262592,1,0,0:0:0:0:
192,256,262673,1,0,0:0:0:0:
320,256,262754,1,2,0:0:0:0:
320,256,262835,1,2,0:0:0:0:
192,256,262916,1,0,0:0:0:0:
320,256,262997,1,2,0:0:0:0:
192,256,263078,1,0,0:0:0:0:
192,256,263159,1,0,0:0:0:0:
320,256,263240,1,2,0:0:0:0:
192,256,263321,1,0,0:0:0:0:
192,256,263402,1,0,0:0:0:0:
320,256,263484,1,2,0:0:0:0:
320,256,263565,1,2,0:0:0:0:
320,256,263646,1,2,0:0:0:0:
192,256,263727,1,0,0:0:0:0:
192,256,263808,1,0,0:0:0:0:
192,256,263889,1,0,0:0:0:0:
192,256,263970,1,0,0:0:0:0:
320,256,264051,1,2,0:0:0:0:
320,256,264132,1,2,0:0:0:0:
320,256,264213,1,2,0:0:0:0:
192,256,264294,1,0,0:0:0:0:
192,256,264375,1,0,0:0:0:0:
320,256,264457,1,2,0:0:0:0:
192,256,264538,1,0,0:0:0:0:
320,256,264619,1,2,0:0:0:0:
320,256,264700,1,2,0:0:0:0:
192,256,264781,1,0,0:0:0:0:
192,256,264862,1,0,0:0:0:0:
192,256,264943,1,0,0:0:0:0:
320,256,265024,1,2,0:0:0:0:
320,256,265105,1,2,0:0:0:0:
192,256,265186,1,0,0:0:0:0:
192,256,265267,1,0,0:0:0:0:
320,256,265348,1,2,0:0:0:0:
320,256,265429,1,2,0:0:0:0:
192,256,265511,1,0,0:0:0:0:
320,256,265592,1,2,0:0:0:0:
192,256,265673,1,0,0:0:0:0:
192,256,265754,1,0,0:0:0:0:
320,256,265835,1,2,0:0:0:0:
192,256,265916,1,0,0:0:0:0:
192,256,265997,1,0,0:0:0:0:
320,256,266078,1,2,0:0:0:0:
320,256,266159,1,2,0:0:0:0:
192,256,266240,1,0,0:0:0:0:
192,256,266321,1,0,0:0:0:0:
192,256,266402,1,0,0:0:0:0:
320,256,266484,1,2,0:0:0:0:
192,256,266565,1,0,0:0:0:0:
192,256,266646,1,0,0:0:0:0:
320,256,266727,1,2,0:0:0:0:
320,256,266808,1,2,0:0:0:0:
192,256,266889,1,0,0:0:0:0:
192,256,266970,1,0,0:0:0:0:
192,256,267051,1,0,0:0:0:0:
320,256,267132,1,2,0:0:0:0:
192,256,267213,1,0,0:0:0:0:
192,256,267294,1,0,0:0:0:0:
320,256,267375,1,2,0:0:0:0:
320,256,267457,1,2,0:0:0:0:
320,256,267538,1,2,0:0:0:0:
320,256,267619,1,2,0:0:0:0:
192,256,267700,1,0,0:0:0:0:
192,256,267781,1,0,0:0:0:0:
320,256,267862,1,2,0:0:0:0:
192,256,267943,1,0,0:0:0:0:
192,256,268024,1,0,0:0:0:0:
192,256,268105,1,0,0:0:0:0:
192,256,268186,1,0,0:0:0:0:
192,256,268267,1,0,0:0:0:0:
192,256,268348,1,0,0:0:0:0:
320,256,268429,1,2,0:0:0:0:
320,256,268511,1,2,0:0:0:0:
192,128,268592,1,4,0:0:0:0:
320,128,268835,1,6,0:0:0:0:
320,128,268997,1,6,0:0:0:0:
320,256,269321,1,2,0:0:0:0:
192,256,269645,1,0,0:0:0:0:
320,256,269807,1,2,0:0:0:0:
320,256,269969,1,2,0:0:0:0:
192,256,270294,1,0,0:0:0:0:
192,256,270618,1,0,0:0:0:0:
192,256,270699,1,0,0:0:0:0:
192,256,270780,1,0,0:0:0:0:
192,256,270942,1,0,0:0:0:0:
192,256,271105,1,0,0:0:0:0:
320,256,271267,1,2,0:0:0:0:
320,256,271429,1,2,0:0:0:0:
320,128,271591,1,6,0:0:0:0:
192,128,271915,1,4,0:0:0:0:
320,128,272240,1,6,0:0:0:0:
192,128,272564,1,4,0:0:0:0:
192,128,272888,1,4,0:0:0:0:
192,256,273213,1,0,0:0:0:0:
192,256,273537,1,0,0:0:0:0:
192,256,273699,1,0,0:0:0:0:
192,256,273780,1,0,0:0:0:0:
192,256,273861,1,0,0:0:0:0:
192,256,274024,1,0,0:0:0:0:
192,128,274186,1,4,0:0:0:0:
192,256,274510,1,0,0:0:0:0:
320,256,274591,1,2,0:0:0:0:
192,256,274672,1,0,0:0:0:0:
192,256,274834,1,0,0:0:0:0:
320,256,274997,1,2,0:0:0:0:
320,256,275159,1,2,0:0:0:0:
192,128,275483,1,4,0:0:0:0:
320,256,275807,1,2,0:0:0:0:
192,256,275888,1,0,0:0:0:0:
192,256,275969,1,0,0:0:0:0:
192,128,276132,1,4,0:0:0:0:
192,256,276456,1,0,0:0:0:0:
192,256,276537,1,0,0:0:0:0:
192,256,276618,1,0,0:0:0:0:
192,256,276780,1,0,0:0:0:0:
192,256,276942,1,0,0:0:0:0:
192,256,277105,1,0,0:0:0:0:
320,256,277267,1,2,0:0:0:0:
320,256,277429,1,2,0:0:0:0:
192,256,277591,1,0,0:0:0:0:
192,256,277753,1,0,0:0:0:0:
192,256,277915,1,0,0:0:0:0:
320,256,278078,1,2,0:0:0:0:
320,256,278240,1,2,0:0:0:0:
192,256,278402,1,0,0:0:0:0:
320,256,278564,1,2,0:0:0:0:
320,256,278726,1,2,0:0:0:0:
192,256,278888,1,0,0:0:0:0:
192,256,278969,1,0,0:0:0:0:
192,256,279051,1,0,0:0:0:0:
192,256,279213,1,0,0:0:0:0:
192,128,279375,1,4,0:0:0:0:
192,256,279699,1,0,0:0:0:0:
192,256,279780,1,0,0:0:0:0:
192,256,279861,1,0,0:0:0:0:
192,256,280024,1,0,0:0:0:0:
192,256,280186,1,0,0:0:0:0:
320,256,280348,1,2,0:0:0:0:
192,256,280672,1,0,0:0:0:0:
192,256,280997,1,0,0:0:0:0:
192,256,281078,1,0,0:0:0:0:
320,256,281159,1,2,0:0:0:0:
192,256,281321,1,0,0:0:0:0:
192,256,281483,1,0,0:0:0:0:
320,256,281645,1,2,0:0:0:0:
320,256,281807,1,2,0:0:0:0:
320,256,281969,1,2,0:0:0:0:
192,256,282294,1,0,0:0:0:0:
320,256,282618,1,2,0:0:0:0:
192,256,282942,1,0,0:0:0:0:
192,128,283267,1,4,0:0:0:0:
192,256,283591,1,0,0:0:0:0:
192,256,283915,1,0,0:0:0:0:
192,256,284078,1,0,0:0:0:0:
192,256,284159,1,0,0:0:0:0:
192,256,284240,1,0,0:0:0:0:
192,256,284402,1,0,0:0:0:0:
192,128,284564,1,4,0:0:0:0:
192,256,284888,1,0,0:0:0:0:
192,256,284969,1,0,0:0:0:0:
320,256,285051,1,2,0:0:0:0:
192,256,285213,1,0,0:0:0:0:
192,256,285375,1,0,0:0:0:0:
320,256,285537,1,2,0:0:0:0:
192,256,285861,1,0,0:0:0:0:
192,128,286510,1,4,0:0:0:0:
192,256,287159,1,0,0:0:0:0:
192,256,287321,1,0,0:0:0:0:
320,256,287483,1,2,0:0:0:0:
320,256,287645,1,2,0:0:0:0:
320,256,287807,1,2,0:0:0:0:
192,256,287969,1,0,0:0:0:0:
192,256,288132,1,0,0:0:0:0:
320,256,288294,1,2,0:0:0:0:
320,256,288456,1,2,0:0:0:0:
192,256,288618,1,0,0:0:0:0:
320,256,288780,1,2,0:0:0:0:
320,256,288942,1,2,0:0:0:0:
320,256,289105,1,2,0:0:0:0:
192,256,289267,1,0,0:0:0:0:
192,256,289348,1,0,0:0:0:0:
192,256,289429,1,0,0:0:0:0:
192,256,289591,1,0,0:0:0:0:
320,256,289753,5,2,0:0:0:0:
192,256,289834,1,0,0:0:0:0:
192,256,289915,1,0,0:0:0:0:
320,256,289997,1,2,0:0:0:0:
192,256,290078,1,0,0:0:0:0:
320,256,290159,1,2,0:0:0:0:
192,256,290240,1,0,0:0:0:0:
192,256,290321,1,0,0:0:0:0:
192,256,290402,1,0,0:0:0:0:
320,256,290483,1,2,0:0:0:0:
320,256,290564,1,2,0:0:0:0:
320,256,290645,1,2,0:0:0:0:
320,256,290726,1,2,0:0:0:0:
192,256,290807,1,0,0:0:0:0:
192,256,290888,1,0,0:0:0:0:
192,256,290969,1,0,0:0:0:0:
192,256,291051,1,0,0:0:0:0:
192,256,291132,1,0,0:0:0:0:
320,256,291213,1,2,0:0:0:0:
192,256,291294,1,0,0:0:0:0:
192,256,291375,1,0,0:0:0:0:
192,256,291456,1,0,0:0:0:0:
320,256,291537,1,2,0:0:0:0:
192,256,291618,1,0,0:0:0:0:
320,256,291699,1,2,0:0:0:0:
192,256,291780,1,0,0:0:0:0:
192,256,291861,1,0,0:0:0:0:
320,256,291942,1,2,0:0:0:0:
192,256,292024,1,0,0:0:0:0:
192,256,292105,1,0,0:0:0:0:
320,256,292186,1,2,0:0:0:0:
320,256,292267,1,2,0:0:0:0:
320,256,292348,1,2,0:0:0:0:
192,256,292429,1,0,0:0:0:0:
192,256,292510,1,0,0:0:0:0:
320,256,292591,1,2,0:0:0:0:
192,256,292672,1,0,0:0:0:0:
320,256,292753,1,2,0:0:0:0:
192,256,292834,1,0,0:0:0:0:
192,256,292915,1,0,0:0:0:0:
192,256,292997,1,0,0:0:0:0:
320,256,293078,1,2,0:0:0:0:
320,256,293159,1,2,0:0:0:0:
320,256,293240,1,2,0:0:0:0:
320,256,293321,1,2,0:0:0:0:
192,256,293402,1,0,0:0:0:0:
192,256,293483,1,0,0:0:0:0:
192,256,293564,1,0,0:0:0:0:
192,256,293645,1,0,0:0:0:0:
192,256,293726,1,0,0:0:0:0:
320,256,293807,1,2,0:0:0:0:
192,256,293888,1,0,0:0:0:0:
192,256,293969,1,0,0:0:0:0:
192,256,294051,1,0,0:0:0:0:
320,256,294132,1,2,0:0:0:0:
192,256,294213,1,0,0:0:0:0:
320,256,294294,1,2,0:0:0:0:
192,256,294375,1,0,0:0:0:0:
192,256,294456,1,0,0:0:0:0:
320,256,294537,1,2,0:0:0:0:
192,256,294618,1,0,0:0:0:0:
192,256,294699,1,0,0:0:0:0:
320,256,294780,1,2,0:0:0:0:
320,256,294861,1,2,0:0:0:0:
320,256,294942,1,2,0:0:0:0:
192,256,295024,1,0,0:0:0:0:
192,256,295105,1,0,0:0:0:0:
320,256,295186,1,2,0:0:0:0:
192,256,295267,1,0,0:0:0:0:
320,256,295348,1,2,0:0:0:0:
320,256,295429,1,2,0:0:0:0:
192,256,295510,1,0,0:0:0:0:
192,256,295591,1,0,0:0:0:0:
192,256,295672,1,0,0:0:0:0:
320,256,295753,1,2,0:0:0:0:
320,256,295834,1,2,0:0:0:0:
320,256,295915,1,2,0:0:0:0:
192,256,295997,1,0,0:0:0:0:
192,256,296078,1,0,0:0:0:0:
192,256,296159,1,0,0:0:0:0:
320,256,296240,1,2,0:0:0:0:
320,256,296321,1,2,0:0:0:0:
192,256,296402,1,0,0:0:0:0:
320,256,296483,1,2,0:0:0:0:
192,256,296564,1,0,0:0:0:0:
320,256,296645,1,2,0:0:0:0:
320,256,296726,1,2,0:0:0:0:
192,256,296807,1,0,0:0:0:0:
320,256,296888,1,2,0:0:0:0:
192,256,296969,1,0,0:0:0:0:
192,256,297051,1,0,0:0:0:0:
320,256,297132,1,2,0:0:0:0:
192,256,297213,1,0,0:0:0:0:
192,256,297294,1,0,0:0:0:0:
320,256,297375,1,2,0:0:0:0:
320,256,297456,1,2,0:0:0:0:
192,256,297537,1,0,0:0:0:0:
192,256,297618,1,0,0:0:0:0:
320,256,297699,1,2,0:0:0:0:
320,256,297780,1,2,0:0:0:0:
192,256,297861,1,0,0:0:0:0:
320,256,297942,1,2,0:0:0:0:
320,256,298024,1,2,0:0:0:0:
320,256,298105,1,2,0:0:0:0:
192,256,298186,1,0,0:0:0:0:
192,256,298267,1,0,0:0:0:0:
320,256,298348,1,2,0:0:0:0:
320,256,298429,1,2,0:0:0:0:
192,256,298510,1,0,0:0:0:0:
320,256,298591,1,2,0:0:0:0:
320,256,298672,1,2,0:0:0:0:
320,256,298753,1,2,0:0:0:0:
320,256,298834,1,2,0:0:0:0:
192,256,298915,1,0,0:0:0:0:
192,256,298996,1,0,0:0:0:0:
320,256,299078,1,2,0:0:0:0:
320,256,299159,1,2,0:0:0:0:
192,256,299240,1,0,0:0:0:0:
192,256,299321,1,0,0:0:0:0:
192,256,299402,1,0,0:0:0:0:
192,256,299483,1,0,0:0:0:0:
192,256,299564,1,0,0:0:0:0:
192,256,299645,1,0,0:0:0:0:
320,256,299726,1,2,0:0:0:0:
320,256,299807,1,2,0:0:0:0:
192,256,299888,1,0,0:0:0:0:
320,256,299969,1,2,0:0:0:0:
320,256,300051,1,2,0:0:0:0:
192,256,300132,1,0,0:0:0:0:
192,256,300294,1,0,0:0:0:0:
192,256,300375,1,0,0:0:0:0:
320,256,300456,1,2,0:0:0:0:
192,256,300618,1,0,0:0:0:0:
320,256,300699,1,2,0:0:0:0:
192,256,300861,1,0,0:0:0:0:
320,256,300942,1,2,0:0:0:0:
192,256,301024,1,0,0:0:0:0:
320,256,301105,1,2,0:0:0:0:
320,256,301186,1,2,0:0:0:0:
320,256,301267,1,2,0:0:0:0:
320,256,301348,1,2,0:0:0:0:
320,256,301429,5,2,0:0:0:0:
192,256,301510,1,0,0:0:0:0:
320,256,301591,1,2,0:0:0:0:
320,256,301672,1,2,0:0:0:0:
192,256,301753,1,0,0:0:0:0:
320,256,301834,1,2,0:0:0:0:
192,256,301915,1,0,0:0:0:0:
320,256,301996,1,2,0:0:0:0:
192,256,302078,1,0,0:0:0:0:
320,256,302159,1,2,0:0:0:0:
192,256,302240,1,0,0:0:0:0:
192,256,302321,1,0,0:0:0:0:
192,256,302402,1,0,0:0:0:0:
320,256,302483,1,2,0:0:0:0:
192,256,302564,1,0,0:0:0:0:
192,256,302645,1,0,0:0:0:0:
192,256,302726,1,0,0:0:0:0:
192,256,302807,1,0,0:0:0:0:
320,256,302888,1,2,0:0:0:0:
320,256,302969,1,2,0:0:0:0:
192,256,303051,1,0,0:0:0:0:
192,256,303132,1,0,0:0:0:0:
320,256,303213,1,2,0:0:0:0:
320,256,303294,1,2,0:0:0:0:
320,256,303375,1,2,0:0:0:0:
192,256,303456,1,0,0:0:0:0:
192,256,303537,1,0,0:0:0:0:
320,256,303618,1,2,0:0:0:0:
320,256,303699,1,2,0:0:0:0:
192,256,303780,1,0,0:0:0:0:
192,256,303861,1,0,0:0:0:0:
320,256,303942,1,2,0:0:0:0:
320,256,304024,1,2,0:0:0:0:
320,256,304105,1,2,0:0:0:0:
192,256,304186,1,0,0:0:0:0:
192,256,304267,1,0,0:0:0:0:
192,256,304348,1,0,0:0:0:0:
320,256,304429,1,2,0:0:0:0:
192,256,304510,1,0,0:0:0:0:
320,256,304591,1,2,0:0:0:0:
192,256,304672,1,0,0:0:0:0:
320,256,304753,1,2,0:0:0:0:
192,256,304834,1,0,0:0:0:0:
192,256,304915,1,0,0:0:0:0:
192,256,304996,1,0,0:0:0:0:
320,256,305078,1,2,0:0:0:0:
192,256,305159,1,0,0:0:0:0:
320,256,305240,1,2,0:0:0:0:
192,256,305321,1,0,0:0:0:0:
192,256,305402,1,0,0:0:0:0:
192,256,305483,1,0,0:0:0:0:
320,256,305564,1,2,0:0:0:0:
192,256,305645,1,0,0:0:0:0:
320,256,305726,1,2,0:0:0:0:
320,256,305807,1,2,0:0:0:0:
320,256,305888,1,2,0:0:0:0:
320,256,305969,1,2,0:0:0:0:
192,256,306051,1,0,0:0:0:0:
192,256,306132,1,0,0:0:0:0:
320,256,306213,1,2,0:0:0:0:
192,256,306294,1,0,0:0:0:0:
320,256,306375,1,2,0:0:0:0:
192,256,306456,1,0,0:0:0:0:
192,256,306537,1,0,0:0:0:0:
320,256,306618,1,2,0:0:0:0:
320,256,306699,1,2,0:0:0:0:
192,256,306780,1,0,0:0:0:0:
192,256,306861,1,0,0:0:0:0:
192,256,306942,1,0,0:0:0:0:
320,256,307024,1,2,0:0:0:0:
192,256,307105,1,0,0:0:0:0:
192,256,307186,1,0,0:0:0:0:
320,256,307267,1,2,0:0:0:0:
192,256,307348,1,0,0:0:0:0:
192,256,307429,1,0,0:0:0:0:
320,256,307510,1,2,0:0:0:0:
192,256,307591,1,0,0:0:0:0:
192,256,307672,1,0,0:0:0:0:
192,256,307753,1,0,0:0:0:0:
320,256,307834,1,2,0:0:0:0:
320,256,307915,1,2,0:0:0:0:
192,256,307996,1,0,0:0:0:0:
192,256,308078,1,0,0:0:0:0:
320,256,308159,1,2,0:0:0:0:
192,256,308240,1,0,0:0:0:0:
192,256,308321,1,0,0:0:0:0:
320,256,308402,1,2,0:0:0:0:
192,256,308483,1,0,0:0:0:0:
320,256,308564,1,2,0:0:0:0:
192,256,308645,1,0,0:0:0:0:
192,256,308726,1,0,0:0:0:0:
320,256,308807,1,2,0:0:0:0:
320,256,308888,1,2,0:0:0:0:
192,256,308969,1,0,0:0:0:0:
192,256,309051,1,0,0:0:0:0:
320,256,309132,1,2,0:0:0:0:
192,256,309213,1,0,0:0:0:0:
192,256,309294,1,0,0:0:0:0:
192,256,309375,1,0,0:0:0:0:
320,256,309456,1,2,0:0:0:0:
192,256,309537,1,0,0:0:0:0:
192,256,309618,1,0,0:0:0:0:
192,256,309699,1,0,0:0:0:0:
320,256,309780,1,2,0:0:0:0:
192,256,309861,1,0,0:0:0:0:
192,256,309942,1,0,0:0:0:0:
320,256,310024,1,2,0:0:0:0:
320,256,310105,1,2,0:0:0:0:
192,256,310186,1,0,0:0:0:0:
192,256,310267,1,0,0:0:0:0:
320,256,310348,1,2,0:0:0:0:
320,256,310429,1,2,0:0:0:0:
192,128,310510,1,4,0:0:0:0:
320,256,310672,1,2,0:0:0:0:
320,256,310753,1,2,0:0:0:0:
192,128,310834,1,4,0:0:0:0:
320,256,310996,1,2,0:0:0:0:
320,256,311078,1,2,0:0:0:0:
192,256,311159,1,0,0:0:0:0:
192,256,311240,1,0,0:0:0:0:
320,256,311321,1,2,0:0:0:0:
320,256,311402,1,2,0:0:0:0:
192,256,311483,1,0,0:0:0:0:
320,256,311564,1,2,0:0:0:0:
192,256,311645,1,0,0:0:0:0:
320,256,311807,1,2,0:0:0:0:
192,256,311888,1,0,0:0:0:0:
320,256,311969,1,2,0:0:0:0:
320,256,312051,1,2,0:0:0:0:
192,256,312132,1,0,0:0:0:0:
320,256,312213,1,2,0:0:0:0:
192,256,312294,1,0,0:0:0:0:
320,256,312375,1,2,0:0:0:0:
192,256,312456,1,0,0:0:0:0:
320,256,312537,1,2,0:0:0:0:
192,256,312618,1,0,0:0:0:0:
192,256,312699,1,0,0:0:0:0:
192,256,312780,1,0,0:0:0:0:
320,256,312861,1,2,0:0:0:0:
192,256,312942,1,0,0:0:0:0:
192,256,313024,1,0,0:0:0:0:
192,256,313105,1,0,0:0:0:0:
192,256,313186,1,0,0:0:0:0:
320,256,313267,1,2,0:0:0:0:
320,256,313348,1,2,0:0:0:0:
192,256,313429,1,0,0:0:0:0:
192,256,313510,1,0,0:0:0:0:
320,256,313591,1,2,0:0:0:0:
320,256,313672,1,2,0:0:0:0:
320,256,313753,1,2,0:0:0:0:
192,256,313834,1,0,0:0:0:0:
192,256,313915,1,0,0:0:0:0:
320,256,313996,1,2,0:0:0:0:
320,256,314078,1,2,0:0:0:0:
192,256,314159,1,0,0:0:0:0:
192,256,314240,1,0,0:0:0:0:
320,256,314321,1,2,0:0:0:0:
320,256,314402,1,2,0:0:0:0:
320,256,314483,1,2,0:0:0:0:
192,256,314564,1,0,0:0:0:0:
192,256,314645,1,0,0:0:0:0:
192,256,314726,1,0,0:0:0:0:
320,256,314807,1,2,0:0:0:0:
192,256,314888,1,0,0:0:0:0:
320,256,314969,1,2,0:0:0:0:
192,256,315051,1,0,0:0:0:0:
320,256,315132,1,2,0:0:0:0:
192,256,315213,1,0,0:0:0:0:
192,256,315294,1,0,0:0:0:0:
192,256,315375,1,0,0:0:0:0:
320,256,315456,1,2,0:0:0:0:
192,256,315537,1,0,0:0:0:0:
320,256,315618,1,2,0:0:0:0:
192,256,315699,1,0,0:0:0:0:
192,256,315780,1,0,0:0:0:0:
192,256,315861,1,0,0:0:0:0:
320,256,315942,1,2,0:0:0:0:
192,256,316024,1,0,0:0:0:0:
320,256,316105,1,2,0:0:0:0:
320,256,316186,1,2,0:0:0:0:
320,256,316267,1,2,0:0:0:0:
320,256,316348,1,2,0:0:0:0:
192,256,316429,1,0,0:0:0:0:
192,256,316510,1,0,0:0:0:0:
320,256,316591,1,2,0:0:0:0:
192,256,316672,1,0,0:0:0:0:
320,256,316753,1,2,0:0:0:0:
192,256,316834,1,0,0:0:0:0:
192,256,316915,1,0,0:0:0:0:
320,256,316996,1,2,0:0:0:0:
320,256,317078,1,2,0:0:0:0:
192,256,317159,1,0,0:0:0:0:
192,256,317240,1,0,0:0:0:0:
192,256,317321,1,0,0:0:0:0:
320,256,317402,1,2,0:0:0:0:
192,256,317483,1,0,0:0:0:0:
192,256,317564,1,0,0:0:0:0:
320,256,317645,1,2,0:0:0:0:
192,256,317726,1,0,0:0:0:0:
192,256,317807,1,0,0:0:0:0:
320,256,317888,1,2,0:0:0:0:
192,256,317969,1,0,0:0:0:0:
192,256,318051,1,0,0:0:0:0:
192,256,318132,1,0,0:0:0:0:
320,256,318213,1,2,0:0:0:0:
320,256,318294,1,2,0:0:0:0:
192,256,318375,1,0,0:0:0:0:
192,256,318456,1,0,0:0:0:0:
320,256,318537,1,2,0:0:0:0:
192,256,318618,1,0,0:0:0:0:
192,256,318699,1,0,0:0:0:0:
320,256,318780,1,2,0:0:0:0:
192,256,318861,1,0,0:0:0:0:
320,256,318942,1,2,0:0:0:0:
192,256,319024,1,0,0:0:0:0:
192,256,319105,1,0,0:0:0:0:
320,256,319186,1,2,0:0:0:0:
320,256,319267,1,2,0:0:0:0:
192,256,319348,1,0,0:0:0:0:
192,256,319429,1,0,0:0:0:0:
320,256,319510,1,2,0:0:0:0:
192,256,319591,1,0,0:0:0:0:
192,256,319672,1,0,0:0:0:0:
192,256,319753,1,0,0:0:0:0:
320,256,319834,1,2,0:0:0:0:
192,256,319915,1,0,0:0:0:0:
192,256,319996,1,0,0:0:0:0:
192,256,320078,1,0,0:0:0:0:
320,256,320159,1,2,0:0:0:0:
192,256,320240,1,0,0:0:0:0:
192,256,320321,1,0,0:0:0:0:
320,256,320402,1,2,0:0:0:0:
320,256,320483,1,2,0:0:0:0:
192,256,320564,1,0,0:0:0:0:
192,256,320645,1,0,0:0:0:0:
320,256,320726,1,2,0:0:0:0:
320,256,320807,1,2,0:0:0:0:
192,128,320888,1,4,0:0:0:0:
320,256,321051,1,2,0:0:0:0:
320,256,321132,1,2,0:0:0:0:
192,128,321213,1,4,0:0:0:0:
320,256,321375,1,2,0:0:0:0:
320,256,321456,1,2,0:0:0:0:
192,128,321537,1,4,0:0:0:0:
192,256,321699,1,0,0:0:0:0:
320,256,321861,1,2,0:0:0:0:
320,256,322024,1,2,0:0:0:0:
320,128,322186,5,6,0:0:0:0:
320,256,322510,1,2,0:0:0:0:
192,256,322834,1,0,0:0:0:0:
192,256,322996,1,0,0:0:0:0:
320,256,323159,1,2,0:0:0:0:
192,256,323321,1,0,0:0:0:0:
320,256,323483,1,2,0:0:0:0:
192,256,323645,1,0,0:0:0:0:
192,256,323807,1,0,0:0:0:0:
192,256,323969,1,0,0:0:0:0:
320,256,324132,1,2,0:0:0:0:
192,256,324294,1,0,0:0:0:0:
320,256,324456,1,2,0:0:0:0:
320,256,324618,1,2,0:0:0:0:
320,128,324780,1,6,0:0:0:0:
192,128,325105,1,4,0:0:0:0:
320,128,325429,1,6,0:0:0:0:
192,256,325591,1,0,0:0:0:0:
192,256,325753,1,0,0:0:0:0:
192,256,325915,1,0,0:0:0:0:
320,256,326078,1,2,0:0:0:0:
192,256,326240,1,0,0:0:0:0:
192,256,326402,1,0,0:0:0:0:
320,256,326564,1,2,0:0:0:0:
320,256,326726,1,2,0:0:0:0:
192,256,326888,1,0,0:0:0:0:
192,256,327051,1,0,0:0:0:0:
192,128,327375,1,4,0:0:0:0:
192,256,327537,1,0,0:0:0:0:
320,256,327699,1,2,0:0:0:0:
192,256,328024,1,0,0:0:0:0:
192,256,328186,1,0,0:0:0:0:
320,256,328348,1,2,0:0:0:0:
192,256,328510,1,0,0:0:0:0:
320,256,328672,1,2,0:0:0:0:
192,256,328834,1,0,0:0:0:0:
192,256,328996,1,0,0:0:0:0:
192,256,329159,1,0,0:0:0:0:
320,256,329321,1,2,0:0:0:0:
192,256,329483,1,0,0:0:0:0:
320,256,329645,1,2,0:0:0:0:
320,256,329807,1,2,0:0:0:0:
320,256,329969,1,2,0:0:0:0:
192,256,330132,1,0,0:0:0:0:
320,256,330294,1,2,0:0:0:0:
320,256,330456,1,2,0:0:0:0:
320,256,330618,1,2,0:0:0:0:
192,256,330780,1,0,0:0:0:0:
192,256,330942,1,0,0:0:0:0:
320,256,331105,1,2,0:0:0:0:
320,256,331267,1,2,0:0:0:0:
192,256,331429,1,0,0:0:0:0:
192,256,331591,1,0,0:0:0:0:
320,256,331753,1,2,0:0:0:0:
320,256,331915,1,2,0:0:0:0:
192,256,332078,1,0,0:0:0:0:
192,256,332159,1,0,0:0:0:0:
192,256,332240,1,0,0:0:0:0:
192,256,332402,1,0,0:0:0:0:
320,256,332564,1,2,0:0:0:0:
192,256,332726,1,0,0:0:0:0:
192,256,332888,1,0,0:0:0:0:
320,256,333051,1,2,0:0:0:0:
320,256,333213,1,2,0:0:0:0:
192,256,333375,1,0,0:0:0:0:
320,256,333537,1,2,0:0:0:0:
320,256,333861,1,2,0:0:0:0:
192,256,334024,1,0,0:0:0:0:
320,256,334186,1,2,0:0:0:0:
320,256,334348,1,2,0:0:0:0:
320,256,334510,1,2,0:0:0:0:
192,256,334672,1,0,0:0:0:0:
320,256,334834,1,2,0:0:0:0:
192,256,334996,1,0,0:0:0:0:
320,256,335159,1,2,0:0:0:0:
320,256,335483,1,2,0:0:0:0:
192,256,335645,1,0,0:0:0:0:
320,256,335807,1,2,0:0:0:0:
192,256,335969,1,0,0:0:0:0:
192,256,336132,1,0,0:0:0:0:
192,256,336294,1,0,0:0:0:0:
320,256,336456,1,2,0:0:0:0:
192,256,336618,1,0,0:0:0:0:
320,256,336780,1,2,0:0:0:0:
320,256,336942,1,2,0:0:0:0:
320,256,337105,1,2,0:0:0:0:
192,256,337267,1,0,0:0:0:0:
192,256,337429,1,0,0:0:0:0:
320,256,337753,1,2,0:0:0:0:
192,256,337915,1,0,0:0:0:0:
192,256,338078,1,0,0:0:0:0:
320,256,338240,1,2,0:0:0:0:
320,256,338402,1,2,0:0:0:0:
192,256,338564,1,0,0:0:0:0:
320,256,338726,1,2,0:0:0:0:
192,256,338888,1,0,0:0:0:0:
320,256,339051,1,2,0:0:0:0:
320,256,339213,1,2,0:0:0:0:
320,256,339375,1,2,0:0:0:0:
320,256,339537,1,2,0:0:0:0:
192,256,339699,1,0,0:0:0:0:
192,256,339861,1,0,0:0:0:0:
320,256,340024,1,2,0:0:0:0:
192,256,340186,1,0,0:0:0:0:
320,256,340348,1,2,0:0:0:0:
320,256,340510,1,2,0:0:0:0:
320,256,340672,1,2,0:0:0:0:
192,256,340834,1,0,0:0:0:0:
320,256,340996,1,2,0:0:0:0:
192,256,341159,1,0,0:0:0:0:
192,256,341321,1,0,0:0:0:0:
320,256,341483,1,2,0:0:0:0:
192,256,341645,1,0,0:0:0:0:
192,256,341807,1,0,0:0:0:0:
320,256,341969,1,2,0:0:0:0:
320,256,342132,1,2,0:0:0:0:
320,256,342294,1,2,0:0:0:0:
192,256,342456,1,0,0:0:0:0:
192,256,342537,1,0,0:0:0:0:
192,256,342618,1,0,0:0:0:0:
192,256,342780,1,0,0:0:0:0:
192,128,342942,5,4,0:0:0:0:
192,256,343105,1,0,0:0:0:0:
192,256,343186,1,0,0:0:0:0:
320,128,343267,1,6,0:0:0:0:
192,256,343591,1,0,0:0:0:0:
192,256,343672,1,0,0:0:0:0:
320,128,343753,1,6,0:0:0:0:
192,256,344078,1,0,0:0:0:0:
192,256,344159,1,0,0:0:0:0:
320,128,344240,1,6,0:0:0:0:
192,256,344564,1,0,0:0:0:0:
192,256,344645,1,0,0:0:0:0:
320,128,344726,1,6,0:0:0:0:
192,256,344888,1,0,0:0:0:0:
192,256,344969,1,0,0:0:0:0:
192,256,345051,1,0,0:0:0:0:
192,256,345213,1,0,0:0:0:0:
320,256,345375,1,2,0:0:0:0:
320,256,345537,1,2,0:0:0:0:
192,256,345699,1,0,0:0:0:0:
192,256,345861,1,0,0:0:0:0:
320,256,346024,1,2,0:0:0:0:
320,256,346186,1,2,0:0:0:0:
192,256,346348,1,0,0:0:0:0:
192,256,346510,1,0,0:0:0:0:
320,256,346672,1,2,0:0:0:0:
320,256,346834,1,2,0:0:0:0:
192,256,346996,1,0,0:0:0:0:
192,256,347159,1,0,0:0:0:0:
320,256,347321,1,2,0:0:0:0:
320,256,347483,1,2,0:0:0:0:
192,256,347645,1,0,0:0:0:0:
192,256,347807,1,0,0:0:0:0:
192,256,347888,1,0,0:0:0:0:
320,256,347969,1,2,0:0:0:0:
320,256,348051,1,2,0:0:0:0:
320,256,348132,1,2,0:0:0:0:
192,256,348213,1,0,0:0:0:0:
192,256,348294,1,0,0:0:0:0:
320,256,348375,1,2,0:0:0:0:
192,256,348456,1,0,0:0:0:0:
192,256,348537,1,0,0:0:0:0:
320,256,348618,1,2,0:0:0:0:
192,256,348699,1,0,0:0:0:0:
320,256,348780,1,2,0:0:0:0:
192,256,348861,1,0,0:0:0:0:
192,256,348942,1,0,0:0:0:0:
320,256,349024,1,2,0:0:0:0:
192,256,349105,1,0,0:0:0:0:
192,256,349186,1,0,0:0:0:0:
320,256,349267,1,2,0:0:0:0:
192,256,349348,1,0,0:0:0:0:
320,256,349429,1,2,0:0:0:0:
192,256,349510,1,0,0:0:0:0:
192,256,349591,1,0,0:0:0:0:
320,256,349672,1,2,0:0:0:0:
192,256,349753,1,0,0:0:0:0:
192,256,349834,1,0,0:0:0:0:
320,256,349915,1,2,0:0:0:0:
192,256,349996,1,0,0:0:0:0:
320,256,350078,1,2,0:0:0:0:
192,256,350159,1,0,0:0:0:0:
192,256,350240,1,0,0:0:0:0:
320,256,350321,1,2,0:0:0:0:
192,256,350402,1,0,0:0:0:0:
192,256,350483,1,0,0:0:0:0:
320,256,350564,1,2,0:0:0:0:
320,256,350645,1,2,0:0:0:0:
320,256,350726,1,2,0:0:0:0:
192,256,350807,1,0,0:0:0:0:
192,256,350888,1,0,0:0:0:0:
320,256,350969,1,2,0:0:0:0:
192,256,351051,1,0,0:0:0:0:
192,256,351132,1,0,0:0:0:0:
320,256,351213,1,2,0:0:0:0:
192,256,351294,1,0,0:0:0:0:
320,256,351375,1,2,0:0:0:0:
192,256,351456,1,0,0:0:0:0:
192,256,351537,1,0,0:0:0:0:
320,256,351618,1,2,0:0:0:0:
192,256,351699,1,0,0:0:0:0:
192,256,351780,1,0,0:0:0:0:
320,256,351861,1,2,0:0:0:0:
192,256,351942,1,0,0:0:0:0:
320,256,352024,1,2,0:0:0:0:
192,256,352105,1,0,0:0:0:0:
192,256,352186,1,0,0:0:0:0:
320,256,352267,1,2,0:0:0:0:
192,256,352348,1,0,0:0:0:0:
192,256,352429,1,0,0:0:0:0:
320,256,352510,1,2,0:0:0:0:
192,256,352591,1,0,0:0:0:0:
320,256,352672,1,2,0:0:0:0:
192,256,352753,1,0,0:0:0:0:
192,256,352834,1,0,0:0:0:0:
320,256,352915,1,2,0:0:0:0:
192,256,352996,1,0,0:0:0:0:
192,256,353078,1,0,0:0:0:0:
320,256,353159,1,2,0:0:0:0:
320,256,353240,1,2,0:0:0:0:
320,256,353321,1,2,0:0:0:0:
192,256,353402,1,0,0:0:0:0:
192,256,353483,1,0,0:0:0:0:
320,256,353564,1,2,0:0:0:0:
192,256,353645,1,0,0:0:0:0:
192,256,353726,1,0,0:0:0:0:
320,256,353807,1,2,0:0:0:0:
192,256,353888,1,0,0:0:0:0:
320,256,353969,1,2,0:0:0:0:
192,256,354051,1,0,0:0:0:0:
192,256,354132,1,0,0:0:0:0:
320,256,354213,1,2,0:0:0:0:
192,256,354294,1,0,0:0:0:0:
192,256,354375,1,0,0:0:0:0:
320,256,354456,1,2,0:0:0:0:
192,256,354537,1,0,0:0:0:0:
320,256,354618,1,2,0:0:0:0:
192,256,354699,1,0,0:0:0:0:
192,256,354780,1,0,0:0:0:0:
320,256,354861,1,2,0:0:0:0:
192,256,354942,1,0,0:0:0:0:
192,256,355024,1,0,0:0:0:0:
320,256,355105,1,2,0:0:0:0:
192,256,355186,1,0,0:0:0:0:
320,256,355267,1,2,0:0:0:0:
192,256,355348,1,0,0:0:0:0:
192,256,355429,1,0,0:0:0:0:
256,192,355510,12,0,355753,0:0:0:0:
192,128,355915,5,4,0:0:0:0:
192,256,356078,1,0,0:0:0:0:
192,256,356159,1,0,0:0:0:0:
192,256,356240,1,0,0:0:0:0:
192,256,356402,1,0,0:0:0:0:
320,256,356564,1,2,0:0:0:0:
192,256,356726,1,0,0:0:0:0:
192,256,356807,1,0,0:0:0:0:
192,256,356888,1,0,0:0:0:0:
192,256,357051,1,0,0:0:0:0:
320,256,357132,1,2,0:0:0:0:
192,256,357213,1,0,0:0:0:0:
192,256,357456,1,0,0:0:0:0:
320,256,357699,1,2,0:0:0:0:
192,256,357861,1,0,0:0:0:0:
192,256,358186,1,0,0:0:0:0:
320,256,358348,1,2,0:0:0:0:
320,128,358510,1,6,0:0:0:0:
192,256,358672,1,0,0:0:0:0:
192,256,358753,1,0,0:0:0:0:
192,256,358834,1,0,0:0:0:0:
320,256,358996,1,2,0:0:0:0:
192,256,359159,1,0,0:0:0:0:
192,256,359402,1,0,0:0:0:0:
192,256,359645,1,0,0:0:0:0:
320,256,359807,1,2,0:0:0:0:
192,256,360294,1,0,0:0:0:0:
192,256,360375,1,0,0:0:0:0:
320,256,360456,1,2,0:0:0:0:
320,256,360537,1,2,0:0:0:0:
192,256,360618,1,0,0:0:0:0:
192,256,360699,1,0,0:0:0:0:
320,256,360780,1,2,0:0:0:0:
192,256,360942,1,0,0:0:0:0:
320,256,361105,1,2,0:0:0:0:
320,256,361267,1,2,0:0:0:0:
320,256,361348,1,2,0:0:0:0:
320,256,361429,1,2,0:0:0:0:
192,256,361591,1,0,0:0:0:0:
320,256,361672,1,2,0:0:0:0:
320,256,361753,1,2,0:0:0:0:
192,256,361996,1,0,0:0:0:0:
192,256,362240,1,0,0:0:0:0:
320,256,362402,1,2,0:0:0:0:
192,256,362645,1,0,0:0:0:0:
192,256,362888,1,0,0:0:0:0:
320,256,363051,1,2,0:0:0:0:
192,256,363294,1,0,0:0:0:0:
320,256,363537,1,2,0:0:0:0:
192,256,363699,1,0,0:0:0:0:
320,256,364024,1,2,0:0:0:0:
192,256,364348,1,0,0:0:0:0:
192,256,364591,1,0,0:0:0:0:
320,256,364834,1,2,0:0:0:0:
320,256,364996,1,2,0:0:0:0:
192,256,365159,1,0,0:0:0:0:
320,256,365321,1,2,0:0:0:0:
192,256,365483,1,0,0:0:0:0:
320,128,365645,1,6,0:0:0:0:
192,256,365969,1,0,0:0:0:0:
320,256,366132,1,2,0:0:0:0:
320,128,366294,1,6,0:0:0:0:
192,256,366456,1,0,0:0:0:0:
192,256,366537,1,0,0:0:0:0:
192,256,366618,1,0,0:0:0:0:
192,256,366780,1,0,0:0:0:0:
320,256,366942,1,2,0:0:0:0:
192,256,367105,1,0,0:0:0:0:
192,256,367186,1,0,0:0:0:0:
192,256,367267,1,0,0:0:0:0:
192,256,367429,1,0,0:0:0:0:
320,256,367510,1,2,0:0:0:0:
192,256,367591,1,0,0:0:0:0:
192,256,367834,1,0,0:0:0:0:
320,256,368078,1,2,0:0:0:0:
192,256,368240,1,0,0:0:0:0:
192,256,368564,1,0,0:0:0:0:
320,256,368726,1,2,0:0:0:0:
320,128,368888,1,6,0:0:0:0:
192,256,369051,1,0,0:0:0:0:
192,256,369132,1,0,0:0:0:0:
192,256,369213,1,0,0:0:0:0:
320,256,369375,1,2,0:0:0:0:
192,256,369537,1,0,0:0:0:0:
192,256,369780,1,0,0:0:0:0:
192,256,370024,1,0,0:0:0:0:
320,256,370186,1,2,0:0:0:0:
192,256,370672,1,0,0:0:0:0:
192,256,370753,1,0,0:0:0:0:
320,256,370834,1,2,0:0:0:0:
320,256,370915,1,2,0:0:0:0:
192,256,370996,1,0,0:0:0:0:
192,256,371078,1,0,0:0:0:0:
320,256,371159,1,2,0:0:0:0:
192,256,371321,1,0,0:0:0:0:
320,256,371483,1,2,0:0:0:0:
320,256,371645,1,2,0:0:0:0:
320,256,371726,1,2,0:0:0:0:
320,256,371807,1,2,0:0:0:0:
192,256,371969,1,0,0:0:0:0:
320,256,372051,1,2,0:0:0:0:
320,256,372132,1,2,0:0:0:0:
192,256,372375,1,0,0:0:0:0:
192,256,372618,1,0,0:0:0:0:
320,256,372780,1,2,0:0:0:0:
192,256,373024,1,0,0:0:0:0:
192,256,373267,1,0,0:0:0:0:
320,256,373429,1,2,0:0:0:0:
192,256,373672,1,0,0:0:0:0:
320,256,373915,1,2,0:0:0:0:
192,256,374078,1,0,0:0:0:0:
320,256,374402,1,2,0:0:0:0:
192,256,374726,1,0,0:0:0:0:
192,256,374969,1,0,0:0:0:0:
320,256,375213,1,2,0:0:0:0:
320,128,375375,1,6,0:0:0:0:
192,256,375699,1,0,0:0:0:0:
192,256,376024,1,0,0:0:0:0:
192,256,376186,1,0,0:0:0:0:
192,256,376267,1,0,0:0:0:0:
192,256,376348,1,0,0:0:0:0:
192,256,376510,1,0,0:0:0:0:
192,256,376672,1,0,0:0:0:0:
192,256,376915,1,0,0:0:0:0:
192,256,377159,1,0,0:0:0:0:
320,256,377321,1,2,0:0:0:0:
320,256,377645,1,2,0:0:0:0:
192,256,377726,1,0,0:0:0:0:
192,256,377807,1,0,0:0:0:0:
192,256,377969,1,0,0:0:0:0:
192,256,378213,1,0,0:0:0:0:
320,256,378456,1,2,0:0:0:0:
320,256,378618,1,2,0:0:0:0:
192,256,378861,1,0,0:0:0:0:
320,256,379105,1,2,0:0:0:0:
192,256,379267,1,0,0:0:0:0:
192,256,379510,1,0,0:0:0:0:
320,256,379753,1,2,0:0:0:0:
192,256,379915,1,0,0:0:0:0:
192,256,380159,1,0,0:0:0:0:
320,256,380402,1,2,0:0:0:0:
320,256,380564,1,2,0:0:0:0:
320,256,381051,1,2,0:0:0:0:
320,256,381213,1,2,0:0:0:0:
192,256,381294,1,0,0:0:0:0:
192,256,381375,1,0,0:0:0:0:
320,256,381456,1,2,0:0:0:0:
192,256,381537,1,0,0:0:0:0:
192,256,381618,1,0,0:0:0:0:
320,256,381699,1,2,0:0:0:0:
192,256,381780,1,0,0:0:0:0:
320,256,381861,1,2,0:0:0:0:
192,256,381942,1,0,0:0:0:0:
192,256,382024,1,0,0:0:0:0:
320,256,382105,1,2,0:0:0:0:
192,256,382186,1,0,0:0:0:0:
320,256,382267,1,2,0:0:0:0:
192,256,382348,1,0,0:0:0:0:
192,256,382429,1,0,0:0:0:0:
192,256,382510,1,0,0:0:0:0:
320,256,382591,1,2,0:0:0:0:
320,256,382834,1,2,0:0:0:0:
192,256,382915,1,0,0:0:0:0:
192,256,382996,1,0,0:0:0:0:
192,256,383078,1,0,0:0:0:0:
320,256,383159,1,2,0:0:0:0:
320,256,383402,1,2,0:0:0:0:
320,256,383645,1,2,0:0:0:0:
320,256,383807,1,2,0:0:0:0:
192,256,383888,1,0,0:0:0:0:
192,256,383969,1,0,0:0:0:0:
192,256,384051,1,0,0:0:0:0:
320,256,384132,1,2,0:0:0:0:
192,256,384213,1,0,0:0:0:0:
192,256,384294,1,0,0:0:0:0:
192,256,384375,1,0,0:0:0:0:
320,256,384456,1,2,0:0:0:0:
192,256,384537,1,0,0:0:0:0:
192,256,384618,1,0,0:0:0:0:
320,256,384699,1,2,0:0:0:0:
192,256,384780,1,0,0:0:0:0:
192,256,384861,1,0,0:0:0:0:
320,256,384942,1,2,0:0:0:0:
192,256,385024,1,0,0:0:0:0:
320,256,385105,1,2,0:0:0:0:
192,256,385186,1,0,0:0:0:0:
192,256,385267,1,0,0:0:0:0:
320,256,385348,1,2,0:0:0:0:
192,256,385429,1,0,0:0:0:0:
192,256,385510,1,0,0:0:0:0:
320,256,385591,1,2,0:0:0:0:
192,256,385672,1,0,0:0:0:0:
320,256,385753,1,2,0:0:0:0:
192,256,385834,1,0,0:0:0:0:
192,256,385915,1,0,0:0:0:0:
320,256,385996,1,2,0:0:0:0:
192,256,386078,1,0,0:0:0:0:
192,256,386159,1,0,0:0:0:0:
320,256,386240,1,2,0:0:0:0:
192,256,386321,1,0,0:0:0:0:
320,256,386402,1,2,0:0:0:0:
192,256,386483,1,0,0:0:0:0:
192,256,386564,1,0,0:0:0:0:
320,256,386645,1,2,0:0:0:0:
192,256,386726,1,0,0:0:0:0:
192,256,386807,1,0,0:0:0:0:
192,256,386888,1,0,0:0:0:0:
192,256,386969,1,0,0:0:0:0:
320,256,387051,1,2,0:0:0:0:
192,256,387294,1,0,0:0:0:0:
320,256,387537,1,2,0:0:0:0:
320,256,387699,1,2,0:0:0:0:
320,256,387942,1,2,0:0:0:0:
320,256,388186,1,2,0:0:0:0:
192,256,388348,1,0,0:0:0:0:
320,256,388591,1,2,0:0:0:0:
320,256,388834,1,2,0:0:0:0:
320,256,388996,1,2,0:0:0:0:
192,256,389159,1,0,0:0:0:0:
320,256,389240,1,2,0:0:0:0:
320,256,389483,1,2,0:0:0:0:
192,256,389645,1,0,0:0:0:0:
320,256,389888,1,2,0:0:0:0:
320,256,390051,1,2,0:0:0:0:
320,256,390132,1,2,0:0:0:0:
192,256,390294,1,0,0:0:0:0:
192,256,390456,1,0,0:0:0:0:
320,256,390537,1,2,0:0:0:0:
192,256,390780,1,0,0:0:0:0:
320,256,390942,1,2,0:0:0:0:
320,256,391429,1,2,0:0:0:0:
320,256,391591,1,2,0:0:0:0:
192,256,391672,1,0,0:0:0:0:
192,256,391753,1,0,0:0:0:0:
320,256,391834,1,2,0:0:0:0:
192,256,391915,1,0,0:0:0:0:
192,256,391996,1,0,0:0:0:0:
320,256,392078,1,2,0:0:0:0:
192,256,392159,1,0,0:0:0:0:
320,256,392240,1,2,0:0:0:0:
192,256,392321,1,0,0:0:0:0:
192,256,392402,1,0,0:0:0:0:
320,256,392483,1,2,0:0:0:0:
192,256,392564,1,0,0:0:0:0:
192,256,392645,1,0,0:0:0:0:
320,256,392726,1,2,0:0:0:0:
192,256,392807,1,0,0:0:0:0:
192,256,392888,1,0,0:0:0:0:
192,256,393294,1,0,0:0:0:0:
192,256,393375,1,0,0:0:0:0:
192,256,393456,1,0,0:0:0:0:
320,256,393537,1,2,0:0:0:0:
320,256,393780,1,2,0:0:0:0:
320,256,394024,1,2,0:0:0:0:
320,256,394186,1,2,0:0:0:0:
192,256,394267,1,0,0:0:0:0:
192,256,394348,1,0,0:0:0:0:
192,256,394429,1,0,0:0:0:0:
320,256,394510,1,2,0:0:0:0:
192,256,394591,1,0,0:0:0:0:
192,256,394672,1,0,0:0:0:0:
192,256,394753,1,0,0:0:0:0:
320,256,394834,1,2,0:0:0:0:
192,256,394915,1,0,0:0:0:0:
192,256,394996,1,0,0:0:0:0:
320,256,395078,1,2,0:0:0:0:
192,256,395159,1,0,0:0:0:0:
192,256,395240,1,0,0:0:0:0:
320,256,395321,1,2,0:0:0:0:
192,256,395402,1,0,0:0:0:0:
320,256,395483,1,2,0:0:0:0:
192,256,395564,1,0,0:0:0:0:
192,256,395645,1,0,0:0:0:0:
320,256,395726,1,2,0:0:0:0:
192,256,395807,1,0,0:0:0:0:
192,256,395888,1,0,0:0:0:0:
320,256,395969,1,2,0:0:0:0:
192,256,396051,1,0,0:0:0:0:
320,256,396132,1,2,0:0:0:0:
192,256,396213,1,0,0:0:0:0:
192,256,396294,1,0,0:0:0:0:
320,256,396375,1,2,0:0:0:0:
192,256,396456,1,0,0:0:0:0:
192,256,396537,1,0,0:0:0:0:
320,256,396618,1,2,0:0:0:0:
192,256,396699,1,0,0:0:0:0:
320,256,396780,1,2,0:0:0:0:
192,256,396861,1,0,0:0:0:0:
192,256,396942,1,0,0:0:0:0:
320,256,397024,1,2,0:0:0:0:
192,256,397105,1,0,0:0:0:0:
192,256,397186,1,0,0:0:0:0:
192,256,397267,1,0,0:0:0:0:
192,256,397348,1,0,0:0:0:0:
320,256,397429,1,2,0:0:0:0:
192,256,397510,1,0,0:0:0:0:
192,256,397591,1,0,0:0:0:0:
320,256,397672,1,2,0:0:0:0:
192,256,397753,1,0,0:0:0:0:
192,256,397834,1,0,0:0:0:0:
320,256,397915,1,2,0:0:0:0:
192,256,397996,1,0,0:0:0:0:
320,256,398078,1,2,0:0:0:0:
192,256,398159,1,0,0:0:0:0:
192,256,398240,1,0,0:0:0:0:
320,256,398321,1,2,0:0:0:0:
192,256,398402,1,0,0:0:0:0:
192,256,398483,1,0,0:0:0:0:
320,256,398564,1,2,0:0:0:0:
192,256,398645,1,0,0:0:0:0:
320,256,398726,1,2,0:0:0:0:
192,256,398807,1,0,0:0:0:0:
192,256,398888,1,0,0:0:0:0:
320,256,398969,1,2,0:0:0:0:
192,256,399051,1,0,0:0:0:0:
192,256,399132,1,0,0:0:0:0:
320,256,399213,1,2,0:0:0:0:
192,256,399294,1,0,0:0:0:0:
320,256,399375,1,2,0:0:0:0:
192,256,399456,1,0,0:0:0:0:
192,256,399537,1,0,0:0:0:0:
320,256,399618,1,2,0:0:0:0:
192,256,399699,1,0,0:0:0:0:
192,256,399780,1,0,0:0:0:0:
192,256,399861,1,0,0:0:0:0:
320,256,399942,1,2,0:0:0:0:
320,256,400024,1,2,0:0:0:0:
192,256,400105,1,0,0:0:0:0:
192,256,400186,1,0,0:0:0:0:
320,256,400267,1,2,0:0:0:0:
192,256,400348,1,0,0:0:0:0:
192,256,400429,1,0,0:0:0:0:
320,256,400510,1,2,0:0:0:0:
192,256,400591,1,0,0:0:0:0:
320,256,400672,1,2,0:0:0:0:
192,256,400753,1,0,0:0:0:0:
192,256,400834,1,0,0:0:0:0:
320,256,400915,1,2,0:0:0:0:
192,256,400996,1,0,0:0:0:0:
192,256,401078,1,0,0:0:0:0:
320,256,401159,1,2,0:0:0:0:
192,256,401240,1,0,0:0:0:0:
320,256,401321,1,2,0:0:0:0:
192,256,401402,1,0,0:0:0:0:
192,256,401483,1,0,0:0:0:0:
320,256,401564,1,2,0:0:0:0:
192,256,401645,1,0,0:0:0:0:
192,256,401726,1,0,0:0:0:0:
192,256,401807,1,0,0:0:0:0:
192,256,401888,1,0,0:0:0:0:
320,256,401969,1,2,0:0:0:0:
320,256,402051,1,2,0:0:0:0:
192,256,402132,1,0,0:0:0:0:
192,256,402213,1,0,0:0:0:0:
320,256,402294,1,2,0:0:0:0:
320,256,402618,1,2,0:0:0:0:
192,256,402699,1,0,0:0:0:0:
192,256,402780,1,0,0:0:0:0:
320,256,402861,1,2,0:0:0:0:
192,256,402942,1,0,0:0:0:0:
192,256,403024,1,0,0:0:0:0:
320,256,403105,1,2,0:0:0:0:
192,256,403186,1,0,0:0:0:0:
320,256,403267,1,2,0:0:0:0:
192,256,403348,1,0,0:0:0:0:
192,256,403429,1,0,0:0:0:0:
320,256,403510,1,2,0:0:0:0:
192,256,403591,1,0,0:0:0:0:
192,256,403672,1,0,0:0:0:0:
320,256,403753,1,2,0:0:0:0:
192,256,403834,1,0,0:0:0:0:
320,256,403915,1,2,0:0:0:0:
192,256,403996,1,0,0:0:0:0:
192,256,404078,1,0,0:0:0:0:
320,256,404159,1,2,0:0:0:0:
192,256,404240,1,0,0:0:0:0:
192,256,404321,1,0,0:0:0:0:
320,256,404402,1,2,0:0:0:0:
192,256,404483,1,0,0:0:0:0:
320,256,404564,1,2,0:0:0:0:
192,256,404645,1,0,0:0:0:0:
192,256,404726,1,0,0:0:0:0:
320,256,404807,1,2,0:0:0:0:
192,256,404888,1,0,0:0:0:0:
192,256,404969,1,0,0:0:0:0:
192,256,405051,1,0,0:0:0:0:
320,256,405132,1,2,0:0:0:0:
320,256,405213,1,2,0:0:0:0:
192,256,405294,1,0,0:0:0:0:
192,256,405375,1,0,0:0:0:0:
320,256,405456,1,2,0:0:0:0:
192,256,405537,1,0,0:0:0:0:
192,256,405618,1,0,0:0:0:0:
320,256,405699,1,2,0:0:0:0:
192,256,405780,1,0,0:0:0:0:
320,256,405861,1,2,0:0:0:0:
192,256,405942,1,0,0:0:0:0:
192,256,406024,1,0,0:0:0:0:
320,256,406105,1,2,0:0:0:0:
192,256,406186,1,0,0:0:0:0:
192,256,406267,1,0,0:0:0:0:
320,256,406348,1,2,0:0:0:0:
192,256,406429,1,0,0:0:0:0:
320,256,406510,1,2,0:0:0:0:
192,256,406591,1,0,0:0:0:0:
192,256,406672,1,0,0:0:0:0:
320,256,406753,1,2,0:0:0:0:
192,256,406834,1,0,0:0:0:0:
192,256,406915,1,0,0:0:0:0:
320,256,406996,1,2,0:0:0:0:
192,256,407078,1,0,0:0:0:0:
320,256,407159,1,2,0:0:0:0:
192,256,407240,1,0,0:0:0:0:
192,256,407321,1,0,0:0:0:0:
320,256,407402,1,2,0:0:0:0:
192,256,407483,1,0,0:0:0:0:
192,256,407564,1,0,0:0:0:0:
192,256,407645,1,0,0:0:0:0:
320,256,407726,1,2,0:0:0:0:
320,256,407807,1,2,0:0:0:0:
192,256,407888,1,0,0:0:0:0:
192,256,407969,1,0,0:0:0:0:
320,256,408051,1,2,0:0:0:0:
192,256,408132,1,0,0:0:0:0:
192,256,408213,1,0,0:0:0:0:
320,256,408294,1,2,0:0:0:0:
192,256,408375,1,0,0:0:0:0:
320,256,408456,1,2,0:0:0:0:
192,256,408537,1,0,0:0:0:0:
192,256,408618,1,0,0:0:0:0:
320,256,408699,1,2,0:0:0:0:
192,256,408780,1,0,0:0:0:0:
192,256,408861,1,0,0:0:0:0:
320,256,408942,1,2,0:0:0:0:
192,256,409024,1,0,0:0:0:0:
320,256,409105,1,2,0:0:0:0:
192,256,409186,1,0,0:0:0:0:
192,256,409267,1,0,0:0:0:0:
320,256,409348,1,2,0:0:0:0:
192,256,409429,1,0,0:0:0:0:
192,256,409510,1,0,0:0:0:0:
320,256,409591,1,2,0:0:0:0:
192,256,409672,1,0,0:0:0:0:
320,256,409753,1,2,0:0:0:0:
192,256,409834,1,0,0:0:0:0:
192,256,409915,1,0,0:0:0:0:
320,256,409996,1,2,0:0:0:0:
192,256,410078,1,0,0:0:0:0:
192,256,410159,1,0,0:0:0:0:
320,256,410240,1,2,0:0:0:0:
320,256,410321,1,2,0:0:0:0:
320,256,410564,1,2,0:0:0:0:
192,256,410645,1,0,0:0:0:0:
192,256,410726,1,0,0:0:0:0:
320,256,410807,1,2,0:0:0:0:
192,256,410888,1,0,0:0:0:0:
192,256,410969,1,0,0:0:0:0:
320,256,411051,1,2,0:0:0:0:
192,256,411132,1,0,0:0:0:0:
320,256,411213,1,2,0:0:0:0:
192,256,411294,1,0,0:0:0:0:
192,256,411375,1,0,0:0:0:0:
320,256,411456,1,2,0:0:0:0:
192,256,411537,1,0,0:0:0:0:
192,256,411618,1,0,0:0:0:0:
320,256,411699,1,2,0:0:0:0:
192,256,411780,1,0,0:0:0:0:
320,256,411861,1,2,0:0:0:0:
192,256,411942,1,0,0:0:0:0:
192,256,412024,1,0,0:0:0:0:
320,256,412105,1,2,0:0:0:0:
192,256,412186,1,0,0:0:0:0:
192,256,412267,1,0,0:0:0:0:
320,256,412348,1,2,0:0:0:0:
320,256,412429,1,2,0:0:0:0:
192,256,412510,1,0,0:0:0:0:
192,256,412591,1,0,0:0:0:0:
320,256,412672,1,2,0:0:0:0:
320,256,412996,1,2,0:0:0:0:
192,256,413078,1,0,0:0:0:0:
192,256,413159,1,0,0:0:0:0:
320,256,413240,1,2,0:0:0:0:
192,256,413321,1,0,0:0:0:0:
192,256,413402,1,0,0:0:0:0:
320,256,413483,1,2,0:0:0:0:
192,256,413564,1,0,0:0:0:0:
320,256,413645,1,2,0:0:0:0:
192,256,413726,1,0,0:0:0:0:
192,256,413807,1,0,0:0:0:0:
320,256,413888,1,2,0:0:0:0:
192,256,413969,1,0,0:0:0:0:
192,256,414051,1,0,0:0:0:0:
320,256,414132,1,2,0:0:0:0:
192,256,414213,1,0,0:0:0:0:
320,256,414294,1,2,0:0:0:0:
192,256,414375,1,0,0:0:0:0:
192,256,414456,1,0,0:0:0:0:
320,256,414537,1,2,0:0:0:0:
192,256,414618,1,0,0:0:0:0:
192,256,414699,1,0,0:0:0:0:
320,256,414780,1,2,0:0:0:0:
192,256,414861,1,0,0:0:0:0:
320,256,414942,1,2,0:0:0:0:
192,256,415024,1,0,0:0:0:0:
192,256,415105,1,0,0:0:0:0:
320,256,415186,1,2,0:0:0:0:
192,256,415267,1,0,0:0:0:0:
192,256,415348,1,0,0:0:0:0:
320,256,415429,1,2,0:0:0:0:
192,256,415510,1,0,0:0:0:0:
320,256,415591,1,2,0:0:0:0:
192,256,415672,1,0,0:0:0:0:
320,256,415753,1,2,0:0:0:0:
192,256,415834,1,0,0:0:0:0:
320,256,415915,1,2,0:0:0:0:
192,256,415996,1,0,0:0:0:0:
320,256,416078,1,2,0:0:0:0:
192,256,416159,1,0,0:0:0:0:
320,256,416240,1,2,0:0:0:0:
192,256,416321,1,0,0:0:0:0:
192,256,416402,1,0,0:0:0:0:
192,256,416483,1,0,0:0:0:0:
320,256,416564,1,2,0:0:0:0:
192,256,416645,1,0,0:0:0:0:
320,256,416726,1,2,0:0:0:0:
192,256,416807,1,0,0:0:0:0:
320,256,416888,1,2,0:0:0:0:
192,256,416969,1,0,0:0:0:0:
192,256,417051,1,0,0:0:0:0:
320,256,417132,1,2,0:0:0:0:
192,256,417213,1,0,0:0:0:0:
192,256,417294,1,0,0:0:0:0:
320,256,417375,1,2,0:0:0:0:
192,256,417456,1,0,0:0:0:0:
192,256,417537,1,0,0:0:0:0:
320,256,417618,1,2,0:0:0:0:
192,256,417699,1,0,0:0:0:0:
192,256,417780,1,0,0:0:0:0:
320,256,417861,1,2,0:0:0:0:
192,256,417942,1,0,0:0:0:0:
192,256,418024,1,0,0:0:0:0:
320,256,418105,1,2,0:0:0:0:
256,192,418186,12,0,418672,0:0:0:0:
320,128,418834,5,6,0:0:0:0:
192,256,418996,1,0,0:0:0:0:
192,256,419078,1,0,0:0:0:0:
192,256,419159,1,0,0:0:0:0:
192,256,419321,1,0,0:0:0:0:
320,256,419483,1,2,0:0:0:0:
192,256,419645,1,0,0:0:0:0:
192,256,419726,1,0,0:0:0:0:
192,256,419807,1,0,0:0:0:0:
192,256,419969,1,0,0:0:0:0:
320,256,420051,1,2,0:0:0:0:
192,256,420132,1,0,0:0:0:0:
192,256,420375,1,0,0:0:0:0:
320,256,420618,1,2,0:0:0:0:
192,256,420780,1,0,0:0:0:0:
192,256,421105,1,0,0:0:0:0:
320,256,421267,1,2,0:0:0:0:
192,256,421348,1,0,0:0:0:0:
320,128,421429,1,6,0:0:0:0:
320,256,421915,1,2,0:0:0:0:
192,256,422078,1,0,0:0:0:0:
192,256,422321,1,0,0:0:0:0:
192,256,422564,1,0,0:0:0:0:
320,256,422726,1,2,0:0:0:0:
192,256,423213,1,0,0:0:0:0:
192,256,423294,1,0,0:0:0:0:
320,256,423375,1,2,0:0:0:0:
320,256,423456,1,2,0:0:0:0:
192,256,423537,1,0,0:0:0:0:
192,256,423618,1,0,0:0:0:0:
320,256,423699,1,2,0:0:0:0:
192,256,423861,1,0,0:0:0:0:
320,256,424024,1,2,0:0:0:0:
320,256,424186,1,2,0:0:0:0:
320,256,424267,1,2,0:0:0:0:
320,256,424348,1,2,0:0:0:0:
192,256,424510,1,0,0:0:0:0:
320,256,424591,1,2,0:0:0:0:
320,256,424672,1,2,0:0:0:0:
192,256,424915,1,0,0:0:0:0:
192,256,425159,1,0,0:0:0:0:
320,256,425321,1,2,0:0:0:0:
192,256,425564,1,0,0:0:0:0:
192,256,425807,1,0,0:0:0:0:
320,256,425969,1,2,0:0:0:0:
192,256,426213,1,0,0:0:0:0:
320,256,426456,1,2,0:0:0:0:
192,256,426618,1,0,0:0:0:0:
320,256,426942,1,2,0:0:0:0:
192,256,427267,1,0,0:0:0:0:
192,256,427510,1,0,0:0:0:0:
320,256,427753,1,2,0:0:0:0:
320,256,427915,1,2,0:0:0:0:
192,256,428078,1,0,0:0:0:0:
320,256,428240,1,2,0:0:0:0:
192,256,428402,1,0,0:0:0:0:
320,128,428564,1,6,0:0:0:0:
192,256,428888,1,0,0:0:0:0:
320,256,429051,1,2,0:0:0:0:
320,128,429213,1,6,0:0:0:0:
192,256,429375,1,0,0:0:0:0:
192,256,429456,1,0,0:0:0:0:
192,256,429537,1,0,0:0:0:0:
320,256,429699,1,2,0:0:0:0:
320,256,429861,1,2,0:0:0:0:
192,256,430024,1,0,0:0:0:0:
192,256,430105,1,0,0:0:0:0:
192,256,430186,1,0,0:0:0:0:
192,256,430348,1,0,0:0:0:0:
320,256,430429,1,2,0:0:0:0:
192,256,430510,1,0,0:0:0:0:
192,256,430753,1,0,0:0:0:0:
320,256,430996,1,2,0:0:0:0:
192,256,431159,1,0,0:0:0:0:
192,256,431483,1,0,0:0:0:0:
320,256,431645,1,2,0:0:0:0:
320,128,431807,1,6,0:0:0:0:
192,256,431969,1,0,0:0:0:0:
192,256,432051,1,0,0:0:0:0:
192,256,432132,1,0,0:0:0:0:
320,256,432294,1,2,0:0:0:0:
192,256,432456,1,0,0:0:0:0:
192,256,432699,1,0,0:0:0:0:
192,256,432942,1,0,0:0:0:0:
320,256,433105,1,2,0:0:0:0:
192,256,433591,1,0,0:0:0:0:
192,256,433672,1,0,0:0:0:0:
320,256,433753,1,2,0:0:0:0:
320,256,433834,1,2,0:0:0:0:
192,256,433915,1,0,0:0:0:0:
192,256,433996,1,0,0:0:0:0:
320,256,434078,1,2,0:0:0:0:
192,256,434240,1,0,0:0:0:0:
320,256,434402,1,2,0:0:0:0:
320,256,434564,1,2,0:0:0:0:
320,256,434645,1,2,0:0:0:0:
320,256,434726,1,2,0:0:0:0:
192,256,434888,1,0,0:0:0:0:
320,256,434969,1,2,0:0:0:0:
320,256,435051,1,2,0:0:0:0:
192,256,435294,1,0,0:0:0:0:
192,256,435537,1,0,0:0:0:0:
320,256,435699,1,2,0:0:0:0:
192,256,435942,1,0,0:0:0:0:
192,256,436186,1,0,0:0:0:0:
320,256,436348,1,2,0:0:0:0:
192,256,436591,1,0,0:0:0:0:
320,256,436834,1,2,0:0:0:0:
192,256,436996,1,0,0:0:0:0:
192,256,437159,1,0,0:0:0:0:
320,256,437321,1,2,0:0:0:0:
192,256,437645,1,0,0:0:0:0:
192,256,437807,1,0,0:0:0:0:
320,128,437969,1,6,0:0:0:0:
192,128,438294,5,4,0:0:0:0:
192,256,438451,1,0,0:0:0:0:
320,256,438609,1,2,0:0:0:0:
192,256,438767,1,0,0:0:0:0:
192,256,438846,1,0,0:0:0:0:
192,256,438925,1,0,0:0:0:0:
192,256,439083,1,0,0:0:0:0:
320,256,439241,1,2,0:0:0:0:
192,256,439399,1,0,0:0:0:0:
192,256,439478,1,0,0:0:0:0:
192,256,439557,1,0,0:0:0:0:
192,256,439715,1,0,0:0:0:0:
320,256,439872,1,2,0:0:0:0:
192,256,440030,1,0,0:0:0:0:
192,256,440109,1,0,0:0:0:0:
192,256,440188,1,0,0:0:0:0:
192,256,440346,1,0,0:0:0:0:
320,256,440504,1,2,0:0:0:0:
320,256,440662,1,2,0:0:0:0:
192,256,440741,1,0,0:0:0:0:
192,256,440820,1,0,0:0:0:0:
192,256,440978,1,0,0:0:0:0:
320,256,441136,1,2,0:0:0:0:
320,256,441294,1,2,0:0:0:0:
320,256,441372,1,2,0:0:0:0:
192,256,441451,1,0,0:0:0:0:
320,256,441609,1,2,0:0:0:0:
320,256,441767,1,2,0:0:0:0:
320,256,441925,1,2,0:0:0:0:
192,256,442004,1,0,0:0:0:0:
192,256,442083,1,0,0:0:0:0:
192,256,442241,1,0,0:0:0:0:
320,256,442399,1,2,0:0:0:0:
320,256,442557,1,2,0:0:0:0:
320,256,442636,1,2,0:0:0:0:
192,256,442715,1,0,0:0:0:0:
320,256,442872,1,2,0:0:0:0:
320,256,443030,1,2,0:0:0:0:
192,256,443188,1,0,0:0:0:0:
192,256,443267,1,0,0:0:0:0:
192,256,443346,1,0,0:0:0:0:
192,256,443504,1,0,0:0:0:0:
320,256,443662,1,2,0:0:0:0:
192,256,443978,1,0,0:0:0:0:
320,256,444136,1,2,0:0:0:0:
320,256,444294,1,2,0:0:0:0:
192,256,444609,1,0,0:0:0:0:
192,256,444767,1,0,0:0:0:0:
320,256,444925,1,2,0:0:0:0:
192,256,445241,1,0,0:0:0:0:
320,256,445399,1,2,0:0:0:0:
320,256,445557,1,2,0:0:0:0:
192,256,445872,1,0,0:0:0:0:
192,256,446030,1,0,0:0:0:0:
320,256,446188,1,2,0:0:0:0:
192,256,446504,1,0,0:0:0:0:
320,256,446662,1,2,0:0:0:0:
320,256,446820,1,2,0:0:0:0:
192,256,447136,1,0,0:0:0:0:
320,256,447294,1,2,0:0:0:0:
320,256,447451,1,2,0:0:0:0:
320,256,447767,1,2,0:0:0:0:
320,256,447925,1,2,0:0:0:0:
320,256,448083,1,2,0:0:0:0:
320,256,448399,1,2,0:0:0:0:
320,256,448556,1,2,0:0:0:0:
192,256,448714,1,0,0:0:0:0:
320,128,448872,1,6,0:0:0:0:
192,128,449109,1,4,0:0:0:0:
320,128,449346,1,6,0:0:0:0:
320,256,449504,1,2,0:0:0:0:
320,256,449662,1,2,0:0:0:0:
192,256,449820,1,0,0:0:0:0:
320,256,449977,1,2,0:0:0:0:
192,256,450135,1,0,0:0:0:0:
192,256,450293,1,0,0:0:0:0:
192,256,450451,1,0,0:0:0:0:
320,256,450609,1,2,0:0:0:0:
320,256,450767,1,2,0:0:0:0:
192,256,450925,1,0,0:0:0:0:
320,128,451083,1,6,0:0:0:0:
192,128,451320,1,4,0:0:0:0:
320,128,451556,1,6,0:0:0:0:
320,256,451714,1,2,0:0:0:0:
320,256,451872,1,2,0:0:0:0:
192,256,452030,1,0,0:0:0:0:
320,256,452188,1,2,0:0:0:0:
192,256,452346,1,0,0:0:0:0:
192,256,452504,1,0,0:0:0:0:
192,256,452662,1,0,0:0:0:0:
320,256,452820,1,2,0:0:0:0:
320,256,452977,1,2,0:0:0:0:
192,256,453135,1,0,0:0:0:0:
320,128,453293,1,6,0:0:0:0:
192,128,453530,1,4,0:0:0:0:
320,128,453767,1,6,0:0:0:0:
320,256,453925,1,2,0:0:0:0:
320,256,454083,1,2,0:0:0:0:
192,256,454241,1,0,0:0:0:0:
320,256,454399,1,2,0:0:0:0:
192,256,454556,1,0,0:0:0:0:
192,256,454714,1,0,0:0:0:0:
192,256,454872,1,0,0:0:0:0:
320,256,455030,1,2,0:0:0:0:
192,256,455188,1,0,0:0:0:0:
192,256,455346,1,0,0:0:0:0:
320,128,455504,1,6,0:0:0:0:
192,128,455741,1,4,0:0:0:0:
320,128,455977,1,6,0:0:0:0:
320,256,456135,1,2,0:0:0:0:
320,256,456293,1,2,0:0:0:0:
192,256,456451,1,0,0:0:0:0:
320,256,456609,1,2,0:0:0:0:
192,256,456767,1,0,0:0:0:0:
192,256,456925,1,0,0:0:0:0:
192,256,457083,1,0,0:0:0:0:
320,256,457241,1,2,0:0:0:0:
320,256,457399,1,2,0:0:0:0:
192,256,457556,1,0,0:0:0:0:
320,128,457714,1,6,0:0:0:0:
192,128,457951,1,4,0:0:0:0:
320,128,458188,1,6,0:0:0:0:
320,256,458346,1,2,0:0:0:0:
320,256,458504,1,2,0:0:0:0:
192,256,458662,1,0,0:0:0:0:
320,256,458820,1,2,0:0:0:0:
192,256,458977,1,0,0:0:0:0:
192,256,459135,1,0,0:0:0:0:
192,256,459293,1,0,0:0:0:0:
320,256,459451,1,2,0:0:0:0:
320,256,459609,1,2,0:0:0:0:
192,256,459767,1,0,0:0:0:0:
320,128,459925,1,6,0:0:0:0:
192,128,460162,1,4,0:0:0:0:
320,128,460399,1,6,0:0:0:0:
320,256,460556,1,2,0:0:0:0:
320,256,460714,1,2,0:0:0:0:
192,256,460872,1,0,0:0:0:0:
320,256,461030,1,2,0:0:0:0:
192,256,461188,1,0,0:0:0:0:
192,256,461346,1,0,0:0:0:0:
192,256,461504,1,0,0:0:0:0:
320,256,461662,1,2,0:0:0:0:
192,256,461820,1,0,0:0:0:0:
192,256,461977,1,0,0:0:0:0:
320,128,462135,1,6,0:0:0:0:
192,128,462372,1,4,0:0:0:0:
320,128,462609,1,6,0:0:0:0:
320,256,462767,1,2,0:0:0:0:
320,256,462925,1,2,0:0:0:0:
192,256,463083,1,0,0:0:0:0:
320,256,463241,1,2,0:0:0:0:
192,256,463399,1,0,0:0:0:0:
192,256,463556,1,0,0:0:0:0:
192,256,463714,1,0,0:0:0:0:
320,256,463872,1,2,0:0:0:0:
192,256,464030,1,0,0:0:0:0:
192,256,464188,1,0,0:0:0:0:
320,128,464346,1,6,0:0:0:0:
192,128,464583,1,4,0:0:0:0:
320,128,464820,1,6,0:0:0:0:
320,256,464977,1,2,0:0:0:0:
320,256,465135,1,2,0:0:0:0:
192,256,465293,1,0,0:0:0:0:
320,256,465451,1,2,0:0:0:0:
192,256,465609,1,0,0:0:0:0:
192,256,465767,1,0,0:0:0:0:
192,256,465925,1,0,0:0:0:0:
192,256,466083,1,0,0:0:0:0:
192,256,466240,1,0,0:0:0:0:
320,256,466398,1,2,0:0:0:0:
192,256,466714,1,0,0:0:0:0:
320,256,466872,1,2,0:0:0:0:
320,256,467030,1,2,0:0:0:0:
192,256,467346,1,0,0:0:0:0:
192,256,467504,1,0,0:0:0:0:
320,256,467661,1,2,0:0:0:0:
192,256,467977,1,0,0:0:0:0:
320,256,468135,1,2,0:0:0:0:
320,256,468293,1,2,0:0:0:0:
192,256,468609,1,0,0:0:0:0:
192,256,468767,1,0,0:0:0:0:
320,256,468925,1,2,0:0:0:0:
192,256,469240,1,0,0:0:0:0:
320,256,469398,1,2,0:0:0:0:
320,256,469556,1,2,0:0:0:0:
192,256,469872,1,0,0:0:0:0:
192,256,470030,1,0,0:0:0:0:
320,256,470188,1,2,0:0:0:0:
192,256,470504,1,0,0:0:0:0:
320,256,470661,1,2,0:0:0:0:
320,256,470819,1,2,0:0:0:0:
192,128,471135,1,4,0:0:0:0:
192,256,471293,1,0,0:0:0:0:
320,256,471451,1,2,0:0:0:0:
192,256,471609,1,0,0:0:0:0:
192,256,471688,1,0,0:0:0:0:
192,256,471767,1,0,0:0:0:0:
192,256,471925,1,0,0:0:0:0:
320,256,472083,1,2,0:0:0:0:
192,256,472240,1,0,0:0:0:0:
192,256,472319,1,0,0:0:0:0:
192,256,472398,1,0,0:0:0:0:
192,256,472556,1,0,0:0:0:0:
320,256,472714,1,2,0:0:0:0:
192,256,472872,1,0,0:0:0:0:
192,256,472951,1,0,0:0:0:0:
192,256,473030,1,0,0:0:0:0:
192,256,473188,1,0,0:0:0:0:
320,256,473346,1,2,0:0:0:0:
192,256,473504,1,0,0:0:0:0:
192,256,473583,1,0,0:0:0:0:
192,256,473661,1,0,0:0:0:0:
192,256,473819,1,0,0:0:0:0:
320,256,473977,1,2,0:0:0:0:
192,256,474135,1,0,0:0:0:0:
192,256,474214,1,0,0:0:0:0:
192,256,474293,1,0,0:0:0:0:
320,256,474451,1,2,0:0:0:0:
320,256,474609,1,2,0:0:0:0:
192,256,474767,1,0,0:0:0:0:
192,256,474846,1,0,0:0:0:0:
192,256,474925,1,0,0:0:0:0:
192,256,475083,1,0,0:0:0:0:
320,256,475240,1,2,0:0:0:0:
192,256,475398,1,0,0:0:0:0:
192,256,475477,1,0,0:0:0:0:
192,256,475556,1,0,0:0:0:0:
320,256,475714,1,2,0:0:0:0:
320,256,475872,1,2,0:0:0:0:
192,256,476030,1,0,0:0:0:0:
192,256,476109,1,0,0:0:0:0:
192,256,476188,5,0,0:0:0:0:
192,256,476346,1,0,0:0:0:0:
320,256,476504,1,2,0:0:0:0:
192,256,476661,1,0,0:0:0:0:
320,256,476819,1,2,0:0:0:0:
192,256,476977,1,0,0:0:0:0:
192,256,477135,1,0,0:0:0:0:
192,256,477293,1,0,0:0:0:0:
192,256,477372,1,0,0:0:0:0:
320,256,477451,1,2,0:0:0:0:
320,256,477767,1,2,0:0:0:0:
320,256,478083,1,2,0:0:0:0:
192,256,478398,1,0,0:0:0:0:
192,256,478714,1,0,0:0:0:0:
320,256,478872,1,2,0:0:0:0:
320,256,479030,1,2,0:0:0:0:
320,256,479188,1,2,0:0:0:0:
192,256,479346,1,0,0:0:0:0:
192,256,479504,1,0,0:0:0:0:
192,256,479661,1,0,0:0:0:0:
192,256,479819,1,0,0:0:0:0:
320,256,479977,1,2,0:0:0:0:
192,256,480293,1,0,0:0:0:0:
320,256,480372,1,2,0:0:0:0:
320,256,480609,1,2,0:0:0:0:
192,256,481083,1,0,0:0:0:0:
192,256,481161,1,0,0:0:0:0:
320,256,481240,1,2,0:0:0:0:
192,256,481398,1,0,0:0:0:0:
192,256,481556,1,0,0:0:0:0:
320,256,481714,1,2,0:0:0:0:
320,256,481872,1,2,0:0:0:0:
192,256,482030,1,0,0:0:0:0:
320,256,482188,1,2,0:0:0:0:
192,256,482346,1,0,0:0:0:0:
320,256,482504,1,2,0:0:0:0:
192,256,482661,1,0,0:0:0:0:
320,256,482819,1,2,0:0:0:0:
192,256,482977,1,0,0:0:0:0:
192,256,483135,1,0,0:0:0:0:
192,256,483451,1,0,0:0:0:0:
192,256,483767,1,0,0:0:0:0:
320,256,483925,1,2,0:0:0:0:
192,256,484083,1,0,0:0:0:0:
320,256,484240,1,2,0:0:0:0:
192,256,484398,1,0,0:0:0:0:
320,256,484556,1,2,0:0:0:0:
320,256,484714,1,2,0:0:0:0:
192,256,484872,1,0,0:0:0:0:
192,256,485030,1,0,0:0:0:0:
192,256,485188,1,0,0:0:0:0:
192,256,485346,1,0,0:0:0:0:
320,256,485504,1,2,0:0:0:0:
320,256,485661,1,2,0:0:0:0:
192,256,485977,1,0,0:0:0:0:
192,256,486056,1,0,0:0:0:0:
192,256,486135,1,0,0:0:0:0:
192,256,486214,1,0,0:0:0:0:
320,256,486293,1,2,0:0:0:0:
192,256,486451,1,0,0:0:0:0:
320,256,486609,1,2,0:0:0:0:
192,256,486767,1,0,0:0:0:0:
320,256,486925,1,2,0:0:0:0:
192,256,487083,1,0,0:0:0:0:
192,256,487240,1,0,0:0:0:0:
192,256,487398,1,0,0:0:0:0:
192,256,487477,1,0,0:0:0:0:
320,256,487556,1,2,0:0:0:0:
192,256,487714,1,0,0:0:0:0:
320,256,487872,1,2,0:0:0:0:
320,256,488030,1,2,0:0:0:0:
320,256,488188,1,2,0:0:0:0:
320,256,488346,1,2,0:0:0:0:
192,256,488504,1,0,0:0:0:0:
320,256,488661,1,2,0:0:0:0:
192,256,488819,1,0,0:0:0:0:
320,256,488977,1,2,0:0:0:0:
320,256,489135,1,2,0:0:0:0:
320,256,489293,1,2,0:0:0:0:
192,256,489451,1,0,0:0:0:0:
192,256,489609,1,0,0:0:0:0:
320,256,489767,1,2,0:0:0:0:
192,256,489925,1,0,0:0:0:0:
320,256,490083,1,2,0:0:0:0:
320,256,490240,1,2,0:0:0:0:
192,256,490398,1,0,0:0:0:0:
320,256,490477,1,2,0:0:0:0:
320,256,490556,1,2,0:0:0:0:
320,256,490714,1,2,0:0:0:0:
320,256,490872,1,2,0:0:0:0:
192,256,491030,1,0,0:0:0:0:
192,256,491188,1,0,0:0:0:0:
192,256,491267,1,0,0:0:0:0:
320,256,491346,1,2,0:0:0:0:
192,256,491504,1,0,0:0:0:0:
192,256,491661,1,0,0:0:0:0:
320,256,491819,1,2,0:0:0:0:
320,256,491977,1,2,0:0:0:0:
192,256,492135,1,0,0:0:0:0:
320,256,492293,1,2,0:0:0:0:
192,256,492451,1,0,0:0:0:0:
320,256,492609,1,2,0:0:0:0:
192,256,492767,1,0,0:0:0:0:
320,256,492925,1,2,0:0:0:0:
192,256,493083,1,0,0:0:0:0:
192,256,493240,1,0,0:0:0:0:
320,256,493398,1,2,0:0:0:0:
192,256,493556,1,0,0:0:0:0:
320,256,493714,1,2,0:0:0:0:
192,256,493872,1,0,0:0:0:0:
320,256,494030,1,2,0:0:0:0:
192,256,494188,1,0,0:0:0:0:
320,256,494346,1,2,0:0:0:0:
192,256,494504,1,0,0:0:0:0:
320,256,494661,1,2,0:0:0:0:
192,256,494740,1,0,0:0:0:0:
320,256,494819,1,2,0:0:0:0:
320,256,494898,1,2,0:0:0:0:
192,256,494977,1,0,0:0:0:0:
192,256,495056,1,0,0:0:0:0:
320,256,495135,1,2,0:0:0:0:
320,256,495293,1,2,0:0:0:0:
192,256,495451,1,0,0:0:0:0:
320,256,495609,1,2,0:0:0:0:
320,256,495767,1,2,0:0:0:0:
192,256,496083,1,0,0:0:0:0:
192,256,496161,1,0,0:0:0:0:
320,256,496240,1,2,0:0:0:0:
320,256,496319,1,2,0:0:0:0:
192,256,496398,1,0,0:0:0:0:
192,256,496556,1,0,0:0:0:0:
320,256,496714,1,2,0:0:0:0:
192,256,496872,1,0,0:0:0:0:
320,256,497030,1,2,0:0:0:0:
192,256,497188,1,0,0:0:0:0:
192,256,497346,1,0,0:0:0:0:
192,256,497504,1,0,0:0:0:0:
192,256,497583,1,0,0:0:0:0:
320,256,497661,1,2,0:0:0:0:
320,256,497977,1,2,0:0:0:0:
320,256,498293,1,2,0:0:0:0:
192,256,498609,1,0,0:0:0:0:
192,256,498767,1,0,0:0:0:0:
192,256,498925,1,0,0:0:0:0:
320,256,499083,1,2,0:0:0:0:
320,256,499240,1,2,0:0:0:0:
320,256,499398,1,2,0:0:0:0:
192,256,499556,1,0,0:0:0:0:
192,256,499714,1,0,0:0:0:0:
320,256,499872,1,2,0:0:0:0:
192,256,500030,1,0,0:0:0:0:
320,256,500188,1,2,0:0:0:0:
192,256,500504,1,0,0:0:0:0:
320,256,500583,1,2,0:0:0:0:
320,256,500819,1,2,0:0:0:0:
192,256,501293,1,0,0:0:0:0:
192,256,501372,1,0,0:0:0:0:
320,256,501451,1,2,0:0:0:0:
192,256,501609,1,0,0:0:0:0:
192,256,501767,1,0,0:0:0:0:
320,256,501925,1,2,0:0:0:0:
320,256,502083,1,2,0:0:0:0:
192,256,502240,1,0,0:0:0:0:
320,256,502398,1,2,0:0:0:0:
192,256,502556,1,0,0:0:0:0:
320,256,502714,1,2,0:0:0:0:
192,256,502872,1,0,0:0:0:0:
320,256,503030,1,2,0:0:0:0:
192,256,503188,1,0,0:0:0:0:
192,256,503346,1,0,0:0:0:0:
192,256,503661,1,0,0:0:0:0:
192,256,503977,1,0,0:0:0:0:
320,256,504135,1,2,0:0:0:0:
192,256,504293,1,0,0:0:0:0:
320,256,504451,1,2,0:0:0:0:
192,256,504609,1,0,0:0:0:0:
320,256,504767,1,2,0:0:0:0:
320,256,504925,1,2,0:0:0:0:
192,256,505083,1,0,0:0:0:0:
192,256,505240,1,0,0:0:0:0:
192,256,505398,1,0,0:0:0:0:
192,256,505556,1,0,0:0:0:0:
320,256,505714,1,2,0:0:0:0:
320,256,505872,1,2,0:0:0:0:
192,256,506188,1,0,0:0:0:0:
192,256,506267,1,0,0:0:0:0:
192,256,506346,1,0,0:0:0:0:
192,256,506425,1,0,0:0:0:0:
192,256,506504,1,0,0:0:0:0:
192,256,506661,1,0,0:0:0:0:
320,256,506819,1,2,0:0:0:0:
192,256,506977,1,0,0:0:0:0:
320,256,507135,1,2,0:0:0:0:
192,256,507293,1,0,0:0:0:0:
192,256,507451,1,0,0:0:0:0:
192,256,507609,1,0,0:0:0:0:
192,256,507688,1,0,0:0:0:0:
320,256,507767,1,2,0:0:0:0:
320,256,508083,1,2,0:0:0:0:
320,256,508398,1,2,0:0:0:0:
192,256,508714,1,0,0:0:0:0:
192,256,508872,1,0,0:0:0:0:
192,256,509030,1,0,0:0:0:0:
320,256,509188,1,2,0:0:0:0:
320,256,509346,1,2,0:0:0:0:
320,256,509504,1,2,0:0:0:0:
192,256,509661,1,0,0:0:0:0:
192,256,509819,1,0,0:0:0:0:
320,256,509977,1,2,0:0:0:0:
192,256,510135,1,0,0:0:0:0:
320,256,510293,1,2,0:0:0:0:
192,256,510609,1,0,0:0:0:0:
320,256,510688,1,2,0:0:0:0:
320,256,510925,1,2,0:0:0:0:
192,256,511398,1,0,0:0:0:0:
192,256,511477,1,0,0:0:0:0:
320,256,511556,1,2,0:0:0:0:
192,256,511714,1,0,0:0:0:0:
192,256,511872,1,0,0:0:0:0:
320,256,512030,1,2,0:0:0:0:
320,256,512188,1,2,0:0:0:0:
192,256,512346,1,0,0:0:0:0:
320,256,512504,1,2,0:0:0:0:
192,256,512661,1,0,0:0:0:0:
320,256,512819,1,2,0:0:0:0:
192,256,512977,1,0,0:0:0:0:
320,256,513135,1,2,0:0:0:0:
192,256,513293,1,0,0:0:0:0:
192,256,513451,1,0,0:0:0:0:
192,256,513767,1,0,0:0:0:0:
192,256,514083,1,0,0:0:0:0:
320,256,514240,1,2,0:0:0:0:
192,256,514398,1,0,0:0:0:0:
320,256,514556,1,2,0:0:0:0:
192,256,514714,1,0,0:0:0:0:
320,256,514872,1,2,0:0:0:0:
320,256,515030,1,2,0:0:0:0:
192,256,515188,1,0,0:0:0:0:
320,256,515346,1,2,0:0:0:0:
192,256,515504,1,0,0:0:0:0:
192,256,515661,1,0,0:0:0:0:
320,256,515819,1,2,0:0:0:0:
320,128,515977,1,6,0:0:0:0:
256,192,516056,12,6,516451,0:0:0:0:
320,128,516609,5,6,0:0:0:0:
192,256,516767,1,0,0:0:0:0:
320,256,516925,1,2,0:0:0:0:
192,256,517083,1,0,0:0:0:0:
192,256,517161,1,0,0:0:0:0:
192,256,517240,1,0,0:0:0:0:
192,256,517398,1,0,0:0:0:0:
320,256,517556,1,2,0:0:0:0:
192,256,517714,1,0,0:0:0:0:
192,256,517793,1,0,0:0:0:0:
192,256,517872,1,0,0:0:0:0:
192,256,518030,1,0,0:0:0:0:
320,256,518188,1,2,0:0:0:0:
192,256,518346,1,0,0:0:0:0:
192,256,518425,1,0,0:0:0:0:
192,256,518504,1,0,0:0:0:0:
192,256,518661,1,0,0:0:0:0:
320,256,518819,1,2,0:0:0:0:
320,256,518977,1,2,0:0:0:0:
192,256,519056,1,0,0:0:0:0:
192,256,519135,1,0,0:0:0:0:
192,256,519293,1,0,0:0:0:0:
320,256,519451,1,2,0:0:0:0:
320,256,519609,1,2,0:0:0:0:
320,256,519688,1,2,0:0:0:0:
192,256,519767,1,0,0:0:0:0:
320,256,519925,1,2,0:0:0:0:
320,256,520083,1,2,0:0:0:0:
320,256,520240,1,2,0:0:0:0:
192,256,520319,1,0,0:0:0:0:
192,256,520398,1,0,0:0:0:0:
192,256,520556,1,0,0:0:0:0:
320,256,520714,1,2,0:0:0:0:
320,256,520872,1,2,0:0:0:0:
320,256,520951,1,2,0:0:0:0:
192,256,521030,1,0,0:0:0:0:
320,256,521188,1,2,0:0:0:0:
320,256,521346,1,2,0:0:0:0:
192,256,521504,1,0,0:0:0:0:
192,256,521583,1,0,0:0:0:0:
192,128,521661,1,4,0:0:0:0:
192,256,521819,1,0,0:0:0:0:
320,256,521977,1,2,0:0:0:0:
320,256,522135,1,2,0:0:0:0:
192,128,522293,1,4,0:0:0:0:
192,256,522451,1,0,0:0:0:0:
320,256,522609,1,2,0:0:0:0:
320,256,522767,1,2,0:0:0:0:
192,128,522925,1,4,0:0:0:0:
192,256,523083,1,0,0:0:0:0:
320,256,523240,1,2,0:0:0:0:
320,256,523398,1,2,0:0:0:0:
192,128,523556,1,4,0:0:0:0:
192,256,523714,1,0,0:0:0:0:
320,256,523872,1,2,0:0:0:0:
320,256,524030,1,2,0:0:0:0:
192,128,524188,1,4,0:0:0:0:
192,256,524346,1,0,0:0:0:0:
320,256,524504,1,2,0:0:0:0:
320,256,524661,1,2,0:0:0:0:
192,128,524819,1,4,0:0:0:0:
192,256,524977,1,0,0:0:0:0:
320,256,525135,1,2,0:0:0:0:
320,256,525293,1,2,0:0:0:0:
192,128,525451,1,4,0:0:0:0:
192,256,525609,1,0,0:0:0:0:
320,256,525767,1,2,0:0:0:0:
320,256,525925,1,2,0:0:0:0:
192,128,526083,1,4,0:0:0:0:
192,256,526240,1,0,0:0:0:0:
320,256,526398,1,2,0:0:0:0:
320,256,526556,1,2,0:0:0:0:
192,128,526714,5,4,0:0:0:0:
192,256,526872,1,0,0:0:0:0:
320,256,527030,1,2,0:0:0:0:
192,256,527188,1,0,0:0:0:0:
192,256,527267,1,0,0:0:0:0:
320,128,527346,1,6,0:0:0:0:
192,256,527504,1,0,0:0:0:0:
192,256,527661,1,0,0:0:0:0:
320,128,527977,1,6,0:0:0:0:
192,256,528135,1,0,0:0:0:0:
192,256,528293,1,0,0:0:0:0:
192,128,528609,1,4,0:0:0:0:
192,256,528767,1,0,0:0:0:0:
192,256,528925,1,0,0:0:0:0:
192,256,529083,1,0,0:0:0:0:
192,256,529161,1,0,0:0:0:0:
320,128,529240,1,6,0:0:0:0:
192,256,529398,1,0,0:0:0:0:
320,256,529556,1,2,0:0:0:0:
320,256,529714,1,2,0:0:0:0:
320,256,529793,1,2,0:0:0:0:
192,128,529872,1,4,0:0:0:0:
192,256,530030,1,0,0:0:0:0:
320,256,530188,1,2,0:0:0:0:
320,128,530504,1,6,0:0:0:0:
192,256,530661,1,0,0:0:0:0:
192,128,530819,1,4,0:0:0:0:
320,128,531135,1,6,0:0:0:0:
192,256,531293,1,0,0:0:0:0:
192,256,531451,1,0,0:0:0:0:
192,256,531530,1,0,0:0:0:0:
192,256,531609,1,0,0:0:0:0:
192,128,531767,1,4,0:0:0:0:
192,256,531925,1,0,0:0:0:0:
320,256,532083,1,2,0:0:0:0:
192,256,532240,1,0,0:0:0:0:
192,256,532319,1,0,0:0:0:0:
320,128,532398,1,6,0:0:0:0:
192,256,532556,1,0,0:0:0:0:
192,256,532714,1,0,0:0:0:0:
320,128,533030,1,6,0:0:0:0:
192,256,533188,1,0,0:0:0:0:
192,256,533346,1,0,0:0:0:0:
192,128,533661,1,4,0:0:0:0:
192,256,533819,1,0,0:0:0:0:
192,256,533977,1,0,0:0:0:0:
192,256,534135,1,0,0:0:0:0:
192,256,534214,1,0,0:0:0:0:
320,128,534293,1,6,0:0:0:0:
192,256,534451,1,0,0:0:0:0:
320,256,534609,1,2,0:0:0:0:
320,256,534767,1,2,0:0:0:0:
320,256,534846,1,2,0:0:0:0:
192,128,534925,1,4,0:0:0:0:
192,256,535083,1,0,0:0:0:0:
320,256,535240,1,2,0:0:0:0:
320,128,535556,1,6,0:0:0:0:
192,128,535872,1,4,0:0:0:0:
320,128,536188,1,6,0:0:0:0:
192,256,536267,1,0,0:0:0:0:
192,256,536346,1,0,0:0:0:0:
192,128,536819,1,4,0:0:0:0:
320,128,537135,1,6,0:0:0:0:
320,128,537451,1,6,0:0:0:0:
192,128,537767,1,4,0:0:0:0:
320,128,538083,1,6,0:0:0:0:
192,128,538398,1,4,0:0:0:0:
192,128,538714,1,4,0:0:0:0:
192,256,538872,1,0,0:0:0:0:
192,256,538951,1,0,0:0:0:0:
320,128,539030,1,6,0:0:0:0:
192,128,539346,1,4,0:0:0:0:
320,128,539661,1,6,0:0:0:0:
192,128,539977,1,4,0:0:0:0:
320,128,540293,1,6,0:0:0:0:
320,128,540609,1,6,0:0:0:0:
192,128,540925,1,4,0:0:0:0:
320,128,541240,1,6,0:0:0:0:
192,256,541556,1,0,0:0:0:0:
192,128,541872,1,4,0:0:0:0:
320,128,542188,1,6,0:0:0:0:
320,128,542504,1,6,0:0:0:0:
192,256,542661,1,0,0:0:0:0:
192,128,542819,1,4,0:0:0:0:
192,256,542977,1,0,0:0:0:0:
320,128,543135,1,6,0:0:0:0:
192,128,543451,1,4,0:0:0:0:
192,128,543767,1,4,0:0:0:0:
192,128,544083,1,4,0:0:0:0:
192,128,544398,1,4,0:0:0:0:
320,128,544714,1,6,0:0:0:0:
192,128,545030,1,4,0:0:0:0:
320,128,545346,1,6,0:0:0:0:
320,128,545661,1,6,0:0:0:0:
192,128,545977,1,4,0:0:0:0:
320,128,546293,1,6,0:0:0:0:
192,256,546609,1,0,0:0:0:0:
320,128,546925,1,6,0:0:0:0:
192,256,547083,1,0,0:0:0:0:
320,256,547240,1,2,0:0:0:0:
320,256,547398,1,2,0:0:0:0:
192,256,547477,1,0,0:0:0:0:
192,256,547556,1,0,0:0:0:0:
192,256,547714,1,0,0:0:0:0:
320,256,547872,1,2,0:0:0:0:
320,256,548030,1,2,0:0:0:0:
320,256,548109,1,2,0:0:0:0:
192,256,548188,1,0,0:0:0:0:
192,256,548346,1,0,0:0:0:0:
320,256,548504,1,2,0:0:0:0:
320,256,548661,1,2,0:0:0:0:
192,256,548740,1,0,0:0:0:0:
192,256,548819,1,0,0:0:0:0:
192,256,548977,1,0,0:0:0:0:
320,256,549135,1,2,0:0:0:0:
192,256,549293,1,0,0:0:0:0:
192,256,549372,1,0,0:0:0:0:
192,256,549451,1,0,0:0:0:0:
192,256,549609,1,0,0:0:0:0:
320,256,549767,1,2,0:0:0:0:
192,256,549925,1,0,0:0:0:0:
192,256,550004,1,0,0:0:0:0:
192,256,550083,1,0,0:0:0:0:
320,256,550240,1,2,0:0:0:0:
320,256,550398,1,2,0:0:0:0:
192,256,550556,1,0,0:0:0:0:
192,256,550635,1,0,0:0:0:0:
192,256,550714,1,0,0:0:0:0:
192,256,550872,1,0,0:0:0:0:
320,256,551030,1,2,0:0:0:0:
192,256,551188,1,0,0:0:0:0:
192,256,551267,1,0,0:0:0:0:
192,256,551346,1,0,0:0:0:0:
320,256,551504,1,2,0:0:0:0:
320,256,551661,1,2,0:0:0:0:
192,256,551819,1,0,0:0:0:0:
192,256,551898,1,0,0:0:0:0:
192,128,551977,1,4,0:0:0:0:
192,256,552135,1,0,0:0:0:0:
192,256,552293,1,0,0:0:0:0:
320,256,552451,1,2,0:0:0:0:
192,128,552609,1,4,0:0:0:0:
192,256,552767,1,0,0:0:0:0:
192,256,552925,1,0,0:0:0:0:
320,256,553083,1,2,0:0:0:0:
192,128,553240,1,4,0:0:0:0:
192,256,553398,1,0,0:0:0:0:
192,256,553556,1,0,0:0:0:0:
320,256,553714,1,2,0:0:0:0:
192,128,553872,1,4,0:0:0:0:
192,256,554030,1,0,0:0:0:0:
192,256,554188,1,0,0:0:0:0:
320,256,554346,1,2,0:0:0:0:
192,128,554504,1,4,0:0:0:0:
192,256,554661,1,0,0:0:0:0:
320,256,554819,1,2,0:0:0:0:
320,256,554977,1,2,0:0:0:0:
192,128,555135,1,4,0:0:0:0:
192,256,555293,1,0,0:0:0:0:
320,256,555451,1,2,0:0:0:0:
320,256,555609,1,2,0:0:0:0:
192,128,555767,1,4,0:0:0:0:
320,256,555925,1,2,0:0:0:0:
192,256,556083,1,0,0:0:0:0:
320,256,556240,1,2,0:0:0:0:
192,128,556398,1,4,0:0:0:0:
320,256,556556,1,2,0:0:0:0:
192,256,556714,1,0,0:0:0:0:
192,256,556793,1,0,0:0:0:0:
320,256,556872,1,2,0:0:0:0:
192,128,557030,1,4,0:0:0:0:
192,256,557188,1,0,0:0:0:0:
320,256,557346,1,2,0:0:0:0:
192,256,557504,1,0,0:0:0:0:
192,256,557583,1,0,0:0:0:0:
320,128,557661,1,6,0:0:0:0:
192,256,557819,1,0,0:0:0:0:
192,256,557977,1,0,0:0:0:0:
320,128,558293,1,6,0:0:0:0:
192,256,558451,1,0,0:0:0:0:
192,256,558609,1,0,0:0:0:0:
320,256,558767,1,2,0:0:0:0:
192,128,558925,1,4,0:0:0:0:
192,256,559083,1,0,0:0:0:0:
192,256,559240,1,0,0:0:0:0:
192,256,559398,1,0,0:0:0:0:
192,256,559477,1,0,0:0:0:0:
320,128,559556,1,6,0:0:0:0:
192,256,559714,1,0,0:0:0:0:
320,256,559872,1,2,0:0:0:0:
320,256,560030,1,2,0:0:0:0:
320,256,560109,1,2,0:0:0:0:
192,128,560188,1,4,0:0:0:0:
320,256,560346,1,2,0:0:0:0:
192,256,560425,1,0,0:0:0:0:
320,256,560504,1,2,0:0:0:0:
192,256,560661,1,0,0:0:0:0:
320,128,560819,1,6,0:0:0:0:
192,256,560977,1,0,0:0:0:0:
192,128,561135,1,4,0:0:0:0:
192,256,561293,1,0,0:0:0:0:
320,128,561451,1,6,0:0:0:0:
192,256,561609,1,0,0:0:0:0:
192,256,561767,1,0,0:0:0:0:
192,256,561846,1,0,0:0:0:0:
192,256,561925,1,0,0:0:0:0:
192,128,562083,1,4,0:0:0:0:
192,256,562240,1,0,0:0:0:0:
320,256,562398,1,2,0:0:0:0:
192,256,562556,1,0,0:0:0:0:
192,256,562635,1,0,0:0:0:0:
320,128,562714,1,6,0:0:0:0:
192,256,562872,1,0,0:0:0:0:
192,256,563030,1,0,0:0:0:0:
320,128,563346,1,6,0:0:0:0:
192,256,563504,1,0,0:0:0:0:
192,256,563661,1,0,0:0:0:0:
320,256,563819,1,2,0:0:0:0:
192,128,563977,1,4,0:0:0:0:
192,256,564135,1,0,0:0:0:0:
192,256,564293,1,0,0:0:0:0:
192,256,564451,1,0,0:0:0:0:
192,256,564530,1,0,0:0:0:0:
320,128,564609,1,6,0:0:0:0:
192,256,564767,1,0,0:0:0:0:
320,256,564925,1,2,0:0:0:0:
320,256,565083,1,2,0:0:0:0:
320,256,565161,1,2,0:0:0:0:
192,128,565240,1,4,0:0:0:0:
320,256,565398,1,2,0:0:0:0:
192,256,565477,1,0,0:0:0:0:
320,256,565556,1,2,0:0:0:0:
192,256,565714,1,0,0:0:0:0:
320,128,565872,1,6,0:0:0:0:
192,128,566188,1,4,0:0:0:0:
320,128,566504,1,6,0:0:0:0:
192,256,566583,1,0,0:0:0:0:
192,256,566661,1,0,0:0:0:0:
192,128,567135,1,4,0:0:0:0:
192,256,567293,1,0,0:0:0:0:
320,256,567451,1,2,0:0:0:0:
192,256,567609,1,0,0:0:0:0:
192,256,567688,1,0,0:0:0:0:
320,128,567767,1,6,0:0:0:0:
192,256,567925,1,0,0:0:0:0:
192,256,568083,1,0,0:0:0:0:
320,128,568398,1,6,0:0:0:0:
192,256,568556,1,0,0:0:0:0:
192,256,568714,1,0,0:0:0:0:
320,256,568872,1,2,0:0:0:0:
192,128,569030,1,4,0:0:0:0:
192,256,569188,1,0,0:0:0:0:
192,256,569267,1,0,0:0:0:0:
320,256,569346,1,2,0:0:0:0:
192,256,569504,1,0,0:0:0:0:
192,256,569583,1,0,0:0:0:0:
320,128,569661,1,6,0:0:0:0:
192,256,569819,1,0,0:0:0:0:
320,256,569977,1,2,0:0:0:0:
320,256,570135,1,2,0:0:0:0:
320,256,570214,1,2,0:0:0:0:
192,128,570293,1,4,0:0:0:0:
320,256,570451,1,2,0:0:0:0:
192,256,570530,1,0,0:0:0:0:
320,256,570609,1,2,0:0:0:0:
192,256,570767,1,0,0:0:0:0:
320,128,570925,1,6,0:0:0:0:
192,256,571083,1,0,0:0:0:0:
192,128,571240,1,4,0:0:0:0:
192,256,571398,1,0,0:0:0:0:
320,128,571556,1,6,0:0:0:0:
192,256,571714,1,0,0:0:0:0:
192,256,571872,1,0,0:0:0:0:
192,256,571951,1,0,0:0:0:0:
192,256,572030,1,0,0:0:0:0:
192,128,572188,1,4,0:0:0:0:
192,256,572346,1,0,0:0:0:0:
320,256,572504,1,2,0:0:0:0:
192,256,572661,1,0,0:0:0:0:
192,256,572740,1,0,0:0:0:0:
320,128,572819,1,6,0:0:0:0:
192,256,572977,1,0,0:0:0:0:
192,256,573135,1,0,0:0:0:0:
320,256,573293,1,2,0:0:0:0:
320,128,573451,1,6,0:0:0:0:
192,256,573609,1,0,0:0:0:0:
192,256,573767,1,0,0:0:0:0:
320,256,573925,1,2,0:0:0:0:
192,128,574083,1,4,0:0:0:0:
192,256,574240,1,0,0:0:0:0:
192,256,574398,1,0,0:0:0:0:
320,256,574556,1,2,0:0:0:0:
320,256,574635,1,2,0:0:0:0:
192,128,574714,1,4,0:0:0:0:
192,256,574872,1,0,0:0:0:0:
320,256,575030,1,2,0:0:0:0:
320,256,575188,1,2,0:0:0:0:
320,256,575267,1,2,0:0:0:0:
192,128,575346,1,4,0:0:0:0:
320,256,575504,1,2,0:0:0:0:
192,256,575583,1,0,0:0:0:0:
320,256,575661,1,2,0:0:0:0:
192,256,575819,1,0,0:0:0:0:
320,128,575977,1,6,0:0:0:0:
192,128,576293,1,4,0:0:0:0:
320,128,576609,1,6,0:0:0:0:
192,256,576688,1,0,0:0:0:0:
320,256,576767,1,2,0:0:0:0:
192,128,577240,5,4,0:0:0:0:
320,256,577556,1,2,0:0:0:0:
192,256,577872,1,0,0:0:0:0:
192,256,578030,1,0,0:0:0:0:
320,256,578188,1,2,0:0:0:0:
192,256,578504,1,0,0:0:0:0:
320,256,578819,1,2,0:0:0:0:
320,256,579135,1,2,0:0:0:0:
320,256,579293,1,2,0:0:0:0:
320,256,579451,1,2,0:0:0:0:
192,256,579609,1,0,0:0:0:0:
192,256,579925,1,0,0:0:0:0:
320,256,580083,1,2,0:0:0:0:
320,256,580240,1,2,0:0:0:0:
192,256,580398,1,0,0:0:0:0:
320,256,580635,1,2,0:0:0:0:
320,256,580714,1,2,0:0:0:0:
192,256,580872,1,0,0:0:0:0:
320,256,581030,1,2,0:0:0:0:
320,128,581346,1,6,0:0:0:0:
320,128,581661,1,6,0:0:0:0:
320,256,581819,1,2,0:0:0:0:
320,256,581977,1,2,0:0:0:0:
192,256,582135,1,0,0:0:0:0:
320,128,582293,1,6,0:0:0:0:
320,256,582925,1,2,0:0:0:0:
192,256,583004,1,0,0:0:0:0:
320,256,583161,1,2,0:0:0:0:
192,256,583398,1,0,0:0:0:0:
192,256,583556,1,0,0:0:0:0:
320,256,583872,1,2,0:0:0:0:
192,256,583951,1,0,0:0:0:0:
192,256,584188,1,0,0:0:0:0:
320,256,584267,1,2,0:0:0:0:
320,256,584425,1,2,0:0:0:0:
192,256,584583,1,0,0:0:0:0:
320,256,585293,1,2,0:0:0:0:
192,256,585767,1,0,0:0:0:0:
320,256,585925,1,2,0:0:0:0:
192,256,586083,1,0,0:0:0:0:
192,256,586319,1,0,0:0:0:0:
192,256,586556,1,0,0:0:0:0:
192,128,587346,1,4,0:0:0:0:
192,256,587898,1,0,0:0:0:0:
320,256,587977,1,2,0:0:0:0:
320,256,588530,1,2,0:0:0:0:
192,256,588609,1,0,0:0:0:0:
192,256,588846,1,0,0:0:0:0:
320,256,589083,1,2,0:0:0:0:
192,256,589240,1,0,0:0:0:0:
192,256,589556,1,0,0:0:0:0:
192,256,589793,1,0,0:0:0:0:
320,256,589872,1,2,0:0:0:0:
320,256,590425,1,2,0:0:0:0:
192,256,590504,1,0,0:0:0:0:
192,256,590740,1,0,0:0:0:0:
192,256,590977,1,0,0:0:0:0:
320,256,591135,1,2,0:0:0:0:
192,256,592083,1,0,0:0:0:0:
192,256,592319,1,0,0:0:0:0:
320,256,592398,1,2,0:0:0:0:
192,256,592872,1,0,0:0:0:0:
192,256,592951,1,0,0:0:0:0:
320,256,593030,1,2,0:0:0:0:
320,256,593267,1,2,0:0:0:0:
192,256,593504,1,0,0:0:0:0:
320,256,593661,1,2,0:0:0:0:
320,256,593898,1,2,0:0:0:0:
192,256,594135,1,0,0:0:0:0:
320,256,594293,1,2,0:0:0:0:
192,256,594530,1,0,0:0:0:0:
192,256,594767,1,0,0:0:0:0:
192,256,594925,1,0,0:0:0:0:
320,256,595240,1,2,0:0:0:0:
192,256,595556,1,0,0:0:0:0:
320,256,595793,1,2,0:0:0:0:
320,256,596030,1,2,0:0:0:0:
320,256,596188,1,2,0:0:0:0:
192,256,596425,1,0,0:0:0:0:
320,256,596504,1,2,0:0:0:0:
320,256,596740,1,2,0:0:0:0:
320,256,596819,1,2,0:0:0:0:
192,256,597135,1,0,0:0:0:0:
192,256,597293,1,0,0:0:0:0:
320,256,597451,1,2,0:0:0:0:
192,256,597609,1,0,0:0:0:0:
192,256,597925,1,0,0:0:0:0:
320,256,598083,1,2,0:0:0:0:
192,256,598240,1,0,0:0:0:0:
320,256,598556,1,2,0:0:0:0:
192,256,598714,1,0,0:0:0:0:
192,256,598951,1,0,0:0:0:0:
320,256,599188,1,2,0:0:0:0:
192,256,599346,1,0,0:0:0:0:
192,256,599661,1,0,0:0:0:0:
192,256,599819,1,0,0:0:0:0:
320,256,599977,1,2,0:0:0:0:
192,256,600135,1,0,0:0:0:0:
320,256,600451,1,2,0:0:0:0:
192,256,600609,1,0,0:0:0:0:
192,256,600846,1,0,0:0:0:0:
192,256,601083,1,0,0:0:0:0:
320,256,601240,1,2,0:0:0:0:
192,256,601556,1,0,0:0:0:0:
320,256,601714,1,2,0:0:0:0:
320,256,601872,1,2,0:0:0:0:
192,256,602030,1,0,0:0:0:0:
192,256,602188,1,0,0:0:0:0:
192,256,602346,1,0,0:0:0:0:
320,256,602504,1,2,0:0:0:0:
320,256,602661,1,2,0:0:0:0:
192,256,602977,1,0,0:0:0:0:
192,256,603056,1,0,0:0:0:0:
320,256,603135,1,2,0:0:0:0:
192,256,603372,1,0,0:0:0:0:
192,256,603609,1,0,0:0:0:0:
320,256,603767,1,2,0:0:0:0:
320,256,604004,1,2,0:0:0:0:
320,256,604240,1,2,0:0:0:0:
320,256,604398,1,2,0:0:0:0:
192,256,604635,1,0,0:0:0:0:
192,256,604872,1,0,0:0:0:0:
192,256,605030,1,0,0:0:0:0:
320,256,605346,1,2,0:0:0:0:
192,256,605661,1,0,0:0:0:0:
320,256,605898,1,2,0:0:0:0:
320,256,606135,1,2,0:0:0:0:
320,256,606293,1,2,0:0:0:0:
256,192,606451,12,2,607398,0:0:0:0:
192,128,607556,5,4,0:0:0:0:
192,256,607714,1,0,0:0:0:0:
320,256,607872,1,2,0:0:0:0:
320,256,608030,1,2,0:0:0:0:
192,128,608188,1,4,0:0:0:0:
192,256,608346,1,0,0:0:0:0:
320,256,608504,1,2,0:0:0:0:
320,256,608661,1,2,0:0:0:0:
192,128,608819,1,4,0:0:0:0:
192,256,608977,1,0,0:0:0:0:
320,256,609135,1,2,0:0:0:0:
320,256,609293,1,2,0:0:0:0:
192,128,609451,1,4,0:0:0:0:
192,256,609609,1,0,0:0:0:0:
320,256,609767,1,2,0:0:0:0:
320,256,609925,1,2,0:0:0:0:
192,128,610083,1,4,0:0:0:0:
192,256,610240,1,0,0:0:0:0:
192,256,610398,1,0,0:0:0:0:
320,256,610556,1,2,0:0:0:0:
192,128,610714,1,4,0:0:0:0:
192,256,610872,1,0,0:0:0:0:
192,256,611030,1,0,0:0:0:0:
320,256,611188,1,2,0:0:0:0:
192,128,611346,1,4,0:0:0:0:
192,256,611504,1,0,0:0:0:0:
192,256,611661,1,0,0:0:0:0:
320,256,611819,1,2,0:0:0:0:
192,128,611977,1,4,0:0:0:0:
192,256,612135,1,0,0:0:0:0:
192,256,612293,1,0,0:0:0:0:
320,256,612451,1,2,0:0:0:0:
192,128,612609,1,4,0:0:0:0:
192,256,612688,1,0,0:0:0:0:
192,256,612767,1,0,0:0:0:0:
320,256,612925,1,2,0:0:0:0:
320,256,613004,1,2,0:0:0:0:
320,256,613083,1,2,0:0:0:0:
192,128,613240,1,4,0:0:0:0:
192,256,613319,1,0,0:0:0:0:
192,256,613398,1,0,0:0:0:0:
320,256,613556,1,2,0:0:0:0:
320,256,613635,1,2,0:0:0:0:
320,256,613714,1,2,0:0:0:0:
192,128,613872,1,4,0:0:0:0:
192,256,613951,1,0,0:0:0:0:
192,256,614030,1,0,0:0:0:0:
320,256,614188,1,2,0:0:0:0:
320,256,614267,1,2,0:0:0:0:
320,256,614346,1,2,0:0:0:0:
192,128,614504,1,4,0:0:0:0:
192,256,614583,1,0,0:0:0:0:
192,256,614661,1,0,0:0:0:0:
320,256,614819,1,2,0:0:0:0:
320,256,614898,1,2,0:0:0:0:
320,256,614977,1,2,0:0:0:0:
192,128,615135,1,4,0:0:0:0:
192,256,615214,1,0,0:0:0:0:
192,256,615293,1,0,0:0:0:0:
320,256,615451,1,2,0:0:0:0:
320,256,615530,1,2,0:0:0:0:
320,256,615609,1,2,0:0:0:0:
192,128,615767,1,4,0:0:0:0:
192,256,615846,1,0,0:0:0:0:
192,256,615925,1,0,0:0:0:0:
320,256,616083,1,2,0:0:0:0:
320,256,616161,1,2,0:0:0:0:
320,256,616240,1,2,0:0:0:0:
192,128,616398,1,4,0:0:0:0:
192,256,616477,1,0,0:0:0:0:
192,256,616556,1,0,0:0:0:0:
320,256,616714,1,2,0:0:0:0:
320,256,616793,1,2,0:0:0:0:
320,256,616872,1,2,0:0:0:0:
192,128,617030,1,4,0:0:0:0:
192,256,617109,1,0,0:0:0:0:
192,256,617188,1,0,0:0:0:0:
320,256,617346,1,2,0:0:0:0:
320,256,617425,1,2,0:0:0:0:
320,256,617504,1,2,0:0:0:0:
192,128,617661,1,4,0:0:0:0:
192,256,617819,1,0,0:0:0:0:
320,256,617977,1,2,0:0:0:0:
192,256,618135,1,0,0:0:0:0:
192,256,618214,1,0,0:0:0:0:
320,128,618293,1,6,0:0:0:0:
192,256,618451,1,0,0:0:0:0:
192,256,618609,1,0,0:0:0:0:
320,256,618767,1,2,0:0:0:0:
320,128,618925,1,6,0:0:0:0:
192,256,619004,1,0,0:0:0:0:
192,256,619083,1,0,0:0:0:0:
192,256,619240,1,0,0:0:0:0:
192,256,619398,1,0,0:0:0:0:
192,128,619556,1,4,0:0:0:0:
192,256,619635,1,0,0:0:0:0:
192,256,619714,1,0,0:0:0:0:
192,256,619872,1,0,0:0:0:0:
192,256,620030,1,0,0:0:0:0:
192,256,620109,1,0,0:0:0:0:
192,128,620188,1,4,0:0:0:0:
192,256,620346,1,0,0:0:0:0:
320,256,620504,1,2,0:0:0:0:
192,256,620661,1,0,0:0:0:0:
192,256,620740,1,0,0:0:0:0:
192,128,620819,1,4,0:0:0:0:
192,256,620977,1,0,0:0:0:0:
320,256,621135,1,2,0:0:0:0:
320,256,621293,1,2,0:0:0:0:
320,128,621451,1,6,0:0:0:0:
192,256,621609,1,0,0:0:0:0:
192,256,621767,1,0,0:0:0:0:
192,256,621925,1,0,0:0:0:0:
320,128,622083,1,6,0:0:0:0:
192,256,622240,1,0,0:0:0:0:
192,256,622398,1,0,0:0:0:0:
192,256,622477,1,0,0:0:0:0:
192,256,622556,1,0,0:0:0:0:
192,128,622714,1,4,0:0:0:0:
192,256,622872,1,0,0:0:0:0:
320,256,623030,1,2,0:0:0:0:
192,256,623188,1,0,0:0:0:0:
192,256,623267,1,0,0:0:0:0:
320,128,623346,1,6,0:0:0:0:
192,256,623504,1,0,0:0:0:0:
192,256,623661,1,0,0:0:0:0:
320,256,623819,1,2,0:0:0:0:
320,128,623977,1,6,0:0:0:0:
192,256,624135,1,0,0:0:0:0:
192,256,624293,1,0,0:0:0:0:
192,256,624451,1,0,0:0:0:0:
192,128,624609,1,4,0:0:0:0:
192,256,624767,1,0,0:0:0:0:
192,256,624925,1,0,0:0:0:0:
192,256,625083,1,0,0:0:0:0:
192,256,625161,1,0,0:0:0:0:
192,128,625240,1,4,0:0:0:0:
192,256,625398,1,0,0:0:0:0:
320,256,625556,1,2,0:0:0:0:
192,256,625714,1,0,0:0:0:0:
192,256,625793,1,0,0:0:0:0:
192,128,625872,1,4,0:0:0:0:
192,256,626030,1,0,0:0:0:0:
320,256,626188,1,2,0:0:0:0:
192,256,626346,1,0,0:0:0:0:
320,128,626504,1,6,0:0:0:0:
192,128,626819,1,4,0:0:0:0:
320,128,627135,1,6,0:0:0:0:
192,256,627214,1,0,0:0:0:0:
192,256,627293,1,0,0:0:0:0:
192,128,627767,1,4,0:0:0:0:
192,256,627925,1,0,0:0:0:0:
320,256,628083,1,2,0:0:0:0:
192,256,628240,1,0,0:0:0:0:
192,256,628319,1,0,0:0:0:0:
320,128,628398,1,6,0:0:0:0:
192,256,628556,1,0,0:0:0:0:
192,256,628714,1,0,0:0:0:0:
320,256,628872,1,2,0:0:0:0:
320,128,629030,1,6,0:0:0:0:
192,256,629109,1,0,0:0:0:0:
192,256,629188,1,0,0:0:0:0:
192,256,629346,1,0,0:0:0:0:
192,256,629504,1,0,0:0:0:0:
192,128,629661,1,4,0:0:0:0:
192,256,629740,1,0,0:0:0:0:
192,256,629819,1,0,0:0:0:0:
192,256,629898,1,0,0:0:0:0:
320,256,629977,1,2,0:0:0:0:
192,256,630135,1,0,0:0:0:0:
192,256,630214,1,0,0:0:0:0:
192,128,630293,1,4,0:0:0:0:
192,256,630451,1,0,0:0:0:0:
320,256,630609,1,2,0:0:0:0:
192,256,630767,1,0,0:0:0:0:
192,256,630846,1,0,0:0:0:0:
192,128,630925,1,4,0:0:0:0:
192,256,631083,1,0,0:0:0:0:
320,256,631240,1,2,0:0:0:0:
320,256,631398,1,2,0:0:0:0:
320,128,631556,1,6,0:0:0:0:
192,256,631714,1,0,0:0:0:0:
192,256,631872,1,0,0:0:0:0:
192,256,632030,1,0,0:0:0:0:
320,128,632188,1,6,0:0:0:0:
192,256,632346,1,0,0:0:0:0:
192,256,632504,1,0,0:0:0:0:
192,256,632583,1,0,0:0:0:0:
192,256,632661,1,0,0:0:0:0:
192,128,632819,1,4,0:0:0:0:
192,256,632977,1,0,0:0:0:0:
320,256,633135,1,2,0:0:0:0:
192,256,633293,1,0,0:0:0:0:
192,256,633372,1,0,0:0:0:0:
320,128,633451,1,6,0:0:0:0:
192,256,633609,1,0,0:0:0:0:
192,256,633767,1,0,0:0:0:0:
192,256,633925,1,0,0:0:0:0:
320,128,634083,1,6,0:0:0:0:
192,256,634240,1,0,0:0:0:0:
192,256,634398,1,0,0:0:0:0:
192,256,634556,1,0,0:0:0:0:
192,128,634714,1,4,0:0:0:0:
192,256,634872,1,0,0:0:0:0:
192,256,635030,1,0,0:0:0:0:
192,256,635188,1,0,0:0:0:0:
192,256,635267,1,0,0:0:0:0:
192,128,635346,1,4,0:0:0:0:
192,256,635504,1,0,0:0:0:0:
320,256,635661,1,2,0:0:0:0:
192,256,635819,1,0,0:0:0:0:
192,256,635898,1,0,0:0:0:0:
192,128,635977,1,4,0:0:0:0:
192,256,636135,1,0,0:0:0:0:
320,256,636293,1,2,0:0:0:0:
192,256,636451,1,0,0:0:0:0:
320,128,636609,1,6,0:0:0:0:
192,128,636925,1,4,0:0:0:0:
320,128,637240,1,6,0:0:0:0:
320,256,637319,1,2,0:0:0:0:
320,256,637398,1,2,0:0:0:0:
192,256,637556,1,0,0:0:0:0:
192,256,637714,1,0,0:0:0:0:
320,256,637872,1,2,0:0:0:0:
192,256,638504,1,0,0:0:0:0:
192,256,638661,1,0,0:0:0:0:
320,256,638819,1,2,0:0:0:0:
192,256,639135,1,0,0:0:0:0:
192,256,639925,1,0,0:0:0:0:
320,256,640083,1,2,0:0:0:0:
320,256,640240,1,2,0:0:0:0:
320,256,640398,1,2,0:0:0:0:
192,256,640714,1,0,0:0:0:0:
320,256,641030,1,2,0:0:0:0:
192,256,641346,1,0,0:0:0:0:
192,256,641661,1,0,0:0:0:0:
320,256,641740,1,2,0:0:0:0:
192,256,641819,1,0,0:0:0:0:
192,256,641977,1,0,0:0:0:0:
192,256,642293,1,0,0:0:0:0:
192,256,642451,1,0,0:0:0:0:
192,256,642530,1,0,0:0:0:0:
192,256,642609,1,0,0:0:0:0:
192,256,642767,1,0,0:0:0:0:
320,256,642925,1,2,0:0:0:0:
192,256,643556,1,0,0:0:0:0:
192,256,643714,1,0,0:0:0:0:
320,256,643872,1,2,0:0:0:0:
320,256,644188,1,2,0:0:0:0:
192,256,644267,1,0,0:0:0:0:
192,256,644346,1,0,0:0:0:0:
192,256,644819,1,0,0:0:0:0:
192,256,644898,1,0,0:0:0:0:
192,256,644977,1,0,0:0:0:0:
192,256,645451,1,0,0:0:0:0:
192,256,645609,1,0,0:0:0:0:
320,256,645767,1,2,0:0:0:0:
320,256,645925,1,2,0:0:0:0:
320,256,646083,1,2,0:0:0:0:
192,256,646240,1,0,0:0:0:0:
192,256,646398,1,0,0:0:0:0:
320,256,646556,1,2,0:0:0:0:
192,256,646714,1,0,0:0:0:0:
320,256,646872,1,2,0:0:0:0:
320,256,647030,1,2,0:0:0:0:
320,256,647188,1,2,0:0:0:0:
320,256,647346,1,2,0:0:0:0:
320,256,647977,1,2,0:0:0:0:
192,256,648056,1,0,0:0:0:0:
320,256,648135,1,2,0:0:0:0:
192,256,648609,1,0,0:0:0:0:
192,256,648767,1,0,0:0:0:0:
320,256,648925,1,2,0:0:0:0:
192,256,649240,1,0,0:0:0:0:
192,256,649319,1,0,0:0:0:0:
320,256,649398,1,2,0:0:0:0:
192,256,649872,1,0,0:0:0:0:
192,256,649951,1,0,0:0:0:0:
192,256,650030,1,0,0:0:0:0:
320,256,650188,1,2,0:0:0:0:
320,256,650346,1,2,0:0:0:0:
320,256,650504,1,2,0:0:0:0:
192,256,650583,1,0,0:0:0:0:
320,256,650661,1,2,0:0:0:0:
192,256,650819,1,0,0:0:0:0:
320,256,651135,1,2,0:0:0:0:
192,256,651451,1,0,0:0:0:0:
192,256,651767,1,0,0:0:0:0:
320,256,651846,1,2,0:0:0:0:
192,256,651925,1,0,0:0:0:0:
192,256,652083,1,0,0:0:0:0:
192,256,652398,1,0,0:0:0:0:
192,256,652556,1,0,0:0:0:0:
192,256,652635,1,0,0:0:0:0:
192,256,652714,1,0,0:0:0:0:
192,256,652872,1,0,0:0:0:0:
320,256,653030,1,2,0:0:0:0:
192,256,653109,1,0,0:0:0:0:
320,256,653188,1,2,0:0:0:0:
192,256,653661,1,0,0:0:0:0:
192,256,653819,1,0,0:0:0:0:
320,256,653977,1,2,0:0:0:0:
320,256,654293,1,2,0:0:0:0:
192,256,654372,1,0,0:0:0:0:
320,256,654451,1,2,0:0:0:0:
192,256,654925,1,0,0:0:0:0:
192,256,655004,1,0,0:0:0:0:
320,256,655083,1,2,0:0:0:0:
192,256,655556,1,0,0:0:0:0:
192,256,655714,1,0,0:0:0:0:
320,256,655872,1,2,0:0:0:0:
320,256,656030,1,2,0:0:0:0:
320,256,656188,1,2,0:0:0:0:
192,256,656346,1,0,0:0:0:0:
192,256,656504,1,0,0:0:0:0:
320,256,656661,1,2,0:0:0:0:
192,256,656819,1,0,0:0:0:0:
320,256,656977,1,2,0:0:0:0:
320,256,657135,1,2,0:0:0:0:
320,256,657293,1,2,0:0:0:0:
192,256,657451,1,0,0:0:0:0:
320,256,657609,1,2,0:0:0:0:
192,256,657767,1,0,0:0:0:0:
320,256,657925,1,2,0:0:0:0:
320,256,658083,1,2,0:0:0:0:
192,256,658161,1,0,0:0:0:0:
192,256,658240,1,0,0:0:0:0:
192,256,658319,1,0,0:0:0:0:
320,256,658398,1,2,0:0:0:0:
192,256,658477,1,0,0:0:0:0:
192,256,658556,1,0,0:0:0:0:
192,256,658635,1,0,0:0:0:0:
320,256,658714,1,2,0:0:0:0:
192,256,658793,1,0,0:0:0:0:
192,256,658872,1,0,0:0:0:0:
320,256,658951,1,2,0:0:0:0:
192,256,659030,1,0,0:0:0:0:
192,256,659109,1,0,0:0:0:0:
320,256,659188,1,2,0:0:0:0:
192,256,659267,1,0,0:0:0:0:
320,256,659346,1,2,0:0:0:0:
192,256,659425,1,0,0:0:0:0:
192,256,659504,1,0,0:0:0:0:
192,256,659583,1,0,0:0:0:0:
320,256,659661,1,2,0:0:0:0:
192,256,659740,1,0,0:0:0:0:
192,256,659819,1,0,0:0:0:0:
192,256,659898,1,0,0:0:0:0:
320,256,659977,1,2,0:0:0:0:
192,256,660056,1,0,0:0:0:0:
192,256,660135,1,0,0:0:0:0:
320,256,660214,1,2,0:0:0:0:
192,256,660293,1,0,0:0:0:0:
192,256,660372,1,0,0:0:0:0:
320,256,660451,1,2,0:0:0:0:
192,256,660530,1,0,0:0:0:0:
320,256,660609,1,2,0:0:0:0:
192,256,660688,1,0,0:0:0:0:
192,256,660767,1,0,0:0:0:0:
192,256,660846,1,0,0:0:0:0:
320,256,660925,1,2,0:0:0:0:
192,256,661004,1,0,0:0:0:0:
192,256,661083,1,0,0:0:0:0:
192,256,661161,1,0,0:0:0:0:
320,256,661240,1,2,0:0:0:0:
192,256,661319,1,0,0:0:0:0:
192,256,661398,1,0,0:0:0:0:
320,256,661477,1,2,0:0:0:0:
192,256,661556,1,0,0:0:0:0:
192,256,661635,1,0,0:0:0:0:
320,256,661714,1,2,0:0:0:0:
192,256,661793,1,0,0:0:0:0:
320,256,661872,1,2,0:0:0:0:
192,256,661951,1,0,0:0:0:0:
192,256,662030,1,0,0:0:0:0:
192,256,662109,1,0,0:0:0:0:
192,256,662188,1,0,0:0:0:0:
320,256,662267,1,2,0:0:0:0:
320,256,662346,1,2,0:0:0:0:
320,256,662425,1,2,0:0:0:0:
320,256,662504,1,2,0:0:0:0:
192,256,662583,1,0,0:0:0:0:
192,256,662661,1,0,0:0:0:0:
320,256,662740,1,2,0:0:0:0:
320,256,662819,1,2,0:0:0:0:
320,256,662898,1,2,0:0:0:0:
192,256,662977,1,0,0:0:0:0:
192,256,663056,1,0,0:0:0:0:
320,256,663135,1,2,0:0:0:0:
192,256,663214,1,0,0:0:0:0:
192,256,663293,1,0,0:0:0:0:
192,256,663372,1,0,0:0:0:0:
320,256,663451,1,2,0:0:0:0:
192,256,663530,1,0,0:0:0:0:
192,256,663609,1,0,0:0:0:0:
192,256,663688,1,0,0:0:0:0:
320,256,663767,1,2,0:0:0:0:
192,256,663846,1,0,0:0:0:0:
192,256,663925,1,0,0:0:0:0:
320,256,664004,1,2,0:0:0:0:
192,256,664083,1,0,0:0:0:0:
192,256,664161,1,0,0:0:0:0:
320,256,664240,1,2,0:0:0:0:
192,256,664319,1,0,0:0:0:0:
320,256,664398,1,2,0:0:0:0:
192,256,664477,1,0,0:0:0:0:
192,256,664556,1,0,0:0:0:0:
192,256,664635,1,0,0:0:0:0:
320,256,664714,1,2,0:0:0:0:
192,256,664793,1,0,0:0:0:0:
192,256,664872,1,0,0:0:0:0:
192,256,664951,1,0,0:0:0:0:
320,256,665030,1,2,0:0:0:0:
192,256,665109,1,0,0:0:0:0:
192,256,665188,1,0,0:0:0:0:
320,256,665267,1,2,0:0:0:0:
192,256,665346,1,0,0:0:0:0:
192,256,665425,1,0,0:0:0:0:
320,256,665504,1,2,0:0:0:0:
192,256,665583,1,0,0:0:0:0:
320,256,665661,1,2,0:0:0:0:
192,256,665740,1,0,0:0:0:0:
320,256,665819,1,2,0:0:0:0:
320,256,665898,1,2,0:0:0:0:
320,256,665977,1,2,0:0:0:0:
320,256,666056,1,2,0:0:0:0:
320,256,666135,1,2,0:0:0:0:
320,256,666214,1,2,0:0:0:0:
320,256,666293,1,2,0:0:0:0:
192,256,666372,1,0,0:0:0:0:
192,256,666451,1,0,0:0:0:0:
192,256,666530,1,0,0:0:0:0:
192,256,666609,1,0,0:0:0:0:
320,256,666688,1,2,0:0:0:0:
320,256,666767,1,2,0:0:0:0:
192,256,666846,1,0,0:0:0:0:
320,256,666925,1,2,0:0:0:0:
192,256,667004,1,0,0:0:0:0:
192,256,667083,1,0,0:0:0:0:
320,256,667161,1,2,0:0:0:0:
192,256,667240,1,0,0:0:0:0:
192,256,667319,1,0,0:0:0:0:
320,256,667398,1,2,0:0:0:0:
192,256,667477,1,0,0:0:0:0:
320,256,667556,1,2,0:0:0:0:
192,256,667635,1,0,0:0:0:0:
192,256,667714,1,0,0:0:0:0:
192,256,667793,1,0,0:0:0:0:
320,256,667872,1,2,0:0:0:0:
320,256,667951,1,2,0:0:0:0:
192,256,668030,1,0,0:0:0:0:
192,256,668109,1,0,0:0:0:0:
320,256,668188,1,2,0:0:0:0:
192,256,668267,1,0,0:0:0:0:
192,256,668346,1,0,0:0:0:0:
192,256,668425,1,0,0:0:0:0:
320,256,668504,1,2,0:0:0:0:
192,256,668583,1,0,0:0:0:0:
192,256,668661,1,0,0:0:0:0:
192,256,668740,1,0,0:0:0:0:
320,256,668819,1,2,0:0:0:0:
192,256,668898,1,0,0:0:0:0:
192,256,668977,1,0,0:0:0:0:
320,256,669056,1,2,0:0:0:0:
192,256,669135,1,0,0:0:0:0:
192,256,669214,1,0,0:0:0:0:
320,256,669293,1,2,0:0:0:0:
192,256,669372,1,0,0:0:0:0:
320,256,669451,1,2,0:0:0:0:
192,256,669530,1,0,0:0:0:0:
192,256,669609,1,0,0:0:0:0:
192,256,669688,1,0,0:0:0:0:
320,256,669767,1,2,0:0:0:0:
192,256,669846,1,0,0:0:0:0:
192,256,669925,1,0,0:0:0:0:
192,256,670004,1,0,0:0:0:0:
320,256,670083,1,2,0:0:0:0:
192,256,670161,1,0,0:0:0:0:
192,256,670240,1,0,0:0:0:0:
320,256,670319,1,2,0:0:0:0:
192,256,670398,1,0,0:0:0:0:
192,256,670477,1,0,0:0:0:0:
320,256,670556,1,2,0:0:0:0:
192,256,670635,1,0,0:0:0:0:
320,256,670714,1,2,0:0:0:0:
192,256,670793,1,0,0:0:0:0:
192,256,670872,1,0,0:0:0:0:
192,256,670951,1,0,0:0:0:0:
320,256,671030,1,2,0:0:0:0:
192,256,671109,1,0,0:0:0:0:
192,256,671188,1,0,0:0:0:0:
192,256,671267,1,0,0:0:0:0:
320,256,671346,1,2,0:0:0:0:
192,256,671425,1,0,0:0:0:0:
192,256,671504,1,0,0:0:0:0:
320,256,671583,1,2,0:0:0:0:
192,256,671661,1,0,0:0:0:0:
192,256,671740,1,0,0:0:0:0:
320,256,671819,1,2,0:0:0:0:
192,256,671898,1,0,0:0:0:0:
320,256,671977,1,2,0:0:0:0:
192,256,672056,1,0,0:0:0:0:
192,256,672135,1,0,0:0:0:0:
192,256,672214,1,0,0:0:0:0:
192,256,672293,1,0,0:0:0:0:
320,256,672372,1,2,0:0:0:0:
320,256,672451,1,2,0:0:0:0:
320,256,672530,1,2,0:0:0:0:
320,256,672609,1,2,0:0:0:0:
192,256,672688,1,0,0:0:0:0:
192,256,672767,1,0,0:0:0:0:
320,256,672846,1,2,0:0:0:0:
320,256,672925,1,2,0:0:0:0:
320,256,673004,1,2,0:0:0:0:
192,256,673083,1,0,0:0:0:0:
192,256,673161,1,0,0:0:0:0:
320,256,673240,1,2,0:0:0:0:
192,256,673319,1,0,0:0:0:0:
192,256,673398,1,0,0:0:0:0:
192,256,673477,1,0,0:0:0:0:
320,256,673556,1,2,0:0:0:0:
192,256,673635,1,0,0:0:0:0:
192,256,673714,1,0,0:0:0:0:
192,256,673793,1,0,0:0:0:0:
320,256,673872,1,2,0:0:0:0:
192,256,673951,1,0,0:0:0:0:
192,256,674030,1,0,0:0:0:0:
320,256,674109,1,2,0:0:0:0:
192,256,674188,1,0,0:0:0:0:
192,256,674267,1,0,0:0:0:0:
320,256,674346,1,2,0:0:0:0:
192,256,674425,1,0,0:0:0:0:
320,256,674504,1,2,0:0:0:0:
192,256,674583,1,0,0:0:0:0:
192,256,674661,1,0,0:0:0:0:
192,256,674740,1,0,0:0:0:0:
320,256,674819,1,2,0:0:0:0:
192,256,674898,1,0,0:0:0:0:
192,256,674977,1,0,0:0:0:0:
192,256,675056,1,0,0:0:0:0:
320,256,675135,1,2,0:0:0:0:
192,256,675214,1,0,0:0:0:0:
192,256,675293,1,0,0:0:0:0:
320,256,675372,1,2,0:0:0:0:
192,256,675451,1,0,0:0:0:0:
192,256,675530,1,0,0:0:0:0:
320,256,675609,1,2,0:0:0:0:
192,256,675688,1,0,0:0:0:0:
320,256,675767,1,2,0:0:0:0:
192,256,675846,1,0,0:0:0:0:
320,256,675925,1,2,0:0:0:0:
192,256,676004,1,0,0:0:0:0:
192,256,676083,1,0,0:0:0:0:
192,256,676161,1,0,0:0:0:0:
192,256,676240,1,0,0:0:0:0:
192,256,676319,1,0,0:0:0:0:
192,256,676398,1,0,0:0:0:0:
192,256,676477,1,0,0:0:0:0:
192,256,676556,1,0,0:0:0:0:
192,256,676635,1,0,0:0:0:0:
192,256,676714,1,0,0:0:0:0:
320,256,676793,1,2,0:0:0:0:
320,256,676872,1,2,0:0:0:0:
192,256,676951,1,0,0:0:0:0:
320,256,677030,1,2,0:0:0:0:
192,256,677109,1,0,0:0:0:0:
192,256,677188,1,0,0:0:0:0:
320,256,677267,1,2,0:0:0:0:
192,256,677346,1,0,0:0:0:0:
192,256,677425,1,0,0:0:0:0:
320,256,677504,1,2,0:0:0:0:
192,256,677583,1,0,0:0:0:0:
320,256,677661,1,2,0:0:0:0:
192,256,677740,1,0,0:0:0:0:
192,256,677819,1,0,0:0:0:0:
192,256,677898,1,0,0:0:0:0:
320,256,677977,1,2,0:0:0:0:
320,256,678056,1,2,0:0:0:0:
192,256,678135,1,0,0:0:0:0:
192,256,678214,1,0,0:0:0:0:
192,256,678293,1,0,0:0:0:0:
192,256,678372,1,0,0:0:0:0:
192,256,678451,1,0,0:0:0:0:
192,256,678530,1,0,0:0:0:0:
320,256,678609,1,2,0:0:0:0:
320,256,678688,1,2,0:0:0:0:
320,256,678767,1,2,0:0:0:0:
320,256,678846,1,2,0:0:0:0:
192,256,678925,1,0,0:0:0:0:
192,256,679004,1,0,0:0:0:0:
192,256,679083,1,0,0:0:0:0:
192,256,679161,1,0,0:0:0:0:
320,256,679240,1,2,0:0:0:0:
320,256,679319,1,2,0:0:0:0:
320,256,679398,1,2,0:0:0:0:
320,256,679477,1,2,0:0:0:0:
192,256,679556,1,0,0:0:0:0:
192,256,679635,1,0,0:0:0:0:
192,256,679714,1,0,0:0:0:0:
192,256,679793,1,0,0:0:0:0:
320,256,679872,1,2,0:0:0:0:
320,256,679951,1,2,0:0:0:0:
320,256,680030,1,2,0:0:0:0:
320,256,680109,1,2,0:0:0:0:
192,256,680188,1,0,0:0:0:0:
192,256,680267,1,0,0:0:0:0:
192,256,680346,1,0,0:0:0:0:
192,256,680425,1,0,0:0:0:0:
320,256,680504,1,2,0:0:0:0:
320,256,680583,1,2,0:0:0:0:
320,256,680661,1,2,0:0:0:0:
320,256,680740,1,2,0:0:0:0:
192,256,680819,1,0,0:0:0:0:
192,256,680898,1,0,0:0:0:0:
192,256,680977,1,0,0:0:0:0:
192,256,681056,1,0,0:0:0:0:
320,256,681135,1,2,0:0:0:0:
320,256,681214,1,2,0:0:0:0:
320,256,681293,1,2,0:0:0:0:
320,256,681372,1,2,0:0:0:0:
192,256,681451,1,0,0:0:0:0:
192,256,681530,1,0,0:0:0:0:
192,256,681609,1,0,0:0:0:0:
192,256,681688,1,0,0:0:0:0:
320,256,681767,1,2,0:0:0:0:
320,256,681846,1,2,0:0:0:0:
320,256,681925,1,2,0:0:0:0:
320,256,682004,1,2,0:0:0:0:
192,256,682083,1,0,0:0:0:0:
192,256,682161,1,0,0:0:0:0:
192,256,682240,1,0,0:0:0:0:
192,256,682319,1,0,0:0:0:0:
320,256,682398,1,2,0:0:0:0:
320,256,682477,1,2,0:0:0:0:
320,256,682556,1,2,0:0:0:0:
320,256,682635,1,2,0:0:0:0:
192,256,682714,1,0,0:0:0:0:
192,256,682793,1,0,0:0:0:0:
192,256,682872,1,0,0:0:0:0:
192,256,682951,1,0,0:0:0:0:
320,256,683030,1,2,0:0:0:0:
320,256,683109,1,2,0:0:0:0:
320,256,683188,1,2,0:0:0:0:
320,256,683267,1,2,0:0:0:0:
192,256,683346,1,0,0:0:0:0:
192,256,683425,1,0,0:0:0:0:
192,256,683504,1,0,0:0:0:0:
192,256,683583,1,0,0:0:0:0:
320,256,683661,1,2,0:0:0:0:
320,256,683740,1,2,0:0:0:0:
320,256,683819,1,2,0:0:0:0:
320,256,683898,1,2,0:0:0:0:
192,256,683977,1,0,0:0:0:0:
192,256,684056,1,0,0:0:0:0:
192,256,684135,1,0,0:0:0:0:
192,256,684214,1,0,0:0:0:0:
320,256,684293,1,2,0:0:0:0:
320,256,684372,1,2,0:0:0:0:
320,256,684451,1,2,0:0:0:0:
320,256,684530,1,2,0:0:0:0:
192,256,684609,1,0,0:0:0:0:
192,256,684688,1,0,0:0:0:0:
192,256,684767,1,0,0:0:0:0:
192,256,684846,1,0,0:0:0:0:
320,256,684925,1,2,0:0:0:0:
320,256,685004,1,2,0:0:0:0:
320,256,685083,1,2,0:0:0:0:
320,256,685161,1,2,0:0:0:0:
192,256,685240,1,0,0:0:0:0:
192,256,685319,1,0,0:0:0:0:
192,256,685398,1,0,0:0:0:0:
192,256,685477,1,0,0:0:0:0:
320,256,685556,1,2,0:0:0:0:
320,256,685635,1,2,0:0:0:0:
320,256,685714,1,2,0:0:0:0:
320,256,685793,1,2,0:0:0:0:
192,256,685872,1,0,0:0:0:0:
192,256,685951,1,0,0:0:0:0:
192,256,686030,1,0,0:0:0:0:
192,256,686109,1,0,0:0:0:0:
320,256,686188,1,2,0:0:0:0:
320,256,686267,1,2,0:0:0:0:
320,256,686346,1,2,0:0:0:0:
320,256,686425,1,2,0:0:0:0:
192,256,686504,1,0,0:0:0:0:
192,256,686583,1,0,0:0:0:0:
192,256,686661,1,0,0:0:0:0:
192,256,686740,1,0,0:0:0:0:
320,256,686819,1,2,0:0:0:0:
320,256,686898,1,2,0:0:0:0:
320,256,686977,1,2,0:0:0:0:
320,256,687056,1,2,0:0:0:0:
192,256,687135,1,0,0:0:0:0:
192,256,687214,1,0,0:0:0:0:
192,256,687293,1,0,0:0:0:0:
192,256,687372,1,0,0:0:0:0:
320,256,687451,1,2,0:0:0:0:
320,256,687530,1,2,0:0:0:0:
320,256,687609,1,2,0:0:0:0:
320,256,687688,1,2,0:0:0:0:
192,256,687767,1,0,0:0:0:0:
192,256,687846,1,0,0:0:0:0:
192,256,687925,1,0,0:0:0:0:
192,256,688004,1,0,0:0:0:0:
320,256,688083,1,2,0:0:0:0:
320,256,688161,1,2,0:0:0:0:
320,256,688240,1,2,0:0:0:0:
320,256,688319,1,2,0:0:0:0:
192,128,688398,1,4,0:0:0:0:
192,256,688556,1,0,0:0:0:0:
320,256,688714,1,2,0:0:0:0:
320,256,688872,1,2,0:0:0:0:
192,256,689030,1,0,0:0:0:0:
192,256,689188,1,0,0:0:0:0:
320,256,689346,1,2,0:0:0:0:
320,256,689504,1,2,0:0:0:0:
192,256,689661,1,0,0:0:0:0:
192,256,689819,1,0,0:0:0:0:
320,256,689977,1,2,0:0:0:0:
320,256,690135,1,2,0:0:0:0:
192,256,690293,1,0,0:0:0:0:
192,256,690451,1,0,0:0:0:0:
320,256,690609,1,2,0:0:0:0:
320,256,690767,1,2,0:0:0:0:
192,256,690925,1,0,0:0:0:0:
192,256,691083,1,0,0:0:0:0:
192,256,691240,1,0,0:0:0:0:
320,256,691398,1,2,0:0:0:0:
192,256,691556,1,0,0:0:0:0:
192,256,691714,1,0,0:0:0:0:
192,256,691872,1,0,0:0:0:0:
320,256,692030,1,2,0:0:0:0:
192,256,692188,1,0,0:0:0:0:
192,256,692346,1,0,0:0:0:0:
192,256,692504,1,0,0:0:0:0:
320,256,692661,1,2,0:0:0:0:
192,256,692819,1,0,0:0:0:0:
192,256,692977,1,0,0:0:0:0:
192,256,693135,1,0,0:0:0:0:
320,256,693293,1,2,0:0:0:0:
192,256,693451,1,0,0:0:0:0:
192,256,693609,1,0,0:0:0:0:
320,256,693767,1,2,0:0:0:0:
320,256,693925,1,2,0:0:0:0:
192,256,694083,1,0,0:0:0:0:
192,256,694240,1,0,0:0:0:0:
320,256,694398,1,2,0:0:0:0:
320,256,694556,1,2,0:0:0:0:
192,256,699056,5,0,0:0:0:0:
192,256,699601,1,0,0:0:0:0:
320,256,700146,1,2,0:0:0:0:
320,256,700692,1,2,0:0:0:0:
192,256,701510,1,0,0:0:0:0:
192,256,701783,1,0,0:0:0:0:
192,256,702192,1,0,0:0:0:0:
320,256,702601,1,2,0:0:0:0:
192,256,702874,1,0,0:0:0:0:
192,256,703692,1,0,0:0:0:0:
192,256,703965,1,0,0:0:0:0:
192,256,704374,1,0,0:0:0:0:
320,256,704783,1,2,0:0:0:0:
192,256,705056,1,0,0:0:0:0:
192,256,705874,1,0,0:0:0:0:
192,256,706146,1,0,0:0:0:0:
192,256,706556,1,0,0:0:0:0:
320,256,706965,1,2,0:0:0:0:
192,256,707237,1,0,0:0:0:0:
320,256,707783,1,2,0:0:0:0:
192,256,708328,1,0,0:0:0:0:
192,256,708874,1,0,0:0:0:0:
320,256,709283,1,2,0:0:0:0:
192,256,710237,1,0,0:0:0:0:
192,256,710374,1,0,0:0:0:0:
256,192,710510,12,2,717056,0:0:0:0:
